osu file format v14

[General]
AudioFilename: audio.mp3
AudioLeadIn: 0
PreviewTime: 74758
Countdown: 0
SampleSet: Soft
StackLeniency: 0.3
Mode: 0
LetterboxInBreaks: 0
WidescreenStoryboard: 0

[Editor]
Bookmarks: 226833
DistanceSpacing: 1
BeatDivisor: 4
GridSize: 32
TimelineZoom: 2.5

[Metadata]
Title:Into The Void
TitleUnicode:Into The Void
Artist:Kurokotei
ArtistUnicode:黒皇帝
Creator:Hazu-
Version:Insane
Source:osu!
Tags:electronic instrumental mappers' guild mg featured artist fa techno hardcore j-core
BeatmapID:2399861
BeatmapSetID:1112435

[Difficulty]
HPDrainRate:5
CircleSize:3.4
OverallDifficulty:7
ApproachRate:9
SliderMultiplier:1.8
SliderTickRate:1

[Events]
//Background and Video events
0,0,"Void.jpg",0,0
//Break Periods
2,117708,127574
//Storyboard Layer 0 (Background)
//Storyboard Layer 1 (Fail)
//Storyboard Layer 2 (Pass)
//Storyboard Layer 3 (Foreground)
//Storyboard Layer 4 (Overlay)
//Storyboard Sound Samples

[TimingPoints]
175,333.333333333333,4,2,1,40,1,0
175,-200,4,2,1,40,0,0
10841,-200,4,2,1,50,0,0
11091,-200,4,2,1,5,0,0
11174,-133.333333333333,4,2,1,60,0,0
11841,-100,4,2,1,60,0,0
12091,-100,4,2,1,5,0,0
12174,-200,4,2,1,60,0,0
12424,-200,4,2,1,5,0,0
12508,-133.333333333333,4,2,1,60,0,0
13174,-100,4,2,1,60,0,0
13424,-100,4,2,1,5,0,0
13508,-200,4,2,1,63,0,0
16174,-166.666666666667,4,2,1,66,0,0
17508,-142.857142857143,4,2,1,70,0,0
18841,-125,4,2,1,73,0,0
20174,-111.111111111111,4,2,1,77,0,0
21508,-100,4,2,1,80,0,0
64174,-100,4,3,1,85,0,0
74508,-50,4,3,1,85,0,0
74758,-50,4,3,1,5,0,0
74841,-90.9090909090909,4,3,1,90,0,1
75841,-66.6666666666667,4,3,1,90,0,1
76091,-66.6666666666667,4,3,1,5,0,1
76174,-90.9090909090909,4,3,1,90,0,1
81174,-66.6666666666667,4,3,1,90,0,1
81424,-66.6666666666667,4,3,1,5,0,1
81508,-90.9090909090909,4,3,1,90,0,1
117174,-200,4,3,1,90,0,1
117424,-200,4,2,1,5,0,1
117508,-100,4,2,1,80,0,0
138508,-66.6666666666667,4,2,1,80,0,0
138758,-66.6666666666667,4,2,1,5,0,0
138841,-100,4,2,1,90,0,0
139008,-200,4,2,1,90,0,0
139424,-200,4,2,1,5,0,0
139508,-100,4,2,1,90,0,0
141674,-200,4,2,1,90,0,0
142091,-200,4,2,1,5,0,0
142174,-100,4,2,1,90,0,0
144424,-100,4,2,1,5,0,0
144508,-74.0740740740741,4,2,1,90,0,0
144758,-74.0740740740741,4,2,1,5,0,0
144841,-100,4,2,1,90,0,0
146424,-100,4,2,1,5,0,0
146508,-74.0740740740741,4,2,1,90,0,0
146758,-74.0740740740741,4,2,1,5,0,0
146841,-100,4,2,1,90,0,0
147091,-100,4,2,1,5,0,0
147174,-74.0740740740741,4,2,1,90,0,0
147424,-74.0740740740741,4,2,1,5,0,0
147508,-100,4,2,1,90,0,0
149091,-100,4,2,1,5,0,0
149174,-74.0740740740741,4,2,1,90,0,0
149424,-74.0740740740741,4,2,1,5,0,0
149508,-100,4,2,1,90,0,0
155091,-100,4,2,1,5,0,0
155174,-100,4,2,1,90,0,0
155424,-100,4,2,1,5,0,0
155508,-100,4,2,1,90,0,0
160091,-100,4,2,1,80,0,0
162841,-100,4,2,1,90,0,0
183508,-66.6666666666667,4,2,1,90,0,0
183841,-100,4,2,1,90,0,0
205508,-90.9090909090909,4,3,1,90,0,1
206508,-66.6666666666667,4,3,1,90,0,1
206758,-66.6666666666667,4,3,1,5,0,1
206841,-90.9090909090909,4,3,1,90,0,1
211841,-66.6666666666667,4,3,1,90,0,1
212091,-66.6666666666667,4,3,1,5,0,1
212174,-90.9090909090909,4,3,1,90,0,1
217174,-66.6666666666667,4,3,1,90,0,1
217424,-66.6666666666667,4,3,1,5,0,1
217508,-90.9090909090909,4,3,1,90,0,1
226841,-90.9090909090909,4,2,1,90,0,0

[Colours]
Combo1 : 128,121,255
Combo2 : 248,233,129
Combo3 : 54,174,233
Combo4 : 209,97,237
Combo5 : 255,72,72
Combo6 : 255,98,176
Combo7 : 114,241,190
Combo8 : 255,128,64

[HitObjects]
77,145,10841,6,0,P|113:138|146:130,1,67.5,10|0,0:1|0:0,0:0:0:0:
160,88,11174,2,0,B|260:69|245:178|353:147,1,202.500007724762,10|8,0:0|0:1,0:0:0:0:
430,83,11841,1,10,0:0:0:0:
491,274,12174,6,0,P|453:264|410:255,1,67.5,10|0,0:1|0:0,0:0:0:0:
398,224,12508,2,0,P|332:190|230:268,1,202.500007724762,10|8,0:0|0:1,0:0:0:0:
212,356,13174,1,10,0:0:0:0:
86,188,13508,6,0,L|124:196,2,22.5,10|0|0,0:1|0:0|0:0,0:0:0:0:
158,113,13841,2,0,L|179:145,2,22.5,10|0|0,0:0|0:0|0:0,0:0:0:0:
265,101,14174,2,0,L|257:139,2,22.5,2|0|8,0:0|0:0|0:1,0:0:0:0:
365,172,14508,2,0,P|342:179|323:186,1,45,10|0,0:0|0:0,0:0:0:0:
207,228,14841,6,0,P|230:235|249:242,1,45,10|0,0:1|0:0,0:0:0:0:
319,363,15174,2,0,P|329:323|343:272,1,90,10|2,0:0|0:0,0:0:0:0:
422,228,15674,1,8,0:1:0:0:
473,303,15841,2,0,L|476:325,2,22.5,10|0|0,0:0|0:0|0:0,0:0:0:0:
452,145,16174,6,0,P|423:138|384:149,1,53.9999983520508,10|0,0:1|0:0,0:0:0:0:
332,86,16508,2,0,P|306:101|286:136,1,53.9999983520508,10|0,0:0|0:0,0:0:0:0:
205,120,16841,2,0,P|198:149|209:188,1,53.9999983520508,2|8,0:0|0:1,0:0:0:0:
146,240,17175,2,0,P|161:265|196:285,1,53.9999983520508,10|0,0:0|0:0,0:0:0:0:
284,329,17508,6,0,P|277:296|269:259,1,62.9999980773926,10|2,0:1|0:0,0:0:0:0:
373,215,17841,2,0,P|366:245|359:276,1,62.9999980773926,10|2,0:0|0:0,0:0:0:0:
292,176,18174,2,0,P|285:143|277:106,1,62.9999980773926,2|10,0:0|0:1,0:0:0:0:
381,62,18507,2,0,P|374:92|367:123,1,62.9999980773926,10|2,0:0|0:0,0:0:0:0:
276,28,18841,5,10,0:1:0:0:
276,28,19008,1,2,0:0:0:0:
197,89,19174,2,0,P|163:79|116:69,1,72,10|2,0:0|0:0,0:0:0:0:
1,133,19508,1,2,0:0:0:0:
1,133,19675,1,10,0:1:0:0:
80,194,19841,2,0,P|114:184|161:174,1,72,10|2,0:0|0:0,0:0:0:0:
290,229,20174,5,10,0:1:0:0:
352,159,20341,1,2,0:0:0:0:
277,254,20508,1,10,0:0:0:0:
266,119,20674,1,2,0:0:0:0:
384,243,20841,1,2,0:0:0:0:
248,105,21008,1,10,0:1:0:0:
238,312,21174,1,10,0:0:0:0:
369,153,21341,1,2,0:0:0:0:
115,174,21508,6,0,P|162:184|307:215,1,180,14|2,0:1|0:0,0:0:0:0:
449,290,22008,1,2,0:0:0:0:
449,290,22091,1,0,0:0:0:0:
449,290,22174,1,10,0:1:0:0:
389,359,22341,1,10,0:1:0:0:
301,322,22508,1,10,0:1:0:0:
213,177,22674,6,0,P|140:157|20:129,1,180,14|2,0:1|0:0,0:0:0:0:
38,132,23174,1,2,0:0:0:0:
191,45,23341,2,0,P|258:15|345:73,1,180,14|2,0:1|0:0,0:0:0:0:
416,190,23841,2,0,P|369:178|275:155,1,135,14|0,0:1|0:0,0:0:0:0:
248,179,24174,6,0,P|268:248|297:363,1,180,14|2,0:1|0:0,0:0:0:0:
100,236,24674,1,2,0:0:0:0:
100,236,24758,1,0,0:0:0:0:
100,236,24841,2,0,L|83:167,3,45,2|0|2|0,0:0|0:0|0:0|0:0,0:0:0:0:
152,124,25174,5,2,0:0:0:0:
152,124,25258,1,0,0:0:0:0:
152,124,25341,2,0,P|222:141|348:170,1,180,14|2,0:1|0:0,0:0:0:0:
327,165,25841,1,2,0:0:0:0:
451,280,26008,2,0,P|479:213|413:117,1,180,14|2,0:1|0:0,0:0:0:0:
305,18,26508,2,0,P|318:77|339:160,1,135,14|0,0:1|0:0,0:0:0:0:
305,181,26841,6,0,B|215:165|235:251|135:229,1,180,14|2,0:1|0:0,0:0:0:0:
167,59,27341,1,2,0:0:0:0:
167,59,27424,1,0,0:0:0:0:
167,59,27508,2,0,P|198:54|231:63,3,45,2|0|2|0,0:0|0:0|0:0|0:0,0:0:0:0:
293,119,27841,5,2,0:0:0:0:
293,119,27924,1,0,0:0:0:0:
293,119,28008,2,0,P|278:179|251:306,1,180,14|2,0:1|0:0,0:0:0:0:
253,294,28508,1,2,0:0:0:0:
96,347,28674,2,0,P|67:266|140:189,1,180,14|2,0:1|0:0,0:0:0:0:
271,171,29174,2,0,P|337:190|411:211,1,135,14|0,0:1|0:0,0:0:0:0:
435,245,29508,6,0,P|412:164|381:55,1,180,14|2,0:1|0:0,0:0:0:0:
260,18,30008,1,2,0:0:0:0:
260,18,30091,1,0,0:0:0:0:
260,18,30174,2,0,L|254:58,6,30,2|2|2|2|2|2|2,0:0|0:0|0:0|0:0|0:0|0:0|0:0,0:0:0:0:
123,53,30674,6,0,P|73:107|110:224,1,180,14|0,0:1|0:0,0:0:0:0:
89,205,31174,1,2,0:0:0:0:
289,248,31341,2,0,P|267:177|147:151,1,180,14|2,0:1|0:0,0:0:0:0:
83,301,31841,2,0,P|123:306|194:231,1,135,14|0,0:1|0:0,0:0:0:0:
168,231,32174,6,0,P|148:301|218:376,1,180,14|2,0:1|0:0,0:0:0:0:
405,348,32674,1,2,0:0:0:0:
405,348,32758,1,0,0:0:0:0:
405,348,32841,1,10,0:1:0:0:
337,266,33008,1,10,0:1:0:0:
302,363,33174,1,10,0:1:0:0:
442,261,33341,6,0,B|467:212|467:212|439:71,1,180,14|2,0:1|0:0,0:0:0:0:
442,89,33841,1,2,0:0:0:0:
265,34,34008,2,0,B|240:83|240:83|268:224,1,180,14|2,0:1|0:0,0:0:0:0:
474,133,34508,2,0,P|419:97|339:126,1,135,14|0,0:1|0:0,0:0:0:0:
340,144,34841,6,0,P|359:240|381:344,1,180,14|2,0:1|0:0,0:0:0:0:
188,271,35341,1,2,0:0:0:0:
188,271,35424,1,0,0:0:0:0:
188,271,35508,2,0,L|178:325,3,45,2|0|2|0,0:0|0:0|0:0|0:0,0:0:0:0:
98,351,35841,5,2,0:0:0:0:
98,351,35924,1,0,0:0:0:0:
98,351,36008,2,0,P|51:277|98:173,1,180,14|0,0:1|0:0,0:0:0:0:
75,193,36508,1,2,0:0:0:0:
263,85,36674,2,0,P|243:164|218:273,1,180,14|2,0:1|0:0,0:0:0:0:
74,319,37174,2,0,B|52:279|52:279|80:173,1,135,14|0,0:1|0:0,0:0:0:0:
100,175,37508,6,0,P|182:143|268:205,1,180,14|2,0:1|0:0,0:0:0:0:
469,296,38008,1,2,0:0:0:0:
469,296,38091,1,0,0:0:0:0:
469,296,38174,2,0,P|471:265|456:228,3,45,2|0|2|0,0:0|0:0|0:0|0:0,0:0:0:0:
396,194,38508,5,2,0:0:0:0:
396,194,38591,1,0,0:0:0:0:
396,194,38674,2,0,B|300:177|330:270|221:246,1,180,14|2,0:1|0:0,0:0:0:0:
234,248,39174,1,2,0:0:0:0:
82,127,39341,2,0,P|178:96|250:165,1,180,14|2,0:1|0:0,0:0:0:0:
306,308,39841,2,0,P|321:240|339:162,1,135,14|0,0:1|0:0,0:0:0:0:
350,130,40174,6,0,P|365:226|383:324,1,180,14|2,0:1|0:0,0:0:0:0:
467,131,40674,1,2,0:0:0:0:
467,131,40758,1,0,0:0:0:0:
467,131,40841,2,0,L|481:78,6,30,2|2|2|2|2|2|2,0:0|0:0|0:0|0:0|0:0|0:0|0:0,0:0:0:0:
367,198,41341,6,0,P|253:176|166:160,1,180,14|0,0:1|0:0,0:0:0:0:
190,164,41841,1,2,0:0:0:0:
15,128,42008,2,0,P|83:61|167:90,1,180,14|2,0:1|0:0,0:0:0:0:
243,239,42508,1,14,0:1:0:0:
310,141,42674,1,2,0:0:0:0:
379,313,42841,6,0,P|267:293|82:262,1,270,14|2,0:1|0:0,0:0:0:0:
229,104,43508,1,10,0:1:0:0:
152,171,43674,1,10,0:1:0:0:
132,78,43841,1,10,0:1:0:0:
253,201,44008,6,0,B|377:173|363:345|509:299,1,270,14|2,0:1|0:0,0:0:0:0:
476,131,44674,2,0,P|433:181|518:168,1,180,14|2,0:1|0:0,0:0:0:0:
415,55,45174,2,0,P|361:67|250:86,1,135,14|0,0:1|0:0,0:0:0:0:
254,106,45508,5,14,0:1:0:0:
91,23,45674,2,0,P|128:130|177:291,1,270,2|2,0:0|0:0,0:0:0:0:
274,367,46341,2,0,P|284:310|312:223,1,135,2|0,0:0|0:0,0:0:0:0:
345,220,46674,6,0,P|377:140|247:171,1,270,14|2,0:1|0:0,0:0:0:0:
109,267,47341,2,0,B|231:242|231:242|276:276,1,180,14|2,0:1|0:0,0:0:0:0:
404,354,47841,2,0,P|433:286|397:215,1,135,14|0,0:1|0:0,0:0:0:0:
383,198,48174,6,0,B|320:124|191:131|138:184|138:184|187:167|242:189,1,360,14|2,0:1|0:0,0:0:0:0:
310,270,49008,1,2,0:0:0:0:
466,60,49341,6,0,P|392:76|267:98,1,180,14|2,0:1|0:0,0:0:0:0:
114,169,49841,1,2,0:0:0:0:
114,169,49924,1,0,0:0:0:0:
114,169,50008,2,0,P|202:184|290:203,1,180,14|2,0:1|0:0,0:0:0:0:
453,258,50508,2,0,P|469:200|409:126,1,135,14|0,0:1|0:0,0:0:0:0:
389,112,50841,6,0,P|410:211|446:383,1,270,14|2,0:1|0:0,0:0:0:0:
254,265,51508,2,0,L|308:277,6,30,2|2|2|2|2|2|2,0:0|0:0|0:0|0:0|0:0|0:0|0:0,0:0:0:0:
193,353,52008,5,14,0:1:0:0:
193,353,52174,2,0,P|142:282|195:183,1,180,2|2,0:1|0:0,0:0:0:0:
329,105,52674,2,0,P|313:159|278:291,1,180,14|2,0:1|0:0,0:0:0:0:
124,101,53174,2,0,B|236:95|236:95|221:145,1,135,14|0,0:1|0:0,0:0:0:0:
219,157,53508,6,0,P|203:211|168:343,1,180,14|2,0:1|0:0,0:0:0:0:
60,180,54008,1,2,0:0:0:0:
60,180,54091,1,0,0:0:0:0:
60,180,54174,1,10,0:1:0:0:
12,98,54341,1,10,0:1:0:0:
69,33,54508,1,10,0:1:0:0:
196,120,54674,6,0,P|216:208|243:328,1,180,14|2,0:1|0:0,0:0:0:0:
235,295,55174,1,2,0:0:0:0:
47,196,55341,2,0,P|57:156|73:91,1,90,14|2,0:1|0:0,0:0:0:0:
122,260,55674,2,0,P|133:303|144:347,1,90,2|14,0:0|0:1,0:0:0:0:
25,312,56008,1,2,0:0:0:0:
248,166,56174,6,0,P|258:209|298:371,1,180,14|2,0:1|0:0,0:0:0:0:
125,237,56674,1,2,0:0:0:0:
125,237,56758,1,0,0:0:0:0:
125,237,56841,2,0,L|141:302,3,45,2|0|2|0,0:0|0:0|0:0|0:0,0:0:0:0:
217,340,57174,5,2,0:0:0:0:
217,340,57258,1,0,0:0:0:0:
217,340,57341,2,0,P|262:350|317:364,1,90,14|2,0:1|0:0,0:0:0:0:
304,360,57674,1,2,0:0:0:0:
434,299,57841,1,2,0:0:0:0:
310,253,58008,1,14,0:1:0:0:
406,377,58174,1,2,0:0:0:0:
414,205,58341,1,2,0:0:0:0:
307,351,58508,1,14,0:1:0:0:
491,275,58674,1,2,0:0:0:0:
305,181,58841,6,0,B|215:165|235:251|135:229,1,180,14|2,0:1|0:0,0:0:0:0:
30,85,59341,1,2,0:0:0:0:
30,85,59424,1,0,0:0:0:0:
30,85,59508,2,0,P|35:107|41:140,3,45,2|0|2|0,0:0|0:0|0:0|0:0,0:0:0:0:
44,228,59841,5,2,0:0:0:0:
44,228,59924,1,0,0:0:0:0:
44,228,60008,2,0,P|95:196|210:244,1,180,14|2,0:1|0:0,0:0:0:0:
201,231,60508,1,2,0:0:0:0:
262,346,60674,2,0,P|202:331|152:319,1,90,14|2,0:1|0:0,0:0:0:0:
310,263,61008,2,0,P|370:248|420:236,1,90,2|14,0:1|0:1,0:0:0:0:
380,341,61341,1,2,0:0:0:0:
311,173,61508,6,0,P|255:148|151:215,1,180,14|2,0:1|0:0,0:0:0:0:
157,200,62008,1,2,0:0:0:0:
241,279,62174,2,0,L|247:247,6,30,2|2|2|2|2|2|2,0:0|0:0|0:0|0:0|0:0|0:0|0:0,0:0:0:0:
79,137,62674,6,0,B|46:168|46:168|72:314,1,180,14|0,0:1|0:0,0:0:0:0:
69,300,63174,1,2,0:0:0:0:
270,352,63341,2,0,B|303:321|303:321|277:175,1,180,14|2,0:1|0:0,0:0:0:0:
168,49,63841,2,0,P|152:118|137:187,1,135,14|0,0:1|0:0,0:0:0:0:
167,221,64174,5,14,0:1:0:0:
282,96,64341,1,2,0:1:0:0:
282,96,64424,1,0,0:0:0:0:
282,96,64508,2,0,L|348:112,3,45,2|0|2|0,0:1|0:0|0:1|0:0,0:0:0:0:
414,131,64841,2,0,L|367:180,3,45,10|0|2|0,0:1|0:0|0:1|0:0,0:0:0:0:
315,222,65174,2,0,L|295:156,3,45,2|0|2|0,0:1|0:0|0:1|0:0,0:0:0:0:
282,96,65508,5,14,0:1:0:0:
139,210,65674,1,2,0:1:0:0:
139,210,65758,1,0,0:0:0:0:
139,210,65841,2,0,L|151:253,3,45,2|0|2|0,0:1|0:0|0:1|0:0,0:0:0:0:
245,282,66175,2,0,L|232:238,3,45,10|0|2|0,0:1|0:0|0:1|0:0,0:0:0:0:
173,331,66508,2,0,L|185:374,3,45,2|0|2|0,0:1|0:0|0:1|0:0,0:0:0:0:
271,378,66841,5,14,0:1:0:0:
388,265,67008,1,2,0:1:0:0:
388,265,67091,1,0,0:0:0:0:
388,265,67174,2,0,P|361:257|324:260,3,45,2|0|2|0,0:1|0:0|0:1|0:0,0:0:0:0:
279,197,67508,2,0,P|254:210|230:238,3,45,10|0|2|0,0:1|0:0|0:1|0:0,0:0:0:0:
156,216,67841,2,0,P|148:243|150:280,3,45,2|0|2|0,0:1|0:0|0:1|0:0,0:0:0:0:
89,326,68174,5,14,0:1:0:0:
278,363,68341,1,2,0:1:0:0:
278,363,68424,1,0,0:0:0:0:
278,363,68508,2,0,P|283:335|276:298,3,45,2|0|2|0,0:1|0:0|0:1|0:0,0:0:0:0:
334,247,68841,2,0,P|318:223|287:202,3,45,10|0|2|0,0:1|0:0|0:1|0:0,0:0:0:0:
302,127,69174,2,0,P|274:121|237:128,3,45,2|0|2|0,0:1|0:0|0:1|0:0,0:0:0:0:
176,88,69508,5,14,0:1:0:0:
348,19,69674,2,0,L|358:75,3,45,2|0|10|0,0:2|0:0|0:1|0:0,0:0:0:0:
394,89,70008,1,2,0:2:0:0:
102,138,70174,5,10,0:1:0:0:
274,69,70341,2,0,L|284:125,3,45,2|0|8|0,0:2|0:0|0:1|0:0,0:0:0:0:
320,139,70674,1,0,0:0:0:0:
176,88,70841,5,14,0:1:0:0:
348,19,71007,2,0,L|358:75,3,45,2|0|10|0,0:2|0:0|0:1|0:0,0:0:0:0:
394,89,71341,1,2,0:2:0:0:
102,138,71507,5,10,0:1:0:0:
274,69,71674,2,0,L|284:125,3,45,2|0|10|0,0:2|0:0|0:1|0:0,0:0:0:0:
320,139,72007,1,2,0:2:0:0:
176,88,72174,5,14,0:1:0:0:
179,241,72341,1,10,0:1:0:0:
173,65,72508,1,14,0:1:0:0:
280,204,72674,1,10,0:1:0:0:
170,42,72841,1,14,0:1:0:0:
85,221,73008,1,10,0:1:0:0:
170,18,73174,1,14,0:1:0:0:
189,206,73341,1,10,0:1:0:0:
9,98,73508,6,0,P|42:106|82:114,3,45,14|8|8|8,0:1|0:1|0:1|0:1,0:0:0:0:
143,128,73841,2,0,P|121:132|99:138,3,45,12|8|8|8,0:1|0:1|0:1|0:1,0:0:0:0:
48,215,74174,1,12,0:1:0:0:
25,253,74257,1,8,0:1:0:0:
21,297,74340,1,8,0:1:0:0:
38,339,74423,1,8,0:1:0:0:
71,369,74507,5,14,0:1:0:0:
340,217,74841,6,0,B|344:191|344:191|332:149,3,49.5000015106202,14|2|2|2,0:1|0:2|0:2|0:2,0:0:0:0:
301,138,75174,2,0,P|317:215|342:337,1,198.000006042481,10|0,0:2|0:0,0:0:0:0:
421,217,75674,1,10,0:1:0:0:
201,115,75841,6,0,P|217:192|243:321,1,202.500007724762,10|0,0:2|0:0,0:0:0:0:
267,337,76174,5,8,0:1:0:0:
108,364,76341,2,0,P|121:310|135:254,1,99.0000030212403,2|8,0:2|0:2,0:0:0:0:
289,145,76674,1,2,0:2:0:0:
289,145,76758,1,0,0:0:0:0:
289,145,76841,2,0,L|300:208,3,49.5000015106202,2|0|10|0,0:2|0:0|0:1|0:0,0:0:0:0:
224,249,77174,2,0,L|213:186,3,49.5000015106202,10|0|2|0,0:2|0:0|0:2|0:0,0:0:0:0:
201,116,77508,5,10,0:1:0:0:
376,139,77674,2,0,P|386:192|399:256,1,99.0000030212403,2|8,0:2|0:2,0:0:0:0:
234,297,78008,2,0,P|224:248|215:199,1,99.0000030212403,2|0,0:2|0:0,0:0:0:0:
333,328,78341,1,8,0:1:0:0:
153,361,78508,2,0,P|143:312|134:263,1,99.0000030212403,8|2,0:2|0:2,0:0:0:0:
106,98,78841,5,8,0:1:0:0:
261,180,79008,1,2,0:2:0:0:
49,255,79174,2,0,L|62:201,3,49.5000015106202,10|0|2|0,0:2|0:0|0:2|0:0,0:0:0:0:
148,183,79508,2,0,L|159:231,3,49.5000015106202,2|0|10|0,0:2|0:0|0:1|0:0,0:0:0:0:
244,262,79841,2,0,L|257:208,3,49.5000015106202,8|0|2|0,0:2|0:0|0:2|0:0,0:0:0:0:
341,158,80174,6,0,P|375:153|411:146,3,49.5000015106202,10|2|2|2,0:1|0:2|0:2|0:2,0:0:0:0:
431,131,80508,2,0,P|348:117|232:95,1,198.000006042481,10|0,0:2|0:0,0:0:0:0:
375,28,81008,1,10,0:1:0:0:
303,201,81174,6,0,P|220:215|100:237,1,202.500007724762,10|0,0:2|0:0,0:0:0:0:
78,270,81508,5,10,0:1:0:0:
14,124,81674,2,0,P|70:136|137:149,1,99.0000030212403,2|8,0:2|0:2,0:0:0:0:
266,246,82008,1,2,0:2:0:0:
266,246,82091,1,0,0:0:0:0:
266,246,82174,2,0,P|233:254|197:263,3,49.5000015106202,2|0|10|0,0:2|0:0|0:1|0:0,0:0:0:0:
146,322,82508,2,0,P|170:327|194:333,3,49.5000015106202,10|0|2|0,0:2|0:0|0:2|0:0,0:0:0:0:
282,355,82841,5,10,0:1:0:0:
136,233,83007,2,0,P|127:183|114:125,1,99.0000030212403,2|8,0:2|0:2,0:0:0:0:
285,48,83341,2,0,P|274:96|265:145,1,99.0000030212403,2|0,0:2|0:0,0:0:0:0:
177,39,83674,1,10,0:1:0:0:
367,104,83841,2,0,P|377:152|386:201,1,99.0000030212403,8|2,0:2|0:2,0:0:0:0:
419,356,84174,5,10,0:1:0:0:
222,300,84341,2,0,P|232:251|241:202,1,99.0000030212403,2|10,0:2|0:2,0:0:0:0:
311,58,84674,1,0,0:0:0:0:
311,58,84758,2,0,P|319:106|330:155,1,99.0000030212403,10|0,0:1|0:0,0:0:0:0:
379,184,85008,2,0,P|389:135|398:86,1,99.0000030212403,10|10,0:1|0:2,0:0:0:0:
443,69,85258,1,10,0:1:0:0:
443,69,85341,1,8,0:1:0:0:
512,240,85508,6,0,P|476:230|448:224,3,49.5000015106202,14|2|2|2,0:1|0:2|0:2|0:2,0:0:0:0:
434,249,85841,1,10,0:2:0:0:
256,333,86008,2,0,P|248:285|237:236,1,99.0000030212403,2|0,0:2|0:0,0:0:0:0:
358,152,86341,2,0,P|347:200|338:249,1,99.0000030212403,10|8,0:1|0:2,0:0:0:0:
175,121,86674,2,0,P|241:105|294:87,1,99.0000030212403,2|8,0:2|0:1,0:0:0:0:
103,199,87008,6,0,P|55:184|7:173,1,99.0000030212403,2|8,0:2|0:2,0:0:0:0:
254,352,87341,2,0,P|260:295|226:247,1,99.0000030212403,2|0,0:2|0:0,0:0:0:0:
136,280,87675,2,0,P|130:337|164:385,1,99.0000030212403,10|8,0:1|0:2,0:0:0:0:
278,149,88008,1,2,0:2:0:0:
165,190,88174,5,8,0:1:0:0:
333,235,88341,2,0,P|385:247|440:261,1,99.0000030212403,2|8,0:2|0:2,0:0:0:0:
512,123,88674,2,0,P|463:135|415:146,1,99.0000030212403,2|0,0:2|0:0,0:0:0:0:
243,250,89008,2,0,P|256:201|270:152,1,99.0000030212403,10|8,0:1|0:2,0:0:0:0:
147,45,89341,6,0,P|160:92|173:140,1,99.0000030212403,2|8,0:2|0:1,0:0:0:0:
359,74,89674,2,0,P|306:51|252:74,1,99.0000030212403,2|10,0:2|0:2,0:0:0:0:
376,178,90008,2,0,P|425:167|498:150,1,99.0000030212403,2|2,0:2|0:2,0:0:0:0:
213,216,90341,1,10,0:1:0:0:
331,269,90508,1,10,0:2:0:0:
250,122,90674,5,10,0:1:0:0:
250,122,90758,1,8,0:1:0:0:
250,122,90841,2,0,P|201:111|128:94,1,99.0000030212403,14|2,0:1|0:2,0:0:0:0:
12,222,91174,2,0,P|60:233|108:243,1,99.0000030212403,8|2,0:2|0:2,0:0:0:0:
255,203,91508,2,0,P|206:192|133:175,1,99.0000030212403,8|2,0:1|0:2,0:0:0:0:
17,303,91841,2,0,P|65:314|113:324,1,99.0000030212403,8|2,0:2|0:2,0:0:0:0:
332,350,92174,6,0,P|352:289|330:240,1,99.0000030212403,14|2,0:1|0:2,0:0:0:0:
264,191,92508,2,0,P|244:252|266:301,1,99.0000030212403,8|2,0:2|0:2,0:0:0:0:
356,166,92841,2,0,P|376:105|354:56,1,99.0000030212403,10|2,0:1|0:2,0:0:0:0:
338,51,93091,1,8,0:1:0:0:
338,51,93174,1,10,0:2:0:0:
230,12,93341,1,10,0:1:0:0:
176,169,93508,5,14,0:2:0:0:
265,105,93674,1,10,0:1:0:0:
161,188,93841,1,10,0:2:0:0:
152,52,94008,1,10,0:1:0:0:
272,200,94174,1,14,0:2:0:0:
65,138,94341,1,10,0:1:0:0:
271,74,94508,1,10,0:2:0:0:
157,265,94674,1,10,0:1:0:0:
52,47,94841,6,0,L|108:60,3,49.5000015106202,14|8|10|8,0:1|0:1|0:1|0:1,0:0:0:0:
187,118,95174,2,0,L|131:131,3,49.5000015106202,14|8|10|8,0:1|0:1|0:1|0:1,0:0:0:0:
28,175,95508,2,0,L|84:188,3,49.5000015106202,14|8|10|8,0:1|0:1|0:1|0:1,0:0:0:0:
163,246,95841,2,0,L|107:259,3,49.5000015106202,14|8|10|8,0:1|0:1|0:1|0:1,0:0:0:0:
47,308,96174,5,14,0:1:0:0:
244,290,96341,2,0,P|256:232|231:186,1,99.0000030212403,0|8,0:0|0:2,0:0:0:0:
97,86,96674,2,0,P|116:167|144:293,1,198.000006042481,2|10,0:2|0:1,0:0:0:0:
196,139,97174,1,8,0:2:0:0:
19,123,97341,6,0,P|1:176|28:233,1,99.0000030212403,2|8,0:2|0:1,0:0:0:0:
135,298,97675,2,0,P|125:254|109:183,1,99.0000030212403,2|8,0:2|0:2,0:0:0:0:
223,351,98008,2,0,P|233:307|249:236,1,99.0000030212403,2|0,0:2|0:0,0:0:0:0:
361,318,98341,2,0,P|351:274|335:203,1,99.0000030212403,10|8,0:1|0:2,0:0:0:0:
312,109,98674,1,2,0:2:0:0:
247,227,98841,5,8,0:1:0:0:
432,234,99008,2,0,P|422:190|406:119,1,99.0000030212403,2|8,0:2|0:2,0:0:0:0:
285,45,99341,2,0,P|295:93|306:141,1,99.0000030212403,2|0,0:2|0:0,0:0:0:0:
512,221,99674,2,0,P|502:177|486:106,1,99.0000030212403,10|8,0:1|0:2,0:0:0:0:
364,27,100008,2,0,P|374:75|385:123,1,99.0000030212403,2|0,0:2|0:0,0:0:0:0:
246,247,100341,6,0,P|294:233|361:213,1,99.0000030212403,10|8,0:1|0:2,0:0:0:0:
209,120,100675,2,0,P|161:106|72:230,1,198.000006042481,2|10,0:2|0:1,0:0:0:0:
122,362,101174,1,8,0:2:0:0:
164,205,101341,1,2,0:2:0:0:
38,283,101508,5,8,0:1:0:0:
221,371,101674,2,0,P|212:318|203:267,1,99.0000030212403,2|8,0:2|0:2,0:0:0:0:
358,149,102007,2,0,P|349:202|324:357,1,198.000006042481,2|10,0:2|0:1,0:0:0:0:
435,246,102508,1,8,0:2:0:0:
237,155,102674,6,0,P|245:203|253:252,1,99.0000030212403,2|8,0:2|0:1,0:0:0:0:
321,381,103008,2,0,P|329:332|337:283,1,99.0000030212403,2|8,0:2|0:2,0:0:0:0:
152,162,103341,2,0,P|160:210|168:259,1,99.0000030212403,2|0,0:2|0:0,0:0:0:0:
237,371,103674,2,0,P|245:322|253:273,1,99.0000030212403,10|8,0:1|0:2,0:0:0:0:
275,177,104008,1,2,0:2:0:0:
168,259,104174,5,8,0:1:0:0:
346,338,104341,2,0,P|360:294|337:236,1,99.0000030212403,2|8,0:2|0:2,0:0:0:0:
452,231,104674,2,0,P|430:189|373:165,1,99.0000030212403,2|0,0:2|0:0,0:0:0:0:
463,81,105008,2,0,P|419:66|361:89,1,99.0000030212403,10|8,0:1|0:2,0:0:0:0:
193,214,105341,6,0,P|289:190|394:163,1,198.000006042481,2|10,0:2|0:1,0:0:0:0:
229,101,105841,1,8,0:2:0:0:
113,159,106008,1,2,0:2:0:0:
113,159,106091,1,8,0:1:0:0:
113,159,106174,2,0,P|105:212|97:269,1,99.0000030212403,2|10,0:2|0:1,0:0:0:0:
213,213,106508,1,8,0:2:0:0:
213,213,106591,1,8,0:1:0:0:
213,213,106674,1,10,0:1:0:0:
0,138,106841,6,0,P|14:217|34:340,1,198.000006042481,14|8,0:1|0:2,0:0:0:0:
167,371,107341,2,0,P|176:319|187:248,1,99.0000030212403,2|0,0:2|0:0,0:0:0:0:
260,189,107674,1,10,0:1:0:0:
87,155,107841,2,0,P|96:207|107:278,1,99.0000030212403,10|2,0:2|0:2,0:0:0:0:
286,314,108174,5,10,0:1:0:0:
171,138,108341,2,0,P|180:190|191:261,1,99.0000030212403,2|10,0:2|0:2,0:0:0:0:
305,76,108674,2,0,P|296:128|285:199,1,99.0000030212403,2|0,0:2|0:0,0:0:0:0:
214,45,109008,1,10,0:1:0:0:
390,19,109174,2,0,P|399:71|410:142,1,99.0000030212403,10|2,0:2|0:2,0:0:0:0:
233,192,109508,6,0,B|329:168|320:277|422:248,1,198.000006042481,10|8,0:1|0:2,0:0:0:0:
456,92,110008,2,0,P|405:66|413:165,1,198.000006042481,2|8,0:2|0:1,0:0:0:0:
484,270,110508,2,0,P|515:207|486:159,1,99.0000030212403,10|0,0:2|0:0,0:0:0:0:
370,255,110841,6,0,P|381:311|394:378,1,99.0000030212403,2|10,0:2|0:1,0:0:0:0:
423,174,111174,1,10,0:2:0:0:
273,204,111341,1,2,0:2:0:0:
273,204,111424,1,0,0:0:0:0:
273,204,111508,2,0,P|262:260|249:327,1,99.0000030212403,0|10,0:0|0:1,0:0:0:0:
381,244,111841,1,10,0:2:0:0:
303,117,112008,5,10,0:1:0:0:
303,117,112091,1,8,0:1:0:0:
303,117,112174,2,0,P|264:109|187:90,1,99.0000030212403,14|2,0:1|0:2,0:0:0:0:
100,232,112508,2,0,P|146:215|206:196,1,99.0000030212403,8|2,0:2|0:2,0:0:0:0:
37,61,112841,2,0,P|28:110|15:171,1,99.0000030212403,8|2,0:1|0:2,0:0:0:0:
216,97,113175,2,0,P|178:64|131:22,1,99.0000030212403,8|2,0:2|0:2,0:0:0:0:
290,252,113508,6,0,P|299:203|312:142,1,99.0000030212403,14|2,0:1|0:2,0:0:0:0:
174,260,113841,2,0,P|184:308|193:357,1,99.0000030212403,8|2,0:2|0:2,0:0:0:0:
376,272,114174,2,0,P|385:223|398:162,1,99.0000030212403,10|2,0:1|0:2,0:0:0:0:
436,151,114424,1,8,0:1:0:0:
436,151,114508,1,10,0:2:0:0:
285,243,114674,1,10,0:1:0:0:
459,329,114841,5,14,0:2:0:0:
396,228,115008,1,10,0:1:0:0:
473,345,115174,1,10,0:2:0:0:
493,186,115341,1,10,0:1:0:0:
349,315,115508,1,14,0:2:0:0:
512,271,115675,1,10,0:1:0:0:
309,184,115841,1,10,0:2:0:0:
420,383,116008,1,10,0:1:0:0:
510,182,116174,6,0,P|459:188|447:189,3,49.5000015106202,14|10|10|10,0:1|0:1|0:1|0:1,0:0:0:0:
409,101,116508,2,0,P|433:103|458:106,3,49.5000015106202,14|10|10|10,0:1|0:1|0:1|0:1,0:0:0:0:
342,183,116841,1,14,0:1:0:0:
368,142,116924,1,10,0:1:0:0:
367,93,117007,1,10,0:1:0:0:
337,54,117090,1,10,0:1:0:0:
291,40,117174,6,0,P|245:51|210:59,1,67.5,2|0,0:2|0:0,0:0:0:0:
216,85,117508,5,6,0:0:0:0:
333,143,128174,6,0,L|343:86,3,45,6|0|2|0,0:2|0:0|0:2|0:0,0:0:0:0:
422,119,128508,2,0,L|412:176,3,45,6|0|2|0,0:0|0:0|0:0|0:0,0:0:0:0:
261,248,128841,2,0,L|271:191,3,45,2|0|2|0,0:0|0:0|0:0|0:0,0:0:0:0:
350,224,129174,2,0,L|340:281,3,45,2|0|2|0,0:0|0:0|0:0|0:0,0:0:0:0:
275,345,129508,5,2,0:0:0:0:
259,303,129591,1,0,0:0:0:0:
224,275,129674,1,2,0:0:0:0:
180,268,129757,1,0,0:0:0:0:
139,284,129841,2,0,L|129:341,3,45,2|0|2|0,0:0|0:0|0:0|0:0,0:0:0:0:
70,214,130174,1,2,0:0:0:0:
86,172,130257,1,0,0:0:0:0:
121,144,130340,1,2,0:0:0:0:
165,137,130423,1,0,0:0:0:0:
206,153,130508,2,0,L|216:210,3,45,2|0|2|0,0:0|0:0|0:0|0:0,0:0:0:0:
334,270,130841,6,0,L|284:257,3,45,2|0|2|0,0:0|0:0|0:0|0:0,0:0:0:0:
213,345,131174,2,0,L|263:332,3,45,2|0|2|0,0:0|0:0|0:0|0:0,0:0:0:0:
360,361,131508,1,2,0:0:0:0:
395,333,131591,1,0,0:0:0:0:
410,292,131674,1,2,0:0:0:0:
401,248,131758,1,0,0:0:0:0:
370,216,131841,1,2,0:0:0:0:
327,205,131924,1,0,0:0:0:0:
285,218,132008,1,2,0:0:0:0:
256,251,132091,1,0,0:0:0:0:
249,295,132174,6,0,L|261:350,3,45,2|0|2|0,0:0|0:0|0:0|0:0,0:0:0:0:
159,271,132508,2,0,L|170:325,3,45,2|0|2|0,0:0|0:0|0:0|0:0,0:0:0:0:
283,167,132841,2,0,L|294:221,3,45,2|0|2|0,0:0|0:0|0:0|0:0,0:0:0:0:
192,142,133175,2,0,L|203:196,3,45,2|0|2|0,0:0|0:0|0:0|0:0,0:0:0:0:
293,289,133508,6,0,P|344:304|399:321,1,90,14|2,0:1|0:0,0:0:0:0:
483,195,133841,2,0,P|432:210|377:227,1,90,14|2,0:1|0:0,0:0:0:0:
497,357,134174,2,0,L|508:301,3,45,10|0|2|0,0:1|0:0|0:0|0:0,0:0:0:0:
424,298,134508,2,0,L|415:342,3,45,10|0|2|0,0:1|0:0|0:0|0:0,0:0:0:0:
330,360,134841,6,0,P|323:308|314:236,1,90,14|2,0:1|0:0,0:0:0:0:
235,178,135174,2,0,P|229:222|223:267,1,90,14|2,0:1|0:0,0:0:0:0:
30,337,135508,2,0,L|74:326,3,45,10|0|2|0,0:1|0:0|0:0|0:0,0:0:0:0:
130,249,135841,2,0,L|86:238,3,45,10|0|2|0,0:1|0:0|0:0|0:0,0:0:0:0:
25,167,136174,5,14,0:1:0:0:
200,75,136341,2,0,P|194:119|188:164,1,90,14|2,0:1|0:0,0:0:0:0:
170,324,136674,1,14,0:1:0:0:
109,166,136841,1,14,0:1:0:0:
290,199,137008,2,0,P|284:243|278:288,1,90,14|2,0:1|0:0,0:0:0:0:
198,154,137341,1,14,0:1:0:0:
384,155,137508,6,0,P|378:199|372:244,1,90,14|2,0:1|0:0,0:0:0:0:
240,333,137841,2,0,P|245:288|252:243,1,90,14|2,0:1|0:0,0:0:0:0:
466,326,138174,2,0,L|421:334,1,45,10|0,0:1|0:0,0:0:0:0:
331,354,138340,1,10,0:1:0:0:
331,354,138424,1,8,0:1:0:0:
331,354,138508,1,10,0:0:0:0:
125,117,138841,5,14,0:1:0:0:
199,189,139008,2,0,P|186:243|171:312,1,112.5,2|0,0:0|0:0,0:0:0:0:
131,311,139508,5,8,0:0:0:0:
44,209,139674,2,0,L|93:221,3,45,2|2|2|2,0:0|0:0|0:0|0:0,0:0:0:0:
115,210,140008,1,2,0:0:0:0:
29,115,140174,2,0,L|78:127,3,45,10|2|2|2,0:1|0:0|0:0|0:0,0:0:0:0:
100,116,140508,1,2,0:0:0:0:
188,68,140674,1,10,0:1:0:0:
282,168,140841,6,0,L|265:106,3,45,10|0|2|0,0:0|0:0|0:0|0:0,0:0:0:0:
197,207,141174,2,0,L|185:250,3,45,2|0|2|0,0:0|0:0|0:0|0:0,0:0:0:0:
267,303,141508,5,10,0:1:0:0:
169,343,141674,2,0,P|111:332|38:320,1,112.5,2|0,0:0|0:0,0:0:0:0:
33,292,142174,5,10,0:0:0:0:
143,180,142341,2,0,L|151:228,3,45,2|2|2|2,0:0|0:0|0:0|0:0,0:0:0:0:
125,252,142674,1,2,0:0:0:0:
28,162,142841,2,0,P|40:100|57:8,2,135,10|10|10,0:1|0:1|0:1,0:0:0:0:
226,104,143508,6,0,P|199:98|167:104,3,45,10|0|2|0,0:0|0:0|0:0|0:0,0:0:0:0:
130,176,143841,2,0,P|151:181|174:180,3,45,2|0|2|0,0:0|0:0|0:0|0:0,0:0:0:0:
311,137,144174,6,0,P|302:186|283:280,1,135,10|0,0:1|0:0,0:0:0:0:
298,288,144508,6,0,P|289:239|264:98,1,182.250000695229,2|0,0:0|0:0,0:0:0:0:
284,71,144841,6,0,P|344:33|368:180,1,270,10|0,0:0|0:0,0:0:0:0:
285,221,145508,2,0,L|229:206,3,45,10|0|2|0,0:1|0:0|0:0|0:0,0:0:0:0:
167,197,145841,2,0,L|223:182,3,45,2|0|10|0,0:0|0:0|0:1|0:0,0:0:0:0:
333,160,146174,6,0,P|317:233|295:332,1,135,10|0,0:0|0:0,0:0:0:0:
336,316,146508,6,0,P|350:250|363:187,1,121.500000463486,2|0,0:0|0:0,0:0:0:0:
236,85,146841,6,0,P|172:102|90:121,1,135,10|0,0:1|0:0,0:0:0:0:
61,132,147174,6,0,P|126:147|257:181,1,182.250000695229,2|0,0:0|0:0,0:0:0:0:
259,212,147508,6,0,P|275:283|154:233,1,270,10|0,0:0|0:0,0:0:0:0:
195,112,148174,2,0,L|184:165,2,45,10|0|0,0:1|0:0|0:0,0:0:0:0:
228,94,148424,1,10,0:1:0:0:
228,94,148508,2,0,L|237:49,1,45,0|0,0:0|0:0,0:0:0:0:
268,30,148674,1,10,0:1:0:0:
106,23,148841,6,0,P|119:82|139:181,1,135,10|0,0:0|0:0,0:0:0:0:
103,168,149175,6,0,P|90:227|62:351,1,182.250000695229,2|0,0:0|0:0,0:0:0:0:
101,369,149508,6,0,P|177:309|262:349,1,180,14|8,0:1|0:0,0:0:0:0:
381,373,150008,2,0,P|368:318|354:269,1,90,2|0,0:0|0:0,0:0:0:0:
464,184,150341,2,0,L|451:248,3,45,10|0|10|0,0:1|0:0|0:0|0:0,0:0:0:0:
478,257,150674,1,2,0:0:0:0:
366,184,150841,6,0,L|353:120,3,45,10|0|2|0,0:1|0:0|0:0|0:0,0:0:0:0:
380,111,151174,1,10,0:0:0:0:
464,184,151341,1,2,0:0:0:0:
340,261,151508,6,0,L|281:248,3,45,2|0|10|0,0:0|0:0|0:1|0:0,0:0:0:0:
227,310,151841,2,0,L|168:323,3,45,10|0|2|0,0:0|0:0|0:0|0:0,0:0:0:0:
82,365,152174,6,0,P|106:267|129:169,2,180,10|10|0,0:1|0:0|0:0,0:0:0:0:
31,197,153008,2,0,L|19:135,3,45,10|0|10|0,0:1|0:0|0:0|0:0,0:0:0:0:
51,120,153341,1,2,0:0:0:0:
164,51,153508,6,0,L|152:113,3,45,10|0|2|0,0:1|0:0|0:0|0:0,0:0:0:0:
184,128,153841,1,10,0:0:0:0:
274,76,154008,1,2,0:0:0:0:
363,174,154174,6,0,L|311:162,3,45,2|0|10|0,0:0|0:0|0:1|0:0,0:0:0:0:
245,203,154508,2,0,L|297:191,3,45,10|0|10|8,0:0|0:0|0:1|0:1,0:0:0:0:
453,154,154841,6,0,P|439:220|415:317,1,135,14|0,0:1|0:0,0:0:0:0:
450,310,155174,2,0,P|465:244|479:178,1,135,14|0,0:0|0:0,0:0:0:0:
453,154,155508,2,0,B|408:118|408:118|185:155,1,270,10|0,0:1|0:0,0:0:0:0:
117,259,156174,6,0,L|129:202,3,45,14|0|2|0,0:1|0:0|0:0|0:0,0:0:0:0:
50,167,156508,2,0,L|40:211,3,45,10|0|2|0,0:0|0:0|0:0|0:0,0:0:0:0:
19,293,156841,1,10,0:1:0:0:
214,233,157008,1,8,0:1:0:0:
214,233,157091,1,8,0:1:0:0:
214,233,157174,2,0,P|163:223|91:206,1,90,8|8,0:0|0:1,0:0:0:0:
380,157,157508,5,14,0:1:0:0:
269,118,157674,1,8,0:1:0:0:
327,232,157841,1,10,0:0:0:0:
354,71,158008,1,8,0:1:0:0:
322,261,158174,1,14,0:1:0:0:
173,116,158341,1,8,0:1:0:0:
385,163,158508,1,10,0:0:0:0:
210,292,158674,1,8,0:1:0:0:
283,76,158841,6,0,L|294:141,3,45,14|10|10|10,0:1|0:1|0:1|0:1,0:0:0:0:
364,40,159174,2,0,L|375:105,3,45,10|10|10|10,0:1|0:1|0:1|0:1,0:0:0:0:
456,138,159508,5,14,0:1:0:0:
489,168,159592,1,10,0:1:0:0:
506,210,159675,1,10,0:1:0:0:
502,254,159758,1,10,0:1:0:0:
479,292,159841,1,10,0:1:0:0:
452,288,159924,1,10,0:1:0:0:
425,285,160007,1,10,0:1:0:0:
398,281,160091,5,10,0:1:0:0:
372,275,160174,1,4,0:0:0:0:
286,348,160341,1,2,0:0:0:0:
228,181,160508,2,0,P|219:223|204:289,1,90,6|0,3:2|3:0,0:0:0:0:
72,330,160841,2,0,P|82:286|92:243,1,90,8|8,0:1|0:1,0:0:0:0:
228,181,161174,2,0,P|219:223|204:289,1,90,8|8,3:1|3:1,0:0:0:0:
0,284,161674,6,0,B|141:247|113:426|273:354,1,270,0|0,3:0|3:0,0:0:0:0:
442,294,162508,1,8,0:1:0:0:
442,294,162591,1,8,0:1:0:0:
442,294,162674,1,8,0:0:0:0:
329,242,162841,5,14,0:1:0:0:
329,242,162924,2,0,P|340:288|357:355,1,90,2|2,0:0|0:0,0:0:0:0:
331,353,163174,1,14,0:1:0:0:
189,276,163341,1,2,0:0:0:0:
267,163,163508,1,10,0:1:0:0:
267,163,163591,2,0,P|310:152|354:140,1,90,2|2,0:0|0:0,0:0:0:0:
399,161,163841,1,10,0:1:0:0:
281,58,164008,2,0,P|245:54|214:50,1,45,2|2,0:0|0:0,0:0:0:0:
155,89,164174,5,10,0:1:0:0:
155,89,164258,2,0,B|143:134|143:134|166:189,1,90,2|2,0:0|0:0,0:0:0:0:
199,200,164508,1,10,0:1:0:0:
316,267,164674,1,2,0:0:0:0:
179,349,164841,1,10,0:1:0:0:
179,349,164925,2,0,P|132:340|80:330,1,90,2|2,0:0|0:0,0:0:0:0:
54,354,165175,1,10,0:1:0:0:
99,190,165341,2,0,L|115:268,1,45,2|2,0:0|0:0,0:0:0:0:
19,232,165508,5,10,0:1:0:0:
90,91,165674,1,2,0:0:0:0:
90,91,165758,2,0,P|135:83|185:109,1,90,2|0,0:0|0:0,0:0:0:0:
199,138,166008,2,0,P|244:146|294:120,1,90,2|10,0:0|0:1,0:0:0:0:
296,91,166258,1,2,0:0:0:0:
451,35,166424,1,2,0:0:0:0:
451,35,166508,2,0,P|441:78|424:148,1,90,10|2,0:1|0:0,0:0:0:0:
512,280,166841,5,10,0:1:0:0:
512,280,166924,2,0,B|468:261|468:261|420:271,1,90,2|2,0:0|0:0,0:0:0:0:
398,303,167174,1,10,0:1:0:0:
283,221,167341,1,2,0:0:0:0:
206,330,167508,1,10,0:1:0:0:
206,330,167591,2,0,B|164:338|164:338|120:319,1,90,2|2,0:0|0:0,0:0:0:0:
86,298,167841,1,10,0:1:0:0:
12,177,168008,1,2,0:0:0:0:
143,107,168174,5,10,0:1:0:0:
143,107,168258,2,0,P|156:178|166:226,1,90,2|2,0:0|0:0,0:0:0:0:
190,223,168508,1,10,0:1:0:0:
306,276,168674,1,2,0:0:0:0:
418,199,168841,1,10,0:1:0:0:
418,199,168925,2,0,P|431:128|441:80,1,90,2|2,0:0|0:0,0:0:0:0:
471,87,169174,1,10,0:1:0:0:
322,26,169341,2,0,L|335:82,1,45,2|2,0:0|0:0,0:0:0:0:
266,140,169508,5,10,0:1:0:0:
266,140,169591,2,0,P|207:151|143:160,1,90,2|2,0:0|0:0,0:0:0:0:
144,127,169841,1,10,0:1:0:0:
27,209,170008,1,2,0:0:0:0:
152,285,170174,1,10,0:1:0:0:
152,285,170257,2,0,P|211:296|272:309,1,90,2|2,0:0|0:0,0:0:0:0:
265,274,170508,1,10,0:1:0:0:
394,364,170674,2,0,L|382:306,1,45,2|2,0:0|0:0,0:0:0:0:
440,245,170841,5,10,0:1:0:0:
336,156,171008,1,2,0:0:0:0:
336,156,171091,2,0,P|294:140|221:176,1,90,2|0,0:0|0:0,0:0:0:0:
239,191,171341,2,0,P|195:199|153:183,1,90,2|10,0:0|0:1,0:0:0:0:
137,145,171591,1,2,0:0:0:0:
3,66,171758,1,2,0:0:0:0:
3,66,171841,2,0,P|19:131|31:181,1,90,10|2,0:1|0:0,0:0:0:0:
87,318,172174,5,10,0:1:0:0:
87,318,172257,2,0,P|103:253|115:203,1,90,2|2,0:0|0:0,0:0:0:0:
124,189,172508,1,10,0:1:0:0:
0,256,172674,1,2,0:0:0:0:
201,279,172841,1,10,0:1:0:0:
201,279,172924,2,0,P|217:344|229:394,1,90,2|2,0:0|0:0,0:0:0:0:
263,364,173174,1,10,0:1:0:0:
304,166,173341,1,10,0:1:0:0:
91,240,173508,5,14,0:1:0:0:
91,240,173591,2,0,P|107:305|119:355,1,90,2|2,0:0|0:0,0:0:0:0:
142,374,173841,2,0,L|152:315,1,45,10|0,0:0|0:0,0:0:0:0:
188,303,174008,1,2,0:0:0:0:
332,238,174174,1,10,0:1:0:0:
332,238,174258,2,0,P|348:303|360:353,1,90,2|2,0:0|0:0,0:0:0:0:
331,351,174508,1,10,0:0:0:0:
453,251,174674,2,0,L|467:194,1,45,2|2,0:0|0:0,0:0:0:0:
417,130,174841,5,10,0:1:0:0:
417,130,174924,2,0,P|369:141|316:152,1,90,2|2,0:0|0:0,0:0:0:0:
291,179,175175,2,0,L|280:222,1,45,10|0,0:0|0:0,0:0:0:0:
246,250,175341,1,2,0:0:0:0:
122,84,175508,1,10,0:1:0:0:
122,84,175591,2,0,P|135:136|148:185,1,90,2|2,0:0|0:0,0:0:0:0:
113,207,175841,1,10,0:0:0:0:
239,90,176008,2,0,L|249:46,1,45,2|2,0:0|0:0,0:0:0:0:
334,24,176174,5,10,0:1:0:0:
425,145,176341,1,2,0:0:0:0:
425,145,176424,2,0,P|378:159|307:180,1,90,2|0,0:0|0:0,0:0:0:0:
314,220,176674,2,0,P|357:232|400:245,1,90,2|10,0:0|0:1,0:0:0:0:
432,290,176924,1,2,0:0:0:0:
209,359,177091,1,2,0:0:0:0:
209,359,177174,2,0,P|221:312|235:242,1,90,10|2,0:0|0:0,0:0:0:0:
311,105,177508,5,10,0:1:0:0:
311,105,177591,2,0,P|320:148|331:192,1,90,2|2,0:0|0:0,0:0:0:0:
342,224,177841,1,10,0:0:0:0:
412,105,178008,1,2,0:0:0:0:
216,52,178174,1,10,0:1:0:0:
216,52,178257,2,0,P|206:95|203:115,1,45,2|0,0:0|0:0,0:0:0:0:
187,197,178424,1,10,0:1:0:0:
187,197,178508,1,10,0:1:0:0:
115,23,178674,1,10,0:1:0:0:
311,84,178841,5,14,0:1:0:0:
250,218,179174,1,10,0:0:0:0:
311,84,179508,1,10,0:0:0:0:
250,218,179841,1,10,0:0:0:0:
175,42,180174,5,14,0:1:0:0:
270,253,180508,1,10,0:0:0:0:
175,42,180841,1,10,0:0:0:0:
270,253,181174,1,10,0:0:0:0:
291,24,181508,5,14,0:2:0:0:
257,143,181674,1,10,0:1:0:0:
378,101,181841,1,10,0:2:0:0:
200,61,182008,1,10,0:1:0:0:
395,108,182175,1,10,0:2:0:0:
236,232,182341,1,10,0:1:0:0:
316,38,182508,1,10,0:2:0:0:
441,204,182675,1,10,0:1:0:0:
235,138,182841,5,10,0:1:0:0:
235,138,182924,1,2,0:0:0:0:
235,138,183008,2,0,L|294:130,1,45,2|0,3:0|3:0,0:0:0:0:
369,115,183174,1,10,3:1:0:0:
142,86,183341,5,2,0:0:0:0:
142,86,183424,1,0,0:0:0:0:
142,86,183508,2,0,P|130:166|117:244,1,135.000005149842,8|0,0:1|0:0,0:0:0:0:
99,340,183841,1,10,0:1:0:0:
263,236,184008,2,0,L|210:249,1,45,0|0,3:0|3:0,0:0:0:0:
205,338,184174,5,14,0:1:0:0:
205,338,184258,2,0,P|254:348|325:362,1,90,0|0,0:0|0:0,0:0:0:0:
390,337,184508,2,0,P|406:287|380:232,1,90,10|2,0:0|0:0,0:0:0:0:
290,129,184841,1,10,0:1:0:0:
290,129,184924,1,0,0:0:0:0:
290,129,185008,1,2,0:0:0:0:
214,257,185175,1,10,0:0:0:0:
405,153,185341,1,2,0:0:0:0:
183,83,185508,5,10,0:1:0:0:
183,83,185591,2,0,P|129:97|66:112,1,90,0|0,0:0|0:0,0:0:0:0:
22,167,185841,2,0,P|65:177|109:189,1,90,10|2,0:0|0:0,0:0:0:0:
294,243,186174,1,10,0:1:0:0:
294,243,186258,1,0,0:0:0:0:
294,243,186341,1,2,0:0:0:0:
134,198,186508,1,10,0:0:0:0:
270,136,186674,1,2,0:0:0:0:
191,316,186841,6,0,P|149:325|78:339,1,90,10|2,0:1|0:0,0:0:0:0:
294,288,187174,1,10,0:0:0:0:
134,198,187341,2,0,P|176:207|245:220,1,90,2|10,0:0|0:1,0:0:0:0:
33,179,187675,1,2,0:0:0:0:
140,31,187841,6,0,P|152:79|167:140,1,90,8|2,0:0|0:0,0:0:0:0:
54,88,188174,1,10,0:1:0:0:
236,13,188341,2,0,P|248:61|263:122,1,90,2|10,0:0|0:0,0:0:0:0:
289,195,188675,1,2,0:0:0:0:
117,245,188841,2,0,P|127:201|138:157,1,90,10|2,0:1|0:0,0:0:0:0:
227,280,189174,2,0,P|238:324|249:368,1,90,10|2,0:0|0:0,0:0:0:0:
16,335,189508,5,10,0:1:0:0:
16,335,189591,2,0,P|58:347|98:330,1,90,0|0,0:0|0:0,0:0:0:0:
142,244,189841,2,0,P|131:200|120:156,1,90,10|2,0:0|0:0,0:0:0:0:
326,152,190174,1,10,0:1:0:0:
326,152,190258,1,0,0:0:0:0:
326,152,190341,1,2,0:0:0:0:
246,267,190508,2,0,P|235:223|224:179,1,90,10|2,0:0|0:0,0:0:0:0:
360,320,190841,5,10,0:1:0:0:
156,273,191008,1,2,0:0:0:0:
339,197,191175,1,10,0:0:0:0:
152,131,191341,1,2,0:0:0:0:
261,318,191508,1,10,0:1:0:0:
339,111,191675,1,2,0:0:0:0:
134,242,191841,1,10,0:0:0:0:
377,302,192008,1,2,0:0:0:0:
256,151,192174,5,10,0:1:0:0:
256,151,192258,2,0,P|246:198|232:259,1,90,0|0,0:0|0:0,0:0:0:0:
283,317,192508,2,0,P|273:273|263:229,1,90,10|2,0:0|0:0,0:0:0:0:
71,315,192841,1,10,0:1:0:0:
71,315,192924,2,0,P|130:299|186:284,1,90,0|0,0:0|0:0,0:0:0:0:
183,313,193174,1,10,0:0:0:0:
306,184,193341,1,2,0:0:0:0:
126,102,193508,5,10,0:1:0:0:
126,102,193591,2,0,P|115:151|147:207,1,90,0|0,0:0|0:0,0:0:0:0:
198,252,193841,2,0,P|243:261|301:273,1,90,10|2,0:0|0:0,0:0:0:0:
436,305,194174,1,10,0:1:0:0:
307,278,194341,1,2,0:0:0:0:
459,192,194508,1,10,0:0:0:0:
363,380,194674,1,10,0:1:0:0:
224,193,194841,5,14,0:1:0:0:
224,193,194924,2,0,P|261:174|322:187,1,90,0|0,0:0|0:0,0:0:0:0:
369,251,195175,2,0,P|332:270|271:257,1,90,10|2,0:0|0:0,0:0:0:0:
111,184,195508,1,10,0:1:0:0:
111,184,195591,1,2,0:0:0:0:
111,184,195674,1,0,0:0:0:0:
286,110,195841,1,10,0:0:0:0:
179,275,196008,1,2,0:0:0:0:
70,90,196174,5,10,0:1:0:0:
70,90,196258,2,0,B|112:76|112:76|157:85,1,90,0|0,0:0|0:0,0:0:0:0:
207,171,196508,2,0,B|252:180|252:180|294:166,1,90,10|2,0:0|0:0,0:0:0:0:
455,116,196841,1,10,0:1:0:0:
455,116,196924,1,2,0:0:0:0:
455,116,197008,1,0,0:0:0:0:
317,156,197175,1,10,0:0:0:0:
478,207,197341,1,2,0:0:0:0:
350,62,197508,6,0,P|306:51|262:39,1,90,10|2,0:1|0:0,0:0:0:0:
162,74,197841,1,10,0:0:0:0:
240,223,198008,2,0,P|250:189|270:120,1,90,2|10,0:0|0:1,0:0:0:0:
138,243,198341,1,0,0:0:0:0:
361,283,198508,2,0,P|351:249|331:180,1,90,10|2,0:0|0:0,0:0:0:0:
154,120,198841,5,10,0:1:0:0:
240,223,199008,1,0,0:0:0:0:
140,101,199174,1,10,0:0:0:0:
85,245,199341,1,2,0:0:0:0:
247,130,199508,2,0,P|293:141|355:156,1,90,10|0,0:1|0:0,0:0:0:0:
375,182,199758,1,8,0:1:0:0:
375,182,199841,1,10,0:0:0:0:
262,30,200008,1,10,0:1:0:0:
177,232,200174,6,0,P|223:221|285:206,1,90,14|10,0:1|0:1,0:0:0:0:
370,319,200508,2,0,P|326:308|282:297,1,90,10|10,0:1|0:1,0:0:0:0:
446,191,200841,2,0,P|457:244|473:314,1,90,10|8,0:1|0:1,0:0:0:0:
367,122,201174,2,0,P|357:166|348:210,1,90,10|10,0:1|0:1,0:0:0:0:
434,55,201508,6,0,P|385:27|328:42,1,90,14|8,0:1|0:1,0:0:0:0:
199,131,201841,2,0,P|243:130|279:105,1,90,10|10,0:1|0:1,0:0:0:0:
76,65,202174,2,0,P|86:100|100:158,1,90,10|8,0:1|0:1,0:0:0:0:
141,284,202508,1,10,0:1:0:0:
205,151,202674,5,10,0:1:0:0:
205,151,202758,1,8,0:1:0:0:
205,151,202841,1,14,0:1:0:0:
57,243,203008,1,10,0:1:0:0:
238,309,203174,1,10,0:1:0:0:
35,232,203341,1,10,0:1:0:0:
230,141,203508,1,14,0:1:0:0:
102,346,203675,1,10,0:1:0:0:
301,249,203841,1,10,0:1:0:0:
107,158,204008,1,10,0:1:0:0:
191,342,204174,6,0,L|205:277,3,45,14|10|10|10,0:1|0:1|0:1|0:1,0:0:0:0:
266,206,204508,2,0,L|280:271,3,45,14|10|10|10,0:1|0:1|0:1|0:1,0:0:0:0:
359,316,204841,5,14,0:1:0:0:
362,289,204924,1,10,0:1:0:0:
365,262,205007,1,10,0:1:0:0:
369,235,205091,1,10,0:1:0:0:
372,208,205174,1,14,0:1:0:0:
375,182,205257,1,10,0:1:0:0:
379,155,205341,1,10,0:1:0:0:
382,128,205424,1,10,0:1:0:0:
386,101,205508,6,0,L|333:115,3,49.5000015106202,14|2|2|2,0:1|0:2|0:1|0:2,0:0:0:0:
299,91,205841,2,0,P|237:76|86:43,1,198.000006042481,10|0,0:2|0:0,0:0:0:0:
6,105,206341,1,10,0:1:0:0:
148,256,206508,6,0,P|176:188|72:197,1,202.500007724762,10|0,0:2|0:0,0:0:0:0:
63,210,206841,5,10,0:1:0:0:
91,337,207008,2,0,P|173:349|214:322,1,99.0000030212403,2|8,0:2|0:2,0:0:0:0:
281,220,207341,2,0,P|219:236|166:249,1,99.0000030212403,2|0,0:2|0:0,0:0:0:0:
375,275,207674,1,10,0:1:0:0:
374,143,207841,2,0,P|325:131|278:118,1,99.0000030212403,10|2,0:2|0:2,0:0:0:0:
98,68,208174,5,10,0:1:0:0:
168,222,208341,2,0,P|178:172|193:105,1,99.0000030212403,2|8,0:2|0:2,0:0:0:0:
0,254,208674,2,0,B|99:224|88:356|199:310,1,198.000006042481,2|10,0:2|0:1,0:0:0:0:
335,250,209174,2,0,P|275:235|233:271,1,99.0000030212403,8|2,0:2|0:2,0:0:0:0:
411,336,209508,5,8,0:1:0:0:
439,233,209674,1,2,0:2:0:0:
407,360,209841,1,10,0:2:0:0:
445,211,210008,1,2,0:2:0:0:
317,302,210175,1,2,0:2:0:0:
496,281,210341,1,10,0:1:0:0:
326,172,210508,1,10,0:2:0:0:
407,360,210675,1,2,0:2:0:0:
507,177,210841,6,0,L|452:188,3,49.5000015106202,14|2|2|2,0:1|0:2|0:2|0:2,0:0:0:0:
424,225,211174,2,0,P|343:242|217:268,1,198.000006042481,10|0,0:2|0:0,0:0:0:0:
84,300,211674,1,10,0:1:0:0:
26,141,211841,6,0,P|122:161|238:184,1,202.500007724762,10|0,0:2|0:0,0:0:0:0:
265,162,212174,5,10,0:1:0:0:
332,45,212341,2,0,P|285:54|216:67,1,99.0000030212403,2|8,0:2|0:2,0:0:0:0:
392,135,212674,2,0,P|439:144|508:157,1,99.0000030212403,2|0,0:2|0:0,0:0:0:0:
457,50,213008,1,10,0:1:0:0:
373,220,213174,2,0,P|420:229|489:242,1,99.0000030212403,10|0,0:2|0:0,0:0:0:0:
290,120,213508,5,10,0:1:0:0:
190,174,213674,2,0,P|200:212|219:292,1,99.0000030212403,2|8,0:2|0:2,0:0:0:0:
341,369,214007,2,0,P|352:320|386:169,1,198.000006042481,2|10,0:2|0:1,0:0:0:0:
267,110,214508,2,0,P|277:148|296:228,1,99.0000030212403,8|2,0:2|0:2,0:0:0:0:
341,369,214841,5,8,0:1:0:0:
205,235,215008,1,2,0:2:0:0:
385,243,215174,1,10,0:2:0:0:
229,354,215341,1,10,0:1:0:0:
229,354,215424,1,10,0:1:0:0:
229,354,215508,2,0,P|179:345|112:337,1,99.0000030212403,0|10,0:0|0:1,0:0:0:0:
365,380,215841,1,10,0:2:0:0:
365,380,215924,1,8,0:1:0:0:
365,380,216008,1,10,0:1:0:0:
248,197,216174,6,0,L|260:252,3,49.5000015106202,14|2|2|2,0:1|0:2|0:2|0:2,0:0:0:0:
296,276,216508,2,0,P|274:179|252:82,1,198.000006042481,10|0,0:2|0:0,0:0:0:0:
364,145,217008,1,10,0:1:0:0:
206,295,217174,6,0,P|184:196|160:97,1,202.500007724762,10|0,0:2|0:0,0:0:0:0:
128,88,217508,5,10,0:1:0:0:
236,26,217674,2,0,P|282:39|331:52,1,99.0000030212403,2|8,0:2|0:2,0:0:0:0:
489,107,218008,2,0,P|441:120|393:133,1,99.0000030212403,2|0,0:2|0:2,0:0:0:0:
250,167,218341,1,10,0:1:0:0:
358,305,218508,2,0,P|367:250|345:205,1,99.0000030212403,8|2,0:2|0:2,0:0:0:0:
193,100,218841,5,10,0:1:0:0:
115,269,219008,2,0,P|185:252|238:240,1,99.0000030212403,2|8,0:2|0:2,0:0:0:0:
35,133,219341,2,0,P|19:225|-5:350,1,198.000006042481,2|10,0:2|0:1,0:0:0:0:
211,248,219841,2,0,P|141:231|88:219,1,99.0000030212403,8|2,0:2|0:2,0:0:0:0:
335,278,220174,5,8,0:1:0:0:
275,186,220341,1,2,0:2:0:0:
249,334,220508,1,10,0:2:0:0:
370,192,220674,1,2,0:2:0:0:
172,230,220841,1,2,0:2:0:0:
364,331,221008,1,10,0:1:0:0:
250,145,221174,1,10,0:2:0:0:
170,339,221341,5,10,0:1:0:0:
170,339,221424,1,8,0:1:0:0:
170,339,221508,2,0,P|221:324|283:308,1,99.0000030212403,14|2,0:1|0:2,0:0:0:0:
425,263,221841,2,0,P|377:250|329:236,1,99.0000030212403,8|2,0:2|0:2,0:0:0:0:
213,116,222174,2,0,P|222:161|235:229,1,99.0000030212403,8|2,0:1|0:2,0:0:0:0:
299,46,222508,2,0,P|308:91|321:159,1,99.0000030212403,8|2,0:2|0:2,0:0:0:0:
505,142,222841,6,0,P|457:129|409:115,1,99.0000030212403,14|2,0:1|0:2,0:0:0:0:
312,247,223175,2,0,P|360:234|408:220,1,99.0000030212403,8|2,0:2|0:2,0:0:0:0:
292,152,223508,2,0,P|244:139|196:125,1,99.0000030212403,8|2,0:1|0:2,0:0:0:0:
144,112,223758,1,8,0:1:0:0:
144,112,223841,1,10,0:1:0:0:
187,225,224008,1,10,0:1:0:0:
259,57,224174,5,14,0:2:0:0:
87,181,224341,1,10,0:1:0:0:
293,212,224508,1,10,0:2:0:0:
156,57,224674,1,10,0:1:0:0:
136,266,224841,1,14,0:2:0:0:
289,119,225008,1,10,0:1:0:0:
67,95,225174,1,10,0:2:0:0:
238,259,225341,1,10,0:1:0:0:
291,33,225508,6,0,L|230:46,3,49.5000015106202,14|10|10|10,0:1|0:1|0:1|0:1,0:0:0:0:
147,107,225841,2,0,L|208:120,3,49.5000015106202,14|10|10|10,0:1|0:1|0:1|0:1,0:0:0:0:
315,210,226174,5,14,0:1:0:0:
340,187,226257,1,10,0:1:0:0:
351,154,226340,1,10,0:1:0:0:
344,121,226424,1,10,0:1:0:0:
321,95,226507,1,14,0:1:0:0:
289,84,226590,1,10,0:1:0:0:
255,91,226674,1,10,0:1:0:0:
229,114,226757,1,10,0:1:0:0:
218,146,226840,5,14,0:1:0:0:
