osu file format v14

[General]
AudioFilename: audio.mp3
AudioLeadIn: 0
PreviewTime: 74758
Countdown: 0
SampleSet: Soft
StackLeniency: 0.3
Mode: 0
LetterboxInBreaks: 0
WidescreenStoryboard: 0

[Editor]
Bookmarks: 226833
DistanceSpacing: 0.7
BeatDivisor: 4
GridSize: 32
TimelineZoom: 2.5

[Metadata]
Title:Into The Void
TitleUnicode:Into The Void
Artist:Kurokotei
ArtistUnicode:黒皇帝
Creator:Hazu-
Version:Expert
Source:osu!
Tags:electronic instrumental mappers' guild mg featured artist fa techno hardcore j-core
BeatmapID:2335757
BeatmapSetID:1112435

[Difficulty]
HPDrainRate:5.2
CircleSize:4
OverallDifficulty:8
ApproachRate:9.2
SliderMultiplier:2
SliderTickRate:1

[Events]
//Background and Video events
0,0,"Void.jpg",0,0
//Break Periods
2,117708,127604
//Storyboard Layer 0 (Background)
//Storyboard Layer 1 (Fail)
//Storyboard Layer 2 (Pass)
//Storyboard Layer 3 (Foreground)
//Storyboard Layer 4 (Overlay)
//Storyboard Sound Samples

[TimingPoints]
175,333.333333333333,4,2,1,40,1,0
175,-333.333333333333,4,2,1,40,0,0
10841,-333.333333333333,4,2,1,50,0,0
11091,-333.333333333333,4,2,1,5,0,0
11174,-133.333333333333,4,2,1,60,0,0
11841,-100,4,2,1,60,0,0
12091,-100,4,2,1,5,0,0
12174,-333.333333333333,4,2,1,60,0,0
12424,-333.333333333333,4,2,1,5,0,0
12508,-133.333333333333,4,2,1,60,0,0
13174,-100,4,2,1,60,0,0
13424,-100,4,2,1,5,0,0
13508,-200,4,2,1,63,0,0
16174,-166.666666666667,4,2,1,66,0,0
17508,-142.857142857143,4,2,1,70,0,0
18841,-125,4,2,1,73,0,0
20174,-111.111111111111,4,2,1,77,0,0
21508,-100,4,2,1,80,0,0
64174,-100,4,3,1,85,0,0
74508,-50,4,3,1,85,0,0
74758,-50,4,3,1,5,0,0
74841,-90.9090909090909,4,3,1,90,0,1
75841,-66.6666666666667,4,3,1,90,0,1
76091,-66.6666666666667,4,3,1,5,0,1
76174,-90.9090909090909,4,3,1,90,0,1
81174,-66.6666666666667,4,3,1,90,0,1
81424,-66.6666666666667,4,3,1,5,0,1
81508,-90.9090909090909,4,3,1,90,0,1
117174,-200,4,3,1,90,0,1
117424,-200,4,2,1,5,0,1
117508,-100,4,2,1,80,0,0
138508,-66.6666666666667,4,2,1,80,0,0
138758,-66.6666666666667,4,2,1,5,0,0
138841,-100,4,2,1,90,0,0
139008,-200,4,2,1,90,0,0
139424,-200,4,2,1,5,0,0
139508,-100,4,2,1,90,0,0
141674,-200,4,2,1,90,0,0
142091,-200,4,2,1,5,0,0
142174,-100,4,2,1,90,0,0
144424,-100,4,2,1,5,0,0
144508,-74.0740740740741,4,2,1,90,0,0
144758,-74.0740740740741,4,2,1,5,0,0
144841,-100,4,2,1,90,0,0
146424,-100,4,2,1,5,0,0
146508,-74.0740740740741,4,2,1,90,0,0
146758,-74.0740740740741,4,2,1,5,0,0
146841,-100,4,2,1,90,0,0
147091,-100,4,2,1,5,0,0
147174,-74.0740740740741,4,2,1,90,0,0
147424,-74.0740740740741,4,2,1,5,0,0
147508,-100,4,2,1,90,0,0
149091,-100,4,2,1,5,0,0
149174,-74.0740740740741,4,2,1,90,0,0
149424,-74.0740740740741,4,2,1,5,0,0
149508,-100,4,2,1,90,0,0
155091,-100,4,2,1,5,0,0
155174,-100,4,2,1,90,0,0
155424,-100,4,2,1,5,0,0
155508,-100,4,2,1,90,0,0
160091,-100,4,2,1,80,0,0
162841,-100,4,2,1,90,0,0
183508,-66.6666666666667,4,2,1,90,0,0
183841,-100,4,2,1,90,0,0
205508,-90.9090909090909,4,3,1,90,0,1
206508,-66.6666666666667,4,3,1,90,0,1
206758,-66.6666666666667,4,3,1,5,0,1
206841,-90.9090909090909,4,3,1,90,0,1
211841,-66.6666666666667,4,3,1,90,0,1
212091,-66.6666666666667,4,3,1,5,0,1
212174,-90.9090909090909,4,3,1,90,0,1
217174,-66.6666666666667,4,3,1,90,0,1
217424,-66.6666666666667,4,3,1,5,0,1
217508,-90.9090909090909,4,3,1,90,0,1
226841,-90.9090909090909,4,2,1,90,0,0

[Colours]
Combo1 : 128,121,255
Combo2 : 248,233,129
Combo3 : 54,174,233
Combo4 : 209,97,237
Combo5 : 255,72,72
Combo6 : 255,98,176
Combo7 : 114,241,190
Combo8 : 255,128,64

[HitObjects]
404,108,10841,6,0,P|377:99|357:101,1,44.999998626709,10|0,0:1|0:0,0:0:0:0:
333,126,11174,6,0,P|271:112|172:92,1,150.000005722046,10|0,0:0|0:0,0:0:0:0:
125,25,11674,1,8,0:1:0:0:
28,93,11841,6,0,P|4:156|56:243,1,150,10|0,0:0|0:0,0:0:0:0:
69,257,12174,6,0,P|76:287|81:311,1,44.999998626709,10|0,0:1|0:0,0:0:0:0:
63,352,12508,6,0,P|121:292|199:321,1,150.000005722046,10|0,0:0|0:0,0:0:0:0:
254,355,13008,1,8,0:1:0:0:
338,272,13174,6,0,B|362:231|362:231|340:120,1,150,10|0,0:0|0:0,0:0:0:0:
298,110,13508,6,0,L|290:74,2,25,10|0|0,0:1|0:0|0:0,0:0:0:0:
371,26,13841,2,0,L|376:50,2,25,10|0|0,0:0|0:0|0:0,0:0:0:0:
413,169,14174,1,2,0:0:0:0:
413,169,14258,1,0,0:0:0:0:
413,169,14341,1,8,0:1:0:0:
298,110,14508,2,0,P|266:115|226:120,1,50,10|0,0:0|0:0,0:0:0:0:
135,183,14841,6,0,P|159:186|184:190,1,50,10|0,0:1|0:0,0:0:0:0:
69,114,15174,2,0,P|36:158|43:210,1,100,10|2,0:0|0:0,0:0:0:0:
108,277,15674,1,8,0:1:0:0:
184,190,15841,2,0,L|146:197,2,25,10|0|0,0:0|0:0|0:0,0:0:0:0:
280,237,16174,6,0,P|271:274|261:315,1,59.9999981689454,10|0,0:1|0:0,0:0:0:0:
369,181,16508,2,0,P|378:218|388:259,1,59.9999981689454,10|0,0:0|0:0,0:0:0:0:
271,90,16841,2,0,P|262:127|252:168,1,59.9999981689454,2|8,0:0|0:1,0:0:0:0:
360,34,17175,2,0,P|369:71|379:112,1,59.9999981689454,10|0,0:0|0:0,0:0:0:0:
419,253,17508,5,10,0:1:0:0:
419,253,17674,1,2,0:0:0:0:
451,167,17841,2,0,P|421:160|370:173,1,69.9999978637696,10|2,0:0|0:0,0:0:0:0:
475,322,18174,2,0,P|496:299|510:248,1,69.9999978637696,2|10,0:0|0:1,0:0:0:0:
331,273,18508,2,0,P|339:302|376:340,1,69.9999978637696,10|2,0:0|0:0,0:0:0:0:
389,147,18841,5,10,0:1:0:0:
298,176,19008,1,2,0:0:0:0:
429,220,19174,1,10,0:0:0:0:
280,175,19341,1,2,0:0:0:0:
409,118,19508,1,2,0:0:0:0:
308,262,19674,1,10,0:1:0:0:
278,71,19841,1,10,0:0:0:0:
417,216,20008,1,2,0:0:0:0:
199,275,20174,5,10,0:1:0:0:
283,170,20341,1,2,0:0:0:0:
279,349,20508,1,10,0:0:0:0:
184,183,20674,1,2,0:0:0:0:
289,367,20841,1,2,0:0:0:0:
350,139,21008,1,10,0:1:0:0:
144,290,21174,1,10,0:0:0:0:
379,238,21341,1,2,0:0:0:0:
177,96,21508,6,0,P|188:142|207:224,1,100,14|2,0:1|0:0,0:0:0:0:
246,327,21841,2,0,P|250:302|256:278,3,50,2|0|2|0,0:0|0:0|0:0|0:0,0:0:0:0:
364,271,22174,2,0,B|370:244|370:244|354:204,1,50,10|0,0:1|0:0,0:0:0:0:
404,160,22341,2,0,B|377:168|377:168|363:185,1,50,10|0,0:1|0:0,0:0:0:0:
287,196,22508,2,0,B|307:214|307:214|329:217,1,50,10|0,0:1|0:0,0:0:0:0:
334,102,22674,6,0,B|268:96|268:96|216:129|216:129|136:121,1,200,14|2,0:1|0:0,0:0:0:0:
36,34,23174,1,2,0:0:0:0:
36,34,23258,1,0,0:0:0:0:
36,34,23341,2,0,P|100:105|57:207,1,200,14|2,0:1|0:0,0:0:0:0:
0,300,23841,2,0,P|44:274|142:315,1,150,14|0,0:1|0:0,0:0:0:0:
166,335,24174,6,0,P|234:324|294:315,1,100,14|2,0:1|0:0,0:0:0:0:
404,270,24508,2,0,P|367:263|337:257,3,50,2|0|2|0,0:0|0:0|0:0|0:0,0:0:0:0:
301,192,24841,1,2,0:0:0:0:
287,165,24924,1,0,0:0:0:0:
266,143,25007,1,2,0:0:0:0:
240,130,25090,1,0,0:0:0:0:
210,125,25174,1,2,0:0:0:0:
181,130,25257,1,0,0:0:0:0:
155,144,25341,6,0,B|127:196|127:196|167:355,1,200,14|2,0:1|0:0,0:0:0:0:
259,226,25841,1,2,0:0:0:0:
259,226,25924,1,0,0:0:0:0:
259,226,26008,2,0,B|363:203|333:308|458:276,1,200,14|2,0:1|0:0,0:0:0:0:
512,142,26508,2,0,P|465:111|417:182,1,150,14|0,0:1|0:0,0:0:0:0:
444,195,26841,6,0,P|401:151|353:151,1,100,14|2,0:1|0:0,0:0:0:0:
197,117,27174,2,0,P|227:113|259:107,3,50,2|0|2|0,0:0|0:0|0:0|0:0,0:0:0:0:
300,42,27508,1,2,0:0:0:0:
293,71,27591,1,0,0:0:0:0:
287,100,27674,1,2,0:0:0:0:
280,129,27757,1,0,0:0:0:0:
274,159,27841,1,2,0:0:0:0:
268,188,27924,1,0,0:0:0:0:
261,217,28008,6,0,B|419:195|419:195|382:252,1,200,14|2,0:1|0:0,0:0:0:0:
341,337,28508,1,2,0:0:0:0:
341,337,28591,1,0,0:0:0:0:
341,337,28674,2,0,P|278:263|167:305,1,200,14|2,0:1|0:0,0:0:0:0:
83,377,29174,2,0,P|106:306|50:244,1,150,14|0,0:1|0:0,0:0:0:0:
28,256,29508,6,0,P|39:196|50:136,1,100,14|2,0:1|0:0,0:0:0:0:
73,29,29841,1,2,0:0:0:0:
104,17,29924,1,0,0:0:0:0:
139,19,30007,1,2,0:0:0:0:
169,36,30090,1,0,0:0:0:0:
189,64,30174,2,0,L|199:112,2,33.3333333333333,2|2|2,0:0|0:0|0:0,0:0:0:0:
219,77,30341,2,0,L|229:125,2,33.3333333333333,2|2|2,0:0|0:0|0:0,0:0:0:0:
250,89,30508,2,0,L|260:137,2,33.3333333333333,2|2|2,0:0|0:0|0:0,0:0:0:0:
219,189,30674,6,0,P|227:111|325:172,1,200,14|0,0:1|0:0,0:0:0:0:
386,234,31174,1,2,0:0:0:0:
386,234,31258,1,0,0:0:0:0:
386,234,31341,2,0,B|282:211|312:316|187:284,1,200,14|2,0:1|0:0,0:0:0:0:
79,196,31841,2,0,B|103:242|103:242|78:350,1,150,14|0,0:1|0:0,0:0:0:0:
73,373,32174,6,0,P|154:347|197:372,1,100,14|2,0:1|0:1,0:0:0:0:
301,374,32508,2,0,L|288:314,3,50,2|0|2|0,0:0|0:0|0:0|0:0,0:0:0:0:
221,262,32841,2,0,L|161:252,1,50,10|0,0:1|0:0,0:0:0:0:
195,220,33008,2,0,L|135:210,1,50,10|0,0:1|0:0,0:0:0:0:
173,182,33174,2,0,L|113:172,1,50,10|0,0:1|0:0,0:0:0:0:
238,93,33341,6,0,B|382:66|382:66|437:108,1,200,14|2,0:1|0:0,0:0:0:0:
502,194,33841,1,2,0:0:0:0:
502,194,33924,1,0,0:0:0:0:
502,194,34008,2,0,P|435:141|359:218,1,200,14|2,0:1|0:0,0:0:0:0:
298,319,34508,2,0,P|392:301|454:290,1,150,14|0,0:1|0:0,0:0:0:0:
487,314,34841,6,0,P|434:303|366:294,1,100,14|2,0:1|0:1,0:0:0:0:
259,186,35174,2,0,P|268:217|277:252,3,50,2|0|2|0,0:0|0:0|0:0|0:0,0:0:0:0:
222,305,35508,1,2,0:0:0:0:
210,277,35591,1,0,0:0:0:0:
191,254,35674,1,2,0:0:0:0:
165,238,35758,1,0,0:0:0:0:
136,231,35841,1,2,0:0:0:0:
107,232,35924,1,0,0:0:0:0:
79,243,36008,6,0,B|90:169|90:169|62:113|62:113|75:40,1,200,14|2,0:1|0:0,0:0:0:0:
308,151,36508,1,2,0:0:0:0:
308,151,36591,1,0,0:0:0:0:
308,151,36674,2,0,P|276:85|157:98,1,200,14|2,0:1|0:0,0:0:0:0:
203,305,37174,2,0,P|235:245|186:178,1,150,14|0,0:1|0:0,0:0:0:0:
157,170,37508,6,0,P|113:180|36:193,1,100,14|0,0:1|0:0,0:0:0:0:
16,351,37841,2,0,P|44:345|94:334,3,50,2|0|2|0,0:0|0:0|0:0|0:0,0:0:0:0:
138,297,38174,1,2,0:0:0:0:
167,303,38257,1,0,0:0:0:0:
196,309,38340,1,2,0:0:0:0:
225,316,38424,1,0,0:0:0:0:
255,322,38507,1,2,0:0:0:0:
284,328,38590,1,0,0:0:0:0:
313,335,38674,6,0,P|294:239|273:128,1,200,14|2,0:1|0:0,0:0:0:0:
418,45,39174,1,2,0:0:0:0:
418,45,39258,1,0,0:0:0:0:
418,45,39341,2,0,P|399:143|379:241,1,200,14|2,0:1|0:0,0:0:0:0:
170,54,39841,2,0,P|228:25|313:67,1,150,14|0,0:1|0:0,0:0:0:0:
324,84,40174,6,0,P|305:182|298:217,1,100,14|2,0:1|0:0,0:0:0:0:
282,336,40508,1,2,0:0:0:0:
266,305,40591,1,0,0:0:0:0:
238,284,40674,1,2,0:0:0:0:
204,276,40758,1,0,0:0:0:0:
170,285,40841,2,0,L|127:295,2,33.3333333333333,2|2|2,0:0|0:0|0:0,0:0:0:0:
152,305,41008,2,0,L|109:315,2,33.3333333333333,2|2|2,0:0|0:0|0:0,0:0:0:0:
135,326,41174,2,0,L|92:336,2,33.3333333333333,2|2|2,0:0|0:0|0:0,0:0:0:0:
62,370,41341,6,0,B|38:310|38:310|68:164,1,200,14|0,0:1|0:0,0:0:0:0:
231,69,41841,1,2,0:0:0:0:
231,69,41924,1,0,0:0:0:0:
231,69,42008,2,0,P|275:129|230:249,1,200,14|2,0:1|0:0,0:0:0:0:
108,285,42508,1,14,0:1:0:0:
155,176,42674,1,2,0:0:0:0:
212,330,42841,6,0,P|250:339|277:345,3,50,14|0|2|0,0:1|0:0|0:0|0:0,0:0:0:0:
353,370,43174,1,2,0:0:0:0:
366,364,43258,1,0,0:0:0:0:
378,357,43341,1,2,0:0:0:0:
398,328,43424,1,0,0:0:0:0:
404,294,43508,2,0,L|386:220,1,50,10|0,0:1|0:0,0:0:0:0:
362,258,43675,2,0,L|344:184,1,50,10|0,0:1|0:0,0:0:0:0:
315,228,43841,2,0,L|297:154,1,50,10|0,0:1|0:0,0:0:0:0:
368,111,44008,6,0,P|421:102|488:89,1,100,14|2,0:1|0:0,0:0:0:0:
311,36,44341,1,2,0:0:0:0:
281,18,44424,1,0,0:0:0:0:
246,12,44507,1,2,0:0:0:0:
212,20,44591,1,0,0:0:0:0:
183,39,44674,2,0,P|195:97|210:166,1,100,14|2,0:1|0:0,0:0:0:0:
74,200,45008,1,2,0:0:0:0:
74,200,45091,1,0,0:0:0:0:
74,200,45174,2,0,P|84:151|94:102,1,100,14|2,0:1|0:0,0:0:0:0:
193,250,45508,5,14,0:1:0:0:
66,313,45674,2,0,P|130:275|235:335,1,200,2|2,0:0|0:0,0:0:0:0:
248,370,46091,1,0,0:0:0:0:
248,370,46174,1,2,0:0:0:0:
419,247,46341,2,0,P|366:258|302:271,1,100,2|2,0:0|0:0,0:0:0:0:
194,140,46674,6,0,P|242:149|291:160,1,100,14|2,0:1|0:0,0:0:0:0:
510,90,47008,1,2,0:0:0:0:
489,61,47091,1,0,0:0:0:0:
458,45,47174,1,2,0:0:0:0:
424,46,47258,1,0,0:0:0:0:
394,63,47341,2,0,P|385:117|374:185,1,100,14|2,0:1|0:0,0:0:0:0:
302,295,47674,1,2,0:0:0:0:
302,295,47758,1,0,0:0:0:0:
302,295,47841,2,0,P|294:240|285:196,1,100,14|2,0:1|0:0,0:0:0:0:
190,68,48174,5,14,0:1:0:0:
190,68,48258,1,0,0:0:0:0:
190,68,48341,1,2,0:0:0:0:
203,105,48424,1,0,0:0:0:0:
195,143,48507,1,2,0:0:0:0:
168,172,48591,1,0,0:0:0:0:
130,182,48674,1,2,0:0:0:0:
92,170,48757,1,0,0:0:0:0:
67,140,48841,1,2,0:0:0:0:
61,101,48924,1,0,0:0:0:0:
77,65,49008,2,0,P|88:105|105:173,1,100,2|2,0:0|0:0,0:0:0:0:
167,340,49341,5,14,0:1:0:0:
167,340,49424,1,0,0:0:0:0:
167,340,49508,2,0,P|201:260|325:280,1,200,2|2,0:0|0:0,0:0:0:0:
443,361,50008,2,0,B|468:301|468:301|437:158,1,200,14|2,0:1|0:0,0:0:0:0:
353,8,50508,2,0,P|342:70|326:166,1,150,14|0,0:1|0:0,0:0:0:0:
351,189,50841,6,0,P|338:125|328:76,1,100,14|2,0:1|0:0,0:0:0:0:
181,27,51174,1,2,0:0:0:0:
157,52,51257,1,0,0:0:0:0:
145,84,51340,1,2,0:0:0:0:
148,119,51424,1,0,0:0:0:0:
165,150,51508,2,0,L|215:157,2,33.3333333333333,2|2|2,0:0|0:0|0:0,0:0:0:0:
174,173,51674,2,0,L|224:180,2,33.3333333333333,2|2|2,0:0|0:0|0:0,0:0:0:0:
184,196,51841,2,0,L|234:203,2,33.3333333333333,2|2|2,0:0|0:0|0:0,0:0:0:0:
196,225,52008,1,14,0:1:0:0:
268,32,52174,6,0,P|283:114|307:246,1,200,2|2,0:1|0:0,0:0:0:0:
421,363,52674,2,0,P|438:264|456:166,1,200,14|2,0:1|0:0,0:0:0:0:
363,10,53174,2,0,P|319:76|343:147,1,150,14|0,0:1|0:0,0:0:0:0:
363,218,53508,6,0,P|341:214|301:206,3,50,14|0|2|0,0:1|0:0|0:0|0:0,0:0:0:0:
232,283,53841,1,2,0:0:0:0:
238,273,53924,1,0,0:0:0:0:
245,262,54008,1,2,0:0:0:0:
241,227,54091,1,0,0:0:0:0:
228,195,54174,2,0,P|198:192|162:187,1,50,10|0,0:1|0:0,0:0:0:0:
192,116,54341,2,0,P|168:135|139:157,1,50,10|0,0:1|0:0,0:0:0:0:
111,78,54507,2,0,P|108:108|103:144,1,50,10|0,0:1|0:0,0:0:0:0:
34,208,54674,6,0,B|11:359|11:359|49:321,1,200,14|2,0:1|0:0,0:0:0:0:
257,284,55174,1,2,0:0:0:0:
257,284,55258,1,0,0:0:0:0:
257,284,55341,2,0,P|210:275|154:262,1,100,14|2,0:1|0:0,0:0:0:0:
332,174,55674,2,0,P|380:162|429:153,1,100,2|14,0:0|0:1,0:0:0:0:
410,265,56008,1,2,0:0:0:0:
326,70,56174,6,0,L|264:61,3,50,14|0|2|0,0:1|0:0|0:0|0:0,0:0:0:0:
177,50,56508,1,2,0:0:0:0:
177,50,56591,1,0,0:0:0:0:
177,50,56674,1,2,0:0:0:0:
144,60,56757,1,0,0:0:0:0:
115,78,56840,1,2,0:0:0:0:
91,104,56924,1,0,0:0:0:0:
75,135,57007,1,2,0:0:0:0:
67,169,57090,1,0,0:0:0:0:
68,204,57174,1,2,0:0:0:0:
79,237,57257,1,0,0:0:0:0:
98,266,57341,6,0,P|161:255|219:246,1,100,14|2,0:1|0:0,0:0:0:0:
384,223,57674,1,2,0:0:0:0:
285,183,57841,1,2,0:0:0:0:
353,304,58008,1,14,0:1:0:0:
379,121,58174,1,2,0:0:0:0:
349,335,58341,1,2,0:0:0:0:
195,144,58508,1,14,0:1:0:0:
446,243,58674,1,2,0:0:0:0:
206,377,58841,6,0,L|219:314,3,50,14|0|2|0,0:1|0:0|0:0|0:0,0:0:0:0:
308,280,59174,1,2,0:0:0:0:
308,280,59258,1,0,0:0:0:0:
308,280,59341,1,2,0:0:0:0:
329,252,59424,1,0,0:0:0:0:
343,220,59507,1,2,0:0:0:0:
349,186,59591,1,0,0:0:0:0:
344,151,59674,1,2,0:0:0:0:
331,119,59757,1,0,0:0:0:0:
310,91,59841,1,2,0:0:0:0:
282,70,59924,1,0,0:0:0:0:
250,57,60008,6,0,P|183:66|17:88,1,200,14|2,0:1|0:0,0:0:0:0:
228,249,60508,1,2,0:0:0:0:
228,249,60591,1,0,0:0:0:0:
228,249,60674,2,0,B|238:195|238:195|216:136,1,100,14|2,0:1|0:0,0:0:0:0:
84,165,61008,2,0,B|74:219|74:219|96:278,1,100,2|14,0:1|0:1,0:0:0:0:
328,193,61341,1,2,0:0:0:0:
161,84,61508,6,0,L|179:163,3,50,14|0|2|0,0:1|0:0|0:0|0:0,0:0:0:0:
241,195,61841,1,2,0:0:0:0:
235,229,61924,1,0,0:0:0:0:
229,264,62007,1,2,0:0:0:0:
224,298,62091,1,0,0:0:0:0:
218,333,62174,2,0,L|201:280,2,33.3333333333333,2|2|2,0:0|0:0|0:0,0:0:0:0:
192,323,62341,2,0,L|175:270,2,33.3333333333333,2|2|2,0:0|0:0|0:0,0:0:0:0:
166,314,62508,2,0,L|149:261,2,33.3333333333333,2|2|2,0:0|0:0|0:0,0:0:0:0:
183,204,62674,6,0,B|294:177|255:288|385:256,1,200,14|0,0:1|0:0,0:0:0:0:
471,186,63174,1,2,0:0:0:0:
471,186,63258,1,0,0:0:0:0:
471,186,63341,2,0,P|432:114|343:171,1,200,14|2,0:1|0:0,0:0:0:0:
278,333,63841,2,0,P|298:277|245:193,1,150,14|0,0:1|0:0,0:0:0:0:
227,192,64174,5,14,0:1:0:0:
92,328,64341,1,2,0:1:0:0:
92,328,64424,1,0,0:0:0:0:
92,328,64508,2,0,P|123:321|161:313,3,50,2|0|2|0,0:1|0:0|0:1|0:0,0:0:0:0:
213,265,64841,1,10,0:1:0:0:
247,259,64924,1,0,0:0:0:0:
281,266,65007,1,2,0:1:0:0:
309,286,65091,1,0,0:0:0:0:
328,315,65175,1,2,0:1:0:0:
347,343,65258,1,0,0:0:0:0:
375,363,65341,1,2,0:1:0:0:
408,370,65425,1,0,0:0:0:0:
443,365,65508,5,14,0:1:0:0:
499,265,65674,1,2,0:1:0:0:
499,265,65758,1,0,0:0:0:0:
499,265,65841,2,0,L|488:208,3,50,2|0|2|0,0:1|0:0|0:1|0:0,0:0:0:0:
470,127,66174,1,10,0:1:0:0:
457,94,66257,1,0,0:0:0:0:
437,65,66340,1,2,0:1:0:0:
410,43,66423,1,0,0:0:0:0:
378,29,66507,1,2,0:1:0:0:
344,24,66590,1,0,0:0:0:0:
309,29,66673,1,2,0:1:0:0:
277,42,66757,1,0,0:0:0:0:
249,63,66840,5,14,0:1:0:0:
163,170,67008,1,2,0:1:0:0:
163,170,67091,1,0,0:0:0:0:
163,170,67174,2,0,L|225:158,3,50,2|0|2|0,0:1|0:0|0:1|0:0,0:0:0:0:
296,187,67508,1,10,0:1:0:0:
328,199,67591,1,0,0:0:0:0:
349,226,67674,1,2,0:1:0:0:
355,260,67757,1,0,0:0:0:0:
342,292,67841,1,2,0:1:0:0:
315,314,67924,1,0,0:0:0:0:
281,318,68007,1,2,0:1:0:0:
249,305,68091,1,0,0:0:0:0:
227,278,68174,5,14,0:1:0:0:
121,196,68341,1,2,0:1:0:0:
121,196,68424,1,0,0:0:0:0:
121,196,68508,2,0,L|109:264,3,50,2|0|2|0,0:1|0:0|0:1|0:0,0:0:0:0:
65,329,68841,1,10,0:1:0:0:
70,294,68924,1,0,0:0:0:0:
76,259,69007,1,2,0:1:0:0:
82,225,69090,1,0,0:0:0:0:
88,190,69174,1,2,0:1:0:0:
94,156,69257,1,0,0:0:0:0:
100,121,69340,1,2,0:1:0:0:
106,87,69424,1,0,0:0:0:0:
112,52,69507,5,14,0:1:0:0:
279,115,69674,1,2,0:2:0:0:
279,115,69758,1,0,0:0:0:0:
279,115,69841,2,0,L|217:125,1,50,10|0,0:1|0:0,0:0:0:0:
145,139,70008,1,2,0:2:0:0:
293,28,70174,5,10,0:1:0:0:
377,182,70341,1,2,0:2:0:0:
377,182,70425,1,0,0:0:0:0:
377,182,70508,2,0,L|315:192,1,50,8|0,0:1|0:0,0:0:0:0:
243,206,70675,1,0,0:0:0:0:
405,93,70841,5,14,0:1:0:0:
492,277,71008,1,2,0:2:0:0:
492,277,71091,1,0,0:0:0:0:
492,277,71174,2,0,P|459:283|424:271,1,50,10|0,0:1|0:0,0:0:0:0:
365,240,71341,1,2,0:2:0:0:
283,121,71508,5,10,0:1:0:0:
336,355,71674,1,2,0:2:0:0:
336,355,71757,1,0,0:0:0:0:
336,355,71840,2,0,P|308:335|292:302,1,50,10|0,0:1|0:0,0:0:0:0:
272,239,72007,1,2,0:2:0:0:
364,99,72174,5,14,0:1:0:0:
382,197,72341,1,10,0:1:0:0:
280,86,72508,1,14,0:1:0:0:
452,138,72674,1,10,0:1:0:0:
256,77,72841,1,14,0:1:0:0:
346,277,73008,1,10,0:1:0:0:
395,33,73174,1,14,0:1:0:0:
194,169,73341,1,10,0:1:0:0:
432,312,73508,5,14,0:1:0:0:
459,300,73591,1,8,0:1:0:0:
481,280,73674,1,8,0:1:0:0:
495,254,73757,1,8,0:1:0:0:
507,215,73841,1,12,0:1:0:0:
501,176,73924,1,8,0:1:0:0:
481,141,74007,1,8,0:1:0:0:
446,120,74091,1,8,0:1:0:0:
396,118,74174,1,12,0:1:0:0:
354,145,74257,1,8,0:1:0:0:
344,194,74341,1,8,0:1:0:0:
371,235,74424,1,8,0:1:0:0:
420,233,74507,5,14,0:1:0:0:
65,286,74841,6,0,P|96:280|128:270,3,55.0000016784668,14|2|2|2,0:1|0:2|0:2|0:2,0:0:0:0:
204,248,75174,2,0,P|192:305|178:374,1,110.000003356934,10|2,0:2|0:2,0:0:0:0:
139,168,75508,1,0,0:0:0:0:
290,281,75674,1,10,0:1:0:0:
52,332,75841,6,0,P|12:282|66:119,1,225.000008583069,10|0,0:2|0:0,0:0:0:0:
76,121,76174,5,8,0:1:0:0:
259,60,76341,2,0,P|246:120|233:189,1,110.000003356934,2|8,0:2|0:2,0:0:0:0:
165,250,76674,1,2,0:2:0:0:
165,250,76758,1,0,0:0:0:0:
165,250,76841,2,0,L|154:187,3,55.0000016784668,2|0|10|0,0:2|0:0|0:1|0:0,0:0:0:0:
71,177,77174,2,0,L|80:231,3,55.0000016784668,10|0|2|0,0:2|0:0|0:2|0:0,0:0:0:0:
26,303,77508,5,10,0:1:0:0:
244,244,77674,2,0,P|269:304|244:373,1,110.000003356934,2|8,0:2|0:2,0:0:0:0:
124,357,78008,2,0,P|99:297|124:228,1,110.000003356934,2|0,0:2|0:0,0:0:0:0:
211,109,78341,1,8,0:1:0:0:
350,245,78508,2,0,B|295:260|295:260|224:238,1,110.000003356934,8|2,0:2|0:2,0:0:0:0:
105,108,78841,6,0,B|160:93|160:93|231:115,1,110.000003356934,8|2,0:1|0:2,0:0:0:0:
361,150,79174,2,0,P|393:146|424:139,3,55.0000016784668,10|0|2|0,0:2|0:0|0:2|0:0,0:0:0:0:
442,65,79508,2,0,P|422:39|400:15,3,55.0000016784668,2|0|10|0,0:2|0:0|0:1|0:0,0:0:0:0:
327,35,79841,2,0,P|314:64|305:95,3,55.0000016784668,8|0|2|0,0:2|0:0|0:2|0:0,0:0:0:0:
265,205,80174,5,10,0:1:0:0:
278,175,80257,1,2,0:2:0:0:
278,142,80340,1,2,0:2:0:0:
264,113,80423,1,2,0:2:0:0:
238,98,80508,2,0,P|178:93|120:85,1,110.000003356934,10|2,0:2|0:2,0:0:0:0:
13,75,80841,1,0,0:0:0:0:
197,17,81008,1,10,0:1:0:0:
48,165,81174,6,0,P|17:250|107:371,1,225.000008583069,10|0,0:2|0:0,0:0:0:0:
117,341,81508,5,10,0:1:0:0:
264,268,81674,2,0,P|214:233|148:256,1,110.000003356934,2|8,0:2|0:2,0:0:0:0:
263,370,82008,1,2,0:2:0:0:
263,370,82091,1,0,0:0:0:0:
263,370,82174,2,0,P|297:362|338:354,3,55.0000016784668,2|0|10|0,0:2|0:0|0:1|0:0,0:0:0:0:
393,295,82508,2,0,P|366:289|339:283,3,55.0000016784668,10|0|2|0,0:2|0:0|0:2|0:0,0:0:0:0:
276,224,82841,5,10,0:1:0:0:
503,200,83008,2,0,P|489:260|475:327,1,110.000003356934,2|8,0:2|0:2,0:0:0:0:
362,74,83341,2,0,P|376:134|390:201,1,110.000003356934,2|0,0:2|0:0,0:0:0:0:
470,44,83674,1,10,0:1:0:0:
262,10,83841,2,0,P|248:70|234:137,1,110.000003356934,8|2,0:2|0:2,0:0:0:0:
203,322,84174,5,10,0:1:0:0:
277,218,84341,2,0,B|226:197|226:197|149:213,1,110.000003356934,2|10,0:2|0:2,0:0:0:0:
42,324,84674,1,0,0:0:0:0:
42,324,84758,2,0,B|93:345|93:345|170:329,1,110.000003356934,10|0,0:1|0:0,0:0:0:0:
162,303,85008,2,0,B|192:297|192:297|237:312,1,55.0000016784668,10|0,0:1|3:2,0:0:0:0:
300,346,85174,1,10,0:2:0:0:
300,346,85258,1,10,0:1:0:0:
300,346,85341,1,8,0:1:0:0:
438,223,85508,6,0,L|371:235,3,55.0000016784668,14|2|2|2,0:1|0:2|0:2|0:2,0:0:0:0:
424,308,85841,1,10,0:2:0:0:
491,130,86008,2,0,P|427:118|372:107,1,110.000003356934,2|0,0:2|0:0,0:0:0:0:
204,67,86341,1,10,0:1:0:0:
301,278,86508,2,0,P|317:230|289:164,1,110.000003356934,8|2,0:2|0:2,0:0:0:0:
176,50,86841,5,8,0:1:0:0:
66,252,87008,2,0,P|127:238|189:225,1,110.000003356934,2|8,0:2|0:2,0:0:0:0:
354,158,87341,2,0,P|300:146|246:134,1,110.000003356934,2|0,0:2|0:0,0:0:0:0:
34,90,87674,1,10,0:1:0:0:
190,1,87841,2,0,P|176:62|158:138,1,110.000003356934,8|2,0:2|0:2,0:0:0:0:
105,319,88174,5,8,0:1:0:0:
79,194,88341,2,0,P|139:187|185:216,1,110.000003356934,2|8,0:2|0:2,0:0:0:0:
355,272,88674,2,0,P|307:297|253:288,1,110.000003356934,2|0,0:2|0:0,0:0:0:0:
359,149,89008,1,10,0:1:0:0:
484,241,89174,2,0,P|470:301|455:373,1,110.000003356934,8|2,0:2|0:2,0:0:0:0:
274,202,89508,5,8,0:1:0:0:
417,142,89674,2,0,P|403:202|388:274,1,110.000003356934,2|10,0:2|0:2,0:0:0:0:
248,369,90008,2,0,P|236:315|223:261,1,110.000003356934,2|2,0:2|0:2,0:0:0:0:
174,81,90341,1,10,0:1:0:0:
319,199,90508,1,10,0:2:0:0:
114,282,90674,5,10,0:1:0:0:
114,282,90758,1,8,0:1:0:0:
114,282,90841,2,0,P|123:226|132:168,1,110.000003356934,14|2,0:1|0:2,0:0:0:0:
344,45,91174,2,0,P|335:101|326:159,1,110.000003356934,8|2,0:2|0:2,0:0:0:0:
211,291,91508,2,0,P|220:235|229:177,1,110.000003356934,8|2,0:1|0:2,0:0:0:0:
441,54,91841,2,0,P|432:110|423:168,1,110.000003356934,8|2,0:2|0:2,0:0:0:0:
182,83,92174,6,0,P|238:69|307:107,1,110.000003356934,14|2,0:1|0:2,0:0:0:0:
177,270,92508,2,0,P|136:228|135:149,1,110.000003356934,8|2,0:2|0:2,0:0:0:0:
349,183,92841,2,0,P|333:238|265:279,1,110.000003356934,10|2,0:1|0:2,0:0:0:0:
260,254,93091,1,8,0:1:0:0:
260,254,93174,1,10,0:2:0:0:
261,129,93341,1,10,0:1:0:0:
434,270,93508,5,14,0:2:0:0:
355,224,93674,1,10,0:1:0:0:
459,184,93841,1,10,0:2:0:0:
333,316,94008,1,10,0:1:0:0:
378,116,94174,1,14,0:2:0:0:
492,315,94341,1,10,0:1:0:0:
218,195,94508,1,10,0:2:0:0:
472,68,94674,1,10,0:1:0:0:
370,301,94841,6,0,L|356:226,3,55.0000016784668,14|8|10|8,0:1|0:1|0:1|0:1,0:0:0:0:
303,146,95174,2,0,L|292:200,3,55.0000016784668,14|8|10|8,0:1|0:1|0:1|0:1,0:0:0:0:
253,306,95508,1,14,0:1:0:0:
225,332,95591,1,8,0:1:0:0:
186,339,95674,1,10,0:1:0:0:
150,326,95757,1,8,0:1:0:0:
117,293,95841,1,14,0:1:0:0:
115,245,95924,1,8,0:1:0:0:
138,202,96007,1,10,0:1:0:0:
185,181,96091,1,8,0:1:0:0:
233,192,96174,5,14,0:1:0:0:
375,120,96341,1,0,0:0:0:0:
347,268,96508,1,8,0:2:0:0:
153,58,96674,2,0,P|224:74|297:89,1,110.000003356934,2|0,0:2|0:0,0:0:0:0:
424,117,97008,1,10,0:1:0:0:
200,282,97174,2,0,P|189:244|220:168,1,110.000003356934,8|2,0:2|0:2,0:0:0:0:
355,48,97508,5,8,0:1:0:0:
433,271,97674,2,0,P|373:254|308:237,1,110.000003356934,2|8,0:2|0:2,0:0:0:0:
124,171,98008,2,0,P|177:156|230:141,1,110.000003356934,2|0,0:2|0:0,0:0:0:0:
422,75,98341,1,10,0:1:0:0:
339,163,98508,1,8,0:2:0:0:
360,3,98674,1,2,0:2:0:0:
475,173,98841,5,8,0:1:0:0:
275,55,99008,2,0,P|231:47|159:76,1,110.000003356934,2|8,0:2|0:2,0:0:0:0:
311,244,99341,2,0,P|339:209|350:133,1,110.000003356934,2|0,0:2|0:0,0:0:0:0:
229,17,99675,1,10,0:1:0:0:
132,176,99841,2,0,P|147:218|208:265,1,110.000003356934,8|2,0:2|0:2,0:0:0:0:
240,156,100174,5,0,0:0:0:0:
26,111,100341,2,0,P|39:161|58:241,1,110.000003356934,10|8,0:1|0:2,0:0:0:0:
133,361,100674,2,0,P|145:307|160:251,1,110.000003356934,2|0,0:2|0:0,0:0:0:0:
201,85,101008,1,10,0:1:0:0:
274,253,101174,1,8,0:2:0:0:
189,55,101341,1,2,0:2:0:0:
119,282,101508,5,8,0:1:0:0:
324,181,101674,2,0,P|274:171|184:151,1,110.000003356934,2|8,0:2|0:2,0:0:0:0:
6,234,102008,2,0,P|56:244|146:264,1,110.000003356934,2|0,0:2|0:0,0:0:0:0:
333,307,102341,1,10,0:1:0:0:
245,177,102508,1,8,0:2:0:0:
251,364,102674,1,2,0:2:0:0:
368,212,102841,5,8,0:1:0:0:
138,147,103008,2,0,P|126:191|161:259,1,110.000003356934,2|8,0:2|0:2,0:0:0:0:
295,363,103341,2,0,P|307:319|272:251,1,110.000003356934,2|0,0:2|0:0,0:0:0:0:
77,352,103674,2,0,P|131:339|204:321,1,110.000003356934,10|8,0:1|0:2,0:0:0:0:
400,264,104008,1,2,0:2:0:0:
185,182,104174,5,8,0:1:0:0:
296,361,104341,2,0,B|309:306|309:306|282:252,1,110.000003356934,2|8,0:2|0:2,0:0:0:0:
174,79,104675,2,0,B|161:134|161:134|184:181,1,110.000003356934,2|0,0:2|0:0,0:0:0:0:
397,119,105008,2,0,P|342:92|281:116,1,110.000003356934,10|8,0:1|0:2,0:0:0:0:
166,276,105341,1,2,0:2:0:0:
341,195,105508,5,0,0:0:0:0:
107,79,105674,2,0,P|126:152|139:211,1,110.000003356934,10|8,0:1|0:2,0:0:0:0:
213,350,106008,1,2,0:2:0:0:
213,350,106091,1,8,0:1:0:0:
213,350,106174,2,0,P|225:296|239:243,1,110.000003356934,2|10,0:2|0:1,0:0:0:0:
283,79,106508,1,8,0:2:0:0:
283,79,106591,1,8,0:1:0:0:
283,79,106674,1,10,0:1:0:0:
109,171,106841,6,0,B|221:148|195:257|317:226,1,220.000006713867,14|8,0:1|0:2,0:0:0:0:
473,171,107341,2,0,P|416:138|353:158,1,110.000003356934,2|0,0:2|0:0,0:0:0:0:
265,301,107674,1,10,0:1:0:0:
405,234,107841,1,10,0:2:0:0:
247,311,108008,1,2,0:2:0:0:
276,141,108174,5,10,0:1:0:0:
436,350,108341,2,0,P|371:336|304:322,1,110.000003356934,2|10,0:2|0:2,0:0:0:0:
118,269,108674,2,0,P|171:257|225:246,1,110.000003356934,2|0,0:2|0:0,0:0:0:0:
417,202,109008,1,10,0:1:0:0:
256,147,109174,1,10,0:2:0:0:
452,101,109341,1,2,0:2:0:0:
323,266,109508,5,10,0:1:0:0:
217,49,109674,2,0,P|286:67|355:87,1,110.000003356934,2|8,0:2|0:2,0:0:0:0:
512,179,110008,2,0,P|443:197|374:217,1,110.000003356934,2|0,0:2|0:0,0:0:0:0:
179,265,110341,1,8,0:1:0:0:
283,181,110508,2,0,P|318:238|310:305,1,110.000003356934,10|0,0:2|0:0,0:0:0:0:
77,341,110841,5,2,0:2:0:0:
144,137,111008,1,10,0:1:0:0:
231,306,111174,1,10,0:2:0:0:
25,190,111341,1,2,0:2:0:0:
25,190,111424,1,0,0:0:0:0:
25,190,111508,2,0,P|95:203|150:213,1,110.000003356934,0|10,0:0|0:1,0:0:0:0:
321,246,111841,1,10,0:2:0:0:
142,329,112008,5,10,0:1:0:0:
142,329,112091,1,8,0:1:0:0:
142,329,112174,1,14,0:1:0:0:
221,145,112341,1,2,0:2:0:0:
270,312,112508,1,8,0:2:0:0:
124,152,112674,1,2,0:2:0:0:
283,344,112841,1,8,0:1:0:0:
314,97,113008,1,2,0:2:0:0:
127,270,113174,1,8,0:2:0:0:
382,194,113341,1,2,0:2:0:0:
158,66,113508,5,14,0:1:0:0:
261,289,113674,1,2,0:2:0:0:
340,69,113841,1,8,0:2:0:0:
101,192,114008,1,2,0:2:0:0:
356,312,114174,2,0,P|367:275|329:193,1,110.000003356934,10|2,0:1|0:2,0:0:0:0:
323,189,114424,1,8,0:1:0:0:
323,189,114508,1,10,0:2:0:0:
219,167,114674,1,10,0:1:0:0:
255,291,114841,5,14,0:2:0:0:
303,88,115008,1,10,0:1:0:0:
250,317,115174,1,10,0:2:0:0:
106,128,115341,1,10,0:1:0:0:
364,247,115508,1,14,0:2:0:0:
70,339,115674,1,10,0:1:0:0:
233,106,115841,1,10,0:2:0:0:
312,365,116008,1,10,0:1:0:0:
58,180,116174,5,14,0:1:0:0:
83,159,116257,1,10,0:1:0:0:
114,148,116340,1,10,0:1:0:0:
147,147,116423,1,10,0:1:0:0:
188,161,116507,1,14,0:1:0:0:
215,195,116590,1,10,0:1:0:0:
243,227,116673,1,10,0:1:0:0:
280,251,116758,1,10,0:1:0:0:
334,259,116841,1,14,0:1:0:0:
384,235,116925,1,10,0:1:0:0:
410,186,117008,1,10,0:1:0:0:
402,131,117091,1,10,0:1:0:0:
366,91,117174,6,0,P|315:85|273:78,1,75,2|0,0:2|0:0,0:0:0:0:
279,60,117508,5,6,0:0:0:0:
108,106,128174,6,0,L|173:118,3,50,6|0|2|0,0:2|0:0|0:2|0:0,0:0:0:0:
211,185,128508,2,0,L|276:197,3,50,6|0|2|0,0:0|0:0|0:0|0:0,0:0:0:0:
324,131,128841,5,2,0:0:0:0:
356,117,128924,1,0,0:0:0:0:
390,118,129007,1,2,0:0:0:0:
422,132,129090,1,0,0:0:0:0:
445,158,129174,2,0,L|457:214,3,50,2|0|2|0,0:0|0:0|0:0|0:0,0:0:0:0:
512,266,129508,5,2,0:0:0:0:
480,250,129591,1,0,0:0:0:0:
446,250,129674,1,2,0:0:0:0:
415,265,129757,1,0,0:0:0:0:
394,293,129841,1,2,0:0:0:0:
373,321,129925,1,0,0:0:0:0:
342,336,130008,1,2,0:0:0:0:
308,336,130091,1,0,0:0:0:0:
276,320,130174,6,0,P|244:315|208:324,3,50,2|0|2|0,0:0|0:0|0:0|0:0,0:0:0:0:
159,363,130508,2,0,P|134:367|109:365,3,50,2|0|2|0,0:0|0:0|0:0|0:0,0:0:0:0:
51,297,130841,5,2,0:0:0:0:
51,297,130924,1,0,0:0:0:0:
51,297,131008,2,0,L|60:235,1,50,2|0,0:0|0:0,0:0:0:0:
146,206,131174,2,0,L|139:256,1,50,2|0,0:0|0:0,0:0:0:0:
69,160,131341,2,0,L|78:98,1,50,2|0,0:0|0:0,0:0:0:0:
164,69,131508,6,0,L|157:119,1,50,2|0,0:0|0:0,0:0:0:0:
236,176,131674,1,2,0:0:0:0:
261,161,131757,1,0,0:0:0:0:
291,157,131840,1,2,0:0:0:0:
321,161,131924,1,0,0:0:0:0:
348,175,132007,1,2,0:0:0:0:
368,196,132090,1,0,0:0:0:0:
382,223,132174,6,0,L|371:280,3,50,2|0|2|0,0:0|0:0|0:0|0:0,0:0:0:0:
449,310,132508,2,0,L|458:260,3,50,2|0|2|0,0:0|0:0|0:0|0:0,0:0:0:0:
500,187,132841,5,2,0:0:0:0:
510,153,132924,1,0,0:0:0:0:
505,119,133007,1,2,0:0:0:0:
487,89,133091,1,0,0:0:0:0:
459,69,133174,2,0,L|401:77,1,50,2|0,0:0|0:0,0:0:0:0:
336,36,133341,2,0,L|277:43,1,50,2|0,0:0|0:0,0:0:0:0:
238,136,133508,5,14,0:1:0:0:
254,111,133591,1,0,0:0:0:0:
258,81,133674,1,2,0:0:0:0:
250,53,133758,1,0,0:0:0:0:
230,30,133841,1,14,0:1:0:0:
203,18,133924,1,0,0:0:0:0:
173,18,134008,1,2,0:0:0:0:
146,31,134091,1,0,0:0:0:0:
127,54,134174,6,0,L|136:113,3,50,10|0|2|0,0:1|0:0|0:0|0:0,0:0:0:0:
60,148,134507,2,0,L|52:98,3,50,10|0|2|0,0:1|0:0|0:0|0:0,0:0:0:0:
0,210,134841,5,14,0:1:0:0:
32,194,134924,1,0,0:0:0:0:
66,194,135007,1,2,0:0:0:0:
97,209,135090,1,0,0:0:0:0:
118,237,135174,1,14,0:1:0:0:
139,265,135258,1,0,0:0:0:0:
170,280,135341,1,2,0:0:0:0:
204,280,135424,1,0,0:0:0:0:
236,264,135508,6,0,L|245:194,3,50,10|0|2|0,0:1|0:0|0:0|0:0,0:0:0:0:
181,153,135841,2,0,L|190:83,3,50,10|0|2|0,0:1|0:0|0:0|0:0,0:0:0:0:
261,59,136174,5,14,0:1:0:0:
454,124,136341,2,0,P|393:139|327:155,1,100,14|2,0:1|0:0,0:0:0:0:
108,209,136674,1,14,0:1:0:0:
246,99,136841,1,14,0:1:0:0:
296,304,137008,2,0,P|235:289|169:273,1,100,14|2,0:1|0:0,0:0:0:0:
17,231,137341,1,14,0:1:0:0:
246,99,137508,6,0,P|269:165|247:218,1,100,14|2,0:1|0:0,0:0:0:0:
117,297,137841,2,0,P|94:231|116:178,1,100,14|2,0:1|0:0,0:0:0:0:
335,318,138174,2,0,P|307:323|270:332,1,50,10|0,0:1|0:0,0:0:0:0:
201,344,138341,1,10,0:1:0:0:
201,344,138424,1,8,0:1:0:0:
201,344,138508,1,10,0:0:0:0:
449,239,138841,5,14,0:1:0:0:
384,297,139008,2,0,P|335:246|282:250,1,125,2|0,0:0|0:0,0:0:0:0:
261,272,139508,5,8,0:0:0:0:
160,304,139674,2,0,L|151:353,3,50,2|2|2|2,0:0|0:0|0:0|0:0,0:0:0:0:
122,365,140008,1,2,0:0:0:0:
56,223,140174,6,0,L|114:234,3,50,10|2|2|2,0:1|0:0|0:0|0:0,0:0:0:0:
139,217,140508,1,2,0:0:0:0:
255,195,140674,1,10,0:1:0:0:
370,293,140841,1,10,0:0:0:0:
349,264,140924,1,0,0:0:0:0:
343,230,141007,1,2,0:0:0:0:
352,196,141091,1,0,0:0:0:0:
374,170,141174,1,2,0:0:0:0:
396,144,141258,1,0,0:0:0:0:
405,110,141341,1,2,0:0:0:0:
399,76,141425,1,0,0:0:0:0:
378,47,141508,5,10,0:1:0:0:
276,20,141674,2,0,P|287:72|303:151,1,125,2|0,0:0|0:0,0:0:0:0:
285,167,142174,5,10,0:0:0:0:
134,114,142341,2,0,L|211:127,3,50,2|2|2|2,0:0|0:0|0:0|0:0,0:0:0:0:
204,146,142674,1,2,0:0:0:0:
53,184,142841,6,0,L|40:126,2,50,10|2|2,0:1|0:0|0:0,0:0:0:0:
22,216,143091,1,10,0:1:0:0:
22,216,143174,2,0,L|32:264,1,50,2|2,0:0|0:0,0:0:0:0:
73,269,143341,2,0,L|83:317,1,50,10|2,0:1|0:0,0:0:0:0:
160,220,143508,1,10,0:0:0:0:
183,201,143591,1,0,0:0:0:0:
211,189,143674,1,2,0:0:0:0:
240,185,143758,1,0,0:0:0:0:
270,189,143841,1,2,0:0:0:0:
297,200,143924,1,0,0:0:0:0:
321,219,144008,1,2,0:0:0:0:
339,242,144091,1,0,0:0:0:0:
351,270,144174,6,0,P|302:258|182:229,1,150,10|0,0:1|0:0,0:0:0:0:
157,248,144508,6,0,P|229:265|368:298,1,202.500000772476,2|0,0:0|0:0,0:0:0:0:
395,279,144841,6,0,P|440:175|294:194,1,300,10|0,0:0|0:0,0:0:0:0:
209,284,145508,1,10,0:1:0:0:
218,286,145591,1,0,0:0:0:0:
228,288,145674,1,2,0:0:0:0:
238,290,145758,1,0,0:0:0:0:
248,292,145841,1,2,0:0:0:0:
257,294,145924,1,0,0:0:0:0:
267,295,146008,2,0,L|217:309,1,50,10|0,0:1|0:0,0:0:0:0:
119,336,146174,6,0,P|99:261|141:193,1,150,10|0,0:0|0:0,0:0:0:0:
168,201,146508,6,0,P|154:135|139:60,1,135.000000514984,2|0,0:0|0:0,0:0:0:0:
273,25,146841,6,0,P|331:92|304:156,1,150,10|0,0:1|0:0,0:0:0:0:
275,159,147174,6,0,B|393:136|360:224|465:203,1,202.500000772476,2|0,0:0|0:0,0:0:0:0:
487,179,147508,6,0,P|513:85|360:86,1,300,10|0,0:0|0:0,0:0:0:0:
314,212,148174,6,0,P|350:214|383:192,2,50,10|0|0,0:1|0:0|0:0,0:0:0:0:
289,175,148424,1,10,0:1:0:0:
289,175,148508,2,0,P|264:171|240:177,1,50,0|0,0:0|0:0,0:0:0:0:
219,211,148674,2,0,P|195:217|170:213,1,50,10|0,0:1|0:0,0:0:0:0:
142,191,148841,6,0,P|163:280|181:354,1,150,10|0,0:0|0:0,0:0:0:0:
151,359,149174,6,0,P|133:286|103:158,1,202.500000772476,2|0,0:0|0:0,0:0:0:0:
128,116,149508,6,0,B|238:86|214:189|320:159,1,200,14|8,0:1|0:0,0:0:0:0:
391,67,150008,2,0,P|349:51|291:77,1,100,2|0,0:0|0:0,0:0:0:0:
470,180,150341,2,0,L|480:117,3,50,10|0|10|0,0:1|0:0|0:0|0:0,0:0:0:0:
469,102,150674,1,2,0:0:0:0:
340,193,150841,6,0,L|347:242,3,50,10|0|2|0,0:1|0:0|0:0|0:0,0:0:0:0:
373,255,151174,1,10,0:0:0:0:
410,149,151341,1,2,0:0:0:0:
232,192,151508,1,2,0:0:0:0:
200,207,151591,1,0,0:0:0:0:
180,235,151674,1,10,0:1:0:0:
175,269,151758,1,0,0:0:0:0:
187,301,151841,1,10,0:0:0:0:
213,324,151924,1,0,0:0:0:0:
247,332,152008,1,2,0:0:0:0:
281,323,152091,1,0,0:0:0:0:
306,299,152174,6,0,P|315:235|325:166,1,100,10|0,0:1|0:0,0:0:0:0:
462,135,152508,2,0,P|454:184|447:234,1,100,10|0,0:0|0:0,0:0:0:0:
323,89,152841,1,0,0:0:0:0:
474,6,153008,2,0,L|460:90,3,50,10|0|10|0,0:1|0:0|0:0|0:0,0:0:0:0:
435,33,153341,1,2,0:0:0:0:
381,152,153508,6,0,L|395:236,3,50,10|0|2|0,0:1|0:0|0:0|0:0,0:0:0:0:
420,179,153841,1,10,0:0:0:0:
320,102,154008,1,2,0:0:0:0:
196,239,154174,1,2,0:0:0:0:
227,225,154257,1,0,0:0:0:0:
262,224,154340,1,10,0:1:0:0:
294,237,154424,1,0,0:0:0:0:
319,262,154508,1,10,0:0:0:0:
343,286,154591,1,0,0:0:0:0:
375,299,154675,1,10,0:1:0:0:
410,299,154758,1,8,0:1:0:0:
442,285,154841,6,0,P|466:222|410:131,1,150,14|0,0:1|0:0,0:0:0:0:
399,129,155174,2,0,P|319:120|222:111,1,150,14|0,0:0|0:0,0:0:0:0:
212,143,155508,2,0,P|240:61|105:108,1,300,10|0,0:1|0:0,0:0:0:0:
3,188,156174,1,14,0:1:0:0:
34,174,156257,1,0,0:0:0:0:
69,173,156340,1,2,0:0:0:0:
101,186,156424,1,0,0:0:0:0:
126,211,156508,1,10,0:0:0:0:
150,235,156591,1,0,0:0:0:0:
182,248,156675,1,2,0:0:0:0:
217,248,156758,1,0,0:0:0:0:
249,234,156841,5,10,0:1:0:0:
303,148,157008,1,8,0:1:0:0:
303,148,157091,1,8,0:1:0:0:
303,148,157174,2,0,P|267:130|199:147,1,100,8|8,0:0|0:1,0:0:0:0:
62,289,157508,5,14,0:1:0:0:
166,271,157674,1,8,0:1:0:0:
37,302,157841,1,10,0:0:0:0:
142,187,158008,1,8,0:1:0:0:
130,350,158174,1,14,0:1:0:0:
44,149,158341,1,8,0:1:0:0:
256,266,158508,1,10,0:0:0:0:
33,368,158674,1,8,0:1:0:0:
168,174,158841,6,0,L|241:190,3,50,14|10|10|10,0:1|0:1|0:1|0:1,0:0:0:0:
266,250,159174,2,0,L|315:240,3,50,10|10|10|10,0:1|0:1|0:1|0:1,0:0:0:0:
386,313,159508,1,14,0:1:0:0:
386,313,159591,1,10,0:1:0:0:
386,313,159674,1,10,0:1:0:0:
413,272,159757,1,10,0:1:0:0:
418,222,159840,1,10,0:1:0:0:
398,177,159924,1,10,0:1:0:0:
359,147,160007,1,10,0:1:0:0:
311,131,160091,5,10,0:1:0:0:
311,131,160174,2,0,P|247:143|168:158,1,100,4|2,0:0|0:0,0:0:0:0:
32,52,160508,2,0,P|96:68|142:80,1,100,6|0,3:2|3:0,0:0:0:0:
226,235,160841,1,8,0:1:0:0:
153,273,161008,1,8,0:1:0:0:
79,235,161174,1,8,3:1:0:0:
69,150,161341,1,8,3:1:0:0:
335,256,161674,6,0,L|343:299,8,25,0|0|0|0|0|0|0|0|0,3:0|3:0|3:0|3:0|3:0|3:0|3:0|3:0|3:0,0:0:0:0:
413,359,162174,2,0,L|429:283,1,50,0|0,3:0|3:0,0:0:0:0:
452,297,162341,2,0,P|469:246|426:175,1,100,0|8,3:0|0:1,0:0:0:0:
390,156,162591,1,8,0:1:0:0:
390,156,162675,1,8,0:0:0:0:
265,235,162841,6,0,P|300:237|324:229,3,50,14|2|0|2,0:1|0:0|0:0|0:0,0:0:0:0:
272,149,163174,2,0,P|237:147|213:155,3,50,14|0|2|0,0:1|0:0|0:0|0:0,0:0:0:0:
163,256,163508,5,10,0:1:0:0:
187,213,163591,1,2,0:0:0:0:
183,164,163674,1,0,0:0:0:0:
151,127,163758,1,2,0:0:0:0:
103,115,163841,2,0,L|35:108,1,50,10|0,0:1|0:0,0:0:0:0:
0,187,164008,2,0,L|49:192,1,50,2|2,0:0|0:0,0:0:0:0:
123,244,164174,6,0,L|132:293,3,50,10|2|0|2,0:1|0:0|0:0|0:0,0:0:0:0:
203,346,164508,2,0,L|212:296,3,50,10|0|2|0,0:1|0:0|0:0|0:0,0:0:0:0:
287,234,164841,6,0,L|296:283,3,50,10|2|0|2,0:1|0:0|0:0|0:0,0:0:0:0:
367,336,165175,2,0,L|376:286,3,50,10|0|2|2,0:1|0:0|0:0|0:0,0:0:0:0:
460,248,165508,5,10,0:1:0:0:
484,205,165591,1,0,0:0:0:0:
480,156,165674,1,2,0:0:0:0:
448,119,165758,1,2,0:0:0:0:
400,107,165841,2,0,L|331:99,3,50,8|0|2|0,0:1|0:0|0:0|0:0,0:0:0:0:
241,33,166174,5,10,0:1:0:0:
251,81,166257,1,2,0:0:0:0:
262,130,166340,1,0,0:0:0:0:
273,179,166424,1,2,0:0:0:0:
284,228,166508,2,0,L|299:155,3,50,10|0|2|0,0:1|0:0|0:0|0:0,0:0:0:0:
372,106,166841,5,10,0:1:0:0:
372,106,166924,1,2,0:0:0:0:
372,106,167008,2,0,L|382:154,1,50,0|2,0:0|0:0,0:0:0:0:
470,187,167174,1,10,0:1:0:0:
503,223,167257,1,0,0:0:0:0:
512,271,167340,1,2,0:0:0:0:
506,319,167424,1,0,0:0:0:0:
474,358,167508,6,0,L|412:349,1,50,10|2,0:1|0:0,0:0:0:0:
390,273,167674,2,0,L|327:282,1,50,0|2,0:0|0:0,0:0:0:0:
282,348,167841,2,0,L|219:338,1,50,10|0,0:1|0:0,0:0:0:0:
197,262,168007,2,0,L|134:271,1,50,2|0,0:0|0:0,0:0:0:0:
70,345,168174,5,10,0:1:0:0:
44,302,168257,1,2,0:0:0:0:
41,253,168340,1,0,0:0:0:0:
61,207,168424,1,2,0:0:0:0:
100,176,168508,2,0,L|173:191,3,50,10|0|2|0,0:1|0:0|0:0|0:0,0:0:0:0:
257,205,168841,5,10,0:1:0:0:
282,162,168924,1,2,0:0:0:0:
285,113,169007,1,0,0:0:0:0:
265,67,169091,1,2,0:0:0:0:
226,36,169175,2,0,L|153:50,3,50,10|0|2|2,0:1|0:0|0:0|0:0,0:0:0:0:
98,107,169508,6,0,L|170:121,3,50,10|2|0|2,0:1|0:0|0:0|0:0,0:0:0:0:
206,188,169841,2,0,L|133:202,3,50,10|0|2|0,0:1|0:0|0:0|0:0,0:0:0:0:
41,252,170174,5,10,0:1:0:0:
82,225,170257,1,2,0:0:0:0:
131,223,170340,1,0,0:0:0:0:
175,246,170424,1,2,0:0:0:0:
200,288,170508,2,0,L|191:358,1,50,10|0,0:1|0:0,0:0:0:0:
287,268,170674,2,0,L|278:338,1,50,2|2,0:0|0:0,0:0:0:0:
369,351,170841,5,10,0:1:0:0:
393,325,170924,1,0,0:0:0:0:
410,295,171007,1,2,0:0:0:0:
418,261,171091,1,2,0:0:0:0:
417,226,171174,1,8,0:1:0:0:
408,193,171257,1,0,0:0:0:0:
389,163,171341,1,2,0:0:0:0:
364,139,171424,1,0,0:0:0:0:
333,122,171508,6,0,P|310:126|270:133,3,50,10|2|0|2,0:1|0:0|0:0|0:0,0:0:0:0:
205,85,171841,2,0,P|182:89|142:96,3,50,10|0|2|0,0:1|0:0|0:0|0:0,0:0:0:0:
83,150,172174,6,0,L|74:199,1,50,10|2,0:1|0:0,0:0:0:0:
157,240,172341,2,0,L|165:190,1,50,0|2,0:0|0:0,0:0:0:0:
86,307,172507,1,10,0:1:0:0:
127,334,172591,1,0,0:0:0:0:
176,336,172674,1,2,0:0:0:0:
220,313,172757,1,0,0:1:0:0:
245,271,172841,6,0,L|255:202,3,50,10|2|0|2,0:1|0:0|0:0|0:0,0:0:0:0:
338,196,173174,2,0,L|330:245,1,50,10|0,0:1|0:0,0:0:0:0:
425,174,173341,2,0,L|417:223,1,50,10|0,0:1|0:0,0:0:0:0:
378,66,173508,5,14,0:1:0:0:
334,43,173591,1,2,0:0:0:0:
284,44,173674,1,0,0:0:0:0:
241,69,173758,1,2,0:0:0:0:
216,111,173841,1,10,0:0:0:0:
190,153,173925,1,0,0:0:0:0:
148,178,174008,1,2,0:0:0:0:
98,179,174091,1,0,0:0:0:0:
54,156,174174,6,0,L|42:92,3,50,10|2|0|2,0:1|0:0|0:0|0:0,0:0:0:0:
119,33,174508,2,0,L|127:82,3,50,10|0|2|2,0:0|0:0|0:0|0:0,0:0:0:0:
259,150,174841,5,10,0:1:0:0:
259,150,174924,1,2,0:0:0:0:
259,150,175008,2,0,L|185:138,1,50,0|2,0:0|0:0,0:0:0:0:
337,69,175174,1,10,0:0:0:0:
369,106,175257,1,0,0:0:0:0:
379,155,175340,1,2,0:0:0:0:
364,202,175424,1,0,0:0:0:0:
329,237,175508,6,0,L|343:309,3,50,10|2|0|2,0:1|0:0|0:0|0:0,0:0:0:0:
252,367,175841,2,0,L|261:317,3,50,10|0|2|2,0:0|0:0|0:0|0:0,0:0:0:0:
430,311,176174,5,10,0:1:0:0:
459,270,176257,1,0,0:0:0:0:
465,221,176340,1,2,0:0:0:0:
447,175,176424,1,2,0:0:0:0:
410,143,176508,2,0,P|377:149|334:156,1,50,8|0,0:0|0:0,0:0:0:0:
257,92,176674,2,0,P|281:87|306:83,1,50,2|0,0:0|0:0,0:0:0:0:
174,200,176841,6,0,P|179:167|184:135,3,50,10|2|0|2,0:1|0:0|0:0|0:0,0:0:0:0:
86,94,177174,1,10,0:0:0:0:
48,126,177257,1,0,0:0:0:0:
31,172,177340,1,2,0:0:0:0:
36,222,177424,1,0,0:0:0:0:
64,262,177508,6,0,B|93:259|93:259|130:271,1,50,10|2,0:1|0:0,0:0:0:0:
180,355,177675,2,0,B|151:358|151:358|114:346,1,50,0|2,0:0|0:0,0:0:0:0:
219,267,177841,2,0,B|247:263|247:263|284:275,1,50,10|0,0:0|0:0,0:0:0:0:
334,359,178008,2,0,B|305:362|305:362|268:350,1,50,2|0,0:0|0:0,0:0:0:0:
436,255,178174,6,0,L|424:323,1,50,10|2,0:1|0:0,0:0:0:0:
361,172,178341,1,0,0:0:0:0:
361,172,178424,1,10,0:1:0:0:
361,172,178508,2,0,L|349:240,1,50,10|0,0:1|0:0,0:0:0:0:
466,124,178674,2,0,L|454:192,1,50,10|0,0:1|0:0,0:0:0:0:
338,67,178841,6,0,P|383:56|403:50,3,50,14|2|0|2,0:1|0:0|0:0|0:0,0:0:0:0:
237,123,179174,2,0,P|282:134|302:140,3,50,10|0|2|0,0:0|0:0|0:0|0:0,0:0:0:0:
148,60,179508,6,0,P|193:49|213:43,3,50,10|2|0|2,0:0|0:0|0:0|0:0,0:0:0:0:
47,116,179841,2,0,P|92:127|112:133,3,50,10|0|2|0,0:0|0:0|0:0|0:0,0:0:0:0:
176,238,180174,6,0,L|163:166,3,50,14|2|0|2,0:1|0:0|0:0|0:0,0:0:0:0:
245,138,180508,2,0,L|253:187,3,50,10|0|2|0,0:0|0:0|0:0|0:0,0:0:0:0:
347,214,180841,6,0,L|334:142,3,50,10|2|0|2,0:0|0:0|0:0|0:0,0:0:0:0:
416,114,181175,2,0,L|424:163,3,50,10|0|2|0,0:0|0:0|0:0|0:0,0:0:0:0:
445,269,181508,5,14,0:2:0:0:
338,164,181674,1,10,0:1:0:0:
465,291,181841,1,10,0:2:0:0:
258,224,182008,1,10,0:1:0:0:
483,311,182174,1,10,0:2:0:0:
204,321,182341,1,10,0:1:0:0:
349,128,182508,1,10,0:2:0:0:
422,374,182674,1,10,0:1:0:0:
235,227,182841,6,0,L|294:215,1,50,10|2,0:1|0:0,0:0:0:0:
342,246,183008,2,0,L|312:240,4,25,2|0|0|0|10,3:0|3:0|3:0|3:0|3:1,0:0:0:0:
142,157,183341,1,2,0:0:0:0:
142,157,183424,1,0,0:0:0:0:
142,157,183508,2,0,P|215:209|193:353,1,250.000009536744,8|0,0:1|0:0,0:0:0:0:
161,365,183841,1,10,0:1:0:0:
36,305,184008,2,0,L|35:318,4,12.5,0|0|0|0|0,3:0|3:0|3:0|3:0|3:0,0:0:0:0:
59,287,184174,6,0,L|68:226,3,50,14|0|2|0,0:1|0:0|0:0|0:0,0:0:0:0:
148,176,184508,1,10,0:0:0:0:
148,176,184591,1,0,0:0:0:0:
148,176,184674,2,0,L|159:239,1,50,2|0,0:0|0:0,0:0:0:0:
170,304,184841,1,10,0:1:0:0:
172,317,184924,1,0,0:0:0:0:
174,329,185008,5,2,0:0:0:0:
65,150,185175,1,10,0:0:0:0:
251,231,185341,1,2,0:0:0:0:
65,341,185508,5,10,0:1:0:0:
65,341,185591,1,0,0:0:0:0:
65,341,185674,2,0,L|76:278,1,50,2|0,0:0|0:0,0:0:0:0:
101,213,185841,1,10,0:0:0:0:
108,204,185924,1,0,0:0:0:0:
116,196,186008,1,2,0:0:0:0:
157,169,186091,1,0,0:0:0:0:
206,167,186174,1,10,0:1:0:0:
249,192,186258,1,0,0:0:0:0:
274,235,186341,5,2,0:0:0:0:
351,373,186508,1,10,0:0:0:0:
187,285,186674,1,2,0:0:0:0:
392,201,186841,5,10,0:1:0:0:
392,201,186924,1,0,0:0:0:0:
392,201,187008,2,0,L|373:279,1,50,2|0,0:0|0:0,0:0:0:0:
285,277,187174,2,0,L|304:199,1,50,10|0,0:0|0:0,0:0:0:0:
318,143,187341,5,2,0:0:0:0:
487,181,187508,1,10,0:1:0:0:
487,181,187591,1,0,0:0:0:0:
487,181,187674,2,0,L|468:259,1,50,2|0,0:0|0:0,0:0:0:0:
450,315,187841,5,8,0:0:0:0:
260,354,188008,2,0,L|271:305,1,50,2|0,0:0|0:0,0:0:0:0:
293,222,188174,1,10,0:1:0:0:
296,210,188258,1,0,0:0:0:0:
298,201,188341,5,2,0:0:0:0:
457,146,188508,2,0,L|438:224,3,50,10|0|2|0,0:0|0:0|0:0|0:0,0:0:0:0:
483,270,188841,6,0,P|435:281|390:261,1,100,10|2,0:1|0:0,0:0:0:0:
419,67,189174,2,0,P|467:56|512:76,1,100,10|2,0:0|0:0,0:0:0:0:
301,166,189508,5,10,0:1:0:0:
274,179,189591,1,0,0:0:0:0:
244,182,189674,1,2,0:0:0:0:
216,173,189758,1,0,0:0:0:0:
192,155,189841,1,10,0:0:0:0:
176,130,189924,1,0,0:0:0:0:
160,104,190008,1,2,0:0:0:0:
136,86,190091,1,0,0:0:0:0:
108,78,190175,1,10,0:1:0:0:
78,80,190258,1,0,0:0:0:0:
51,94,190341,5,2,0:0:0:0:
0,198,190508,2,0,P|66:203|106:175,1,100,10|2,0:0|0:0,0:0:0:0:
268,81,190841,5,10,0:1:0:0:
168,32,191008,1,2,0:0:0:0:
298,90,191174,1,10,0:0:0:0:
151,126,191341,1,2,0:0:0:0:
275,11,191508,1,10,0:1:0:0:
289,196,191674,1,2,0:0:0:0:
155,32,191841,1,10,0:0:0:0:
382,119,192008,1,2,0:0:0:0:
170,228,192174,6,0,P|177:200|188:154,3,50,10|0|2|0,0:1|0:0|0:0|0:0,0:0:0:0:
278,151,192508,2,0,P|271:179|260:225,3,50,10|0|2|0,0:0|0:0|0:0|0:0,0:0:0:0:
342,261,192841,6,0,P|349:233|360:187,3,50,10|0|2|0,0:1|0:0|0:0|0:0,0:0:0:0:
450,184,193175,2,0,P|443:212|432:258,3,50,10|0|2|0,0:0|0:0|0:0|0:0,0:0:0:0:
406,363,193508,5,10,0:1:0:0:
380,320,193591,1,0,0:0:0:0:
338,293,193674,1,2,0:0:0:0:
289,289,193758,1,0,0:0:0:0:
243,307,193841,2,0,L|188:321,3,50,10|0|2|0,0:0|0:0|0:0|0:0,0:0:0:0:
49,358,194174,5,10,0:1:0:0:
22,316,194257,1,0,0:0:0:0:
17,266,194340,1,2,0:0:0:0:
35,220,194424,1,0,0:0:0:0:
72,187,194508,2,0,L|131:197,1,50,10|0,0:0|0:0,0:0:0:0:
226,140,194674,2,0,L|167:130,1,50,10|0,0:1|0:0,0:0:0:0:
75,37,194841,5,14,0:1:0:0:
75,37,194924,1,0,0:0:0:0:
75,37,195008,1,2,0:0:0:0:
75,37,195091,1,0,0:0:0:0:
75,37,195174,1,10,0:0:0:0:
75,37,195257,1,0,0:0:0:0:
75,37,195341,2,0,L|85:95,1,50,2|0,0:0|0:0,0:0:0:0:
136,182,195508,1,10,0:1:0:0:
142,167,195591,1,2,0:0:0:0:
147,153,195675,5,0,0:0:0:0:
0,76,195841,1,10,0:0:0:0:
157,12,196008,1,2,0:0:0:0:
28,170,196174,5,10,0:1:0:0:
17,186,196257,1,0,0:0:0:0:
9,205,196340,1,2,0:0:0:0:
5,224,196424,1,0,0:0:0:0:
4,244,196507,1,10,0:0:0:0:
6,264,196590,1,0,0:0:0:0:
12,283,196674,1,2,0:0:0:0:
21,301,196757,1,0,0:0:0:0:
33,317,196840,1,10,0:1:0:0:
47,331,196924,1,2,0:0:0:0:
64,342,197007,5,0,0:0:0:0:
240,299,197174,1,10,0:0:0:0:
113,231,197341,1,2,0:0:0:0:
322,169,197508,5,10,0:1:0:0:
322,169,197591,1,0,0:0:0:0:
322,169,197674,2,0,L|312:230,1,50,2|0,0:0|0:0,0:0:0:0:
226,216,197841,1,10,0:0:0:0:
229,202,197924,1,0,0:0:0:0:
231,188,198008,5,2,0:0:0:0:
411,126,198174,2,0,L|401:187,1,50,10|2,0:1|0:0,0:0:0:0:
387,255,198341,1,0,0:0:0:0:
383,272,198424,1,2,0:0:0:0:
380,287,198508,5,10,0:0:0:0:
322,94,198674,2,0,L|312:33,1,50,2|0,0:0|0:0,0:0:0:0:
226,30,198841,2,0,L|236:91,1,50,10|2,0:1|0:0,0:0:0:0:
393,16,199008,5,0,0:0:0:0:
338,192,199174,1,10,0:0:0:0:
226,30,199341,1,2,0:0:0:0:
430,104,199508,1,10,0:1:0:0:
430,104,199591,2,0,L|375:115,1,50,2|0,0:0|0:0,0:0:0:0:
258,154,199758,1,8,0:1:0:0:
258,154,199841,1,10,0:0:0:0:
374,28,200008,1,10,0:1:0:0:
412,242,200174,5,14,0:1:0:0:
349,140,200341,1,10,0:1:0:0:
426,261,200508,1,10,0:1:0:0:
450,89,200674,1,10,0:1:0:0:
315,276,200841,1,10,0:1:0:0:
502,175,201008,1,8,0:1:0:0:
300,107,201174,1,10,0:1:0:0:
448,294,201341,1,10,0:1:0:0:
448,70,201508,5,14,0:1:0:0:
389,189,201674,1,8,0:1:0:0:
456,50,201841,1,10,0:1:0:0:
490,218,202008,1,10,0:1:0:0:
318,115,202174,1,10,0:1:0:0:
512,229,202341,1,8,0:1:0:0:
412,24,202508,1,10,0:1:0:0:
324,252,202674,5,10,0:1:0:0:
324,252,202758,1,8,0:1:0:0:
324,252,202841,1,14,0:1:0:0:
453,139,203008,1,10,0:1:0:0:
247,192,203174,1,10,0:1:0:0:
436,283,203341,1,10,0:1:0:0:
319,84,203508,1,14,0:1:0:0:
249,325,203674,1,10,0:1:0:0:
437,159,203841,1,10,0:1:0:0:
182,94,204008,1,10,0:1:0:0:
362,283,204174,6,0,L|375:227,3,50,14|10|10|10,0:1|0:1|0:1|0:1,0:0:0:0:
282,167,204508,2,0,L|295:223,3,50,14|10|10|10,0:1|0:1|0:1|0:1,0:0:0:0:
455,286,204841,1,14,0:1:0:0:
475,258,204924,1,10,0:1:0:0:
488,225,205007,1,10,0:1:0:0:
490,190,205091,1,10,0:1:0:0:
479,151,205174,1,14,0:1:0:0:
459,116,205257,1,10,0:1:0:0:
427,90,205341,1,10,0:1:0:0:
391,71,205424,1,10,0:1:0:0:
347,63,205508,6,0,P|315:69|289:73,3,55.0000016784668,14|2|2|2,0:1|0:2|0:1|0:2,0:0:0:0:
203,101,205841,1,10,0:2:0:0:
337,264,206008,2,0,P|347:206|313:156,1,110.000003356934,2|0,0:2|0:0,0:0:0:0:
203,101,206341,1,10,0:1:0:0:
36,168,206508,6,0,B|153:144|131:267|251:230,1,225.000008583069,10|0,0:2|0:0,0:0:0:0:
269,218,206841,5,10,0:1:0:0:
368,170,207008,2,0,P|381:135|346:65,1,110.000003356934,2|8,0:2|0:2,0:0:0:0:
175,27,207341,2,0,P|191:81|208:145,1,110.000003356934,2|0,0:2|0:0,0:0:0:0:
274,31,207674,1,10,0:1:0:0:
86,40,207841,2,0,P|102:94|119:158,1,110.000003356934,10|2,0:2|0:2,0:0:0:0:
138,317,208174,5,10,0:1:0:0:
191,245,208341,2,0,P|142:226|71:255,1,110.000003356934,2|8,0:2|0:2,0:0:0:0:
278,218,208674,2,0,P|256:169|186:140,1,110.000003356934,2|0,0:2|0:0,0:0:0:0:
365,248,209008,1,10,0:1:0:0:
365,248,209174,2,0,P|384:199|355:127,1,110.000003356934,8|2,0:2|0:2,0:0:0:0:
246,48,209508,5,8,0:1:0:0:
258,163,209674,1,2,0:2:0:0:
337,43,209841,1,10,0:2:0:0:
245,187,210008,1,2,0:2:0:0:
155,23,210174,1,2,0:2:0:0:
339,124,210341,1,10,0:1:0:0:
147,198,210508,1,10,0:2:0:0:
255,33,210675,1,2,0:2:0:0:
355,227,210841,6,0,P|314:216|291:212,3,55.0000016784668,14|2|2|2,0:1|0:2|0:2|0:2,0:0:0:0:
228,259,211174,1,10,0:2:0:0:
425,290,211341,2,0,P|451:221|412:158,1,110.000003356934,2|0,0:2|0:0,0:0:0:0:
349,112,211674,1,10,0:1:0:0:
162,50,211841,6,0,P|179:129|212:304,1,225.000008583069,10|0,0:2|0:0,0:0:0:0:
186,305,212174,5,10,0:1:0:0:
74,275,212341,2,0,P|81:220|89:146,1,110.000003356934,2|8,0:2|0:2,0:0:0:0:
292,122,212674,2,0,P|285:177|277:251,1,110.000003356934,2|0,0:2|0:0,0:0:0:0:
211,43,213008,1,10,0:1:0:0:
391,74,213174,2,0,P|384:129|376:203,1,110.000003356934,10|0,0:2|0:0,0:0:0:0:
238,320,213508,5,10,0:1:0:0:
185,239,213674,2,0,B|243:226|243:226|293:244,1,110.000003356934,2|8,0:2|0:2,0:0:0:0:
147,346,214008,2,0,B|89:359|89:359|39:341,1,110.000003356934,2|0,0:2|0:0,0:0:0:0:
191,158,214341,1,10,0:1:0:0:
191,158,214507,2,0,B|249:145|249:145|299:163,1,110.000003356934,8|2,0:2|0:2,0:0:0:0:
447,223,214841,5,8,0:1:0:0:
328,248,215008,1,2,0:2:0:0:
479,221,215174,1,10,0:2:0:0:
367,110,215341,1,10,0:1:0:0:
367,110,215424,1,10,0:1:0:0:
367,110,215508,1,0,0:0:0:0:
419,302,215674,1,10,0:1:0:0:
508,111,215841,1,10,0:2:0:0:
508,111,215924,1,8,0:1:0:0:
508,111,216008,1,10,0:1:0:0:
262,113,216174,6,0,P|279:184|283:200,3,55.0000016784668,14|2|2|2,0:1|0:2|0:2|0:2,0:0:0:0:
348,213,216508,1,10,0:2:0:0:
166,49,216674,2,0,P|155:117|146:176,1,110.000003356934,2|0,0:2|0:0,0:0:0:0:
129,264,217008,1,10,0:1:0:0:
291,72,217174,6,0,P|375:53|348:153,1,225.000008583069,10|0,0:2|0:0,0:0:0:0:
321,151,217508,5,10,0:1:0:0:
190,82,217674,2,0,P|206:138|225:219,1,110.000003356934,2|8,0:2|0:2,0:0:0:0:
280,350,218008,2,0,P|293:296|308:243,1,110.000003356934,2|0,0:2|0:2,0:0:0:0:
183,325,218341,1,10,0:1:0:0:
418,304,218508,2,0,P|404:250|389:197,1,110.000003356934,8|2,0:2|0:2,0:0:0:0:
344,22,218841,5,10,0:1:0:0:
283,114,219008,2,0,P|225:108|169:101,1,110.000003356934,2|8,0:2|0:2,0:0:0:0:
68,178,219341,2,0,P|122:184|177:190,1,110.000003356934,2|0,0:2|0:0,0:0:0:0:
227,30,219674,1,10,0:1:0:0:
227,30,219841,2,0,P|169:24|113:17,1,110.000003356934,8|2,0:2|0:2,0:0:0:0:
367,141,220174,5,8,0:1:0:0:
335,35,220341,1,2,0:2:0:0:
281,198,220508,1,10,0:2:0:0:
440,67,220674,1,2,0:2:0:0:
249,103,220841,1,2,0:2:0:0:
422,237,221008,1,10,0:1:0:0:
335,35,221174,1,10,0:2:0:0:
202,229,221341,5,10,0:1:0:0:
202,229,221424,1,8,0:1:0:0:
202,229,221508,2,0,P|257:220|296:214,3,55.0000016784668,14|2|2|2,0:1|0:2|0:2|0:2,0:0:0:0:
339,206,221841,2,0,P|330:250|311:335,1,110.000003356934,8|2,0:2|0:2,0:0:0:0:
473,135,222174,2,0,P|464:179|445:264,1,110.000003356934,8|2,0:1|0:2,0:0:0:0:
385,10,222508,2,0,P|376:54|357:139,1,110.000003356934,8|2,0:2|0:2,0:0:0:0:
173,76,222841,5,14,0:1:0:0:
282,34,223008,2,0,P|273:78|254:163,1,110.000003356934,2|8,0:2|0:2,0:0:0:0:
74,165,223341,1,2,0:2:0:0:
145,290,223508,2,0,P|154:246|173:161,1,110.000003356934,8|2,0:1|0:2,0:0:0:0:
181,156,223758,1,8,0:1:0:0:
181,156,223841,1,10,0:1:0:0:
54,245,224008,1,10,0:1:0:0:
263,312,224174,5,14,0:2:0:0:
188,242,224341,1,10,0:1:0:0:
285,331,224508,1,10,0:2:0:0:
130,330,224674,1,10,0:1:0:0:
317,347,224841,1,14,0:2:0:0:
226,165,225008,1,10,0:1:0:0:
220,361,225174,1,10,0:2:0:0:
355,166,225341,1,10,0:1:0:0:
114,98,225508,5,14,0:1:0:0:
93,116,225591,1,10,0:1:0:0:
78,139,225674,1,10,0:1:0:0:
69,165,225758,1,10,0:1:0:0:
64,203,225841,1,14,0:1:0:0:
68,241,225924,1,10,0:1:0:0:
89,273,226008,1,10,0:1:0:0:
122,291,226091,1,10,0:1:0:0:
158,301,226174,2,0,L|221:294,1,55.0000016784668,14|10,0:1|0:1,0:0:0:0:
254,173,226341,2,0,L|199:179,1,55.0000016784668,10|10,0:1|0:1,0:0:0:0:
338,257,226508,2,0,L|400:249,1,55.0000016784668,14|10,0:1|0:1,0:0:0:0:
444,132,226675,2,0,L|389:138,1,55.0000016784668,10|10,0:1|0:1,0:0:0:0:
512,235,226841,5,14,0:1:0:0:
