osu file format v14

[General]
AudioFilename: audio.mp3
AudioLeadIn: 0
PreviewTime: 74758
Countdown: 0
SampleSet: Soft
StackLeniency: 0.3
Mode: 0
LetterboxInBreaks: 0
WidescreenStoryboard: 0

[Editor]
Bookmarks: 226833
DistanceSpacing: 0.8
BeatDivisor: 4
GridSize: 32
TimelineZoom: 2.5

[Metadata]
Title:Into The Void
TitleUnicode:Into The Void
Artist:Kurokotei
ArtistUnicode:黒皇帝
Creator:Hazu-
Version:Abyss
Source:osu!
Tags:electronic instrumental mappers' guild mg featured artist fa techno hardcore j-core
BeatmapID:2324154
BeatmapSetID:1112435

[Difficulty]
HPDrainRate:5.5
CircleSize:4.2
OverallDifficulty:8.7
ApproachRate:9.6
SliderMultiplier:2.4
SliderTickRate:1

[Events]
//Background and Video events
0,0,"Void.jpg",0,0
//Break Periods
2,117708,127665
//Storyboard Layer 0 (Background)
//Storyboard Layer 1 (Fail)
//Storyboard Layer 2 (Pass)
//Storyboard Layer 3 (Foreground)
//Storyboard Layer 4 (Overlay)
//Storyboard Sound Samples

[TimingPoints]
175,333.333333333333,4,2,1,40,1,0
175,-333.333333333333,4,2,1,40,0,0
10841,-333.333333333333,4,2,1,50,0,0
11091,-333.333333333333,4,2,1,5,0,0
11174,-133.333333333333,4,2,1,60,0,0
11841,-100,4,2,1,60,0,0
12091,-100,4,2,1,5,0,0
12174,-333.333333333333,4,2,1,60,0,0
12424,-333.333333333333,4,2,1,5,0,0
12508,-133.333333333333,4,2,1,60,0,0
13174,-100,4,2,1,60,0,0
13424,-100,4,2,1,5,0,0
13508,-200,4,2,1,63,0,0
16174,-166.666666666667,4,2,1,66,0,0
17508,-142.857142857143,4,2,1,70,0,0
18841,-125,4,2,1,73,0,0
20174,-111.111111111111,4,2,1,77,0,0
21508,-100,4,2,1,80,0,0
64174,-100,4,3,1,85,0,0
74508,-50,4,3,1,85,0,0
74758,-50,4,3,1,5,0,0
74841,-90.9090909090909,4,3,1,90,0,1
75841,-66.6666666666667,4,3,1,90,0,1
76091,-66.6666666666667,4,3,1,5,0,1
76174,-90.9090909090909,4,3,1,90,0,1
81174,-66.6666666666667,4,3,1,90,0,1
81424,-66.6666666666667,4,3,1,5,0,1
81508,-90.9090909090909,4,3,1,90,0,1
117174,-200,4,3,1,90,0,1
117424,-200,4,2,1,5,0,1
117508,-100,4,2,1,80,0,0
138508,-66.6666666666667,4,2,1,80,0,0
138758,-66.6666666666667,4,2,1,5,0,0
138841,-100,4,2,1,90,0,0
139008,-200,4,2,1,90,0,0
139424,-200,4,2,1,5,0,0
139508,-100,4,2,1,90,0,0
141674,-200,4,2,1,90,0,0
142091,-200,4,2,1,5,0,0
142174,-100,4,2,1,90,0,0
144424,-100,4,2,1,5,0,0
144508,-74.0740740740741,4,2,1,90,0,0
144758,-74.0740740740741,4,2,1,5,0,0
144841,-100,4,2,1,90,0,0
146424,-100,4,2,1,5,0,0
146508,-74.0740740740741,4,2,1,90,0,0
146758,-74.0740740740741,4,2,1,5,0,0
146841,-100,4,2,1,90,0,0
147091,-100,4,2,1,5,0,0
147174,-74.0740740740741,4,2,1,90,0,0
147424,-74.0740740740741,4,2,1,5,0,0
147508,-100,4,2,1,90,0,0
149091,-100,4,2,1,5,0,0
149174,-74.0740740740741,4,2,1,90,0,0
149424,-74.0740740740741,4,2,1,5,0,0
149508,-100,4,2,1,90,0,0
155091,-100,4,2,1,5,0,0
155174,-100,4,2,1,90,0,0
155424,-100,4,2,1,5,0,0
155508,-100,4,2,1,90,0,0
160174,-200,4,2,1,80,0,0
162841,-100,4,2,1,90,0,0
183508,-50,4,2,1,90,0,0
183841,-100,4,2,1,90,0,0
205508,-90.9090909090909,4,3,1,90,0,1
206508,-66.6666666666667,4,3,1,90,0,1
206758,-66.6666666666667,4,3,1,5,0,1
206841,-90.9090909090909,4,3,1,90,0,1
211841,-66.6666666666667,4,3,1,90,0,1
212091,-66.6666666666667,4,3,1,5,0,1
212174,-90.9090909090909,4,3,1,90,0,1
217174,-66.6666666666667,4,3,1,90,0,1
217424,-66.6666666666667,4,3,1,5,0,1
217508,-90.9090909090909,4,3,1,90,0,1
226841,-90.9090909090909,4,2,1,90,0,0

[Colours]
Combo1 : 128,121,255
Combo2 : 248,233,129
Combo3 : 54,174,233
Combo4 : 209,97,237
Combo5 : 255,72,72
Combo6 : 255,98,176
Combo7 : 114,241,190
Combo8 : 255,128,64

[HitObjects]
104,126,175,6,0,L|150:119,1,35.9999989013672,8|2,0:1|0:0,0:0:0:0:
219,149,508,2,0,L|265:142,1,35.9999989013672,8|2,0:1|0:0,0:0:0:0:
461,140,841,1,8,0:1:0:0:
413,73,1007,1,2,0:0:0:0:
334,98,1174,1,8,0:1:0:0:
334,181,1341,1,2,0:0:0:0:
413,207,1508,6,0,L|422:253,1,35.9999989013672,8|2,0:1|0:0,0:0:0:0:
340,313,1841,2,0,L|346:277,1,35.9999989013672,8|2,0:1|0:0,0:0:0:0:
252,253,2174,2,0,L|261:299,1,35.9999989013672,8|2,0:1|0:0,0:0:0:0:
179,359,2507,2,0,L|185:323,1,35.9999989013672,8|2,0:1|0:0,0:0:0:0:
65,145,2841,5,8,0:1:0:0:
144,170,3007,1,2,0:0:0:0:
144,253,3174,1,8,0:1:0:0:
65,279,3341,1,2,0:0:0:0:
17,212,3508,2,0,L|24:163,1,35.9999989013672,8|2,0:1|0:0,0:0:0:0:
79,85,3841,2,0,L|86:134,1,35.9999989013672,8|2,0:1|0:0,0:0:0:0:
239,220,4174,5,8,0:1:0:0:
156,203,4341,1,2,0:0:0:0:
173,120,4507,1,8,0:1:0:0:
255,138,4674,1,2,0:0:0:0:
258,252,4841,5,8,0:1:0:0:
128,225,5008,1,2,0:0:0:0:
155,96,5174,1,8,0:1:0:0:
282,123,5341,1,2,0:0:0:0:
239,220,5508,5,8,0:1:0:0:
156,203,5675,1,2,0:0:0:0:
173,120,5841,1,8,0:1:0:0:
255,138,6008,1,2,0:0:0:0:
239,220,6174,2,0,L|249:267,1,35.9999989013672,8|2,0:1|0:0,0:0:0:0:
183,360,6508,2,0,L|190:324,1,35.9999989013672,8|2,0:1|0:0,0:0:0:0:
342,231,6841,6,0,L|352:278,1,35.9999989013672,8|2,0:1|0:0,0:0:0:0:
286,371,7175,2,0,L|293:335,1,35.9999989013672,8|2,0:1|0:0,0:0:0:0:
147,175,7508,1,8,0:1:0:0:
227,156,7674,1,2,0:0:0:0:
288,211,7841,1,8,0:1:0:0:
349,266,8008,1,2,0:0:0:0:
429,247,8174,6,0,P|431:224|429:208,1,35.9999989013672,8|2,0:1|0:0,0:0:0:0:
512,188,8508,2,0,P|497:170|484:160,1,35.9999989013672,8|2,0:1|0:0,0:0:0:0:
512,86,8841,2,0,P|489:84|473:86,1,35.9999989013672,8|2,0:1|0:0,0:0:0:0:
447,6,9175,2,0,P|429:20|419:33,1,35.9999989013672,8|2,0:1|0:0,0:0:0:0:
333,230,9508,5,8,0:1:0:0:
416,213,9675,1,2,0:0:0:0:
399,130,9841,1,8,0:1:0:0:
317,148,10008,1,2,0:0:0:0:
314,262,10175,5,8,0:1:0:0:
444,235,10342,1,2,0:0:0:0:
417,106,10508,1,8,0:1:0:0:
290,133,10675,1,2,0:0:0:0:
444,287,10841,6,0,P|449:267|440:228,1,53.9999983520508,10|0,0:1|0:0,0:0:0:0:
413,204,11174,6,0,P|428:258|461:385,1,180.000006866455,10|0,0:0|0:0,0:0:0:0:
345,305,11674,1,8,0:1:0:0:
511,219,11841,6,0,P|525:160|435:77,1,180,10|0,0:0|0:0,0:0:0:0:
358,55,12174,6,0,P|365:80|376:120,1,53.9999983520508,10|0,0:1|0:0,0:0:0:0:
348,138,12508,6,0,P|306:131|164:107,1,180.000006866455,10|0,0:0|0:0,0:0:0:0:
60,88,13008,1,8,0:1:0:0:
135,278,13174,6,0,P|160:236|63:209,1,180,10|0,0:0|0:0,0:0:0:0:
26,270,13508,5,10,0:1:0:0:
28,284,13591,1,0,0:0:0:0:
31,299,13674,1,0,0:0:0:0:
236,356,13841,1,10,0:0:0:0:
232,330,13924,1,0,0:0:0:0:
229,306,14007,1,0,0:0:0:0:
96,158,14174,5,2,0:0:0:0:
100,189,14257,1,0,0:0:0:0:
104,218,14340,1,8,0:1:0:0:
333,360,14508,1,10,0:0:0:0:
325,314,14591,1,0,0:0:0:0:
319,272,14674,1,0,0:0:0:0:
95,338,14841,6,0,L|134:330,2,30,10|0|0,0:1|0:0|0:0,0:0:0:0:
292,364,15174,1,10,0:0:0:0:
225,184,15340,1,0,0:0:0:0:
238,297,15508,6,0,L|232:267,1,30,2|0,0:0|0:0,0:0:0:0:
149,254,15674,2,0,L|144:225,1,30,8|0,0:1|0:0,0:0:0:0:
59,168,15841,1,10,0:0:0:0:
40,191,15924,1,0,0:0:0:0:
32,220,16007,1,0,0:0:0:0:
37,249,16091,1,0,0:0:0:0:
52,275,16174,6,0,L|97:283,1,35.9999989013672,10|0,0:1|0:0,0:0:0:0:
182,207,16341,2,0,L|137:215,1,35.9999989013672
243,286,16508,2,0,L|288:294,1,35.9999989013672,10|0,0:0|0:0,0:0:0:0:
373,218,16675,2,0,L|328:226,1,35.9999989013672
450,277,16841,5,2,0:0:0:0:
360,84,17008,1,8,0:1:0:0:
360,84,17091,1,0,0:0:0:0:
360,84,17174,2,0,L|347:148,1,35.9999989013672,10|0,0:0|0:0,0:0:0:0:
337,207,17341,1,0,0:0:0:0:
490,64,17508,5,10,0:1:0:0:
490,64,17591,1,0,0:0:0:0:
490,64,17674,2,0,L|423:54,1,41.9999987182618,2|0,0:0|0:0,0:0:0:0:
258,20,17841,1,10,0:0:0:0:
340,248,18008,1,2,0:0:0:0:
358,46,18174,5,2,0:0:0:0:
139,171,18341,1,10,0:1:0:0:
139,171,18424,1,0,0:0:0:0:
139,171,18508,2,0,L|197:163,1,41.9999987182618,10|0,0:0|0:0,0:0:0:0:
277,150,18674,1,2,0:0:0:0:
56,103,18841,5,10,0:1:0:0:
154,283,19008,1,2,0:0:0:0:
44,86,19174,1,10,0:0:0:0:
256,176,19341,1,2,0:0:0:0:
40,305,19508,5,2,0:0:0:0:
164,86,19674,1,10,0:1:0:0:
303,318,19841,1,10,0:0:0:0:
72,183,20008,1,2,0:0:0:0:
353,90,20174,5,10,0:1:0:0:
211,278,20341,1,2,0:0:0:0:
221,24,20508,1,10,0:0:0:0:
396,246,20674,1,2,0:0:0:0:
131,135,20841,5,2,0:0:0:0:
420,38,21008,1,10,0:1:0:0:
99,142,21174,1,10,0:0:0:0:
441,237,21341,1,2,0:0:0:0:
238,110,21508,6,0,P|290:100|369:86,1,120,14|2,0:1|0:0,0:0:0:0:
169,30,21842,5,2,0:0:0:0:
133,77,21924,1,0,0:0:0:0:
129,136,22008,1,2,0:0:0:0:
158,187,22090,1,0,0:0:0:0:
243,218,22174,6,0,L|257:287,1,60,10|0,0:1|0:0,0:0:0:0:
275,239,22341,2,0,L|289:308,1,60,10|0,0:1|0:0,0:0:0:0:
306,258,22508,2,0,L|320:327,1,60,10|0,0:1|0:0,0:0:0:0:
394,373,22674,6,0,P|401:333|418:236,1,120,14|2,0:1|0:0,0:0:0:0:
445,70,23008,5,2,0:0:0:0:
415,63,23091,1,0,0:0:0:0:
386,57,23174,1,2,0:0:0:0:
356,51,23257,1,0,0:0:0:0:
263,23,23341,6,0,L|282:106,1,60,14|0,0:1|0:0,0:0:0:0:
186,154,23508,1,2,0:0:0:0:
157,206,23591,1,0,0:0:0:0:
163,264,23674,1,2,0:0:0:0:
201,310,23757,1,0,0:0:0:0:
282,348,23841,6,0,P|316:340|352:333,1,60,14|0,0:1|0:0,0:0:0:0:
354,345,24008,2,0,P|388:337|424:330,1,60,2|0,0:0|0:0,0:0:0:0:
512,285,24174,6,0,P|529:239|491:157,1,120,14|2,0:1|0:0,0:0:0:0:
346,110,24509,5,2,0:0:0:0:
286,119,24591,1,0,0:0:0:0:
227,129,24675,1,2,0:0:0:0:
168,139,24757,1,0,0:0:0:0:
213,163,24842,5,2,0:0:0:0:
260,154,24924,1,0,0:0:0:0:
308,148,25008,1,2,0:0:0:0:
290,190,25091,5,0,0:0:0:0:
266,193,25174,1,2,0:0:0:0:
243,198,25257,1,0,0:0:0:0:
167,244,25341,6,0,P|157:303|147:362,1,120,14|2,0:1|0:0,0:0:0:0:
387,254,25674,1,2,0:0:0:0:
409,199,25757,1,0,0:0:0:0:
398,141,25840,1,2,0:0:0:0:
355,100,25923,1,0,0:0:0:0:
264,63,26008,6,0,P|271:91|278:121,1,60,14|0,0:1|0:0,0:0:0:0:
304,220,26174,1,2,0:0:0:0:
279,166,26257,1,0,0:0:0:0:
230,133,26341,1,2,0:0:0:0:
171,130,26424,1,0,0:0:0:0:
98,180,26508,6,0,L|112:251,1,60,14|0,0:1|0:0,0:0:0:0:
129,250,26674,2,0,L|117:191,1,60,2|0,0:0|0:0,0:0:0:0:
78,325,26841,6,0,P|144:340|198:308,1,120,14|2,0:1|0:0,0:0:0:0:
256,137,27174,5,2,0:0:0:0:
265,196,27257,1,0,0:0:0:0:
275,255,27340,1,2,0:0:0:0:
284,314,27423,1,0,0:0:0:0:
355,363,27508,5,2,0:0:0:0:
361,335,27591,1,0,0:0:0:0:
367,307,27674,1,2,0:0:0:0:
400,252,27757,5,0,0:0:0:0:
403,266,27841,1,2,0:0:0:0:
406,279,27924,1,0,0:0:0:0:
474,333,28007,6,0,B|492:274|492:274|465:193,1,120,14|2,0:1|0:0,0:0:0:0:
357,141,28340,5,2,0:0:0:0:
322,149,28423,1,0,0:0:0:0:
287,156,28507,1,2,0:0:0:0:
251,163,28590,1,0,0:0:0:0:
155,218,28674,6,0,P|164:185|175:135,1,60,14|0,0:1|0:0,0:0:0:0:
76,116,28841,1,2,0:0:0:0:
37,160,28924,1,0,0:0:0:0:
29,219,29007,1,2,0:0:0:0:
53,271,29090,1,0,0:0:0:0:
138,323,29174,6,0,P|167:316|196:310,1,60,14|0,0:1|0:0,0:0:0:0:
227,322,29341,2,0,P|197:328|168:334,1,60,2|0,0:0|0:0,0:0:0:0:
60,383,29508,6,0,P|38:321|55:269,1,120,14|2,0:1|0:0,0:0:0:0:
172,157,29842,5,2,0:0:0:0:
229,139,29924,1,0,0:0:0:0:
286,156,30008,1,2,0:0:0:0:
324,201,30090,1,0,0:0:0:0:
368,296,30174,6,0,L|359:353,1,40,2|2,0:0|0:0,0:0:0:0:
386,288,30286,2,0,L|377:345,1,40,2|2,0:0|0:0,0:0:0:0:
403,280,30397,2,0,L|394:337,1,40,2|2,0:0|0:0,0:0:0:0:
420,273,30508,2,0,L|411:330,2,40,2|2|2,0:0|0:0|0:0,0:0:0:0:
494,356,30674,6,0,P|412:340|223:305,1,240,14|0,0:1|0:0,0:0:0:0:
114,186,31174,1,2,0:0:0:0:
131,181,31257,1,0,0:0:0:0:
149,177,31341,2,0,L|138:256,1,60,14|0,0:1|0:0,0:0:0:0:
16,255,31508,5,2,0:0:0:0:
23,219,31591,1,0,0:0:0:0:
29,184,31674,1,2,0:0:0:0:
35,148,31757,1,0,0:0:0:0:
103,89,31841,6,0,L|95:30,1,60,14|0,0:1|0:0,0:0:0:0:
117,52,32008,2,0,L|106:131,1,60,2|0,0:0|0:0,0:0:0:0:
216,170,32174,6,0,P|235:116|204:60,1,120,14|2,0:1|0:1,0:1:0:0:
154,249,32507,5,2,0:0:0:0:
208,273,32590,1,0,0:0:0:0:
266,264,32673,1,2,0:0:0:0:
309,224,32758,1,0,0:0:0:0:
347,143,32841,6,0,P|343:113|318:77,1,60,10|0,0:1|0:0,0:0:0:0:
337,75,33008,2,0,P|312:56|269:48,1,60,10|0,0:1|0:0,0:0:0:0:
277,36,33174,2,0,P|247:40|211:65,1,60,10|0,0:1|0:0,0:0:0:0:
236,243,33341,6,0,P|258:189|209:114,1,120,14|2,0:1|0:0,0:0:0:0:
77,35,33674,5,2,0:0:0:0:
84,70,33757,1,0,0:0:0:0:
92,105,33840,1,2,0:0:0:0:
99,140,33924,1,0,0:0:0:0:
157,204,34008,6,0,L|141:118,1,60,14|0,0:1|0:0,0:0:0:0:
50,212,34174,1,2,0:0:0:0:
31,268,34257,1,0,0:0:0:0:
45,325,34340,1,2,0:0:0:0:
89,365,34424,1,0,0:0:0:0:
161,315,34508,6,0,B|194:308|194:308|244:325,1,60,14|0,0:1|0:0,0:0:0:0:
240,336,34674,2,0,B|207:343|207:343|157:326,1,60,2|0,0:0|0:0,0:0:0:0:
317,247,34841,6,0,P|332:318|350:394,1,120,14|2,0:1|0:1,0:1:0:0:
498,258,35174,5,2,0:0:0:0:
512,202,35257,1,0,0:0:0:0:
501,145,35340,1,2,0:0:0:0:
457,106,35424,1,0,0:0:0:0:
366,77,35508,5,2,0:0:0:0:
330,84,35591,1,0,0:0:0:0:
295,91,35674,1,2,0:0:0:0:
233,155,35758,5,0,0:0:0:0:
219,153,35841,1,2,0:0:0:0:
203,150,35924,1,0,0:0:0:0:
123,132,36007,6,0,P|109:73|96:11,1,120,14|0,0:1|0:0,0:0:0:0:
23,121,36341,5,2,0:0:0:0:
21,157,36424,1,0,0:0:0:0:
32,191,36507,1,2,0:0:0:0:
55,219,36590,1,0,0:0:0:0:
134,263,36674,6,0,P|176:248|213:254,1,60,14|0,0:1|0:0,0:0:0:0:
267,301,36840,1,2,0:0:0:0:
312,339,36924,1,0,0:0:0:0:
371,347,37007,1,2,0:0:0:0:
421,317,37090,1,0,0:0:0:0:
462,231,37174,6,0,P|423:221|382:240,1,60,14|0,0:1|0:0,0:0:0:0:
389,235,37341,2,0,P|359:239|331:229,1,60,2|0,0:0|0:0,0:0:0:0:
274,145,37508,6,0,P|286:208|304:290,1,120,14|0,0:1|0:0,0:0:0:0:
165,323,37841,5,2,0:0:0:0:
193,271,37924,1,0,0:0:0:0:
187,212,38007,1,2,0:0:0:0:
147,169,38091,1,0,0:0:0:0:
41,109,38174,5,2,0:0:0:0:
47,135,38257,1,0,0:0:0:0:
53,163,38340,1,2,0:0:0:0:
14,237,38423,5,0,0:0:0:0:
10,252,38508,1,2,0:0:0:0:
7,265,38591,1,0,0:0:0:0:
39,340,38675,6,0,P|64:334|160:312,1,120,14|0,0:1|0:0,0:0:0:0:
306,242,39008,5,2,0:0:0:0:
271,233,39091,1,0,0:0:0:0:
235,226,39174,1,2,0:0:0:0:
201,217,39257,1,0,0:0:0:0:
117,186,39341,6,0,B|109:212|109:212|115:244,1,60,14|0,0:1|0:0,0:0:0:0:
257,349,39508,1,2,0:0:0:0:
274,292,39591,1,0,0:0:0:0:
324,261,39674,1,2,0:0:0:0:
382,271,39758,1,0,0:0:0:0:
441,333,39841,6,0,L|427:254,1,60,14|0,0:1|0:0,0:0:0:0:
464,346,40008,2,0,L|450:267,1,60,2|0,0:0|0:0,0:0:0:0:
325,172,40174,6,0,P|412:193|480:210,1,120,14|2,0:1|0:0,0:0:0:0:
328,73,40507,5,2,0:0:0:0:
271,55,40590,1,0,0:0:0:0:
214,72,40673,1,2,0:0:0:0:
176,117,40758,1,0,0:0:0:0:
117,211,40841,6,0,L|156:204,1,40,2|2,0:0|0:0,0:0:0:0:
108,223,40952,2,0,L|143:239,1,40,2|2,0:0|0:0,0:0:0:0:
99,228,41063,2,0,L|112:265,1,40,2|2,0:0|0:0,0:0:0:0:
87,230,41174,2,0,L|70:265,2,40,2|2|2,0:0|0:0|0:0,0:0:0:0:
3,361,41341,6,0,P|87:301|229:369,1,240,14|0,0:1|0:0,0:0:0:0:
319,187,41841,1,2,0:0:0:0:
302,182,41924,1,0,0:0:0:0:
284,178,42008,2,0,L|295:257,1,60,14|0,0:1|0:0,0:0:0:0:
399,266,42174,5,2,0:0:0:0:
426,213,42257,1,0,0:0:0:0:
423,154,42340,1,2,0:0:0:0:
391,104,42424,1,0,0:0:0:0:
339,77,42508,6,0,P|304:85|265:91,1,60,14|0,0:1|0:0,0:0:0:0:
141,129,42675,2,0,P|170:134|199:141,1,60,2|0,0:0|0:0,0:0:0:0:
293,216,42841,5,14,0:1:0:0:
323,218,42924,1,0,0:0:0:0:
324,188,43007,1,2,0:0:0:0:
295,187,43091,1,0,0:0:0:0:
256,299,43174,5,2,0:0:0:0:
313,317,43257,1,0,0:0:0:0:
370,300,43340,1,2,0:0:0:0:
408,255,43425,1,0,0:0:0:0:
443,169,43508,6,0,L|428:104,1,60,10|0,0:1|0:0,0:0:0:0:
447,78,43674,2,0,L|460:136,1,60,10|0,0:1|0:0,0:0:0:0:
493,151,43841,2,0,L|478:86,1,60,10|0,0:1|0:0,0:0:0:0:
336,21,44007,6,0,P|328:88|317:160,1,120,14|2,0:1|0:0,0:0:0:0:
175,78,44341,1,2,0:0:0:0:
141,66,44424,1,0,0:0:0:0:
106,68,44508,1,2,0:0:0:0:
73,83,44590,1,0,0:0:0:0:
56,109,44674,6,0,L|66:173,1,60,14|0,0:1|0:0,0:0:0:0:
12,249,44841,1,2,0:0:0:0:
236,223,45007,1,2,0:0:0:0:
236,223,45091,1,0,0:0:0:0:
236,223,45174,2,0,P|198:217|170:210,1,60,14|0,0:1|0:0,0:0:0:0:
325,311,45341,5,2,0:0:0:0:
325,311,45425,1,0,0:0:0:0:
325,311,45508,2,0,P|354:304|383:299,1,60,14|0,0:1|0:0,0:0:0:0:
339,149,45674,2,0,P|335:176|329:208,1,60,2|0,0:0|0:0,0:0:0:0:
125,338,45841,5,2,0:0:0:0:
94,288,45924,1,0,0:0:0:0:
104,231,46007,1,2,0:0:0:0:
151,196,46091,1,0,0:0:0:0:
209,203,46174,1,2,0:0:0:0:
247,247,46257,1,0,0:0:0:0:
243,306,46341,2,0,P|230:271|250:230,1,60,2|0,0:0|0:0,0:0:0:0:
383,188,46508,5,2,0:0:0:0:
383,188,46591,1,0,0:0:0:0:
383,188,46674,2,0,L|367:278,1,60,14|0,0:1|0:0,0:0:0:0:
418,81,46841,5,2,0:0:0:0:
361,69,46924,1,0,0:0:0:0:
307,94,47007,1,2,0:0:0:0:
276,145,47091,1,0,0:0:0:0:
222,170,47174,1,2,0:0:0:0:
165,158,47257,1,0,0:0:0:0:
128,110,47341,6,0,P|81:92|15:126,1,120,14|2,0:1|0:0,0:0:0:0:
151,287,47674,1,2,0:0:0:0:
151,287,47757,1,0,0:0:0:0:
151,287,47840,2,0,P|157:258|169:208,1,60,14|0,0:1|0:0,0:0:0:0:
244,119,48008,5,2,0:0:0:0:
244,119,48091,1,0,0:0:0:0:
244,119,48174,2,0,P|250:148|262:198,1,60,14|0,0:1|0:0,0:0:0:0:
375,285,48341,5,2,0:0:0:0:
362,257,48424,1,0,0:0:0:0:
344,234,48507,1,2,0:0:0:0:
320,216,48591,1,0,0:0:0:0:
292,204,48674,1,2,0:0:0:0:
263,200,48757,1,0,0:0:0:0:
233,204,48841,1,2,0:0:0:0:
205,215,48924,1,0,0:0:0:0:
181,232,49008,2,0,P|173:278|163:319,1,60,2|0,0:0|0:0,0:0:0:0:
49,360,49174,5,2,0:0:0:0:
49,360,49258,1,0,0:0:0:0:
49,360,49341,2,0,P|40:314|20:230,1,120,14|2,0:1|0:0,0:0:0:0:
192,134,49674,1,2,0:0:0:0:
192,134,49758,1,0,0:0:0:0:
192,134,49841,2,0,P|164:126|112:115,1,60,2|0,0:0|0:0,0:0:0:0:
301,29,50008,6,0,P|292:75|283:121,1,60,14|0,0:1|0:0,0:0:0:0:
357,178,50174,1,2,0:0:0:0:
357,178,50258,1,0,0:0:0:0:
357,178,50341,1,2,0:0:0:0:
189,319,50508,2,0,P|180:273|171:227,1,60,14|0,0:1|0:0,0:0:0:0:
64,213,50674,5,2,0:0:0:0:
64,213,50758,1,0,0:0:0:0:
64,213,50841,2,0,P|55:259|46:305,1,60,14|0,0:1|0:0,0:0:0:0:
123,128,51008,1,2,0:0:0:0:
180,116,51091,1,0,0:0:0:0:
234,141,51174,1,2,0:0:0:0:
265,192,51258,1,0,0:0:0:0:
319,217,51341,1,2,0:0:0:0:
376,205,51424,1,0,0:0:0:0:
407,120,51508,6,0,P|392:121|366:130,1,40,2|2,0:0|0:0,0:0:0:0:
384,101,51619,2,0,P|370:107|348:124,1,40,2|2,0:0|0:0,0:0:0:0:
357,85,51730,2,0,P|346:95|332:119,1,40,2|2,0:0|0:0,0:0:0:0:
327,74,51841,2,0,P|320:87|315:114,2,40,2|2|2,0:0|0:0|0:0,0:0:0:0:
176,230,52008,5,14,0:1:0:0:
188,223,52091,1,0,0:0:0:0:
197,218,52175,2,0,P|202:187|186:148,1,60,2|0,0:1|0:0,0:0:0:0:
37,89,52341,5,2,0:0:0:0:
42,118,52424,1,0,0:0:0:0:
47,148,52507,1,2,0:0:0:0:
53,177,52591,1,0,0:0:0:0:
58,207,52674,2,0,L|69:142,1,60,14|0,0:1|0:0,0:0:0:0:
138,42,52842,5,2,0:0:0:0:
193,20,52924,1,0,0:0:0:0:
252,26,53008,1,2,0:0:0:0:
302,58,53091,1,0,0:0:0:0:
333,109,53174,2,0,P|381:125|408:133,1,60,14|0,0:1|0:0,0:0:0:0:
512,179,53341,5,2,0:0:0:0:
512,179,53424,1,0,0:0:0:0:
512,179,53508,2,0,P|483:187|454:197,1,60,14|0,0:1|0:0,0:0:0:0:
480,275,53675,1,2,0:0:0:0:
504,282,53758,1,0,0:0:0:0:
443,350,53841,5,2,0:0:0:0:
405,305,53924,1,0,0:0:0:0:
348,288,54007,1,2,0:0:0:0:
291,306,54091,1,0,0:0:0:0:
193,353,54174,6,0,L|206:282,1,60,10|0,0:1|0:0,0:0:0:0:
135,260,54341,2,0,L|189:306,1,60,10|0,0:1|0:0,0:0:0:0:
248,258,54508,2,0,L|180:282,1,60,10|0,0:1|0:0,0:0:0:0:
12,268,54675,6,0,L|1:338,1,60,14|0,0:1|0:0,0:0:0:0:
68,163,54841,1,2,0:0:0:0:
125,151,54925,1,0,0:0:0:0:
179,176,55008,1,2,0:0:0:0:
210,227,55091,1,0,0:0:0:0:
264,252,55175,1,2,0:0:0:0:
321,240,55258,1,0,0:0:0:0:
358,192,55341,2,0,P|387:185|430:178,1,60,14|0,0:1|0:0,0:0:0:0:
290,109,55508,5,2,0:0:0:0:
290,109,55591,1,0,0:0:0:0:
290,109,55674,2,0,P|260:103|231:96,1,60,2|0,0:0|0:0,0:0:0:0:
415,31,55841,5,14,0:1:0:0:
415,31,55924,1,0,0:0:0:0:
415,31,56008,2,0,P|406:63|392:115,1,60,2|0,0:0|0:0,0:0:0:0:
344,222,56174,5,14,0:1:0:0:
334,181,56258,1,0,0:0:0:0:
375,171,56341,1,2,0:0:0:0:
384,212,56424,1,0,0:0:0:0:
341,291,56508,5,2,0:0:0:0:
309,240,56591,1,0,0:0:0:0:
255,217,56674,1,2,0:0:0:0:
197,230,56758,1,0,0:0:0:0:
121,274,56841,5,2,0:0:0:0:
114,309,56924,1,0,0:0:0:0:
107,344,57007,1,2,0:0:0:0:
100,380,57091,1,0,0:0:0:0:
8,323,57174,5,2,0:0:0:0:
4,309,57257,1,0,0:0:0:0:
2,297,57340,2,0,L|84:314,1,60,14|0,0:1|0:0,0:0:0:0:
234,357,57508,5,2,0:0:0:0:
234,357,57591,1,0,0:0:0:0:
234,357,57674,2,0,P|224:316|214:279,1,60,2|0,0:0|0:0,0:0:0:0:
109,219,57841,2,0,P|149:230|186:240,1,60,2|0,0:0|0:0,0:0:0:0:
288,183,58008,2,0,P|257:212|230:239,1,60,14|0,0:1|0:0,0:0:0:0:
391,265,58175,2,0,P|381:224|371:187,1,60,2|0,0:0|0:0,0:0:0:0:
272,316,58341,2,0,P|312:327|349:337,1,60,2|0,0:0|0:0,0:0:0:0:
181,323,58508,2,0,P|150:352|123:379,1,60,14|0,0:1|0:0,0:0:0:0:
216,245,58674,2,0,P|206:204|196:167,1,60,2|0,0:0|0:0,0:0:0:0:
272,316,58841,6,0,P|312:327|349:337,1,60,14|0,0:1|0:0,0:0:0:0:
425,375,59008,1,2,0:0:0:0:
414,338,59091,1,0,0:0:0:0:
488,278,59174,5,2,0:0:0:0:
509,222,59257,1,0,0:0:0:0:
495,165,59340,1,2,0:0:0:0:
452,125,59424,1,0,0:0:0:0:
357,97,59508,5,2,0:0:0:0:
321,102,59591,1,0,0:0:0:0:
285,107,59674,1,2,0:0:0:0:
250,113,59758,1,0,0:0:0:0:
142,199,59841,5,2,0:0:0:0:
156,201,59925,1,0,0:0:0:0:
168,203,60008,2,0,P|163:173|153:118,1,60,14|0,0:1|0:0,0:0:0:0:
40,105,60175,5,2,0:0:0:0:
20,127,60257,1,0,0:0:0:0:
7,154,60341,1,2,0:0:0:0:
2,183,60424,1,0,0:0:0:0:
5,213,60507,1,2,0:0:0:0:
17,241,60590,1,0,0:0:0:0:
35,264,60674,2,0,P|67:272|100:280,1,60,14|0,0:1|0:0,0:0:0:0:
234,208,60841,5,2,0:0:0:0:
234,208,60924,1,0,0:0:0:0:
234,208,61008,2,0,P|204:215|175:222,1,60,2|0,0:1|0:0,0:0:0:0:
304,286,61175,5,14,0:1:0:0:
304,286,61258,1,0,0:0:0:0:
304,286,61341,2,0,P|333:293|362:300,1,60,2|0,0:0|0:0,0:0:0:0:
453,267,61508,5,14,0:1:0:0:
464,233,61591,1,0,0:0:0:0:
458,198,61674,1,2,0:0:0:0:
436,170,61758,1,0,0:0:0:0:
459,86,61841,5,2,0:0:0:0:
407,57,61924,1,0,0:0:0:0:
348,63,62007,1,2,0:0:0:0:
303,101,62091,1,0,0:0:0:0:
252,188,62174,6,0,L|259:237,1,40,2|2,0:0|0:0,0:0:0:0:
269,201,62286,2,0,L|276:250,1,40,2|2,0:0|0:0,0:0:0:0:
282,214,62397,2,0,L|289:263,1,40,2|2,0:0|0:0,0:0:0:0:
297,224,62508,2,0,L|304:273,2,40,2|2|2,0:0|0:0|0:0,0:0:0:0:
384,330,62674,6,0,P|281:289|188:371,1,240,14|0,0:1|0:0,0:0:0:0:
66,215,63174,1,2,0:0:0:0:
66,215,63258,1,0,0:0:0:0:
66,215,63341,2,0,P|97:224|134:232,1,60,14|0,0:1|0:0,0:0:0:0:
251,161,63508,5,2,0:0:0:0:
251,161,63592,1,0,0:0:0:0:
251,161,63675,2,0,P|227:183|202:211,1,60,2|0,0:0|0:0,0:0:0:0:
205,342,63841,5,14,0:1:0:0:
205,342,63925,1,0,0:0:0:0:
205,342,64008,2,0,P|197:310|185:274,1,60,2|0,0:0|0:0,0:0:0:0:
139,126,64174,5,14,0:1:0:0:
342,201,64341,1,2,0:1:0:0:
321,164,64424,1,0,0:0:0:0:
279,164,64508,1,2,0:1:0:0:
258,201,64591,1,0,0:0:0:0:
279,237,64674,1,2,0:1:0:0:
321,237,64758,1,0,0:0:0:0:
359,191,64841,5,10,0:1:0:0:
335,137,64924,1,0,0:0:0:0:
285,105,65007,1,2,0:1:0:0:
226,106,65091,1,0,0:0:0:0:
177,139,65174,1,2,0:1:0:0:
155,194,65257,1,0,0:0:0:0:
166,252,65341,1,2,0:1:0:0:
208,294,65424,1,0,0:0:0:0:
265,307,65507,5,14,0:1:0:0:
428,81,65674,1,2,0:1:0:0:
398,110,65757,1,0,0:0:0:0:
360,127,65840,1,2,0:1:0:0:
318,130,65923,1,0,0:0:0:0:
278,118,66007,1,2,0:1:0:0:
245,93,66090,1,0,0:0:0:0:
240,33,66174,5,10,0:1:0:0:
281,76,66257,1,0,0:0:0:0:
290,134,66340,1,2,0:1:0:0:
264,187,66423,1,0,0:0:0:0:
212,215,66507,1,2,0:1:0:0:
153,207,66590,1,0,0:0:0:0:
109,168,66673,1,2,0:1:0:0:
97,110,66757,1,0,0:0:0:0:
120,56,66840,5,14,0:1:0:0:
332,128,67008,1,2,0:1:0:0:
358,160,67091,1,0,0:0:0:0:
372,200,67174,1,2,0:1:0:0:
372,241,67257,1,0,0:0:0:0:
360,281,67341,1,2,0:1:0:0:
335,315,67424,1,0,0:0:0:0:
283,346,67508,5,10,0:1:0:0:
252,295,67591,1,0,0:0:0:0:
252,235,67674,1,2,0:1:0:0:
283,184,67757,1,0,0:0:0:0:
335,157,67841,1,2,0:1:0:0:
394,159,67924,1,0,0:0:0:0:
444,192,68007,1,2,0:1:0:0:
469,246,68091,1,0,0:0:0:0:
464,305,68174,5,14,0:1:0:0:
428,71,68342,1,2,0:1:0:0:
393,48,68424,1,0,0:0:0:0:
352,39,68508,1,2,0:1:0:0:
311,46,68590,1,0,0:0:0:0:
275,68,68674,1,2,0:1:0:0:
250,101,68757,1,0,0:0:0:0:
258,160,68841,5,10,0:1:0:0:
265,101,68924,1,0,0:0:0:0:
237,49,69007,1,2,0:1:0:0:
184,23,69090,1,0,0:0:0:0:
125,33,69174,1,2,0:1:0:0:
84,74,69257,1,0,0:0:0:0:
74,133,69340,1,2,0:1:0:0:
100,186,69424,1,0,0:0:0:0:
151,214,69507,5,14,0:1:0:0:
326,154,69674,1,2,0:2:0:0:
326,154,69758,1,0,0:0:0:0:
326,154,69841,2,0,L|308:239,1,60,10|0,0:1|0:0,0:0:0:0:
264,339,70008,2,0,L|246:254,1,60,2|0,0:2|0:0,0:0:0:0:
239,92,70174,5,10,0:1:0:0:
284,54,70257,1,0,0:0:0:0:
343,47,70340,1,2,0:2:0:0:
396,74,70423,1,0,0:0:0:0:
426,125,70508,2,0,P|470:135|517:146,1,60,8|0,0:1|0:0,0:0:0:0:
333,197,70674,2,0,P|376:206|423:217,1,60
238,316,70841,5,14,0:1:0:0:
256,260,70924,1,0,0:0:0:0:
236,204,71007,1,2,0:2:0:0:
186,174,71090,1,0,0:0:0:0:
128,181,71174,2,0,L|143:265,1,60,10|0,0:1|0:0,0:0:0:0:
50,110,71341,2,0,L|34:194,1,60,2|0,0:2|0:0,0:0:0:0:
5,351,71508,5,10,0:1:0:0:
34,299,71591,1,0,0:0:0:0:
87,272,71674,1,2,0:2:0:0:
146,276,71757,1,0,0:0:0:0:
194,310,71841,2,0,L|210:378,1,60,10|0,0:1|0:0,0:0:0:0:
270,246,72008,2,0,L|283:187,1,60,2|0,0:2|0:0,0:0:0:0:
160,83,72174,5,14,0:1:0:0:
160,83,72258,1,0,0:0:0:0:
160,83,72341,2,0,P|206:95|247:107,1,60,10|0,0:1|0:0,0:0:0:0:
364,36,72508,2,0,P|335:43|306:51,1,60,14|0,0:1|0:0,0:0:0:0:
445,192,72674,5,10,0:1:0:0:
485,150,72757,1,0,0:0:0:0:
484,91,72840,1,14,0:1:0:0:
441,51,72923,1,0,0:0:0:0:
383,53,73007,1,10,0:1:0:0:
344,96,73090,1,0,0:0:0:0:
347,154,73174,2,0,P|356:190|369:246,1,60,14|0,0:1|0:0,0:0:0:0:
425,334,73341,2,0,P|432:304|439:275,1,60,10|0,0:1|0:0,0:0:0:0:
218,207,73508,5,14,0:1:0:0:
238,219,73591,1,8,0:1:0:0:
267,212,73674,1,8,0:1:0:0:
282,179,73758,1,8,0:1:0:0:
257,145,73841,1,12,0:1:0:0:
209,147,73924,1,8,0:1:0:0:
184,195,74008,1,8,0:1:0:0:
212,247,74091,1,8,0:1:0:0:
277,251,74174,1,12,0:1:0:0:
323,194,74258,1,8,0:1:0:0:
298,120,74341,1,8,0:1:0:0:
216,101,74424,1,8,0:1:0:0:
146,159,74508,6,0,B|342:132|342:132|375:170|375:170|401:146|401:146|483:133,1,360,14|0,0:1|0:0,0:0:0:0:
499,109,74841,6,0,L|477:208,1,66.0000020141602,14|2,0:1|0:2,0:0:0:0:
453,324,75008,2,0,L|467:259,1,66.0000020141602,2|2,0:2|0:2,0:0:0:0:
499,109,75174,1,10,0:2:0:0:
290,207,75341,1,2,0:2:0:0:
290,207,75424,1,0,0:0:0:0:
290,207,75508,2,0,P|328:213|371:220,1,66.0000020141602
182,81,75675,2,0,P|192:121|205:172,1,66.0000020141602,10|0,0:1|0:0,0:0:0:0:
136,338,75841,6,0,P|176:242|61:292,1,270.000010299683,10|0,0:2|0:0,0:0:0:0:
66,285,76174,5,8,0:1:0:0:
293,355,76341,2,0,P|282:313|253:213,1,132.00000402832,2|8,0:2|0:2,0:0:0:0:
152,55,76674,1,2,0:2:0:0:
152,55,76758,1,0,0:0:0:0:
152,55,76841,2,0,P|147:92|139:133,1,66.0000020141602,2|0,0:2|0:0,0:0:0:0:
35,231,77008,5,10,0:1:0:0:
83,198,77091,1,0,0:0:0:0:
141,201,77174,1,10,0:2:0:0:
186,239,77257,1,0,0:0:0:0:
229,277,77341,1,2,0:2:0:0:
287,280,77425,1,0,0:0:0:0:
336,247,77508,6,0,P|339:206|324:168,1,66.0000020141602,10|0,0:1|0:0,0:0:0:0:
189,38,77674,2,0,P|208:80|242:169,1,132.00000402832,2|8,0:2|0:2,0:0:0:0:
459,122,78008,2,0,P|410:82|310:121,1,132.00000402832,2|0,0:2|0:0,0:0:0:0:
159,243,78341,1,8,0:1:0:0:
379,184,78508,1,8,0:2:0:0:
221,119,78674,1,2,0:2:0:0:
316,329,78841,6,0,L|303:252,1,66.0000020141602,8|0,0:1|0:0,0:0:0:0:
289,173,79008,1,2,0:2:0:0:
131,263,79174,1,10,0:2:0:0:
131,263,79258,1,0,0:0:0:0:
131,263,79341,2,0,P|177:273|206:280,1,66.0000020141602,2|0,0:2|0:0,0:0:0:0:
95,179,79508,2,0,P|49:189|20:196,1,66.0000020141602,2|0,0:2|0:0,0:0:0:0:
209,126,79674,5,10,0:1:0:0:
209,126,79758,1,0,0:0:0:0:
209,126,79841,2,0,P|219:90|203:48,1,66.0000020141602,8|0,0:2|0:0,0:0:0:0:
127,18,80008,2,0,P|117:54|133:96,1,66.0000020141602,2|0,0:2|0:0,0:0:0:0:
325,191,80174,6,0,L|311:108,1,66.0000020141602,10|2,0:1|0:2,0:0:0:0:
342,290,80341,2,0,L|328:207,1,66.0000020141602,2|2,0:2|0:2,0:0:0:0:
359,379,80508,1,10,0:2:0:0:
448,171,80674,1,2,0:2:0:0:
448,171,80758,1,0,0:0:0:0:
448,171,80841,2,0,L|437:236,1,66.0000020141602
475,23,81008,2,0,L|464:88,1,66.0000020141602,10|0,0:1|0:0,0:0:0:0:
111,69,81174,6,0,B|252:44|205:212|365:162,1,270.000010299683,10|0,0:2|0:0,0:0:0:0:
356,144,81508,5,10,0:1:0:0:
140,170,81674,2,0,P|80:182|-13:198,1,132.00000402832,2|8,0:2|0:2,0:0:0:0:
204,291,82008,1,2,0:2:0:0:
204,291,82091,1,0,0:0:0:0:
204,291,82174,2,0,P|215:248|225:205,1,66.0000020141602,2|0,0:2|0:0,0:0:0:0:
321,57,82341,5,10,0:1:0:0:
378,59,82424,1,0,0:0:0:0:
418,101,82508,1,10,0:2:0:0:
418,159,82590,1,0,0:0:0:0:
378,200,82674,1,2,0:2:0:0:
320,202,82757,1,0,0:0:0:0:
277,163,82841,6,0,P|282:125|287:85,1,66.0000020141602,10|0,0:1|0:0,0:0:0:0:
147,24,83008,2,0,P|161:77|186:180,1,132.00000402832,2|8,0:2|0:2,0:0:0:0:
272,362,83341,2,0,P|287:297|304:234,1,132.00000402832,2|0,0:2|0:0,0:0:0:0:
358,24,83674,1,10,0:1:0:0:
210,191,83841,1,8,0:2:0:0:
394,130,84008,1,2,0:2:0:0:
210,22,84174,6,0,P|217:49|231:109,1,66.0000020141602,10|0,0:1|0:0,0:0:0:0:
309,109,84341,1,2,0:2:0:0:
85,66,84508,1,10,0:2:0:0:
366,26,84674,5,0,0:0:0:0:
366,26,84758,1,10,0:1:0:0:
366,26,84841,2,0,P|355:93|346:139,1,66.0000020141602
257,122,85008,2,0,P|268:55|277:9,1,66.0000020141602,10|0,0:1|3:2,0:0:0:0:
449,46,85174,1,10,0:2:0:0:
444,72,85258,1,10,0:1:0:0:
442,95,85341,1,8,0:1:0:0:
288,222,85508,6,0,P|259:229|213:216,1,66.0000020141602,14|2,0:1|0:2,0:0:0:0:
84,165,85674,2,0,P|116:158|148:165,1,66.0000020141602,2|2,0:2|0:2,0:0:0:0:
288,222,85841,1,10,0:2:0:0:
84,376,86008,6,0,P|99:303|115:218,1,132.00000402832,2|0,0:2|0:0,0:0:0:0:
156,25,86341,1,10,0:1:0:0:
229,282,86508,1,8,0:2:0:0:
39,122,86674,1,2,0:2:0:0:
307,76,86841,5,8,0:1:0:0:
124,251,87008,1,2,0:2:0:0:
172,23,87174,1,8,0:2:0:0:
380,236,87341,6,0,P|324:221|236:201,1,132.00000402832,2|0,0:2|0:0,0:0:0:0:
38,153,87674,1,10,0:1:0:0:
266,118,87841,1,8,0:2:0:0:
13,146,88008,1,2,0:2:0:0:
223,315,88174,5,8,0:1:0:0:
130,75,88341,1,2,0:2:0:0:
54,285,88508,1,8,0:2:0:0:
301,209,88674,6,0,P|315:145|273:78,1,132.00000402832,2|0,0:2|0:0,0:0:0:0:
68,18,89008,1,10,0:1:0:0:
147,241,89174,1,8,0:2:0:0:
196,54,89341,1,2,0:2:0:0:
23,238,89508,5,8,0:1:0:0:
241,167,89674,1,2,0:2:0:0:
81,98,89841,1,10,0:2:0:0:
81,98,89924,1,0,0:0:0:0:
81,98,90008,2,0,P|92:142|105:193,1,66.0000020141602,2|0,0:2|0:0,0:0:0:0:
126,267,90174,1,2,0:2:0:0:
380,148,90341,5,10,0:1:0:0:
174,75,90508,2,0,P|185:119|198:170,1,66.0000020141602,10|0,0:2|0:0,0:0:0:0:
262,250,90674,1,10,0:1:0:0:
267,217,90757,1,8,0:1:0:0:
273,185,90840,5,14,0:1:0:0:
168,333,91008,1,2,0:2:0:0:
382,255,91174,1,8,0:2:0:0:
133,163,91341,1,2,0:2:0:0:
295,361,91508,5,8,0:1:0:0:
366,111,91674,1,2,0:2:0:0:
291,383,91841,1,8,0:2:0:0:
217,89,92008,1,2,0:2:0:0:
476,204,92174,5,14,0:1:0:0:
185,297,92341,1,2,0:2:0:0:
349,79,92508,1,8,0:2:0:0:
445,352,92674,1,2,0:2:0:0:
445,352,92758,1,0,0:0:0:0:
445,352,92841,2,0,L|358:332,1,66.0000020141602,10|0,0:1|0:0,0:0:0:0:
248,219,93008,5,2,0:2:0:0:
280,213,93091,1,8,0:1:0:0:
312,207,93174,2,0,L|298:286,1,66.0000020141602,10|0,0:2|0:0,0:0:0:0:
221,369,93341,2,0,L|209:304,1,66.0000020141602,10|0,0:1|0:0,0:0:0:0:
166,77,93508,5,14,0:2:0:0:
189,206,93674,1,10,0:1:0:0:
76,58,93841,1,10,0:2:0:0:
281,124,94008,1,10,0:1:0:0:
53,262,94174,1,14,0:2:0:0:
191,35,94341,1,10,0:1:0:0:
309,295,94508,1,10,0:2:0:0:
26,139,94674,1,10,0:1:0:0:
357,54,94841,5,14,0:1:0:0:
363,56,94924,1,8,0:1:0:0:
374,62,95008,1,10,0:1:0:0:
390,72,95091,1,8,0:1:0:0:
407,91,95174,1,14,0:1:0:0:
417,122,95258,1,8,0:1:0:0:
403,158,95341,1,10,0:1:0:0:
362,180,95424,1,8,0:1:0:0:
313,203,95508,5,14,0:1:0:0:
283,253,95591,1,8,0:1:0:0:
290,318,95674,1,10,0:1:0:0:
345,365,95758,1,8,0:1:0:0:
423,355,95841,1,14,0:1:0:0:
472,285,95924,1,8,0:1:0:0:
433,200,96008,1,10,0:1:0:0:
335,184,96091,1,8,0:1:0:0:
250,245,96174,6,0,P|179:234|90:222,1,132.00000402832,14|0,0:1|0:0,0:0:0:0:
207,111,96508,1,8,0:2:0:0:
290,343,96674,6,0,P|224:332|159:323,1,132.00000402832,2|0,0:2|0:0,0:0:0:0:
52,110,97008,1,10,0:1:0:0:
269,212,97174,1,8,0:2:0:0:
110,223,97341,1,2,0:2:0:0:
307,90,97508,5,8,0:1:0:0:
316,339,97674,1,2,0:2:0:0:
186,162,97841,1,8,0:2:0:0:
421,81,98008,6,0,P|454:158|423:224,1,132.00000402832,2|0,0:2|0:0,0:0:0:0:
212,292,98341,1,10,0:1:0:0:
326,120,98508,1,8,0:2:0:0:
370,291,98674,1,2,0:2:0:0:
206,112,98841,5,8,0:1:0:0:
441,201,99008,1,2,0:2:0:0:
227,266,99174,1,8,0:2:0:0:
369,51,99341,6,0,P|357:104|339:193,1,132.00000402832,2|0,0:2|0:0,0:0:0:0:
99,273,99674,1,10,0:1:0:0:
245,117,99841,1,8,0:2:0:0:
230,258,100008,1,2,0:2:0:0:
112,48,100174,5,0,0:0:0:0:
348,151,100341,1,10,0:1:0:0:
122,185,100508,1,8,0:2:0:0:
233,13,100674,6,0,P|245:66|263:155,1,132.00000402832,2|0,0:2|0:0,0:0:0:0:
311,337,101008,1,10,0:1:0:0:
392,126,101174,1,8,0:2:0:0:
268,238,101341,1,2,0:2:0:0:
473,309,101508,5,8,0:1:0:0:
392,126,101674,1,2,0:2:0:0:
341,356,101841,1,8,0:2:0:0:
512,194,102008,6,0,P|461:203|372:220,1,132.00000402832,2|0,0:2|0:0,0:0:0:0:
140,261,102341,1,10,0:1:0:0:
348,335,102508,1,8,0:2:0:0:
252,181,102674,1,2,0:2:0:0:
154,370,102841,5,8,0:1:0:0:
351,225,103008,1,2,0:2:0:0:
115,153,103175,1,8,0:2:0:0:
243,307,103341,6,0,P|261:246|213:172,1,132.00000402832,2|0,0:2|0:0,0:0:0:0:
42,80,103674,1,10,0:1:0:0:
118,266,103841,1,8,0:2:0:0:
171,100,104008,1,2,0:2:0:0:
0,277,104174,5,8,0:1:0:0:
204,214,104341,1,2,0:2:0:0:
10,127,104508,1,8,0:2:0:0:
125,332,104674,6,0,P|190:317|277:297,1,132.00000402832,2|0,0:2|0:0,0:0:0:0:
469,227,105008,1,10,0:1:0:0:
264,153,105174,1,8,0:2:0:0:
368,309,105341,1,2,0:2:0:0:
399,88,105508,5,0,0:0:0:0:
221,250,105674,1,10,0:1:0:0:
403,185,105841,1,8,0:2:0:0:
240,63,106008,5,2,0:2:0:0:
246,95,106091,1,8,0:1:0:0:
252,127,106174,1,2,0:2:0:0:
287,364,106341,1,10,0:1:0:0:
455,189,106508,1,8,0:2:0:0:
422,182,106591,1,8,0:1:0:0:
390,175,106674,1,10,0:1:0:0:
134,66,106841,6,0,P|154:174|182:348,1,264.000008056641,14|8,0:1|0:2,0:0:0:0:
320,316,107341,2,0,P|330:271|241:261,1,132.00000402832,2|0,0:2|0:0,0:0:0:0:
65,343,107674,5,10,0:1:0:0:
236,380,107841,1,10,0:2:0:0:
36,343,108008,1,2,0:2:0:0:
188,209,108174,5,10,0:1:0:0:
188,209,108258,1,0,0:0:0:0:
188,209,108341,2,0,P|182:243|174:288,1,66.0000020141602,2|0,0:2|0:0,0:0:0:0:
99,178,108508,2,0,P|93:145|87:113,1,66.0000020141602,10|0,0:2|0:0,0:0:0:0:
165,15,108674,2,0,P|206:66|181:139,1,132.00000402832,2|0,0:2|0:0,0:0:0:0:
25,245,109008,5,10,0:1:0:0:
96,84,109174,1,10,0:2:0:0:
169,287,109341,1,2,0:2:0:0:
13,136,109508,5,10,0:1:0:0:
165,192,109674,2,0,P|240:179|305:168,1,132.00000402832,2|8,0:2|0:2,0:0:0:0:
427,298,110008,6,0,P|352:285|287:274,1,132.00000402832,2|0,0:2|0:0,0:0:0:0:
78,234,110341,1,8,0:1:0:0:
217,81,110508,2,0,P|250:148|216:216,1,132.00000402832,10|0,0:2|0:0,0:0:0:0:
92,311,110841,5,2,0:2:0:0:
125,129,111008,1,10,0:1:0:0:
213,348,111174,1,10,0:2:0:0:
18,184,111341,5,2,0:2:0:0:
18,184,111424,1,0,0:0:0:0:
18,184,111508,1,0,0:0:0:0:
248,215,111674,1,10,0:1:0:0:
62,363,111841,1,10,0:2:0:0:
125,86,112008,1,10,0:1:0:0:
132,118,112091,1,8,0:1:0:0:
140,150,112174,5,14,0:1:0:0:
201,364,112341,1,2,0:2:0:0:
274,95,112507,1,8,0:2:0:0:
54,256,112674,1,2,0:2:0:0:
362,307,112841,5,8,0:1:0:0:
141,142,113007,1,2,0:2:0:0:
381,321,113174,1,8,0:2:0:0:
67,360,113341,1,2,0:2:0:0:
235,97,113507,5,14,0:1:0:0:
309,370,113674,1,2,0:2:0:0:
113,147,113841,1,8,0:2:0:0:
410,224,114008,1,2,0:2:0:0:
146,338,114174,5,10,0:1:0:0:
229,117,114341,1,2,0:2:0:0:
241,87,114424,1,8,0:1:0:0:
254,57,114507,2,0,L|333:71,1,66.0000020141602,10|0,0:2|0:0,0:0:0:0:
454,122,114674,2,0,L|375:136,1,66.0000020141602,10|0,0:1|0:0,0:0:0:0:
116,158,114841,5,14,0:2:0:0:
330,229,115007,1,10,0:1:0:0:
128,41,115174,1,10,0:2:0:0:
148,317,115341,1,10,0:1:0:0:
327,86,115507,1,14,0:2:0:0:
14,179,115674,1,10,0:1:0:0:
324,304,115841,1,10,0:2:0:0:
171,17,116007,1,10,0:1:0:0:
18,301,116174,5,14,0:1:0:0:
35,309,116258,1,10,0:1:0:0:
61,310,116341,1,10,0:1:0:0:
91,297,116424,1,10,0:1:0:0:
118,267,116508,1,14,0:1:0:0:
140,226,116591,1,10,0:1:0:0:
187,202,116674,1,10,0:1:0:0:
246,210,116758,1,10,0:1:0:0:
282,264,116841,1,14,0:1:0:0:
271,335,116924,1,10,0:1:0:0:
199,369,117008,1,10,0:1:0:0:
130,318,117091,1,10,0:1:0:0:
145,227,117174,6,0,P|139:189|129:129,1,90,2|0,0:2|0:0,0:0:0:0:
145,128,117508,5,6,0:0:0:0:
134,160,128174,5,6,0:2:0:0:
134,160,128258,1,0,0:0:0:0:
134,160,128341,2,0,P|176:169|213:178,1,60,2|0,0:2|0:0,0:0:0:0:
263,229,128508,1,6,0:0:0:0:
266,246,128591,1,0,0:0:0:0:
270,264,128674,1,2,0:0:0:0:
274,281,128757,1,0,0:0:0:0:
361,326,128841,5,2,0:0:0:0:
412,296,128924,1,0,0:0:0:0:
438,243,129007,1,2,0:0:0:0:
430,184,129090,1,0,0:0:0:0:
390,140,129174,1,2,0:0:0:0:
333,125,129257,1,0,0:0:0:0:
277,144,129340,1,2,0:0:0:0:
242,192,129424,1,0,0:0:0:0:
206,277,129508,6,0,L|221:347,1,60,2|0,0:0|0:0,0:0:0:0:
111,248,129674,1,2,0:0:0:0:
111,248,129758,1,0,0:0:0:0:
111,248,129841,2,0,L|126:318,1,60,2|0,0:0|0:0,0:0:0:0:
15,227,130008,2,0,L|30:297,1,60,2|0,0:0|0:0,0:0:0:0:
75,128,130174,5,2,0:0:0:0:
127,100,130257,1,0,0:0:0:0:
186,106,130340,1,2,0:0:0:0:
231,145,130423,1,0,0:0:0:0:
270,192,130508,1,2,0:0:0:0:
315,230,130591,1,0,0:0:0:0:
374,237,130674,1,2,0:0:0:0:
426,209,130757,1,0,0:0:0:0:
464,118,130841,5,2,0:0:0:0:
452,120,130924,1,0,0:0:0:0:
440,122,131007,1,2,0:0:0:0:
428,124,131091,1,0,0:0:0:0:
416,126,131174,1,2,0:0:0:0:
404,128,131257,1,0,0:0:0:0:
393,130,131341,1,2,0:0:0:0:
381,132,131424,1,0,0:0:0:0:
303,176,131508,5,2,0:0:0:0:
303,176,131591,1,0,0:0:0:0:
303,176,131674,2,0,P|296:200|302:255,1,60,2|0,0:0|0:0,0:0:0:0:
245,112,131841,2,0,P|223:124|188:167,1,60,2|0,0:0|0:0,0:0:0:0:
255,30,132007,2,0,P|231:22|176:29,1,60,2|0,0:0|0:0,0:0:0:0:
89,141,132174,5,2,0:0:0:0:
113,123,132257,1,0,0:0:0:0:
126,97,132340,1,2,0:0:0:0:
125,67,132424,1,0,0:0:0:0:
110,41,132507,1,2,0:0:0:0:
85,26,132590,1,0,0:0:0:0:
55,24,132674,1,2,0:0:0:0:
28,37,132757,1,0,0:0:0:0:
5,137,132841,5,2,0:0:0:0:
63,151,132924,1,0,0:0:0:0:
121,165,133007,1,2,0:0:0:0:
179,179,133091,1,0,0:0:0:0:
238,194,133174,2,0,P|245:228|254:274,1,60,2|0,0:0|0:0,0:0:0:0:
166,356,133341,2,0,P|171:326|177:297,1,60,2|0,0:0|0:0,0:0:0:0:
219,102,133508,5,14,0:1:0:0:
390,296,133674,1,2,0:0:0:0:
390,296,133758,1,0,0:0:0:0:
390,296,133841,2,0,P|355:294|311:287,1,60,14|0,0:1|0:0,0:0:0:0:
262,229,134008,2,0,P|232:230|202:234,1,60,2|0,0:0|0:0,0:0:0:0:
144,332,134174,5,10,0:1:0:0:
178,284,134257,1,0,0:0:0:0:
177,225,134340,1,2,0:0:0:0:
141,178,134424,1,0,0:0:0:0:
84,163,134507,1,10,0:1:0:0:
29,184,134590,1,0,0:0:0:0:
0,235,134674,1,2,0:0:0:0:
4,293,134757,1,0,0:0:0:0:
94,359,134841,6,0,L|80:265,1,60,14|0,0:1|0:0,0:0:0:0:
181,368,135008,1,2,0:0:0:0:
181,368,135091,1,0,0:0:0:0:
181,368,135174,2,0,L|167:274,1,60,14|0,0:1|0:0,0:0:0:0:
271,371,135341,2,0,L|257:277,1,60,2|0,0:0|0:0,0:0:0:0:
250,163,135508,5,10,0:1:0:0:
261,105,135591,1,0,0:0:0:0:
305,66,135675,1,2,0:0:0:0:
364,62,135758,1,0,0:0:0:0:
413,94,135841,1,10,0:1:0:0:
432,150,135925,1,0,0:0:0:0:
413,206,136008,1,2,0:0:0:0:
364,239,136091,1,0,0:0:0:0:
270,207,136174,6,0,P|261:158|251:114,1,60,14|0,0:1|0:0,0:0:0:0:
195,16,136341,2,0,P|189:44|182:78,1,60,14|0,0:1|0:0,0:0:0:0:
33,194,136508,5,2,0:0:0:0:
33,194,136591,1,0,0:0:0:0:
33,194,136674,2,0,P|95:184|118:177,1,60,14|0,0:1|0:0,0:0:0:0:
114,314,136841,2,0,P|150:263|162:241,1,60,14|0,0:1|0:0,0:0:0:0:
258,345,137008,2,0,P|248:283|240:260,1,60,14|0,0:1|0:0,0:0:0:0:
377,252,137174,1,2,0:0:0:0:
377,252,137257,1,0,0:0:0:0:
377,252,137341,2,0,P|326:215|304:204,1,60,14|0,0:1|0:0,0:0:0:0:
193,65,137508,6,0,L|206:154,1,60,14|0,0:1|0:0,0:0:0:0:
282,24,137674,1,2,0:0:0:0:
282,24,137758,1,0,0:0:0:0:
282,24,137841,2,0,L|295:113,1,60,14|0,0:1|0:0,0:0:0:0:
431,187,138008,5,2,0:0:0:0:
379,158,138091,1,0,0:0:0:0:
320,166,138174,1,10,0:1:0:0:
277,206,138258,1,0,0:0:0:0:
234,246,138342,1,10,0:1:0:0:
175,254,138425,1,8,0:1:0:0:
122,224,138508,6,0,P|160:116|228:202,1,270.000010299683,10|0,0:0|0:0,0:0:0:0:
211,189,138841,5,14,0:1:0:0:
337,282,139008,2,0,P|328:232|311:135,1,150,2|0,0:0|0:0,0:0:0:0:
334,111,139508,5,8,0:0:0:0:
479,210,139674,2,0,L|412:197,1,60,2|2,0:0|0:0,0:0:0:0:
493,225,139841,2,0,L|426:212,1,60,2|2,0:0|0:0,0:0:0:0:
506,235,140008,1,2,0:0:0:0:
384,368,140174,6,0,P|377:324|389:293,1,60,10|2,0:1|0:0,0:0:0:0:
364,336,140341,2,0,P|390:299|420:286,1,60,2|2,0:0|0:0,0:0:0:0:
364,308,140508,1,2,0:0:0:0:
477,345,140674,1,10,0:1:0:0:
262,367,140841,5,10,0:0:0:0:
259,349,140924,1,0,0:0:0:0:
257,331,141007,1,2,0:0:0:0:
254,313,141091,1,0,0:0:0:0:
186,263,141174,5,2,0:0:0:0:
183,245,141257,1,0,0:0:0:0:
181,227,141340,1,2,0:0:0:0:
178,209,141424,1,0,0:0:0:0:
118,153,141508,5,10,0:1:0:0:
270,220,141674,2,0,B|355:243|329:166|425:195,1,150,2|0,0:0|0:0,0:0:0:0:
432,208,142174,5,10,0:0:0:0:
289,126,142341,2,0,L|299:61,1,60,2|2,0:0|0:0,0:0:0:0:
274,107,142508,2,0,L|284:42,1,60,2|2,0:0|0:0,0:0:0:0:
257,91,142674,1,2,0:0:0:0:
457,49,142841,6,0,P|470:85|462:121,1,60,10|2,0:1|0:0,0:0:0:0:
435,138,143008,1,2,0:0:0:0:
435,138,143091,2,0,P|397:131|370:106,1,60,10|2,0:1|0:0,0:0:0:0:
369,75,143258,1,2,0:0:0:0:
369,75,143341,2,0,P|393:45|428:34,1,60,10|2,0:1|0:0,0:0:0:0:
468,215,143508,5,10,0:0:0:0:
433,224,143591,1,0,0:0:0:0:
398,219,143674,1,2,0:0:0:0:
367,200,143758,1,0,0:0:0:0:
304,254,143841,5,2,0:0:0:0:
272,235,143924,1,0,0:0:0:0:
251,207,144007,1,2,0:0:0:0:
243,171,144091,1,0,0:0:0:0:
181,107,144174,6,0,P|178:51|263:91,1,180,10|0,0:1|0:0,0:0:0:0:
277,79,144508,6,0,P|199:22|202:136,1,243.000000926971,2|0,0:0|0:0,0:0:0:0:
276,179,144841,6,0,L|271:155,28,15,10|0|0|0|0|0|0|0|0|0|0|0|0|0|0|0|0|0|0|0|0|0|0|0|0|0|0|0|0,0:0|0:0|0:0|0:0|0:0|0:0|0:0|0:0|0:0|0:0|0:0|0:0|0:0|0:0|0:0|0:0|0:0|0:0|0:0|0:0|0:0|0:0|0:0|0:0|0:0|0:0|0:0|0:0|0:0,0:0:0:0:
315,268,145508,5,10,0:1:0:0:
291,262,145591,1,0,0:0:0:0:
268,257,145674,1,2,0:0:0:0:
244,252,145758,1,0,0:0:0:0:
167,284,145841,5,2,0:0:0:0:
143,278,145924,1,0,0:0:0:0:
120,273,146007,1,10,0:1:0:0:
96,268,146091,1,0,0:0:0:0:
23,304,146174,6,0,P|68:194|28:130,1,180,10|0,0:0|0:0,0:0:0:0:
47,115,146508,6,0,P|90:218|11:336,1,243.000000926971,2|0,0:0|0:0,0:0:0:0:
138,354,146841,6,0,B|268:324|268:324|340:351,1,180,10|0,0:1|0:0,0:0:0:0:
340,324,147174,6,0,B|265:299|265:299|101:340,1,243.000000926971,2|0,0:0|0:0,0:0:0:0:
17,364,147508,6,0,L|22:340,28,15,10|0|0|0|0|0|0|0|0|0|0|0|0|0|0|0|0|0|0|0|0|0|0|0|0|0|0|0|0,0:0|0:0|0:0|0:0|0:0|0:0|0:0|0:0|0:0|0:0|0:0|0:0|0:0|0:0|0:0|0:0|0:0|0:0|0:0|0:0|0:0|0:0|0:0|0:0|0:0|0:0|0:0|0:0|0:0,0:0:0:0:
44,264,148174,6,0,P|81:252|130:268,1,60,10|0,0:1|0:0,0:0:0:0:
140,236,148341,1,0,0:0:0:0:
140,236,148424,2,0,P|174:253|197:299,1,60,10|0,0:1|0:0,0:0:0:0:
233,278,148591,1,0,0:0:0:0:
233,278,148674,2,0,P|245:315|229:363,1,60,10|0,0:1|0:0,0:0:0:0:
371,358,148841,6,0,P|354:270|337:167,1,180,10|0,0:0|0:0,0:0:0:0:
310,141,149174,6,0,P|332:268|356:394,1,243.000000926971,2|0,0:0|0:0,0:0:0:0:
478,302,149508,5,14,0:1:0:0:
478,302,149591,1,0,0:0:0:0:
478,302,149674,2,0,L|400:291,1,60
248,268,149841,1,8,0:0:0:0:
394,83,150008,6,0,P|423:162|400:211,1,120,2|0,0:0|0:0,0:0:0:0:
170,273,150341,1,10,0:1:0:0:
164,243,150424,1,0,0:0:0:0:
158,214,150508,2,0,L|230:230,1,60,10|0,0:0|0:0,0:0:0:0:
331,285,150674,2,0,L|272:298,1,60,2|0,0:0|0:0,0:0:0:0:
137,377,150841,5,10,0:1:0:0:
161,322,150924,1,0,0:0:0:0:
154,264,151007,1,2,0:0:0:0:
118,217,151091,1,0,0:0:0:0:
63,195,151174,1,10,0:0:0:0:
17,310,151341,1,2,0:0:0:0:
212,193,151508,5,2,0:0:0:0:
241,199,151591,1,0,0:0:0:0:
270,206,151674,1,10,0:1:0:0:
299,213,151758,1,0,0:0:0:0:
372,165,151841,5,10,0:0:0:0:
401,171,151925,1,0,0:0:0:0:
430,178,152008,1,2,0:0:0:0:
459,185,152091,1,0,0:0:0:0:
501,265,152174,5,10,0:1:0:0:
501,265,152258,1,0,0:0:0:0:
501,265,152341,2,0,L|514:342,1,60
377,358,152508,2,0,P|348:260|468:169,1,240,10|0,0:0|0:0,0:0:0:0:
510,324,153008,5,10,0:1:0:0:
510,324,153091,1,0,0:0:0:0:
510,324,153174,2,0,L|442:309,1,60,10|0,0:0|0:0,0:0:0:0:
260,269,153341,1,2,0:0:0:0:
425,106,153508,5,10,0:1:0:0:
470,140,153591,1,0,0:0:0:0:
463,197,153674,1,2,0:0:0:0:
411,220,153758,1,0,0:0:0:0:
364,186,153841,1,10,0:0:0:0:
309,58,154008,1,2,0:0:0:0:
140,161,154174,5,2,0:0:0:0:
166,148,154257,1,0,0:0:0:0:
196,146,154340,1,10,0:1:0:0:
224,156,154424,1,0,0:0:0:0:
281,222,154508,5,10,0:0:0:0:
309,232,154592,1,0,0:0:0:0:
338,230,154675,1,10,0:1:0:0:
365,217,154758,1,8,0:1:0:0:
431,150,154841,6,0,P|440:96|332:59,1,180,14|0,0:1|0:0,0:0:0:0:
285,117,155174,2,0,P|219:104|100:80,1,180,14|0,0:0|0:0,0:0:0:0:
32,20,155508,6,0,L|36:40,12,15,10|0|0|0|0|0|0|0|0|0|0|0|0,0:1|0:0|0:0|0:0|0:0|0:0|0:0|0:0|0:0|0:0|0:0|0:0|0:0,0:0:0:0:
13,114,155841,2,0,L|17:134,12,15,10|0|0|0|0|0|0|0|0|0|0|0|0,0:0|0:0|0:0|0:0|0:0|0:0|0:0|0:0|0:0|0:0|0:0|0:0|0:0,0:0:0:0:
12,217,156174,5,14,0:1:0:0:
34,209,156257,1,0,0:0:0:0:
57,202,156340,1,2,0:0:0:0:
80,195,156424,1,0,0:0:0:0:
161,212,156508,5,10,0:0:0:0:
183,204,156591,1,0,0:0:0:0:
206,197,156674,1,2,0:0:0:0:
229,190,156758,1,0,0:0:0:0:
309,216,156841,6,0,P|293:313|284:368,1,120,10|8,0:1|0:1,0:0:0:0:
319,365,157091,1,8,0:1:0:0:
319,365,157174,1,8,0:0:0:0:
366,121,157341,1,8,0:1:0:0:
129,217,157508,5,14,0:1:0:0:
429,313,157674,1,8,0:1:0:0:
101,213,157841,1,10,0:0:0:0:
454,138,158008,1,8,0:1:0:0:
179,340,158174,1,14,0:1:0:0:
248,52,158341,1,8,0:1:0:0:
424,290,158508,1,10,0:0:0:0:
122,188,158674,1,8,0:1:0:0:
358,35,158841,5,14,0:1:0:0:
363,37,158924,1,10,0:1:0:0:
373,43,159008,1,10,0:1:0:0:
386,54,159091,1,10,0:1:0:0:
396,68,159174,1,10,0:1:0:0:
407,96,159258,1,10,0:1:0:0:
401,125,159341,1,10,0:1:0:0:
377,159,159424,1,10,0:1:0:0:
332,179,159508,5,14,0:1:0:0:
279,169,159591,1,10,0:1:0:0:
245,119,159674,1,10,0:1:0:0:
261,54,159758,1,10,0:1:0:0:
325,22,159841,1,10,0:1:0:0:
397,50,159924,1,10,0:1:0:0:
418,131,160008,1,10,0:1:0:0:
356,200,160091,5,10,0:1:0:0:
356,200,160174,2,0,P|347:249|336:314,1,90,4|2,0:0|0:0,0:0:0:0:
269,351,160508,2,0,L|265:326,6,15,6|0|0|0|0|0|0,3:2|3:0|3:0|3:0|3:0|3:0|0:0,0:0:0:0:
198,282,160841,6,0,L|149:275,1,30,8|0,0:1|0:0,0:0:0:0:
143,287,161007,2,0,L|172:291,1,30,8|0,0:1|0:0,0:0:0:0:
266,232,161174,2,0,L|257:189,2,30,8|0|8,3:1|3:0|3:1,0:0:0:0:
211,45,161674,6,0,L|209:57,20,7.5,0|0|0|0|0|0|0|0|0|0|0|0|0|0|0|0|0|0|0|0|0,3:0|3:0|3:0|3:0|3:0|3:0|3:0|3:0|3:0|3:0|3:0|3:0|3:0|3:0|3:0|3:0|3:0|3:0|3:0|3:0|3:0,0:0:0:0:
146,110,162174,6,0,L|143:98,12,7.5,0|0|0|0|0|0|0|0|0|0|0|0|0,3:0|3:0|3:0|3:0|3:0|3:0|3:0|3:0|3:0|3:0|3:0|3:0|3:0,0:0:0:0:
81,45,162508,5,8,0:1:0:0:
81,45,162591,2,0,L|55:50,2,15,8|0|8,0:1|0:0|0:0,0:0:0:0:
4,177,162841,5,14,0:1:0:0:
36,163,162924,1,2,0:0:0:0:
72,162,163007,1,0,0:0:0:0:
106,174,163091,1,2,0:0:0:0:
166,239,163174,5,14,0:1:0:0:
199,251,163258,1,0,0:0:0:0:
235,250,163341,1,2,0:0:0:0:
268,236,163424,1,0,0:0:0:0:
314,156,163508,5,10,0:1:0:0:
310,138,163591,1,2,0:0:0:0:
307,120,163674,1,0,0:0:0:0:
304,102,163758,1,2,0:0:0:0:
225,45,163841,5,10,0:1:0:0:
221,63,163924,1,0,0:0:0:0:
218,81,164007,1,2,0:0:0:0:
215,99,164091,1,2,0:0:0:0:
173,178,164174,6,0,P|144:185|114:191,3,60,10|2|0|2,0:1|0:0|0:0|0:0,0:0:0:0:
34,96,164508,6,0,P|63:101|92:108,3,60,10|0|2|0,0:1|0:0|0:0|0:0,0:0:0:0:
173,53,164841,5,10,0:1:0:0:
205,39,164924,1,2,0:0:0:0:
241,38,165007,1,0,0:0:0:0:
275,50,165091,1,2,0:0:0:0:
335,115,165174,5,10,0:1:0:0:
339,133,165257,1,0,0:0:0:0:
342,151,165340,1,2,0:0:0:0:
345,169,165424,1,2,0:0:0:0:
281,242,165508,6,0,L|270:311,3,60,10|0|2|2,0:1|0:0|0:0|0:0,0:0:0:0:
321,371,165841,5,8,0:1:0:0:
299,342,165924,1,0,0:0:0:0:
266,328,166008,1,2,0:0:0:0:
231,332,166091,1,0,0:0:0:0:
150,365,166174,6,0,L|75:376,3,60,10|2|0|2,0:1|0:0|0:0|0:0,0:0:0:0:
17,314,166508,5,10,0:1:0:0:
21,290,166591,1,0,0:0:0:0:
25,266,166674,1,2,0:0:0:0:
29,243,166758,1,0,0:0:0:0:
104,184,166841,5,10,0:1:0:0:
108,208,166924,1,2,0:0:0:0:
112,232,167007,1,0,0:0:0:0:
116,255,167091,1,2,0:0:0:0:
197,216,167174,5,10,0:1:0:0:
201,192,167257,1,0,0:0:0:0:
205,168,167340,1,2,0:0:0:0:
209,145,167424,1,0,0:0:0:0:
289,102,167508,5,10,0:1:0:0:
293,126,167591,1,2,0:0:0:0:
297,150,167675,1,0,0:0:0:0:
301,173,167758,1,2,0:0:0:0:
376,228,167841,6,0,P|380:203|386:167,3,60,10|0|2|0,0:1|0:0|0:0|0:0,0:0:0:0:
470,146,168174,5,10,0:1:0:0:
495,95,168257,1,2,0:0:0:0:
463,48,168340,1,0,0:0:0:0:
406,55,168424,1,2,0:0:0:0:
316,100,168508,6,0,L|329:26,1,60,10|0,0:1|0:0,0:0:0:0:
228,110,168674,2,0,L|241:36,1,60,2|0,0:0|0:0,0:0:0:0:
127,41,168841,5,10,0:1:0:0:
133,76,168924,1,2,0:0:0:0:
139,111,169008,1,0,0:0:0:0:
145,147,169091,1,2,0:0:0:0:
85,208,169174,6,0,P|48:200|9:190,1,60,10|0,0:1|0:0,0:0:0:0:
152,270,169341,2,0,P|181:262|210:256,1,60,2|2,0:0|0:0,0:0:0:0:
306,285,169508,5,10,0:1:0:0:
333,233,169591,1,2,0:0:0:0:
315,177,169674,1,0,0:0:0:0:
263,151,169758,1,2,0:0:0:0:
174,131,169841,6,0,P|145:132|116:140,1,60,10|0,0:1|0:0,0:0:0:0:
27,166,170008,2,0,P|56:173|85:174,1,60,2|0,0:0|0:0,0:0:0:0:
176,224,170174,5,10,0:1:0:0:
171,247,170257,1,2,0:0:0:0:
166,271,170340,1,0,0:0:0:0:
161,294,170424,1,2,0:0:0:0:
83,344,170508,6,0,L|166:333,1,60,10|0,0:1|0:0,0:0:0:0:
17,273,170674,2,0,L|100:262,1,60,2|2,0:0|0:0,0:0:0:0:
147,202,170841,5,10,0:1:0:0:
179,188,170924,1,0,0:0:0:0:
215,187,171007,1,2,0:0:0:0:
249,199,171091,1,2,0:0:0:0:
309,264,171174,5,8,0:1:0:0:
342,276,171258,1,0,0:0:0:0:
378,275,171341,1,2,0:0:0:0:
411,261,171424,1,0,0:0:0:0:
470,193,171508,6,0,P|465:158|458:115,3,60,10|2|0|2,0:1|0:0|0:0|0:0,0:0:0:0:
385,59,171841,6,0,P|380:88|376:118,3,60,10|0|2|0,0:1|0:0|0:0|0:0,0:0:0:0:
297,189,172174,5,10,0:1:0:0:
290,153,172257,1,2,0:0:0:0:
284,118,172340,1,0,0:0:0:0:
278,82,172424,1,2,0:0:0:0:
197,31,172508,5,10,0:1:0:0:
191,67,172592,1,0,0:0:0:0:
185,102,172674,1,2,0:0:0:0:
178,138,172758,1,0,0:1:0:0:
95,177,172841,5,10,0:1:0:0:
60,224,172924,1,2,0:0:0:0:
60,283,173007,1,0,0:0:0:0:
95,330,173091,1,2,0:0:0:0:
196,369,173174,6,0,P|188:321|181:282,1,60,10|0,0:1|0:0,0:0:0:0:
283,233,173341,2,0,P|277:262|273:292,1,60,10|0,0:1|0:0,0:0:0:0:
218,115,173508,5,14,0:1:0:0:
275,131,173591,1,2,0:0:0:0:
333,147,173674,1,0,0:0:0:0:
391,163,173758,1,2,0:0:0:0:
478,211,173841,6,0,L|465:122,3,60,10|0|2|0,0:0|0:0|0:0|0:0,0:0:0:0:
404,20,174174,6,0,L|395:79,3,60,10|2|0|2,0:1|0:0|0:0|0:0,0:0:0:0:
314,195,174508,5,10,0:0:0:0:
259,171,174591,1,0,0:0:0:0:
201,180,174674,1,2,0:0:0:0:
156,219,174758,1,2,0:0:0:0:
84,287,174841,6,0,B|54:278|54:278|17:287,1,60,10|2,0:1|0:0,0:0:0:0:
153,359,175008,2,0,B|183:368|183:368|220:359,1,60,0|2,0:0|0:0,0:0:0:0:
309,273,175174,5,10,0:0:0:0:
341,225,175257,1,0,0:0:0:0:
316,174,175340,1,2,0:0:0:0:
259,171,175424,1,0,0:0:0:0:
164,176,175508,5,10,0:1:0:0:
107,173,175592,1,2,0:0:0:0:
82,122,175675,1,0,0:0:0:0:
114,74,175758,1,2,0:0:0:0:
211,7,175841,6,0,L|197:80,3,60,10|0|2|2,0:0|0:0|0:0|0:0,0:0:0:0:
290,75,176174,5,10,0:1:0:0:
293,92,176257,1,0,0:0:0:0:
296,110,176340,1,2,0:0:0:0:
299,128,176424,1,2,0:0:0:0:
370,172,176508,5,8,0:0:0:0:
373,189,176591,1,0,0:0:0:0:
376,207,176674,1,2,0:0:0:0:
379,225,176758,1,0,0:0:0:0:
451,269,176841,5,10,0:1:0:0:
454,286,176924,1,2,0:0:0:0:
457,304,177007,1,0,0:0:0:0:
460,322,177091,1,2,0:0:0:0:
362,384,177174,6,0,L|373:325,3,60,10|0|2|0,0:0|0:0|0:0|0:0,0:0:0:0:
324,248,177508,5,10,0:1:0:0:
292,234,177591,1,2,0:0:0:0:
256,233,177674,1,0,0:0:0:0:
222,245,177758,1,2,0:0:0:0:
162,310,177841,5,10,0:0:0:0:
129,322,177925,1,0,0:0:0:0:
93,321,178008,1,2,0:0:0:0:
60,307,178091,1,0,0:0:0:0:
15,230,178174,6,0,P|21:199|30:153,1,60,10|2,0:1|0:0,0:0:0:0:
87,46,178341,1,0,0:0:0:0:
87,46,178424,1,10,0:1:0:0:
87,46,178508,2,0,P|93:77|102:123,1,60,10|0,0:1|0:0,0:0:0:0:
174,183,178674,2,0,P|180:152|189:106,1,60,10|0,0:1|0:0,0:0:0:0:
312,63,178841,5,14,0:1:0:0:
335,67,178924,1,2,0:0:0:0:
359,72,179007,1,0,0:0:0:0:
382,77,179091,1,2,0:0:0:0:
472,143,179174,5,10,0:0:0:0:
436,149,179257,1,0,0:0:0:0:
401,156,179340,1,2,0:0:0:0:
365,163,179424,1,0,0:0:0:0:
272,228,179508,5,10,0:0:0:0:
319,236,179591,1,2,0:0:0:0:
366,245,179674,1,0,0:0:0:0:
413,254,179758,1,2,0:0:0:0:
507,317,179841,5,10,0:0:0:0:
448,328,179924,1,0,0:0:0:0:
389,339,180007,1,2,0:0:0:0:
330,351,180091,1,0,0:0:0:0:
226,373,180174,5,14,0:1:0:0:
230,349,180257,1,2,0:0:0:0:
234,325,180340,1,0,0:0:0:0:
238,302,180424,1,2,0:0:0:0:
148,322,180508,5,10,0:0:0:0:
155,286,180591,1,0,0:0:0:0:
162,251,180674,1,2,0:0:0:0:
169,216,180758,1,0,0:0:0:0:
76,260,180841,5,10,0:0:0:0:
84,212,180924,1,2,0:0:0:0:
93,165,181007,1,0,0:0:0:0:
101,118,181091,1,2,0:0:0:0:
6,184,181174,5,10,0:0:0:0:
16,124,181257,1,0,0:0:0:0:
26,65,181340,1,2,0:0:0:0:
36,6,181424,1,0,0:0:0:0:
138,34,181508,6,0,P|166:43|228:54,1,60,14|0,0:2|0:0,0:0:0:0:
322,22,181674,2,0,P|300:41|259:89,1,60,10|0,0:1|0:0,0:0:0:0:
238,185,181841,2,0,P|231:156|210:97,1,60,10|0,0:2|0:0,0:0:0:0:
322,151,182008,2,0,P|350:160|412:171,1,60,10|0,0:1|0:0,0:0:0:0:
310,239,182174,2,0,P|288:258|247:306,1,60,10|0,0:2|0:0,0:0:0:0:
410,316,182341,2,0,P|403:287|382:228,1,60,10|0,0:1|0:0,0:0:0:0:
294,362,182508,1,10,0:2:0:0:
294,362,182591,1,0,0:0:0:0:
294,362,182674,2,0,P|322:371|384:382,1,60,10|0,0:1|0:0,0:0:0:0:
499,228,182841,5,10,0:1:0:0:
499,228,182924,1,2,0:0:0:0:
499,228,183008,2,0,L|494:251,8,15,2|0|0|0|0|0|0|0|10,3:0|3:0|3:0|3:0|3:0|3:0|3:0|3:0|3:1,0:0:0:0:
390,104,183341,2,0,P|397:133|408:199,1,60,2|0,0:0|0:0,0:0:0:0:
430,167,183508,6,0,P|386:113|409:246,1,400,8|0,0:1|0:0,0:0:0:0:
399,251,183841,1,10,0:1:0:0:
268,340,184008,2,0,L|283:337,4,15,0|0|0|0|0,3:0|3:0|3:0|3:0|3:0,0:0:0:0:
302,353,184174,6,0,L|382:338,1,60,14|0,0:1|0:0,0:0:0:0:
290,197,184341,1,2,0:0:0:0:
265,179,184424,1,0,0:0:0:0:
238,167,184507,1,10,0:0:0:0:
208,163,184591,1,0,0:0:0:0:
178,167,184674,1,2,0:0:0:0:
151,177,184757,1,0,0:0:0:0:
126,195,184841,1,10,0:1:0:0:
107,217,184924,1,0,0:0:0:0:
94,244,185008,6,0,P|103:279|113:322,1,60,2|0,0:0|0:0,0:0:0:0:
212,334,185174,2,0,P|204:304|197:275,1,60,10|0,0:0|0:0,0:0:0:0:
59,234,185341,2,0,P|68:269|78:312,1,60,2|0,0:0|0:0,0:0:0:0:
190,342,185508,6,0,P|182:312|175:283,1,60,10|0,0:1|0:0,0:0:0:0:
131,100,185674,1,2,0:0:0:0:
171,76,185757,1,0,0:0:0:0:
219,76,185840,1,10,0:0:0:0:
260,98,185924,1,0,0:0:0:0:
285,138,186007,1,2,0:0:0:0:
311,177,186091,1,0,0:0:0:0:
352,200,186175,1,10,0:1:0:0:
399,199,186258,1,0,0:0:0:0:
440,176,186341,6,0,P|446:142|424:97,1,60,2|0,0:0|0:0,0:0:0:0:
315,42,186508,2,0,P|341:64|391:67,1,60,10|0,0:0|0:0,0:0:0:0:
490,5,186675,2,0,P|457:16|429:58,1,60,2|0,0:0|0:0,0:0:0:0:
326,209,186841,5,10,0:1:0:0:
355,158,186924,1,0,0:0:0:0:
341,102,187007,1,2,0:0:0:0:
291,71,187091,1,0,0:0:0:0:
234,85,187174,1,10,0:0:0:0:
204,135,187257,1,0,0:0:0:0:
217,192,187341,2,0,L|232:120,1,60,2|0,0:0|0:0,0:0:0:0:
86,59,187508,5,10,0:1:0:0:
42,99,187591,1,0,0:0:0:0:
24,156,187674,1,2,0:0:0:0:
34,214,187758,1,0,0:0:0:0:
70,261,187841,2,0,P|115:255|157:248,1,60,8|0,0:0|0:0,0:0:0:0:
333,193,188008,5,2,0:0:0:0:
303,187,188091,1,0,0:0:0:0:
274,181,188174,1,10,0:1:0:0:
244,175,188258,1,0,0:0:0:0:
215,169,188341,2,0,L|228:229,1,60,2|0,0:0|0:0,0:0:0:0:
341,353,188508,5,10,0:0:0:0:
343,335,188591,1,0,0:0:0:0:
345,317,188674,1,2,0:0:0:0:
347,299,188758,1,0,0:0:0:0:
349,281,188841,2,0,L|278:292,1,60,10|0,0:1|0:0,0:0:0:0:
137,324,189008,5,2,0:0:0:0:
137,324,189091,1,0,0:0:0:0:
137,324,189174,2,0,L|196:333,1,60,10|0,0:0|0:0,0:0:0:0:
32,216,189341,5,2,0:0:0:0:
32,216,189425,1,0,0:0:0:0:
32,216,189508,2,0,P|38:243|50:296,1,60,10|0,0:1|0:0,0:0:0:0:
188,188,189675,5,2,0:0:0:0:
209,159,189757,1,0,0:0:0:0:
216,124,189841,1,10,0:0:0:0:
206,90,189924,1,0,0:0:0:0:
182,63,190008,1,2,0:0:0:0:
149,50,190090,1,0,0:0:0:0:
114,53,190174,1,10,0:1:0:0:
83,71,190257,1,0,0:0:0:0:
64,101,190341,2,0,P|97:96|137:88,1,60,2|0,0:0|0:0,0:0:0:0:
335,28,190508,5,10,0:0:0:0:
377,66,190591,1,0,0:0:0:0:
364,122,190674,1,2,0:0:0:0:
310,139,190758,1,0,0:0:0:0:
268,99,190841,6,0,P|241:103|210:115,1,60,10|0,0:1|0:0,0:0:0:0:
237,248,191008,2,0,P|248:222|253:189,1,60,2|0,0:0|0:0,0:0:0:0:
122,140,191174,2,0,P|138:162|164:183,1,60,10|0,0:0|0:0,0:0:0:0:
319,268,191341,2,0,P|330:241|335:211,1,60,2|0,0:0|0:0,0:0:0:0:
247,21,191508,2,0,P|218:25|190:36,1,60,10|0,0:1|0:0,0:0:0:0:
60,197,191674,2,0,P|77:220|101:239,1,60,2|0,0:0|0:0,0:0:0:0:
237,248,191841,2,0,P|248:222|253:189,1,60,10|0,0:0|0:0,0:0:0:0:
122,140,192008,2,0,P|138:162|164:183,1,60,2|0,0:0|0:0,0:0:0:0:
268,99,192174,6,0,P|241:103|210:115,1,60,10|0,0:1|0:0,0:0:0:0:
405,148,192341,1,2,0:0:0:0:
416,120,192424,1,0,0:0:0:0:
448,98,192508,5,10,0:0:0:0:
441,129,192591,1,0,0:0:0:0:
434,160,192674,1,2,0:0:0:0:
427,192,192758,1,0,0:0:0:0:
446,234,192841,5,10,0:1:0:0:
459,176,192925,1,0,0:0:0:0:
471,119,193008,1,2,0:0:0:0:
483,64,193091,1,0,0:0:0:0:
402,16,193174,5,10,0:0:0:0:
380,24,193257,1,0,0:0:0:0:
357,31,193340,1,2,0:0:0:0:
334,38,193424,1,0,0:0:0:0:
268,103,193508,5,10,0:1:0:0:
268,103,193591,1,0,0:0:0:0:
268,103,193674,2,0,P|265:141|285:176,1,60,2|0,0:0|0:0,0:0:0:0:
402,230,193841,5,10,0:0:0:0:
356,192,193924,1,0,0:0:0:0:
297,189,194007,1,2,0:0:0:0:
248,221,194091,1,0,0:0:0:0:
229,277,194174,2,0,L|244:357,1,60,10|0,0:1|0:0,0:0:0:0:
118,225,194341,2,0,L|133:305,1,60,2|0,0:0|0:0,0:0:0:0:
201,121,194508,2,0,L|216:201,1,60,10|0,0:0|0:0,0:0:0:0:
90,69,194675,2,0,L|105:149,1,60,10|0,0:1|0:0,0:0:0:0:
315,215,194841,6,0,L|303:156,1,60,14|0,0:1|0:0,0:0:0:0:
195,276,195008,1,2,0:0:0:0:
217,256,195091,1,0,0:0:0:0:
244,243,195174,1,10,0:0:0:0:
274,238,195258,1,0,0:0:0:0:
304,241,195341,1,2,0:0:0:0:
331,252,195424,1,0,0:0:0:0:
356,270,195508,1,10,0:1:0:0:
374,293,195591,6,0,P|378:244|363:206,1,60,2|0,0:0|0:0,0:0:0:0:
482,228,195758,1,2,0:0:0:0:
482,228,195841,2,0,P|450:190|412:174,1,60,10|0,0:0|0:0,0:0:0:0:
488,110,196008,2,0,P|439:105|400:121,1,60,2|0,0:0|0:0,0:0:0:0:
409,8,196175,6,0,P|371:39|355:77,1,60,10|0,0:1|0:0,0:0:0:0:
261,228,196341,1,2,0:0:0:0:
295,195,196424,1,0,0:0:0:0:
308,149,196507,1,10,0:0:0:0:
296,103,196591,1,0,0:0:0:0:
263,69,196674,1,2,0:0:0:0:
217,56,196757,1,0,0:0:0:0:
171,68,196841,1,10,0:1:0:0:
138,102,196924,6,0,B|132:134|132:134|152:184,1,60,2|0,0:0|0:0,0:0:0:0:
269,225,197091,1,2,0:0:0:0:
269,225,197174,2,0,B|244:203|244:203|190:196,1,60,10|0,0:0|0:0,0:0:0:0:
97,273,197341,2,0,B|127:262|127:262|161:219,1,60,2|0,0:0|0:0,0:0:0:0:
214,120,197508,5,10,0:1:0:0:
269,99,197591,1,0,0:0:0:0:
325,117,197674,1,2,0:0:0:0:
359,166,197758,1,0,0:0:0:0:
392,214,197841,1,10,0:0:0:0:
448,232,197925,1,0,0:0:0:0:
504,212,198008,2,0,P|472:200|422:218,1,60,2|0,0:0|0:0,0:0:0:0:
330,356,198174,5,10,0:1:0:0:
330,356,198258,2,0,P|338:313|346:272,1,60,2|0,0:0|0:0,0:0:0:0:
244,213,198424,1,2,0:0:0:0:
244,213,198508,2,0,P|250:250|257:289,1,60,10|0,0:0|0:0,0:0:0:0:
151,361,198674,6,0,P|159:318|167:277,1,60,2|0,0:0|0:0,0:0:0:0:
142,166,198841,1,10,0:1:0:0:
142,166,198924,2,0,B|109:156|109:156|65:168,1,60,2|0,0:0|0:0,0:0:0:0:
30,245,199091,1,2,0:0:0:0:
30,245,199174,2,0,B|63:255|63:255|107:243,1,60,10|0,0:0|0:0,0:0:0:0:
289,161,199341,5,2,0:0:0:0:
274,138,199424,1,0,0:0:0:0:
260,116,199507,1,10,0:1:0:0:
245,95,199591,2,0,P|274:89|304:83,1,60,2|0,0:0|0:0,0:0:0:0:
178,166,199758,1,8,0:1:0:0:
178,166,199841,2,0,P|142:158|94:148,1,60,10|0,0:0|0:0,0:0:0:0:
113,17,200008,2,0,P|123:52|139:99,1,60,10|0,0:1|0:0,0:0:0:0:
11,147,200174,6,0,P|36:119|69:83,1,60,14|0,0:1|0:0,0:0:0:0:
217,67,200341,1,10,0:1:0:0:
266,99,200424,1,0,0:0:0:0:
290,153,200507,1,10,0:1:0:0:
282,212,200591,1,0,0:0:0:0:
245,257,200674,2,0,L|231:177,1,60,10|0,0:1|0:0,0:0:0:0:
152,128,200841,5,10,0:1:0:0:
152,128,200924,2,0,L|137:208,1,60,2|8,0:0|0:1,0:0:0:0:
36,348,201091,1,2,0:0:0:0:
36,348,201174,2,0,P|70:342|126:332,1,60,10|0,0:1|0:0,0:0:0:0:
191,328,201341,2,0,P|161:322|131:317,1,60,10|0,0:1|0:0,0:0:0:0:
53,190,201508,5,14,0:1:0:0:
53,190,201591,2,0,P|62:228|73:278,1,60,2|8,0:0|0:1,0:0:0:0:
250,208,201758,1,2,0:0:0:0:
250,208,201841,2,0,P|243:179|237:150,1,60,10|0,0:1|0:0,0:0:0:0:
137,142,202008,2,0,P|143:172|150:201,1,60,10|0,0:1|0:0,0:0:0:0:
334,161,202174,5,10,0:1:0:0:
334,161,202258,2,0,P|327:132|321:103,1,60,2|8,0:0|0:1,0:0:0:0:
224,17,202424,1,2,0:0:0:0:
224,17,202508,2,0,P|230:46|237:75,1,60,10|0,0:1|0:0,0:0:0:0:
467,77,202674,5,10,0:1:0:0:
437,72,202757,1,8,0:1:0:0:
407,68,202841,2,0,P|413:97|420:126,1,60,14|0,0:1|0:0,0:0:0:0:
481,310,203008,1,10,0:1:0:0:
505,257,203091,1,0,0:0:0:0:
475,208,203174,1,10,0:1:0:0:
418,205,203258,1,0,0:0:0:0:
384,252,203341,2,0,P|339:259|293:264,1,60,10|0,0:1|0:0,0:0:0:0:
171,320,203508,5,14,0:1:0:0:
171,320,203591,1,0,0:0:0:0:
171,320,203674,2,0,P|200:323|230:328,1,60,10|0,0:1|0:0,0:0:0:0:
106,243,203841,2,0,P|135:239|165:234,1,60,10|0,0:1|0:0,0:0:0:0:
34,153,204008,2,0,P|63:156|93:161,1,60,10|0,0:1|0:0,0:0:0:0:
277,226,204174,5,14,0:1:0:0:
282,224,204258,1,10,0:1:0:0:
291,216,204341,1,10,0:1:0:0:
299,200,204424,1,10,0:1:0:0:
298,175,204508,1,14,0:1:0:0:
282,149,204591,1,10,0:1:0:0:
248,135,204674,1,10,0:1:0:0:
206,142,204758,1,10,0:1:0:0:
180,182,204841,5,14,0:1:0:0:
193,234,204924,1,10,0:1:0:0:
249,256,205008,1,10,0:1:0:0:
313,224,205091,1,10,0:1:0:0:
317,146,205174,1,14,0:1:0:0:
244,102,205258,1,10,0:1:0:0:
165,145,205341,1,10,0:1:0:0:
159,240,205424,1,10,0:1:0:0:
265,303,205508,6,0,L|250:212,1,66.0000020141602,14|2,0:1|0:2,0:0:0:0:
361,320,205674,2,0,L|346:229,1,66.0000020141602,2|2,0:1|0:2,0:0:0:0:
455,338,205841,1,10,0:2:0:0:
361,64,206008,1,2,0:2:0:0:
361,64,206091,1,0,0:0:0:0:
361,64,206174,2,0,L|346:155,1,66.0000020141602,0|0,0:0|0:2,0:0:0:0:
445,202,206341,2,0,L|434:136,1,66.0000020141602,10|0,0:1|0:2,0:0:0:0:
265,48,206508,6,0,B|246:73|245:98|245:98|255:117|260:145|260:145|227:175|222:215|222:215|243:249|241:298,1,270.000010299683,10|0,0:2|0:0,0:0:0:0:
216,300,206841,5,10,0:1:0:0:
39,136,207008,2,0,P|108:113|173:147,1,132.00000402832,2|8,0:2|0:2,0:0:0:0:
397,196,207341,2,0,P|334:210|255:230,1,132.00000402832,2|0,0:2|0:0,0:0:0:0:
93,258,207674,1,10,0:1:0:0:
218,30,207841,2,0,B|245:91|245:91|225:174,1,132.00000402832,10|2,0:2|0:2,0:0:0:0:
97,96,208174,5,10,0:1:0:0:
335,29,208341,2,0,P|360:91|339:162,1,132.00000402832,2|8,0:2|0:2,0:0:0:0:
174,334,208674,2,0,P|149:272|170:201,1,132.00000402832,2|0,0:2|0:0,0:0:0:0:
258,92,209008,1,10,0:1:0:0:
415,248,209174,2,0,P|355:233|261:215,1,132.00000402832,8|2,0:2|0:2,0:0:0:0:
192,148,209508,5,8,0:1:0:0:
341,104,209674,1,2,0:2:0:0:
211,262,209841,1,10,0:2:0:0:
369,79,210008,1,2,0:2:0:0:
97,143,210174,1,2,0:2:0:0:
334,260,210341,1,10,0:1:0:0:
187,20,210508,1,10,0:2:0:0:
59,268,210674,1,2,0:2:0:0:
346,122,210841,6,0,B|314:115|314:115|274:124,1,66.0000020141602,14|2,0:1|0:2,0:0:0:0:
204,154,211008,2,0,B|172:161|172:161|132:152,1,66.0000020141602,2|2,0:2|0:2,0:0:0:0:
56,130,211174,1,10,0:2:0:0:
283,260,211341,1,2,0:2:0:0:
283,260,211424,1,0,0:0:0:0:
283,260,211508,2,0,B|292:225|292:225|280:180,1,66.0000020141602
204,154,211674,2,0,B|195:189|195:189|207:234,1,66.0000020141602,10|0,0:1|0:0,0:0:0:0:
366,309,211841,6,0,B|389:216|389:216|345:79|345:79|320:132,1,270.000010299683,10|0,0:2|0:0,0:0:0:0:
315,130,212174,5,10,0:1:0:0:
459,280,212341,2,0,B|477:211|477:211|447:121,1,132.00000402832,2|8,0:2|0:2,0:0:0:0:
230,60,212674,2,0,B|212:129|212:129|242:219,1,132.00000402832,2|0,0:2|0:0,0:0:0:0:
376,123,213008,1,10,0:1:0:0:
138,63,213174,2,0,B|120:132|120:132|150:222,1,132.00000402832,10|0,0:2|0:0,0:0:0:0:
213,297,213507,5,10,0:1:0:0:
376,217,213674,2,0,P|335:188|234:211,1,132.00000402832,2|8,0:2|0:2,0:0:0:0:
24,347,214008,2,0,P|65:376|166:353,1,132.00000402832,2|0,0:2|0:0,0:0:0:0:
303,272,214341,1,10,0:1:0:0:
131,137,214508,2,0,B|106:179|106:179|134:303,1,132.00000402832,8|2,0:2|0:2,0:0:0:0:
223,317,214841,5,8,0:1:0:0:
261,160,215008,1,2,0:2:0:0:
98,263,215174,1,10,0:2:0:0:
309,353,215341,1,10,0:1:0:0:
309,353,215424,1,10,0:1:0:0:
309,353,215508,2,0,P|319:313|330:268,1,66.0000020141602
429,269,215674,2,0,P|419:309|408:354,1,66.0000020141602,10|0,0:1|0:0,0:0:0:0:
301,213,215841,1,10,0:2:0:0:
333,206,215924,1,8,0:1:0:0:
365,199,216007,1,10,0:1:0:0:
214,253,216174,6,0,P|208:216|226:172,1,66.0000020141602,14|2,0:1|0:2,0:0:0:0:
302,148,216341,2,0,P|308:185|290:229,1,66.0000020141602,2|2,0:2|0:2,0:0:0:0:
214,253,216508,1,10,0:2:0:0:
105,112,216674,1,2,0:2:0:0:
105,112,216758,1,0,0:0:0:0:
105,112,216841,2,0,P|99:75|117:31,1,66.0000020141602
193,7,217007,2,0,P|199:44|181:88,1,66.0000020141602,10|0,0:1|0:0,0:0:0:0:
0,243,217174,6,0,P|81:149|223:201,1,270.000010299683,10|0,0:2|0:0,0:0:0:0:
207,215,217508,5,10,0:1:0:0:
323,94,217674,2,0,P|335:132|300:231,1,132.00000402832,2|8,0:2|0:2,0:0:0:0:
93,268,218008,2,0,P|120:238|224:219,1,132.00000402832,2|0,0:2|0:2,0:0:0:0:
312,218,218341,1,10,0:1:0:0:
357,373,218507,2,0,P|319:364|250:284,1,132.00000402832,8|2,0:2|0:2,0:0:0:0:
232,189,218841,5,10,0:1:0:0:
379,138,219008,2,0,P|391:176|356:275,1,132.00000402832,2|8,0:2|0:2,0:0:0:0:
175,130,219341,2,0,P|202:100|306:81,1,132.00000402832,2|0,0:2|0:0,0:0:0:0:
368,262,219674,1,10,0:1:0:0:
267,314,219841,2,0,P|229:305|160:225,1,132.00000402832,8|2,0:2|0:2,0:0:0:0:
124,116,220174,5,8,0:1:0:0:
257,181,220341,1,2,0:2:0:0:
64,246,220508,1,10,0:2:0:0:
268,85,220674,1,2,0:2:0:0:
305,346,220841,1,2,0:2:0:0:
91,134,221008,1,10,0:1:0:0:
386,72,221174,1,10,0:2:0:0:
174,311,221341,5,10,0:1:0:0:
183,285,221424,1,8,0:1:0:0:
192,262,221508,2,0,L|273:246,1,66.0000020141602,14|2,0:1|0:2,0:0:0:0:
350,343,221674,2,0,L|269:327,1,66.0000020141602,2|2,0:2|0:2,0:0:0:0:
86,276,221841,1,8,0:2:0:0:
279,177,222008,1,2,0:2:0:0:
172,376,222174,5,8,0:1:0:0:
107,111,222341,1,2,0:2:0:0:
204,362,222508,1,8,0:2:0:0:
324,100,222674,1,2,0:2:0:0:
57,300,222841,5,14,0:1:0:0:
363,246,223008,1,2,0:2:0:0:
85,145,223174,1,8,0:2:0:0:
394,66,223341,1,2,0:2:0:0:
235,339,223508,5,8,0:1:0:0:
125,58,223674,1,2,0:2:0:0:
125,58,223758,1,8,0:1:0:0:
125,58,223841,2,0,P|158:70|192:78,1,66.0000020141602,10|0,0:1|0:0,0:0:0:0:
283,172,224008,2,0,P|250:179|220:191,1,66.0000020141602,10|0,0:1|0:0,0:0:0:0:
85,312,224174,5,14,0:2:0:0:
277,76,224341,1,10,0:1:0:0:
63,333,224508,1,10,0:2:0:0:
343,215,224674,1,10,0:1:0:0:
83,76,224841,5,14,0:2:0:0:
172,352,225008,1,10,0:1:0:0:
276,67,225174,1,10,0:2:0:0:
377,344,225341,1,10,0:1:0:0:
28,176,225508,5,14,0:1:0:0:
34,171,225591,1,10,0:1:0:0:
46,165,225674,1,10,0:1:0:0:
66,163,225758,1,10,0:1:0:0:
92,170,225841,1,14,0:1:0:0:
116,192,225924,1,10,0:1:0:0:
154,205,226008,1,10,0:1:0:0:
197,187,226091,1,10,0:1:0:0:
222,140,226174,5,14,0:1:0:0:
280,124,226258,1,10,0:1:0:0:
339,154,226341,1,10,0:1:0:0:
372,218,226424,1,10,0:1:0:0:
448,242,226508,1,14,0:1:0:0:
510,182,226591,1,10,0:1:0:0:
493,91,226674,1,10,0:1:0:0:
399,58,226758,1,10,0:1:0:0:
322,128,226841,5,14,0:1:0:0:
