osu file format v14

[General]
AudioFilename: audio.mp3
AudioLeadIn: 0
PreviewTime: 178698
Countdown: 0
SampleSet: Normal
StackLeniency: 0.7
Mode: 1
LetterboxInBreaks: 0
WidescreenStoryboard: 1

[Editor]
Bookmarks: 28457,46235,53346,60457,74679,88901,103235,142590,185853,192253,198653,205053,211453,217853,224253,227453,258352,286796,341818,350818
DistanceSpacing: 0.85
BeatDivisor: 4
GridSize: 32
TimelineZoom: 4.763998

[Metadata]
Title:Galaxy Collapse
TitleUnicode:Galaxy Collapse
Artist:Kurokotei
ArtistUnicode:黒皇帝
Creator:paz08
Version:Quasar
Source:東方星蓮船 ~ Undefined Fantastic Object.
Tags:instrumental touhou project 12 speedcore kurokoutei gc nue houjuu Heian Alien ZUN 東方project extra stage boss theme electronic video game fa featured artist
BeatmapID:3305086
BeatmapSetID:1618758

[Difficulty]
HPDrainRate:3
CircleSize:2.5
OverallDifficulty:8
ApproachRate:10
SliderMultiplier:1.4
SliderTickRate:1

[Events]
//Background and Video events
0,0,"bebesita.png",0,20
//Break Periods
//Storyboard Layer 0 (Background)
//Storyboard Layer 1 (Fail)
//Storyboard Layer 2 (Pass)
//Storyboard Layer 3 (Foreground)
//Storyboard Layer 4 (Overlay)
//Storyboard Sound Samples

[TimingPoints]
288,222.222222222222,4,1,0,60,1,0
288,-200,4,1,0,60,0,0
6500,-193.54370692782,4,1,0,63,0,0
6944,-187.504392437979,4,1,0,67,0,0
7389,-181.818181818182,4,1,0,70,0,0
14055,-176.478370154782,4,1,0,72,0,0
14166,-173.924380704042,4,1,0,72,0,0
14277,-171.44325922118,4,1,0,73,0,0
14500,-166.666666666667,4,1,0,75,0,0
21166,-162.168733284707,4,1,0,77,0,0
21277,-160.009595777858,4,1,0,77,0,0
21389,-157.888507515682,4,1,0,78,0,0
21611,-153.846153846154,4,1,0,80,0,0
21833,-152.7457066449,4,1,0,80,0,0
21944,-152.201365552963,4,1,0,80,0,0
22055,-151.660890429219,4,1,0,80,0,0
22166,-151.124240234624,4,1,0,80,0,0
22277,-150.591374508953,4,1,0,80,0,0
22389,-150.057503402724,4,1,0,80,0,0
22500,-149.532120702345,4,1,0,80,0,0
22611,-149.010404115545,4,1,0,80,0,0
22722,-148.492315402606,4,1,0,80,0,0
22833,-147.977816853781,4,1,0,80,0,0
22944,-147.466871280148,4,1,0,80,0,0
23055,-146.95944200465,4,1,0,81,0,0
23166,-146.455492853318,4,1,0,81,0,0
23277,-145.954988146673,4,1,0,81,0,0
23389,-145.453429743191,4,1,0,81,0,0
23500,-144.959739068393,4,1,0,81,0,0
23611,-144.46938837703,4,1,0,81,0,0
23722,-143.982343889204,4,1,0,81,0,0
23833,-143.498572279006,4,1,0,81,0,0
23944,-143.018040666921,4,1,0,81,0,0
24055,-142.540716612378,4,1,0,81,0,0
24166,-142.066568106445,4,1,0,81,0,0
24277,-141.59556356468,4,1,0,81,0,0
24389,-141.12347063318,4,1,0,81,0,0
24500,-140.658688557017,4,1,0,82,0,0
24611,-140.196957897539,4,1,0,82,0,0
24722,-139.738248703034,4,1,0,82,0,0
24833,-139.28253141251,4,1,0,82,0,0
24944,-138.829776849339,4,1,0,82,0,0
25055,-138.379956215033,4,1,0,82,0,0
25166,-137.933041083136,4,1,0,82,0,0
25277,-137.489003393239,4,1,0,82,0,0
25389,-137.043853647725,4,1,0,82,0,0
25500,-136.605513399289,4,1,0,82,0,0
25611,-136.169968308072,4,1,0,82,0,0
25722,-135.737191723295,4,1,0,82,0,0
25833,-135.307157331913,4,1,0,82,0,0
25944,-134.879839153279,4,1,0,83,0,0
26055,-134.455211533916,4,1,0,83,0,0
26166,-134.033249142383,4,1,0,83,0,0
26277,-133.613926964234,4,1,0,83,0,0
26389,-133.193477996198,4,1,0,83,0,0
26500,-132.779385678275,4,1,0,83,0,0
26611,-132.367860167717,4,1,0,83,0,0
26722,-131.958877672209,4,1,0,83,0,0
26833,-131.552414692579,4,1,0,83,0,0
26944,-131.148448018296,4,1,0,83,0,0
27055,-130.746954723052,4,1,0,83,0,0
27166,-130.347912160428,4,1,0,83,0,0
27277,-129.951297959631,4,1,0,83,0,0
27389,-129.553549468468,4,1,0,84,0,0
27500,-129.161747343566,4,1,0,84,0,0
27611,-128.772307887326,4,1,0,84,0,0
27722,-128.385209792735,4,1,0,84,0,0
27833,-128.000432008208,4,1,0,84,0,0
27944,-127.617953733781,4,1,0,84,0,0
28055,-127.237754417356,4,1,0,84,0,0
28166,-126.859813751026,4,1,0,84,0,0
28277,-126.484111667452,4,1,0,84,0,0
28389,-126.107273646222,4,1,0,84,0,0
28500,-125.736009194589,4,1,0,84,0,0
28611,-125.366924358488,4,1,0,84,0,0
28722,-125,4,1,0,85,0,0
32277,-100,4,1,0,90,0,0
59611,-99.0998296975103,4,1,0,90,0,0
59666,-98.6597771677701,4,1,0,90,0,0
59722,-98.2157209451857,4,1,0,90,0,0
59777,-97.7834680323278,4,1,0,90,0,0
59833,-97.3472476698797,4,1,0,90,0,0
59889,-96.9149020540884,4,1,0,90,0,0
59944,-96.4939987365761,4,1,0,90,0,0
60000,-96.0691823899371,4,1,0,90,0,0
60055,-95.6555772994129,4,1,0,90,0,0
60111,-95.2380952380952,4,1,0,90,0,0
60166,-94.8316001862486,4,1,0,90,0,0
60222,-94.4212641013754,4,1,0,90,0,0
60277,-94.0216973147649,4,1,0,90,0,0
60333,-93.6183252892056,4,1,0,90,0,0
60389,-93.2183995728126,4,1,0,90,0,0
60444,-92.8289273776967,4,1,0,90,0,0
60500,-92.4357034795764,4,1,0,90,0,0
60555,-92.0527306967985,4,1,0,90,0,0
60611,-91.6660415572725,4,1,0,90,0,0
60666,-91.2894068429703,4,1,0,90,0,0
60722,-90.9090909090909,4,1,0,90,0,0
60944,-117.647058823529,4,1,0,80,0,0
74722,-114.285714285714,4,1,0,80,0,0
74777,-113.482428115016,4,1,0,80,0,0
74833,-112.676056338028,4,1,0,80,0,0
74889,-111.881063374071,4,1,0,80,0,0
74944,-111.111111111111,4,1,0,80,0,0
85389,-109.368957637546,4,1,0,80,0,0
85444,-108.947644895815,4,1,0,80,0,0
85500,-108.521993930303,4,1,0,80,0,0
85555,-108.107168919623,4,1,0,80,0,0
85611,-107.688047353664,4,1,0,80,0,0
85722,-106.866820102367,4,1,0,80,0,0
85833,-106.058023386629,4,1,0,80,0,0
85944,-105.261377093554,4,1,0,80,0,0
86055,-104.47660946368,4,1,0,80,0,0
86166,-103.703456781893,4,1,0,80,0,0
86277,-102.941663081963,4,1,0,80,0,0
86389,-102.184266710462,4,1,0,80,0,0
86500,-101.444549515766,4,1,0,80,0,0
86611,-100.715465052284,4,1,0,80,0,0
86722,-99.9967857028061,4,1,0,80,0,0
86833,-99.2882903009606,4,1,0,80,0,0
86944,-98.5897639042941,4,1,0,80,0,0
87000,-98.2410711466195,4,1,0,80,0,0
87055,-97.9009975768638,4,1,0,80,0,0
87166,-97.2217881808807,4,1,0,80,0,0
87222,-96.8826881753916,4,1,0,80,0,0
87277,-96.5519381769653,4,1,0,80,0,0
87333,-96.2174867782142,4,1,0,80,0,0
87389,-95.8853444290338,4,1,0,80,0,0
87444,-95.5613577023499,4,1,0,80,0,0
87500,-95.2337221048765,4,1,0,80,0,0
87555,-94.9141166061568,4,1,0,80,0,0
87611,-94.5908966523762,4,1,0,80,0,0
87666,-94.2755841086094,4,1,0,80,0,0
87722,-93.956691129836,4,1,0,80,0,0
87777,-93.6455856235514,4,1,0,80,0,0
87833,-93.3309333093331,4,1,0,80,0,0
87889,-93.0183883988638,4,1,0,80,0,0
87944,-92.7134555207868,4,1,0,80,0,0
88000,-92.4050256928149,4,1,0,80,0,0
88055,-92.104094502176,4,1,0,80,0,0
88111,-91.7996990173803,4,1,0,80,0,0
88166,-91.5026912556252,4,1,0,80,0,0
88222,-91.2022514731318,4,1,0,80,0,0
88277,-90.9090909090909,4,1,0,80,0,0
88500,-95.2380952380952,4,1,0,80,0,0
88722,-98.0392156862745,4,1,0,80,0,0
89166,-100,4,1,0,90,0,0
116500,-99.0998296975103,4,1,0,90,0,0
116555,-98.6597771677701,4,1,0,90,0,0
116611,-98.2157209451857,4,1,0,90,0,0
116666,-97.7834680323278,4,1,0,90,0,0
116722,-97.3472476698797,4,1,0,90,0,0
116778,-96.9149020540884,4,1,0,90,0,0
116833,-96.4939987365761,4,1,0,90,0,0
116889,-96.0691823899371,4,1,0,90,0,0
116944,-95.6555772994129,4,1,0,90,0,0
117000,-95.2380952380952,4,1,0,90,0,0
117055,-94.8316001862486,4,1,0,90,0,0
117111,-94.4212641013754,4,1,0,90,0,0
117166,-94.0216973147649,4,1,0,90,0,0
117222,-93.6183252892056,4,1,0,90,0,0
117278,-93.2183995728126,4,1,0,90,0,0
117333,-92.8289273776967,4,1,0,90,0,0
117389,-92.4357034795764,4,1,0,90,0,0
117444,-92.0527306967985,4,1,0,90,0,0
117500,-91.6660415572725,4,1,0,90,0,0
117555,-91.2894068429703,4,1,0,90,0,0
117611,-90.9090909090909,4,1,0,90,0,0
118065,400,4,1,0,60,1,8
118065,-125,4,1,0,60,0,0
118455,-123.96694214876,4,1,0,61,0,0
118865,400,4,1,0,62,1,0
118865,-122.950819672131,4,1,0,62,0,0
119255,-121.951219512195,4,1,0,63,0,0
120055,-120,4,1,0,65,0,0
120255,-119.521912350598,4,1,0,66,0,0
120455,-119.047619047619,4,1,0,66,0,0
120655,-118.577075098814,4,1,0,67,0,0
120855,-118.110236220472,4,1,0,67,0,0
121055,-117.647058823529,4,1,0,68,0,0
121255,-117.1875,4,1,0,68,0,0
121455,-116.731517509728,4,1,0,69,0,0
121655,-116.279069767442,4,1,0,69,0,0
121855,-115.830115830116,4,1,0,70,0,0
122055,-115.384615384615,4,1,0,70,0,0
122455,-114.503816793893,4,1,0,71,0,0
122855,-113.636363636364,4,1,0,72,0,0
123255,-112.781954887218,4,1,0,73,0,0
123655,-111.940298507463,4,1,0,74,0,0
124455,-110.294117647059,4,1,0,76,0,0
124655,-109.89010989011,4,1,0,77,0,0
124855,-109.48905109489,4,1,0,77,0,0
125055,-109.090909090909,4,1,0,78,0,0
125255,-108.695652173913,4,1,0,78,0,0
125655,-107.913669064748,4,1,0,79,0,0
125788,-107.656146268817,4,1,0,79,0,0
125921,-107.399849640211,4,1,0,80,0,0
126055,-107.142857142857,4,1,0,80,0,0
126455,-106.382978723404,4,1,0,81,0,0
126655,-106.007067137809,4,1,0,82,0,0
126855,-105.633802816901,4,1,0,82,0,0
127455,-104.529616724739,4,1,0,84,0,0
128055,-103.448275862069,4,1,0,85,0,0
128255,-103.092783505155,4,1,0,86,0,0
128455,-102.739726027397,4,1,0,86,0,0
128855,-102.040816326531,4,1,0,87,0,0
129255,-101.351351351351,4,1,0,88,0,0
130055,-100,4,1,0,90,0,0
155255,-98.9119683481701,4,1,0,90,0,0
155355,-98.3767830791933,4,1,0,90,0,0
155455,-97.8473581213307,4,1,0,90,0,0
155665,363.636363636364,4,1,0,90,1,0
155665,-106.451719354945,4,1,0,90,0,0
157119,333.333333333333,4,1,0,90,1,0
157119,-112.5,4,1,0,90,0,0
158452,307.692307692308,4,1,0,90,1,0
158452,-118.181796694219,4,1,0,90,0,0
159682,285.714285714286,4,1,0,90,1,0
159682,-123.529382698969,4,1,0,90,0,0
160824,266.666666666667,4,1,0,90,1,0
160824,-128.57142857143,4,1,0,90,0,0
161890,250,4,1,0,90,1,0
161890,-133.333333333333,4,1,0,90,0,0
162890,235.294117647059,4,1,0,90,1,0
162890,-137.837875091318,4,1,0,90,0,0
163831,222.222222222222,4,1,0,90,1,0
163831,-142.105203324125,4,1,0,90,0,0
164719,210.526315789474,4,1,0,90,1,0
164719,-146.153744970484,4,1,0,90,0,0
165561,200,4,1,0,90,1,0
165561,-150,4,1,0,90,0,0
166361,190.47619047619,4,1,0,90,1,0
166361,-153.658454134488,4,1,0,90,0,0
167122,181.818181818182,4,1,0,90,1,0
167122,-157.142857143014,4,1,0,90,0,0
167849,173.913043478261,4,1,0,90,1,0
167849,-160.465220768051,4,1,0,90,0,0
168544,166.666666666667,4,1,0,90,1,0
168544,-163.636363636364,4,1,0,90,0,0
169210,160,4,1,0,90,1,0
169210,-166.666666666667,4,1,0,90,0,0
169850,153.846153846154,4,1,0,90,1,0
169850,-169.565099432974,4,1,0,90,0,0
170465,148.148148148148,4,1,0,90,1,0
170465,-172.340399864196,4,1,0,90,0,0
171057,142.857142857143,4,1,0,90,1,0
171057,-174.999868750098,4,1,0,90,0,0
171628,137.931034482759,4,1,0,90,1,0
171628,-177.551143606916,4,1,0,90,0,0
172179,133.333333333333,4,1,0,90,1,0
172179,-180,4,1,0,90,0,0
172712,129.032258064516,4,1,0,90,1,0
172712,-182.352973356407,4,1,0,90,0,0
173228,125,4,1,0,90,1,0
173228,-184.615271005987,4,1,0,90,0,0
173728,121.212121212121,4,1,0,90,1,0
173728,-186.792454698113,4,1,0,90,0,0
174212,117.647058823529,4,1,0,90,1,0
174212,-188.888804938309,4,1,0,90,0,0
174682,115.384615384615,4,1,0,90,1,0
174682,-190.90891735553,4,1,0,90,0,0
176538,200,4,1,0,90,1,8
176538,-109.89010989011,4,1,0,90,0,0
176628,-107.52688172043,4,1,0,90,0,0
176728,-108.184383819379,4,1,0,88,0,0
176828,-108.849976336962,4,1,0,86,0,0
176928,-109.52380952381,4,1,0,84,0,0
177028,-110.206037374221,4,1,0,82,0,0
177128,-110.896817743491,4,1,0,80,0,0
177228,-111.596312469675,4,1,0,78,0,0
177328,-112.3046875,4,1,0,76,0,0
177428,-113.022113022113,4,1,0,74,0,0
177528,-113.748763600396,4,1,0,72,0,0
177628,-114.484818317571,4,1,0,70,0,0
177728,-115.230460921844,4,1,0,68,0,0
177828,-115.985879979829,4,1,0,66,0,0
177928,-116.751269035533,4,1,0,64,0,0
178028,-117.526826775677,4,1,0,62,0,0
178128,-118.312757201646,4,1,0,60,0,0
178228,-119.109269808389,4,1,0,58,0,0
178328,-119.916579770594,4,1,0,56,0,0
178428,-120.734908136483,4,1,0,54,0,0
178528,-121.564482029598,4,1,0,52,0,0
178628,-122.405534858968,4,1,0,50,0,0
178728,-123.258306538049,4,1,0,48,0,0
178828,-124.123043712898,4,1,0,46,0,0
178928,-125,4,1,0,80,0,0
179738,-100,4,1,0,100,0,1
204928,-99.5421063109695,4,1,0,100,0,1
204978,-99.3147283742179,4,1,0,100,0,1
205028,-99.0883868410622,4,1,0,100,0,1
205078,-98.8630746416214,4,1,0,100,0,1
205128,-98.6387847701716,4,1,0,100,0,1
205178,-98.4155102844208,4,1,0,100,0,1
205228,-98.1932443047918,4,1,0,100,0,1
205278,-97.9719800137161,4,1,0,100,0,1
205328,-97.7517106549365,4,1,0,100,0,1
217328,-97.3208152049462,4,1,0,100,0,1
217378,-96.8937019093759,4,1,0,100,0,1
217428,-96.4703211894223,4,1,0,100,0,1
217478,-96.0506243290581,4,1,0,100,0,1
217528,-95.6345634563456,4,1,0,100,0,1
217578,-95.2220915252339,4,1,0,100,0,1
217628,-94.8131622978249,4,1,0,100,0,1
217678,-94.407730327095,4,1,0,100,0,1
217728,-94.0057509400575,4,1,0,100,0,1
217778,-93.6071802213534,4,1,0,100,0,1
217828,-93.2119749972585,4,1,0,100,0,1
217878,-92.8200928200928,4,1,0,100,0,1
217928,-92.4314919530231,4,1,0,100,0,1
217978,-92.0461313552439,4,1,0,100,0,1
218028,-91.6639706675294,4,1,0,100,0,1
218078,-91.2849701981421,4,1,0,100,0,1
218128,-90.9090909090909,4,1,0,100,0,1
218338,-97.7517106549365,4,1,0,100,0,1
229328,-97.6735926123246,4,1,0,100,0,1
229378,-97.5955993257031,4,1,0,100,0,1
229428,-97.5177304964539,4,1,0,100,0,1
229478,-97.4399858269112,4,1,0,100,0,1
229528,-97.3623650203576,4,1,0,100,0,1
229578,-97.2848677810206,4,1,0,100,0,1
229628,-97.2074938140686,4,1,0,100,0,1
229678,-97.1302428256071,4,1,0,100,0,1
229728,-97.0531145226751,4,1,0,100,0,1
229778,-96.9761086132416,4,1,0,100,0,1
229828,-96.8992248062015,4,1,0,100,0,1
229878,-96.8224628113722,4,1,0,100,0,1
229928,-96.7458223394899,4,1,0,100,0,1
229978,-96.6693031022058,4,1,0,100,0,1
230028,-96.5929048120829,4,1,0,100,0,1
230078,-96.5166271825919,4,1,0,100,0,1
230128,-96.440469928108,4,1,0,100,0,1
230178,-96.3644327639071,4,1,0,100,0,1
230228,-96.2885154061625,4,1,0,100,0,1
230278,-96.2127175719409,4,1,0,100,0,1
230328,-96.1370389791994,4,1,0,100,0,1
230378,-96.061479346782,4,1,0,100,0,1
230428,-95.9860383944154,4,1,0,100,0,1
230478,-95.9107158427064,4,1,0,100,0,1
230528,-95.8355114131382,4,1,0,100,0,1
230578,-95.7604248280665,4,1,0,100,0,1
230628,-95.6854558107168,4,1,0,100,0,1
230678,-95.6106040851804,4,1,0,100,0,1
230728,-95.5358693764113,4,1,0,100,0,1
230778,-95.461251410223,4,1,0,100,0,1
230828,-95.3867499132848,4,1,0,100,0,1
230878,-95.3123646131184,4,1,0,100,0,1
230938,206.896551724138,4,1,0,100,1,0
230938,-92.0810313075506,4,1,0,100,0,0
232272,-100,4,1,0,90,0,0
237558,214.285714285714,4,1,0,90,1,0
237558,-96.5517321284192,4,1,0,90,0,0
238930,-100,4,1,0,90,0,0
244415,222.222222222222,4,1,0,90,1,0
244415,-96.43201543,4,1,0,90,0,0
244627,-117.647058823529,4,1,0,80,0,0
258405,-114.285714285714,4,1,0,80,0,0
258460,-113.482428115016,4,1,0,80,0,0
258516,-112.676056338028,4,1,0,80,0,0
258572,-111.881063374071,4,1,0,80,0,0
258627,-111.111111111111,4,1,0,80,0,0
269071,-110.092753144524,4,1,0,80,0,0
269127,-109.838811544059,4,1,0,80,0,0
269182,-109.590542336196,4,1,0,80,0,0
269238,-109.338909617724,4,1,0,80,0,0
269293,-109.092892598047,4,1,0,80,0,0
269405,-108.595319541728,4,1,0,80,0,0
269516,-108.10664720747,4,1,0,80,0,0
269627,-107.622353162752,4,1,0,80,0,0
269738,-107.142378828666,4,1,0,80,0,0
269849,-106.666666666667,4,1,0,80,0,0
269960,-106.195160155576,4,1,0,80,0,0
270071,-105.727803769196,4,1,0,80,0,0
270127,-105.493578078434,4,1,0,80,0,0
270182,-105.264542954513,4,1,0,80,0,0
270293,-104.805324110465,4,1,0,80,0,0
270405,-104.346011373715,4,1,0,80,0,0
270516,-103.894754613576,4,1,0,80,0,0
270627,-103.447384074275,4,1,0,80,0,0
270682,-103.227138414689,4,1,0,80,0,0
270738,-103.003849768885,4,1,0,80,0,0
270793,-102.785486689279,4,1,0,80,0,0
270849,-102.564102564103,4,1,0,80,0,0
270960,-102.128094162103,4,1,0,80,0,0
271071,-101.695777082857,4,1,0,80,0,0
271182,-101.267104646894,4,1,0,80,0,0
271293,-100.842030958504,4,1,0,80,0,0
271349,-100.62893081761,4,1,0,80,0,0
271405,-100.416729427123,4,1,0,80,0,0
271460,-100.209186677189,4,1,0,80,0,0
271516,-99.9987500156248,4,1,0,80,0,0
271627,-99.5842358154704,4,1,0,80,0,0
271738,-99.1731439126284,4,1,0,80,0,0
271793,-98.9707046714173,4,1,0,80,0,0
271849,-98.7654320987654,4,1,0,80,0,0
271905,-98.5610092647349,4,1,0,80,0,0
271960,-98.3610588567986,4,1,0,80,0,0
272016,-98.158304806076,4,1,0,80,0,0
272071,-97.9599833468028,4,1,0,80,0,0
272127,-97.7588777280837,4,1,0,80,0,0
272182,-97.5621653922609,4,1,0,80,0,0
272238,-97.3626881838208,4,1,0,80,0,0
272293,-97.1675654666472,4,1,0,80,0,0
272349,-96.969696969697,4,1,0,80,0,0
272405,-96.7726326994726,4,1,0,80,0,0
272516,-96.3843809110734,4,1,0,80,0,0
272627,-95.9992320061439,4,1,0,80,0,0
272738,-95.6171489356616,4,1,0,80,0,0
272859,444.444444444444,4,1,0,80,1,0
272859,-47.61904762,4,1,0,80,0,0
273293,-111.111111111111,4,1,0,40,0,0
273737,-110.714687494978,4,1,0,40,0,0
274182,-110.320199213714,4,1,0,40,0,0
274626,-109.929389236845,4,1,0,40,0,0
275071,-109.540467482907,4,1,0,40,0,0
275960,-108.771680521675,4,1,0,40,0,0
276182,-108.581380870196,4,1,0,40,0,0
276404,-108.391745926852,4,1,0,40,0,0
276626,-108.202772215023,4,1,0,40,0,0
276849,-108.013609495288,4,1,0,40,0,0
277071,-107.825950853029,4,1,0,40,0,0
277293,-107.638943141513,4,1,0,40,0,0
277515,-107.452582979785,4,1,0,40,0,0
277737,-107.266867010261,4,1,0,40,0,0
277960,-107.080959671716,4,1,0,40,0,0
278182,-106.896524970712,4,1,0,40,0,0
278626,-106.529555031507,4,1,0,40,0,0
279071,-106.164278008938,4,1,0,40,0,0
279515,-105.802309866077,4,1,0,40,0,0
279960,-105.441994658259,4,1,0,40,0,0
280849,-104.729472932091,4,1,0,40,0,0
281071,-104.553042950372,4,1,0,40,0,0
281293,-104.377206405964,4,1,0,40,0,0
281515,-104.201960309777,4,1,0,40,0,0
281737,-104.027301692765,4,1,0,40,0,0
282182,-103.67895493299,4,1,0,40,0,0
282330,-103.56361668383,4,1,0,40,0,0
282478,-103.448534766907,4,1,0,40,0,0
282626,-103.333708328646,4,1,0,40,0,0
283071,-102.98998355509,4,1,0,40,0,0
283293,-102.819360905061,4,1,0,40,0,0
283515,-102.649302658243,4,1,0,40,0,0
284182,-102.14172924806,4,1,0,40,0,0
284849,-101.639150769412,4,1,0,40,0,0
285071,-101.472970982472,4,1,0,40,0,0
285293,-101.307333715681,4,1,0,40,0,0
285737,-100.977676150272,4,1,0,40,0,0
286182,-100.649421802748,4,1,0,40,0,0
287071,-100,4,1,0,80,0,0
290404,-99.3876725781295,4,1,0,80,0,0
290515,-99.0700486568969,4,1,0,80,0,0
290626,-98.7544483985765,4,1,0,80,0,0
290737,-98.4408525246746,4,1,0,80,0,0
290849,-98.1264436649842,4,1,0,80,0,0
291071,-97.5091388251296,4,1,0,80,0,0
291293,-96.8995522514151,4,1,0,80,0,0
291515,-96.2975400889934,4,1,0,81,0,0
291737,-95.7029620358782,4,1,0,81,0,0
291849,-95.4057725899021,4,1,0,81,0,0
291960,-95.1130521311294,4,1,0,81,0,0
292182,-94.532967032967,4,1,0,81,0,0
292293,-94.2455698282709,4,1,0,81,0,0
292404,-93.9599148053083,4,1,0,81,0,0
292515,-93.6759861704734,4,1,0,82,0,0
292626,-93.3937683204864,4,1,0,82,0,0
292737,-93.1132458395346,4,1,0,82,0,0
292849,-92.8318989937141,4,1,0,82,0,0
293071,-92.2792244361608,4,1,0,82,0,0
293182,-92.0053475935829,4,1,0,82,0,0
293293,-91.7330916264562,4,1,0,82,0,0
293404,-91.4624421880814,4,1,0,82,0,0
293515,-91.1933851005751,4,1,0,82,0,0
293737,-90.6599920959031,4,1,0,83,0,0
293960,-90.1304416155901,4,1,0,83,0,0
294182,-89.609375,4,1,0,83,0,0
294293,-89.3510944924827,4,1,0,83,0,0
294404,-89.094298586298,4,1,0,83,0,0
294515,-88.838974517853,4,1,0,83,0,0
294626,-88.585109669447,4,1,0,83,0,0
294849,-88.0794532469859,4,1,0,84,0,0
295071,-87.5817658886711,4,1,0,84,0,0
295182,-87.3350253807106,4,1,0,84,0,0
295293,-87.0896712307965,4,1,0,84,0,0
295404,-86.8456917873908,4,1,0,84,0,0
295515,-86.6030755291571,4,1,0,84,0,0
295737,-86.1218871230134,4,1,0,84,0,0
295849,-85.8811490752989,4,1,0,85,0,0
295960,-85.643884713027,4,1,0,85,0,0
296182,-85.1732673267327,4,1,0,85,0,0
296404,-84.7077938063119,4,1,0,85,0,0
296552,-84.4002943340692,4,1,0,85,0,0
296700,-84.0950193069065,4,1,0,85,0,0
296849,-83.7899043027248,4,1,0,86,0,0
297071,-83.3393882147788,4,1,0,86,0,0
297182,-83.1159420289855,4,1,0,86,0,0
297293,-82.8936908289369,4,1,0,86,0,0
297515,-82.4527352454892,4,1,0,86,0,0
297737,-82.0164461923489,4,1,0,86,0,0
297849,-81.798084008843,4,1,0,86,0,0
297960,-81.5828156859026,4,1,0,87,0,0
298071,-81.368677433848,4,1,0,87,0,0
298182,-81.1556603773585,4,1,0,87,0,0
298293,-80.9437557338101,4,1,0,87,0,0
298404,-80.7329548120689,4,1,0,87,0,0
298515,-80.5232490113027,4,1,0,87,0,0
298626,-80.3146298198114,4,1,0,87,0,0
298737,-80.107088813875,4,1,0,87,0,0
298849,-79.8987623934799,4,1,0,87,0,0
298960,-79.6933623604613,4,1,0,87,0,0
299071,-79.489015685278,4,1,0,88,0,0
299182,-79.2857142857143,4,1,0,88,0,0
299293,-79.083450162028,4,1,0,88,0,0
299404,-78.8822153959012,4,1,0,88,0,0
299515,-78.6820021494066,4,1,0,88,0,0
299849,-78.0856423173803,4,1,0,88,0,0
300182,-77.5,4,1,0,89,0,0
300515,-76.9230769230769,4,1,0,89,0,0
301303,400,4,1,0,90,1,0
301303,-85.47008547,4,1,0,90,0,0
301493,-83.3333333333333,4,1,0,90,0,0
301593,-83.969465648855,4,1,0,87,0,0
301693,-84.6153846153846,4,1,0,85,0,0
301793,-85.2713178294574,4,1,0,83,0,0
301893,-85.9375,4,1,0,81,0,0
301993,-86.6141732283465,4,1,0,79,0,0
302093,-87.3015873015873,4,1,0,77,0,0
302193,-88,4,1,0,75,0,0
302293,-88.7096774193548,4,1,0,73,0,0
302393,-89.4308943089431,4,1,0,71,0,0
302493,-90.1639344262295,4,1,0,69,0,0
302593,-90.9090909090909,4,1,0,67,0,0
302693,-91.6666666666667,4,1,0,65,0,0
302793,-92.436974789916,4,1,0,63,0,0
302893,-93.2203389830509,4,1,0,61,0,0
302993,-94.017094017094,4,1,0,59,0,0
303093,-94.8275862068966,4,1,0,57,0,0
303193,-95.6521739130435,4,1,0,55,0,0
303293,-96.4912280701754,4,1,0,53,0,0
303393,-97.3451327433628,4,1,0,51,0,0
303493,-98.2142857142857,4,1,0,49,0,0
303593,-99.0990990990991,4,1,0,47,0,0
303693,-100,4,1,0,80,0,0
304503,200,4,1,0,100,1,1
329693,-98.6777185711466,4,1,0,100,0,1
329743,-98.0296049406921,4,1,0,100,0,1
329793,-97.3899493572263,4,1,0,100,0,1
329843,-96.7585873246251,4,1,0,100,0,1
329893,-96.1353585848875,4,1,0,100,0,1
329943,-95.5201069825198,4,1,0,100,0,1
329993,-94.9126803340926,4,1,0,100,0,1
330043,-94.3129303027445,4,1,0,100,0,1
330103,187.5,4,1,0,100,1,1
341343,-99.7060111340464,4,1,0,100,0,1
341389,-99.4199463606312,4,1,0,100,0,1
341436,-99.1293532338309,4,1,0,100,0,1
341483,-98.8404538971911,4,1,0,100,0,1
341530,-98.5532335847657,4,1,0,100,0,1
341577,-98.2676777017447,4,1,0,100,0,1
341624,-97.9837718219818,4,1,0,100,0,1
341671,-97.7015016855654,4,1,0,100,0,1
341718,-97.4208531964308,4,1,0,100,0,1
341764,-97.1477328132618,4,1,0,100,0,1
341811,-96.8702522029778,4,1,0,100,0,1
341858,-96.5943521997334,4,1,0,100,0,1
341905,-96.3200193365158,4,1,0,100,0,1
341952,-96.0472402988672,4,1,0,100,0,1
341999,-95.7760019227303,4,1,0,100,0,1
342046,-95.5062911923307,4,1,0,100,0,1
342093,-95.2380952380952,4,1,0,100,0,1
342196,-100,4,1,0,100,0,1
352405,-99.8647365240165,4,1,0,100,0,1
352452,-99.7298384778985,4,1,0,100,0,1
352499,-99.5953043827674,4,1,0,100,0,1
352546,-99.4611327677138,4,1,0,100,0,1
352593,-99.3273221697438,4,1,0,100,0,1
352639,-99.1967067836826,4,1,0,100,0,1
352686,-99.0636062578509,4,1,0,100,0,1
352733,-98.9308624376336,4,1,0,100,0,1
352780,-98.7984738910085,4,1,0,100,0,1
352827,-98.666439193608,4,1,0,100,0,1
352874,-98.5347569286688,4,1,0,100,0,1
352921,-98.4034256869807,4,1,0,100,0,1
352968,-98.2724440668366,4,1,0,100,0,1
353014,-98.1445864916846,4,1,0,100,0,1
353061,-98.0142925740756,4,1,0,100,0,1
353108,-97.8843441466855,4,1,0,100,0,1
353155,-97.7547398371693,4,1,0,100,0,1
353202,-97.6254782804411,4,1,0,100,0,1
353249,-97.4965581186255,4,1,0,100,0,1
353296,-97.3679780010102,4,1,0,100,0,1
353343,-97.2397365839989,4,1,0,100,0,1
353389,-97.1145503904173,4,1,0,100,0,1
353436,-96.9869752361787,4,1,0,100,0,1
353483,-96.8597348220516,4,1,0,100,0,1
353530,-96.7328278322926,4,1,0,100,0,1
353577,-96.6062529580445,4,1,0,100,0,1
353624,-96.4800088972919,4,1,0,100,0,1
353671,-96.3540943548163,4,1,0,100,0,1
353718,-96.228508042152,4,1,0,100,0,1
353764,-96.1059103750069,4,1,0,100,0,1
353811,-95.9809697673775,4,1,0,100,0,1
353858,-95.8563535911602,4,1,0,100,0,1
353905,-95.7320605843242,4,1,0,100,0,1
353952,-95.608089491376,4,1,0,100,0,1
353999,-95.4844390633169,4,1,0,100,0,1
354046,-95.3611080576014,4,1,0,100,0,1
354103,-95.2380952380952,4,1,0,100,0,0
354843,-100,4,1,0,100,0,0
366093,-111.111111111111,4,1,0,95,0,0
376405,-116.786047960137,4,1,0,93,0,0
376593,-117.647058823529,4,1,0,93,0,0
376780,-118.516177458223,4,1,0,92,0,0
376968,-119.402985074627,4,1,0,92,0,0
377155,-120.29833988291,4,1,0,92,0,0
377343,-121.212121212121,4,1,0,91,0,0
377530,-122.134918373163,4,1,0,91,0,0
377718,-123.076923076923,4,1,0,91,0,0
377905,-124.028443856458,4,1,0,90,0,0
378093,-125,4,1,0,90,0,0
390093,-142.857142857143,4,1,0,80,0,0
390843,-146.341463414634,4,1,0,77,0,0
391124,-147.691095867931,4,1,0,75,0,0
391405,-149.065853981715,4,1,0,74,0,0
391593,-150,4,1,0,73,0,0
392343,-153.846153846154,4,1,0,70,0,0
392624,-155.338465255963,4,1,0,69,0,0
392905,-156.86001115449,4,1,0,68,0,0
393093,-157.894736842105,4,1,0,67,0,0
393843,-162.162162162162,4,1,0,63,0,0
394124,-163.821034620845,4,1,0,62,0,0
394405,-165.514197440047,4,1,0,61,0,0
394593,-166.666666666667,4,1,0,60,0,0
394874,-168.419476776825,4,1,0,59,0,0
395155,-170.209546864362,4,1,0,58,0,0
395343,-171.428571428571,4,1,0,57,0,0
395530,-172.658558109197,4,1,0,56,0,0
395718,-173.913043478261,4,1,0,55,0,0
395905,-175.179071940205,4,1,0,54,0,0
396093,-176.470588235294,4,1,0,53,0,0
396843,-181.818181818182,4,1,0,50,0,0
397124,-183.9061669868,4,1,0,49,0,0
397405,-186.042665784687,4,1,0,48,0,0
397593,-187.5,4,1,0,47,0,0
398343,-193.548387096774,4,1,0,43,0,0
398624,-195.916234925334,4,1,0,42,0,0
398905,-198.342736248237,4,1,0,41,0,0
399093,-200,4,1,0,40,0,0

[HitObjects]
256,192,288,5,0,0:0:0:0:
256,192,732,1,0,0:0:0:0:
256,192,1176,1,8,0:0:0:0:
256,192,1621,1,8,0:0:0:0:
256,192,2065,1,0,0:0:0:0:
256,192,2510,1,0,0:0:0:0:
256,192,2954,1,8,0:0:0:0:
256,192,3399,1,8,0:0:0:0:
256,192,3843,1,0,0:0:0:0:
256,192,4287,1,0,0:0:0:0:
256,192,4732,1,8,0:0:0:0:
256,192,5176,1,8,0:0:0:0:
256,192,5621,1,0,0:0:0:0:
256,192,6065,1,0,0:0:0:0:
256,192,6510,1,8,0:0:0:0:
256,192,6954,1,8,0:0:0:0:
256,192,7399,1,0,0:0:0:0:
256,192,7621,1,8,0:0:0:0:
256,192,7843,1,0,0:0:0:0:
256,192,7954,1,0,0:0:0:0:
256,192,8065,1,8,0:0:0:0:
256,192,8176,1,8,0:0:0:0:
256,192,8287,1,0,0:0:0:0:
256,192,8510,1,8,0:0:0:0:
256,192,8732,1,0,0:0:0:0:
256,192,8843,1,0,0:0:0:0:
256,192,8954,1,8,0:0:0:0:
256,192,9176,1,0,0:0:0:0:
256,192,9399,1,8,0:0:0:0:
256,192,9621,1,0,0:0:0:0:
256,192,9732,1,0,0:0:0:0:
256,192,9843,1,8,0:0:0:0:
256,192,9954,1,8,0:0:0:0:
256,192,10065,1,0,0:0:0:0:
256,192,10287,1,8,0:0:0:0:
256,192,10510,1,0,0:0:0:0:
256,192,10621,1,0,0:0:0:0:
256,192,10732,1,8,0:0:0:0:
256,192,10954,1,0,0:0:0:0:
256,192,11176,1,8,0:0:0:0:
256,192,11399,1,0,0:0:0:0:
256,192,11510,1,0,0:0:0:0:
256,192,11621,1,8,0:0:0:0:
256,192,11732,1,8,0:0:0:0:
256,192,11843,1,0,0:0:0:0:
256,192,12065,1,8,0:0:0:0:
256,192,12287,1,0,0:0:0:0:
256,192,12399,1,0,0:0:0:0:
256,192,12510,1,8,0:0:0:0:
256,192,12732,1,0,0:0:0:0:
256,192,12954,1,8,0:0:0:0:
256,192,13176,1,0,0:0:0:0:
256,192,13287,1,0,0:0:0:0:
256,192,13399,1,8,0:0:0:0:
256,192,13510,1,8,0:0:0:0:
256,192,13621,1,0,0:0:0:0:
256,192,13843,1,8,0:0:0:0:
256,192,14065,1,0,0:0:0:0:
256,192,14176,1,0,0:0:0:0:
256,192,14287,1,8,0:0:0:0:
256,192,14510,1,12,0:0:0:0:
256,192,14732,1,8,0:0:0:0:
256,192,14843,1,8,0:0:0:0:
256,192,14954,1,0,0:0:0:0:
256,192,15065,1,0,0:0:0:0:
256,192,15176,1,8,0:0:0:0:
256,192,15399,1,8,0:0:0:0:
256,192,15510,1,0,0:0:0:0:
256,192,15621,1,8,0:0:0:0:
256,192,15843,1,0,0:0:0:0:
256,192,15954,1,0,0:0:0:0:
256,192,16065,1,8,0:0:0:0:
256,192,16287,1,0,0:0:0:0:
256,192,16399,1,0,0:0:0:0:
256,192,16510,1,8,0:0:0:0:
256,192,16621,1,8,0:0:0:0:
256,192,16732,1,0,0:0:0:0:
256,192,16843,1,0,0:0:0:0:
256,192,16954,1,8,0:0:0:0:
256,192,17176,1,8,0:0:0:0:
256,192,17287,1,0,0:0:0:0:
256,192,17399,1,8,0:0:0:0:
256,192,17621,1,0,0:0:0:0:
256,192,17732,1,0,0:0:0:0:
256,192,17843,1,8,0:0:0:0:
256,192,18065,1,0,0:0:0:0:
256,192,18176,1,0,0:0:0:0:
256,192,18287,1,8,0:0:0:0:
256,192,18399,1,8,0:0:0:0:
256,192,18510,1,0,0:0:0:0:
256,192,18621,1,0,0:0:0:0:
256,192,18732,1,8,0:0:0:0:
256,192,18954,1,8,0:0:0:0:
256,192,19065,1,0,0:0:0:0:
256,192,19176,1,8,0:0:0:0:
256,192,19399,1,0,0:0:0:0:
256,192,19510,1,0,0:0:0:0:
256,192,19621,1,8,0:0:0:0:
256,192,19843,1,0,0:0:0:0:
256,192,19954,1,0,0:0:0:0:
256,192,20065,1,8,0:0:0:0:
256,192,20176,1,8,0:0:0:0:
256,192,20287,1,0,0:0:0:0:
256,192,20399,1,0,0:0:0:0:
256,192,20510,1,8,0:0:0:0:
256,192,20732,1,8,0:0:0:0:
256,192,20843,1,0,0:0:0:0:
256,192,20954,1,8,0:0:0:0:
256,192,21176,1,0,0:0:0:0:
256,192,21287,1,0,0:0:0:0:
256,192,21399,1,8,0:0:0:0:
256,192,21621,1,12,0:0:0:0:
256,192,21843,1,8,0:0:0:0:
256,192,21954,1,8,0:0:0:0:
256,192,22065,1,0,0:0:0:0:
256,192,22176,1,0,0:0:0:0:
256,192,22287,1,8,0:0:0:0:
256,192,22399,1,8,0:0:0:0:
256,192,22510,1,0,0:0:0:0:
256,192,22621,1,8,0:0:0:0:
256,192,22732,1,8,0:0:0:0:
256,192,22843,1,8,0:0:0:0:
256,192,22954,1,0,0:0:0:0:
256,192,23065,1,0,0:0:0:0:
256,192,23176,1,8,0:0:0:0:
256,192,23287,1,0,0:0:0:0:
256,192,23399,1,0,0:0:0:0:
256,192,23510,1,0,0:0:0:0:
256,192,23621,1,8,0:0:0:0:
256,192,23732,1,8,0:0:0:0:
256,192,23843,1,0,0:0:0:0:
256,192,23954,1,0,0:0:0:0:
256,192,24065,1,8,0:0:0:0:
256,192,24176,1,8,0:0:0:0:
256,192,24287,1,0,0:0:0:0:
256,192,24399,1,8,0:0:0:0:
256,192,24510,1,8,0:0:0:0:
256,192,24621,1,8,0:0:0:0:
256,192,24732,1,0,0:0:0:0:
256,192,24843,1,0,0:0:0:0:
256,192,24954,1,8,0:0:0:0:
256,192,25065,1,0,0:0:0:0:
256,192,25176,1,0,0:0:0:0:
256,192,25287,1,0,0:0:0:0:
256,192,25399,1,8,0:0:0:0:
256,192,25510,1,8,0:0:0:0:
256,192,25621,1,0,0:0:0:0:
256,192,25732,1,0,0:0:0:0:
256,192,25843,1,8,0:0:0:0:
256,192,25954,1,8,0:0:0:0:
256,192,26065,1,0,0:0:0:0:
256,192,26176,1,8,0:0:0:0:
256,192,26287,1,8,0:0:0:0:
256,192,26399,1,8,0:0:0:0:
256,192,26510,1,0,0:0:0:0:
256,192,26621,1,0,0:0:0:0:
256,192,26732,1,8,0:0:0:0:
256,192,26843,1,0,0:0:0:0:
256,192,26954,1,0,0:0:0:0:
256,192,27065,1,0,0:0:0:0:
256,192,27176,1,8,0:0:0:0:
256,192,27287,1,8,0:0:0:0:
256,192,27399,1,0,0:0:0:0:
256,192,27510,1,0,0:0:0:0:
256,192,27621,1,8,0:0:0:0:
256,192,27732,1,8,0:0:0:0:
256,192,27843,1,0,0:0:0:0:
256,192,27954,1,8,0:0:0:0:
256,192,28065,1,8,0:0:0:0:
256,192,28176,1,8,0:0:0:0:
256,192,28287,1,0,0:0:0:0:
256,192,28399,1,0,0:0:0:0:
256,192,28510,1,8,0:0:0:0:
256,192,28621,1,8,0:0:0:0:
256,192,32287,1,12,0:0:0:0:
256,192,32510,1,0,0:0:0:0:
256,192,32621,1,0,0:0:0:0:
256,192,32676,1,0,0:0:0:0:
256,192,32732,1,8,0:0:0:0:
256,192,32843,1,8,0:0:0:0:
256,192,32954,1,0,0:0:0:0:
256,192,33065,1,0,0:0:0:0:
256,192,33176,1,8,0:0:0:0:
256,192,33232,1,8,0:0:0:0:
256,192,33287,1,8,0:0:0:0:
256,192,33399,1,0,0:0:0:0:
256,192,33510,1,8,0:0:0:0:
256,192,33621,1,8,0:0:0:0:
256,192,33676,1,8,0:0:0:0:
256,192,33732,1,0,0:0:0:0:
256,192,33843,1,0,0:0:0:0:
256,192,33954,1,8,0:0:0:0:
256,192,34010,1,0,0:0:0:0:
256,192,34065,1,0,0:0:0:0:
256,192,34121,1,0,0:0:0:0:
256,192,34176,1,8,0:0:0:0:
256,192,34287,1,0,0:0:0:0:
256,192,34399,1,8,0:0:0:0:
256,192,34510,1,8,0:0:0:0:
256,192,34565,1,8,0:0:0:0:
256,192,34621,1,0,0:0:0:0:
256,192,34676,1,0,0:0:0:0:
256,192,34732,1,8,0:0:0:0:
256,192,34843,1,0,0:0:0:0:
256,192,34954,1,8,0:0:0:0:
256,192,35010,1,8,0:0:0:0:
256,192,35065,1,0,0:0:0:0:
256,192,35176,1,8,0:0:0:0:
256,192,35287,1,0,0:0:0:0:
256,192,35399,1,8,0:0:0:0:
256,192,35454,1,8,0:0:0:0:
256,192,35510,1,0,0:0:0:0:
256,192,35565,1,0,0:0:0:0:
256,192,35621,1,8,0:0:0:0:
256,192,35676,1,8,0:0:0:0:
256,192,35732,1,8,0:0:0:0:
256,192,35787,1,8,0:0:0:0:
256,192,35843,1,0,0:0:0:0:
256,192,35954,1,8,0:0:0:0:
256,192,36065,1,0,0:0:0:0:
256,192,36176,1,8,0:0:0:0:
256,192,36287,1,0,0:0:0:0:
256,192,36343,1,0,0:0:0:0:
256,192,36399,1,8,0:0:0:0:
256,192,36454,1,8,0:0:0:0:
256,192,36510,1,0,0:0:0:0:
256,192,36621,1,0,0:0:0:0:
256,192,36732,1,8,0:0:0:0:
256,192,36787,1,8,0:0:0:0:
256,192,36843,1,8,0:0:0:0:
256,192,36954,1,0,0:0:0:0:
256,192,37065,1,8,0:0:0:0:
256,192,37176,1,0,0:0:0:0:
256,192,37232,1,0,0:0:0:0:
256,192,37287,1,8,0:0:0:0:
256,192,37399,1,0,0:0:0:0:
256,192,37510,1,8,0:0:0:0:
256,192,37565,1,8,0:0:0:0:
256,192,37621,1,0,0:0:0:0:
256,192,37676,1,0,0:0:0:0:
256,192,37732,1,8,0:0:0:0:
256,192,37843,1,0,0:0:0:0:
256,192,37954,1,8,0:0:0:0:
256,192,38065,1,0,0:0:0:0:
256,192,38121,1,0,0:0:0:0:
256,192,38176,1,0,0:0:0:0:
256,192,38232,1,0,0:0:0:0:
256,192,38287,1,8,0:0:0:0:
256,192,38399,1,0,0:0:0:0:
256,192,38510,1,8,0:0:0:0:
256,192,38565,1,8,0:0:0:0:
256,192,38621,1,0,0:0:0:0:
256,192,38732,1,0,0:0:0:0:
256,192,38843,1,0,0:0:0:0:
256,192,38954,1,8,0:0:0:0:
256,192,39010,1,8,0:0:0:0:
256,192,39065,1,8,0:0:0:0:
256,192,39121,1,8,0:0:0:0:
256,192,39176,1,0,0:0:0:0:
256,192,39287,1,0,0:0:0:0:
256,192,39399,1,12,0:0:0:0:
256,192,39621,1,8,0:0:0:0:
256,192,39732,1,0,0:0:0:0:
256,192,39787,1,0,0:0:0:0:
256,192,39843,1,8,0:0:0:0:
256,192,39954,1,8,0:0:0:0:
256,192,40065,1,0,0:0:0:0:
256,192,40176,1,0,0:0:0:0:
256,192,40287,1,8,0:0:0:0:
256,192,40343,1,8,0:0:0:0:
256,192,40399,1,8,0:0:0:0:
256,192,40510,1,0,0:0:0:0:
256,192,40621,1,8,0:0:0:0:
256,192,40732,1,0,0:0:0:0:
256,192,40787,1,0,0:0:0:0:
256,192,40843,1,0,0:0:0:0:
256,192,40954,1,0,0:0:0:0:
256,192,41065,1,8,0:0:0:0:
256,192,41176,1,0,0:0:0:0:
256,192,41232,1,0,0:0:0:0:
256,192,41287,1,8,0:0:0:0:
256,192,41399,1,0,0:0:0:0:
256,192,41510,1,0,0:0:0:0:
256,192,41621,1,8,0:0:0:0:
256,192,41676,1,8,0:0:0:0:
256,192,41732,1,0,0:0:0:0:
256,192,41787,1,0,0:0:0:0:
256,192,41843,1,8,0:0:0:0:
256,192,41954,1,0,0:0:0:0:
256,192,42065,1,8,0:0:0:0:
256,192,42121,1,8,0:0:0:0:
256,192,42176,1,0,0:0:0:0:
256,192,42287,1,8,0:0:0:0:
256,192,42399,1,0,0:0:0:0:
256,192,42510,1,8,0:0:0:0:
256,192,42565,1,8,0:0:0:0:
256,192,42621,1,0,0:0:0:0:
256,192,42676,1,0,0:0:0:0:
256,192,42732,1,8,0:0:0:0:
256,192,42787,1,8,0:0:0:0:
256,192,42843,1,8,0:0:0:0:
256,192,42899,1,8,0:0:0:0:
256,192,42954,1,0,0:0:0:0:
256,192,43065,1,0,0:0:0:0:
256,192,43176,1,8,0:0:0:0:
256,192,43287,1,0,0:0:0:0:
256,192,43343,1,0,0:0:0:0:
256,192,43399,1,8,0:0:0:0:
256,192,43510,1,8,0:0:0:0:
256,192,43621,1,0,0:0:0:0:
256,192,43732,1,8,0:0:0:0:
256,192,43787,1,8,0:0:0:0:
256,192,43843,1,0,0:0:0:0:
256,192,43899,1,0,0:0:0:0:
256,192,43954,1,8,0:0:0:0:
256,192,44065,1,0,0:0:0:0:
256,192,44176,1,8,0:0:0:0:
256,192,44287,1,0,0:0:0:0:
256,192,44343,1,0,0:0:0:0:
256,192,44399,1,8,0:0:0:0:
256,192,44454,1,8,0:0:0:0:
256,192,44510,1,0,0:0:0:0:
256,192,44621,1,8,0:0:0:0:
256,192,44732,1,0,0:0:0:0:
256,192,44787,1,0,0:0:0:0:
256,192,44843,1,8,0:0:0:0:
256,192,44954,1,0,0:0:0:0:
256,192,45065,1,0,0:0:0:0:
256,192,45176,1,8,0:0:0:0:
256,192,45232,1,8,0:0:0:0:
256,192,45287,1,0,0:0:0:0:
256,192,45343,1,0,0:0:0:0:
256,192,45399,1,8,0:0:0:0:
256,192,45510,1,0,0:0:0:0:
256,192,45621,1,8,0:0:0:0:
256,192,45676,1,8,0:0:0:0:
256,192,45732,1,0,0:0:0:0:
256,192,45843,1,0,0:0:0:0:
256,192,45954,1,0,0:0:0:0:
256,192,46065,1,8,0:0:0:0:
256,192,46121,1,8,0:0:0:0:
256,192,46176,1,8,0:0:0:0:
256,192,46232,1,8,0:0:0:0:
256,192,46287,1,0,0:0:0:0:
256,192,46343,1,0,0:0:0:0:
256,192,46399,1,0,0:0:0:0:
256,192,46454,1,0,0:0:0:0:
256,192,46510,1,12,0:0:0:0:
256,192,46621,1,0,0:0:0:0:
256,192,46732,1,8,0:0:0:0:
256,192,46787,1,8,0:0:0:0:
256,192,46843,1,8,0:0:0:0:
256,192,46954,1,0,0:0:0:0:
256,192,47065,1,8,0:0:0:0:
256,192,47176,1,0,0:0:0:0:
256,192,47232,1,0,0:0:0:0:
256,192,47287,1,0,0:0:0:0:
256,192,47343,1,0,0:0:0:0:
256,192,47399,1,8,0:0:0:0:
256,192,47510,1,8,0:0:0:0:
256,192,47621,1,0,0:0:0:0:
256,192,47732,1,8,0:0:0:0:
256,192,47787,1,8,0:0:0:0:
256,192,47843,1,0,0:0:0:0:
256,192,47954,1,8,0:0:0:0:
256,192,48065,1,0,0:0:0:0:
256,192,48176,1,8,0:0:0:0:
256,192,48287,1,0,0:0:0:0:
256,192,48343,1,0,0:0:0:0:
256,192,48399,1,8,0:0:0:0:
256,192,48510,1,0,0:0:0:0:
256,192,48621,1,8,0:0:0:0:
256,192,48732,1,8,0:0:0:0:
256,192,48787,1,8,0:0:0:0:
256,192,48843,1,0,0:0:0:0:
256,192,48899,1,0,0:0:0:0:
256,192,48954,1,8,0:0:0:0:
256,192,49065,1,0,0:0:0:0:
256,192,49176,1,8,0:0:0:0:
256,192,49232,1,8,0:0:0:0:
256,192,49287,1,0,0:0:0:0:
256,192,49399,1,8,0:0:0:0:
256,192,49510,1,0,0:0:0:0:
256,192,49565,1,0,0:0:0:0:
256,192,49621,1,8,0:0:0:0:
256,192,49676,1,8,0:0:0:0:
256,192,49732,1,0,0:0:0:0:
256,192,49843,1,0,0:0:0:0:
256,192,49954,1,8,0:0:0:0:
256,192,50010,1,8,0:0:0:0:
256,192,50065,1,0,0:0:0:0:
256,192,50176,1,0,0:0:0:0:
256,192,50287,1,8,0:0:0:0:
256,192,50399,1,0,0:0:0:0:
256,192,50454,1,0,0:0:0:0:
256,192,50510,1,8,0:0:0:0:
256,192,50621,1,0,0:0:0:0:
256,192,50732,1,0,0:0:0:0:
256,192,50843,1,8,0:0:0:0:
256,192,50899,1,8,0:0:0:0:
256,192,50954,1,0,0:0:0:0:
256,192,51010,1,0,0:0:0:0:
256,192,51065,1,8,0:0:0:0:
256,192,51176,1,0,0:0:0:0:
256,192,51287,1,8,0:0:0:0:
256,192,51343,1,8,0:0:0:0:
256,192,51399,1,0,0:0:0:0:
256,192,51510,1,0,0:0:0:0:
256,192,51621,1,8,0:0:0:0:
256,192,51732,1,8,0:0:0:0:
256,192,51843,1,0,0:0:0:0:
256,192,51899,1,0,0:0:0:0:
256,192,51954,1,8,0:0:0:0:
256,192,52065,1,0,0:0:0:0:
256,192,52176,1,0,0:0:0:0:
256,192,52287,1,8,0:0:0:0:
256,192,52343,1,8,0:0:0:0:
256,192,52399,1,0,0:0:0:0:
256,192,52454,1,0,0:0:0:0:
256,192,52510,1,8,0:0:0:0:
256,192,52621,1,0,0:0:0:0:
256,192,52732,1,8,0:0:0:0:
256,192,52787,1,8,0:0:0:0:
256,192,52843,1,0,0:0:0:0:
256,192,52954,1,0,0:0:0:0:
256,192,53065,1,0,0:0:0:0:
256,192,53176,1,8,0:0:0:0:
256,192,53232,1,8,0:0:0:0:
256,192,53287,1,8,0:0:0:0:
256,192,53343,1,8,0:0:0:0:
256,192,53399,1,0,0:0:0:0:
256,192,53510,1,0,0:0:0:0:
256,192,53621,1,12,0:0:0:0:
256,192,53732,1,0,0:0:0:0:
256,192,53843,1,8,0:0:0:0:
256,192,53954,1,0,0:0:0:0:
256,192,54010,1,0,0:0:0:0:
256,192,54065,1,8,0:0:0:0:
256,192,54176,1,8,0:0:0:0:
256,192,54287,1,0,0:0:0:0:
256,192,54399,1,8,0:0:0:0:
256,192,54454,1,8,0:0:0:0:
256,192,54510,1,8,0:0:0:0:
256,192,54565,1,8,0:0:0:0:
256,192,54621,1,0,0:0:0:0:
256,192,54732,1,0,0:0:0:0:
256,192,54843,1,8,0:0:0:0:
256,192,54899,1,8,0:0:0:0:
256,192,54954,1,0,0:0:0:0:
256,192,55010,1,0,0:0:0:0:
256,192,55065,1,0,0:0:0:0:
256,192,55176,1,8,0:0:0:0:
256,192,55232,1,8,0:0:0:0:
256,192,55287,1,8,0:0:0:0:
256,192,55343,1,8,0:0:0:0:
256,192,55399,1,0,0:0:0:0:
256,192,55454,1,0,0:0:0:0:
256,192,55510,1,8,0:0:0:0:
256,192,55621,1,0,0:0:0:0:
256,192,55732,1,0,0:0:0:0:
256,192,55843,1,8,0:0:0:0:
256,192,55899,1,8,0:0:0:0:
256,192,55954,1,0,0:0:0:0:
256,192,56010,1,0,0:0:0:0:
256,192,56065,1,8,0:0:0:0:
256,192,56176,1,0,0:0:0:0:
256,192,56287,1,8,0:0:0:0:
256,192,56343,1,8,0:0:0:0:
256,192,56399,1,0,0:0:0:0:
256,192,56510,1,8,0:0:0:0:
256,192,56621,1,0,0:0:0:0:
256,192,56732,1,8,0:0:0:0:
256,192,56787,1,8,0:0:0:0:
256,192,56843,1,0,0:0:0:0:
256,192,56899,1,0,0:0:0:0:
256,192,56954,1,8,0:0:0:0:
256,192,57010,1,8,0:0:0:0:
256,192,57065,1,8,0:0:0:0:
256,192,57121,1,8,0:0:0:0:
256,192,57176,1,0,0:0:0:0:
256,192,57287,1,0,0:0:0:0:
256,192,57399,1,8,0:0:0:0:
256,192,57510,1,0,0:0:0:0:
256,192,57565,1,0,0:0:0:0:
256,192,57621,1,8,0:0:0:0:
256,192,57732,1,0,0:0:0:0:
256,192,57843,1,8,0:0:0:0:
256,192,57899,1,0,0:0:0:0:
256,192,57954,1,8,0:0:0:0:
256,192,58010,1,8,0:0:0:0:
256,192,58065,1,0,0:0:0:0:
256,192,58176,1,0,0:0:0:0:
256,192,58287,1,8,0:0:0:0:
256,192,58399,1,8,0:0:0:0:
256,192,58454,1,8,0:0:0:0:
256,192,58510,1,0,0:0:0:0:
256,192,58621,1,0,0:0:0:0:
256,192,58732,1,8,0:0:0:0:
256,192,58787,1,0,0:0:0:0:
256,192,58843,1,8,0:0:0:0:
256,192,58899,1,8,0:0:0:0:
256,192,58954,1,0,0:0:0:0:
256,192,59065,1,0,0:0:0:0:
256,192,59176,1,8,0:0:0:0:
256,192,59232,1,8,0:0:0:0:
256,192,59287,1,8,0:0:0:0:
256,192,59343,1,8,0:0:0:0:
256,192,59399,1,0,0:0:0:0:
256,192,59510,1,0,0:0:0:0:
256,192,59621,1,8,0:0:0:0:
256,192,59676,1,0,0:0:0:0:
256,192,59732,1,8,0:0:0:0:
256,192,59787,1,8,0:0:0:0:
256,192,59843,1,0,0:0:0:0:
256,192,59899,1,0,0:0:0:0:
256,192,59954,1,0,0:0:0:0:
256,192,60010,1,0,0:0:0:0:
256,192,60065,1,8,0:0:0:0:
256,192,60121,1,0,0:0:0:0:
256,192,60176,1,8,0:0:0:0:
256,192,60232,1,8,0:0:0:0:
256,192,60287,1,0,0:0:0:0:
256,192,60343,1,8,0:0:0:0:
256,192,60399,1,0,0:0:0:0:
256,192,60454,1,0,0:0:0:0:
256,192,60510,1,8,0:0:0:0:
256,192,60565,1,8,0:0:0:0:
256,192,60621,1,8,0:0:0:0:
256,192,60676,1,8,0:0:0:0:
256,192,60732,1,4,0:0:0:0:
256,192,60954,1,8,0:0:0:0:
256,192,61176,1,8,0:0:0:0:
256,192,61399,1,0,0:0:0:0:
256,192,61621,1,8,0:0:0:0:
256,192,61843,1,8,0:0:0:0:
256,192,62065,1,0,0:0:0:0:
256,192,62287,1,8,0:0:0:0:
256,192,62399,1,8,0:0:0:0:
256,192,62510,1,0,0:0:0:0:
256,192,62732,1,8,0:0:0:0:
256,192,62954,1,0,0:0:0:0:
256,192,63176,1,8,0:0:0:0:
256,192,63399,1,8,0:0:0:0:
256,192,63621,1,0,0:0:0:0:
256,192,63843,1,8,0:0:0:0:
256,192,64065,1,8,0:0:0:0:
256,192,64121,1,8,0:0:0:0:
256,192,64176,1,8,0:0:0:0:
256,192,64232,1,8,0:0:0:0:
256,192,64287,1,0,0:0:0:0:
256,192,64510,1,8,0:0:0:0:
256,192,64732,1,8,0:0:0:0:
256,192,64954,1,0,0:0:0:0:
256,192,65176,1,8,0:0:0:0:
256,192,65399,1,8,0:0:0:0:
256,192,65621,1,0,0:0:0:0:
256,192,65843,1,8,0:0:0:0:
256,192,65954,1,8,0:0:0:0:
256,192,66065,1,0,0:0:0:0:
256,192,66287,1,8,0:0:0:0:
256,192,66510,1,0,0:0:0:0:
256,192,66732,1,8,0:0:0:0:
256,192,66954,1,8,0:0:0:0:
256,192,67176,1,0,0:0:0:0:
256,192,67399,1,8,0:0:0:0:
256,192,67621,1,8,0:0:0:0:
256,192,67676,1,8,0:0:0:0:
256,192,67732,1,8,0:0:0:0:
256,192,67787,1,8,0:0:0:0:
256,192,67843,1,4,0:0:0:0:
256,192,68065,1,8,0:0:0:0:
256,192,68287,1,8,0:0:0:0:
256,192,68510,1,0,0:0:0:0:
256,192,68732,1,8,0:0:0:0:
256,192,68954,1,8,0:0:0:0:
256,192,69176,1,0,0:0:0:0:
256,192,69399,1,8,0:0:0:0:
256,192,69510,1,8,0:0:0:0:
256,192,69621,1,0,0:0:0:0:
256,192,69843,1,8,0:0:0:0:
256,192,70065,1,0,0:0:0:0:
256,192,70287,1,8,0:0:0:0:
256,192,70510,1,8,0:0:0:0:
256,192,70732,1,0,0:0:0:0:
256,192,70954,1,8,0:0:0:0:
256,192,71176,1,8,0:0:0:0:
256,192,71232,1,8,0:0:0:0:
256,192,71287,1,8,0:0:0:0:
256,192,71343,1,8,0:0:0:0:
256,192,71399,1,0,0:0:0:0:
256,192,71621,1,8,0:0:0:0:
256,192,71843,1,8,0:0:0:0:
256,192,72065,1,0,0:0:0:0:
256,192,72287,1,8,0:0:0:0:
256,192,72510,1,8,0:0:0:0:
256,192,72732,1,0,0:0:0:0:
256,192,72954,1,8,0:0:0:0:
256,192,73065,1,8,0:0:0:0:
256,192,73176,1,0,0:0:0:0:
256,192,73399,1,8,0:0:0:0:
256,192,73621,1,0,0:0:0:0:
256,192,73843,1,8,0:0:0:0:
256,192,74065,1,8,0:0:0:0:
256,192,74287,1,0,0:0:0:0:
256,192,74510,1,8,0:0:0:0:
256,192,74732,1,8,0:0:0:0:
256,192,74787,1,8,0:0:0:0:
256,192,74843,1,8,0:0:0:0:
256,192,74899,1,8,0:0:0:0:
256,192,74954,1,4,0:0:0:0:
256,192,75176,1,8,0:0:0:0:
256,192,75399,1,8,0:0:0:0:
256,192,75621,1,0,0:0:0:0:
256,192,75732,1,0,0:0:0:0:
256,192,75843,1,8,0:0:0:0:
256,192,76065,1,8,0:0:0:0:
256,192,76287,1,0,0:0:0:0:
256,192,76399,1,0,0:0:0:0:
256,192,76510,1,8,0:0:0:0:
256,192,76621,1,8,0:0:0:0:
256,192,76732,1,0,0:0:0:0:
256,192,76954,1,8,0:0:0:0:
256,192,77176,1,0,0:0:0:0:
256,192,77399,1,8,0:0:0:0:
256,192,77510,1,8,0:0:0:0:
256,192,77621,1,8,0:0:0:0:
256,192,77843,1,0,0:0:0:0:
256,192,78065,1,8,0:0:0:0:
256,192,78287,1,8,0:0:0:0:
256,192,78343,1,8,0:0:0:0:
256,192,78399,1,8,0:0:0:0:
256,192,78454,1,8,0:0:0:0:
256,192,78510,1,0,0:0:0:0:
256,192,78732,1,8,0:0:0:0:
256,192,78954,1,8,0:0:0:0:
256,192,79176,1,0,0:0:0:0:
256,192,79287,1,0,0:0:0:0:
256,192,79399,1,8,0:0:0:0:
256,192,79621,1,8,0:0:0:0:
256,192,79843,1,0,0:0:0:0:
256,192,79954,1,0,0:0:0:0:
256,192,80065,1,8,0:0:0:0:
256,192,80176,1,8,0:0:0:0:
256,192,80287,1,0,0:0:0:0:
256,192,80510,1,8,0:0:0:0:
256,192,80732,1,0,0:0:0:0:
256,192,80954,1,8,0:0:0:0:
256,192,81065,1,0,0:0:0:0:
256,192,81176,1,8,0:0:0:0:
256,192,81287,1,8,0:0:0:0:
256,192,81399,1,0,0:0:0:0:
256,192,81621,1,8,0:0:0:0:
256,192,81843,1,8,0:0:0:0:
256,192,81899,1,8,0:0:0:0:
256,192,81954,1,8,0:0:0:0:
256,192,82010,1,8,0:0:0:0:
256,192,82065,1,4,0:0:0:0:
256,192,82287,1,8,0:0:0:0:
256,192,82510,1,8,0:0:0:0:
256,192,82732,1,0,0:0:0:0:
256,192,82843,1,0,0:0:0:0:
256,192,82954,1,8,0:0:0:0:
256,192,83176,1,8,0:0:0:0:
256,192,83399,1,0,0:0:0:0:
256,192,83510,1,0,0:0:0:0:
256,192,83621,1,8,0:0:0:0:
256,192,83732,1,8,0:0:0:0:
256,192,83843,1,0,0:0:0:0:
256,192,84065,1,8,0:0:0:0:
256,192,84287,1,0,0:0:0:0:
256,192,84510,1,8,0:0:0:0:
256,192,84732,1,8,0:0:0:0:
256,192,84954,1,0,0:0:0:0:
256,192,85176,1,8,0:0:0:0:
256,192,85399,1,8,0:0:0:0:
256,192,85454,1,8,0:0:0:0:
256,192,85510,1,8,0:0:0:0:
256,192,85565,1,8,0:0:0:0:
256,192,85621,1,4,0:0:0:0:
256,192,85732,1,0,0:0:0:0:
256,192,85843,1,8,0:0:0:0:
256,192,85954,1,8,0:0:0:0:
256,192,86065,1,0,0:0:0:0:
256,192,86176,1,8,0:0:0:0:
256,192,86287,1,0,0:0:0:0:
256,192,86399,1,0,0:0:0:0:
256,192,86510,1,12,0:0:0:0:
256,192,86621,1,0,0:0:0:0:
256,192,86732,1,0,0:0:0:0:
256,192,86843,1,0,0:0:0:0:
256,192,86954,1,8,0:0:0:0:
256,192,87010,1,8,0:0:0:0:
256,192,87065,1,0,0:0:0:0:
256,192,87176,1,8,0:0:0:0:
256,192,87232,1,8,0:0:0:0:
256,192,87287,1,0,0:0:0:0:
256,192,87343,1,0,0:0:0:0:
256,192,87399,1,8,0:0:0:0:
256,192,87454,1,8,0:0:0:0:
256,192,87510,1,0,0:0:0:0:
256,192,87565,1,0,0:0:0:0:
256,192,87621,1,8,0:0:0:0:
256,192,87676,1,0,0:0:0:0:
256,192,87732,1,8,0:0:0:0:
256,192,87787,1,0,0:0:0:0:
256,192,87843,1,8,0:0:0:0:
256,192,87899,1,8,0:0:0:0:
256,192,87954,1,0,0:0:0:0:
256,192,88010,1,0,0:0:0:0:
256,192,88065,1,8,0:0:0:0:
256,192,88121,1,8,0:0:0:0:
256,192,88176,1,8,0:0:0:0:
256,192,88232,1,8,0:0:0:0:
256,192,88287,1,0,0:0:0:0:
256,192,88510,1,0,0:0:0:0:
256,192,88732,1,8,0:0:0:0:
256,192,89176,1,12,0:0:0:0:
256,192,89399,1,0,0:0:0:0:
256,192,89510,1,0,0:0:0:0:
256,192,89565,1,0,0:0:0:0:
256,192,89621,1,8,0:0:0:0:
256,192,89732,1,8,0:0:0:0:
256,192,89843,1,0,0:0:0:0:
256,192,89954,1,0,0:0:0:0:
256,192,90065,1,8,0:0:0:0:
256,192,90121,1,8,0:0:0:0:
256,192,90176,1,8,0:0:0:0:
256,192,90287,1,0,0:0:0:0:
256,192,90399,1,8,0:0:0:0:
256,192,90510,1,8,0:0:0:0:
256,192,90565,1,8,0:0:0:0:
256,192,90621,1,0,0:0:0:0:
256,192,90732,1,0,0:0:0:0:
256,192,90843,1,8,0:0:0:0:
256,192,90899,1,0,0:0:0:0:
256,192,90954,1,0,0:0:0:0:
256,192,91010,1,0,0:0:0:0:
256,192,91065,1,8,0:0:0:0:
256,192,91176,1,0,0:0:0:0:
256,192,91287,1,8,0:0:0:0:
256,192,91399,1,8,0:0:0:0:
256,192,91454,1,8,0:0:0:0:
256,192,91510,1,0,0:0:0:0:
256,192,91565,1,0,0:0:0:0:
256,192,91621,1,8,0:0:0:0:
256,192,91732,1,0,0:0:0:0:
256,192,91843,1,8,0:0:0:0:
256,192,91899,1,8,0:0:0:0:
256,192,91954,1,0,0:0:0:0:
256,192,92065,1,8,0:0:0:0:
256,192,92176,1,0,0:0:0:0:
256,192,92287,1,8,0:0:0:0:
256,192,92343,1,8,0:0:0:0:
256,192,92399,1,0,0:0:0:0:
256,192,92454,1,0,0:0:0:0:
256,192,92510,1,8,0:0:0:0:
256,192,92565,1,8,0:0:0:0:
256,192,92621,1,8,0:0:0:0:
256,192,92676,1,8,0:0:0:0:
256,192,92732,1,0,0:0:0:0:
256,192,92843,1,8,0:0:0:0:
256,192,92954,1,0,0:0:0:0:
256,192,93065,1,8,0:0:0:0:
256,192,93176,1,0,0:0:0:0:
256,192,93232,1,0,0:0:0:0:
256,192,93287,1,8,0:0:0:0:
256,192,93343,1,8,0:0:0:0:
256,192,93399,1,0,0:0:0:0:
256,192,93510,1,0,0:0:0:0:
256,192,93621,1,8,0:0:0:0:
256,192,93676,1,8,0:0:0:0:
256,192,93732,1,8,0:0:0:0:
256,192,93843,1,0,0:0:0:0:
256,192,93954,1,8,0:0:0:0:
256,192,94065,1,0,0:0:0:0:
256,192,94121,1,0,0:0:0:0:
256,192,94176,1,8,0:0:0:0:
256,192,94287,1,0,0:0:0:0:
256,192,94399,1,8,0:0:0:0:
256,192,94454,1,8,0:0:0:0:
256,192,94510,1,0,0:0:0:0:
256,192,94565,1,0,0:0:0:0:
256,192,94621,1,8,0:0:0:0:
256,192,94732,1,0,0:0:0:0:
256,192,94843,1,8,0:0:0:0:
256,192,94954,1,0,0:0:0:0:
256,192,95010,1,0,0:0:0:0:
256,192,95065,1,0,0:0:0:0:
256,192,95121,1,0,0:0:0:0:
256,192,95176,1,8,0:0:0:0:
256,192,95287,1,0,0:0:0:0:
256,192,95399,1,8,0:0:0:0:
256,192,95454,1,8,0:0:0:0:
256,192,95510,1,0,0:0:0:0:
256,192,95621,1,0,0:0:0:0:
256,192,95732,1,0,0:0:0:0:
256,192,95843,1,8,0:0:0:0:
256,192,95899,1,8,0:0:0:0:
256,192,95954,1,8,0:0:0:0:
256,192,96010,1,8,0:0:0:0:
256,192,96065,1,0,0:0:0:0:
256,192,96176,1,0,0:0:0:0:
256,192,96287,1,12,0:0:0:0:
256,192,96510,1,8,0:0:0:0:
256,192,96621,1,0,0:0:0:0:
256,192,96676,1,0,0:0:0:0:
256,192,96732,1,8,0:0:0:0:
256,192,96843,1,8,0:0:0:0:
256,192,96954,1,0,0:0:0:0:
256,192,97065,1,0,0:0:0:0:
256,192,97176,1,8,0:0:0:0:
256,192,97232,1,8,0:0:0:0:
256,192,97287,1,8,0:0:0:0:
256,192,97399,1,0,0:0:0:0:
256,192,97510,1,8,0:0:0:0:
256,192,97621,1,0,0:0:0:0:
256,192,97676,1,0,0:0:0:0:
256,192,97732,1,0,0:0:0:0:
256,192,97843,1,0,0:0:0:0:
256,192,97954,1,8,0:0:0:0:
256,192,98065,1,0,0:0:0:0:
256,192,98121,1,0,0:0:0:0:
256,192,98176,1,8,0:0:0:0:
256,192,98287,1,0,0:0:0:0:
256,192,98399,1,0,0:0:0:0:
256,192,98510,1,8,0:0:0:0:
256,192,98565,1,8,0:0:0:0:
256,192,98621,1,0,0:0:0:0:
256,192,98676,1,0,0:0:0:0:
256,192,98732,1,8,0:0:0:0:
256,192,98843,1,0,0:0:0:0:
256,192,98954,1,8,0:0:0:0:
256,192,99010,1,8,0:0:0:0:
256,192,99065,1,0,0:0:0:0:
256,192,99176,1,8,0:0:0:0:
256,192,99287,1,0,0:0:0:0:
256,192,99399,1,8,0:0:0:0:
256,192,99454,1,8,0:0:0:0:
256,192,99510,1,0,0:0:0:0:
256,192,99565,1,0,0:0:0:0:
256,192,99621,1,8,0:0:0:0:
256,192,99676,1,8,0:0:0:0:
256,192,99732,1,8,0:0:0:0:
256,192,99787,1,8,0:0:0:0:
256,192,99843,1,0,0:0:0:0:
256,192,99954,1,0,0:0:0:0:
256,192,100065,1,8,0:0:0:0:
256,192,100176,1,0,0:0:0:0:
256,192,100232,1,0,0:0:0:0:
256,192,100287,1,8,0:0:0:0:
256,192,100399,1,8,0:0:0:0:
256,192,100510,1,0,0:0:0:0:
256,192,100621,1,8,0:0:0:0:
256,192,100676,1,8,0:0:0:0:
256,192,100732,1,0,0:0:0:0:
256,192,100787,1,0,0:0:0:0:
256,192,100843,1,8,0:0:0:0:
256,192,100954,1,0,0:0:0:0:
256,192,101065,1,8,0:0:0:0:
256,192,101176,1,0,0:0:0:0:
256,192,101232,1,0,0:0:0:0:
256,192,101287,1,8,0:0:0:0:
256,192,101343,1,8,0:0:0:0:
256,192,101399,1,0,0:0:0:0:
256,192,101510,1,8,0:0:0:0:
256,192,101621,1,0,0:0:0:0:
256,192,101676,1,0,0:0:0:0:
256,192,101732,1,8,0:0:0:0:
256,192,101843,1,0,0:0:0:0:
256,192,101954,1,0,0:0:0:0:
256,192,102065,1,8,0:0:0:0:
256,192,102121,1,8,0:0:0:0:
256,192,102176,1,0,0:0:0:0:
256,192,102232,1,0,0:0:0:0:
256,192,102287,1,8,0:0:0:0:
256,192,102399,1,0,0:0:0:0:
256,192,102510,1,8,0:0:0:0:
256,192,102565,1,8,0:0:0:0:
256,192,102621,1,0,0:0:0:0:
256,192,102732,1,0,0:0:0:0:
256,192,102843,1,0,0:0:0:0:
256,192,102954,1,8,0:0:0:0:
256,192,103010,1,8,0:0:0:0:
256,192,103065,1,8,0:0:0:0:
256,192,103121,1,8,0:0:0:0:
256,192,103176,1,0,0:0:0:0:
256,192,103232,1,0,0:0:0:0:
256,192,103287,1,0,0:0:0:0:
256,192,103343,1,0,0:0:0:0:
256,192,103399,1,12,0:0:0:0:
256,192,103510,1,0,0:0:0:0:
256,192,103621,1,8,0:0:0:0:
256,192,103676,1,8,0:0:0:0:
256,192,103732,1,8,0:0:0:0:
256,192,103843,1,0,0:0:0:0:
256,192,103954,1,8,0:0:0:0:
256,192,104065,1,0,0:0:0:0:
256,192,104121,1,0,0:0:0:0:
256,192,104176,1,0,0:0:0:0:
256,192,104232,1,0,0:0:0:0:
256,192,104287,1,8,0:0:0:0:
256,192,104399,1,8,0:0:0:0:
256,192,104510,1,0,0:0:0:0:
256,192,104621,1,8,0:0:0:0:
256,192,104676,1,8,0:0:0:0:
256,192,104732,1,0,0:0:0:0:
256,192,104843,1,8,0:0:0:0:
256,192,104954,1,0,0:0:0:0:
256,192,105065,1,8,0:0:0:0:
256,192,105176,1,0,0:0:0:0:
256,192,105232,1,0,0:0:0:0:
256,192,105287,1,8,0:0:0:0:
256,192,105399,1,0,0:0:0:0:
256,192,105510,1,8,0:0:0:0:
256,192,105621,1,8,0:0:0:0:
256,192,105676,1,8,0:0:0:0:
256,192,105732,1,0,0:0:0:0:
256,192,105787,1,0,0:0:0:0:
256,192,105843,1,8,0:0:0:0:
256,192,105954,1,0,0:0:0:0:
256,192,106065,1,8,0:0:0:0:
256,192,106121,1,8,0:0:0:0:
256,192,106176,1,0,0:0:0:0:
256,192,106287,1,8,0:0:0:0:
256,192,106399,1,0,0:0:0:0:
256,192,106454,1,0,0:0:0:0:
256,192,106510,1,8,0:0:0:0:
256,192,106565,1,8,0:0:0:0:
256,192,106621,1,0,0:0:0:0:
256,192,106732,1,0,0:0:0:0:
256,192,106843,1,8,0:0:0:0:
256,192,106899,1,8,0:0:0:0:
256,192,106954,1,0,0:0:0:0:
256,192,107065,1,0,0:0:0:0:
256,192,107176,1,8,0:0:0:0:
256,192,107287,1,0,0:0:0:0:
256,192,107343,1,0,0:0:0:0:
256,192,107399,1,8,0:0:0:0:
256,192,107510,1,0,0:0:0:0:
256,192,107621,1,0,0:0:0:0:
256,192,107732,1,8,0:0:0:0:
256,192,107787,1,8,0:0:0:0:
256,192,107843,1,0,0:0:0:0:
256,192,107899,1,0,0:0:0:0:
256,192,107954,1,8,0:0:0:0:
256,192,108065,1,0,0:0:0:0:
256,192,108176,1,8,0:0:0:0:
256,192,108232,1,8,0:0:0:0:
256,192,108287,1,0,0:0:0:0:
256,192,108399,1,0,0:0:0:0:
256,192,108510,1,8,0:0:0:0:
256,192,108621,1,8,0:0:0:0:
256,192,108732,1,0,0:0:0:0:
256,192,108787,1,0,0:0:0:0:
256,192,108843,1,8,0:0:0:0:
256,192,108954,1,0,0:0:0:0:
256,192,109065,1,0,0:0:0:0:
256,192,109176,1,8,0:0:0:0:
256,192,109232,1,8,0:0:0:0:
256,192,109287,1,0,0:0:0:0:
256,192,109343,1,0,0:0:0:0:
256,192,109399,1,8,0:0:0:0:
256,192,109510,1,0,0:0:0:0:
256,192,109621,1,8,0:0:0:0:
256,192,109676,1,8,0:0:0:0:
256,192,109732,1,0,0:0:0:0:
256,192,109843,1,0,0:0:0:0:
256,192,109954,1,0,0:0:0:0:
256,192,110065,1,8,0:0:0:0:
256,192,110121,1,8,0:0:0:0:
256,192,110176,1,8,0:0:0:0:
256,192,110232,1,8,0:0:0:0:
256,192,110287,1,0,0:0:0:0:
256,192,110399,1,0,0:0:0:0:
256,192,110510,1,12,0:0:0:0:
256,192,110621,1,0,0:0:0:0:
256,192,110732,1,8,0:0:0:0:
256,192,110843,1,0,0:0:0:0:
256,192,110899,1,0,0:0:0:0:
256,192,110954,1,8,0:0:0:0:
256,192,111065,1,8,0:0:0:0:
256,192,111176,1,0,0:0:0:0:
256,192,111287,1,8,0:0:0:0:
256,192,111343,1,8,0:0:0:0:
256,192,111399,1,8,0:0:0:0:
256,192,111454,1,8,0:0:0:0:
256,192,111510,1,0,0:0:0:0:
256,192,111621,1,0,0:0:0:0:
256,192,111732,1,8,0:0:0:0:
256,192,111787,1,8,0:0:0:0:
256,192,111843,1,0,0:0:0:0:
256,192,111899,1,0,0:0:0:0:
256,192,111954,1,0,0:0:0:0:
256,192,112065,1,8,0:0:0:0:
256,192,112121,1,8,0:0:0:0:
256,192,112176,1,8,0:0:0:0:
256,192,112232,1,8,0:0:0:0:
256,192,112287,1,0,0:0:0:0:
256,192,112343,1,0,0:0:0:0:
256,192,112399,1,8,0:0:0:0:
256,192,112510,1,0,0:0:0:0:
256,192,112621,1,0,0:0:0:0:
256,192,112732,1,8,0:0:0:0:
256,192,112787,1,8,0:0:0:0:
256,192,112843,1,0,0:0:0:0:
256,192,112899,1,0,0:0:0:0:
256,192,112954,1,8,0:0:0:0:
256,192,113065,1,0,0:0:0:0:
256,192,113176,1,8,0:0:0:0:
256,192,113232,1,8,0:0:0:0:
256,192,113287,1,0,0:0:0:0:
256,192,113399,1,8,0:0:0:0:
256,192,113510,1,0,0:0:0:0:
256,192,113621,1,8,0:0:0:0:
256,192,113676,1,8,0:0:0:0:
256,192,113732,1,0,0:0:0:0:
256,192,113787,1,0,0:0:0:0:
256,192,113843,1,8,0:0:0:0:
256,192,113899,1,8,0:0:0:0:
256,192,113954,1,8,0:0:0:0:
256,192,114010,1,8,0:0:0:0:
256,192,114065,1,0,0:0:0:0:
256,192,114176,1,0,0:0:0:0:
256,192,114287,1,8,0:0:0:0:
256,192,114399,1,0,0:0:0:0:
256,192,114454,1,0,0:0:0:0:
256,192,114510,1,8,0:0:0:0:
256,192,114621,1,0,0:0:0:0:
256,192,114732,1,8,0:0:0:0:
256,192,114787,1,0,0:0:0:0:
256,192,114843,1,8,0:0:0:0:
256,192,114899,1,8,0:0:0:0:
256,192,114954,1,0,0:0:0:0:
256,192,115065,1,0,0:0:0:0:
256,192,115176,1,8,0:0:0:0:
256,192,115287,1,8,0:0:0:0:
256,192,115343,1,8,0:0:0:0:
256,192,115399,1,0,0:0:0:0:
256,192,115510,1,0,0:0:0:0:
256,192,115621,1,8,0:0:0:0:
256,192,115676,1,0,0:0:0:0:
256,192,115732,1,8,0:0:0:0:
256,192,115787,1,8,0:0:0:0:
256,192,115843,1,0,0:0:0:0:
256,192,115954,1,0,0:0:0:0:
256,192,116065,1,8,0:0:0:0:
256,192,116121,1,8,0:0:0:0:
256,192,116176,1,8,0:0:0:0:
256,192,116232,1,8,0:0:0:0:
256,192,116287,1,0,0:0:0:0:
256,192,116399,1,0,0:0:0:0:
256,192,116510,1,8,0:0:0:0:
256,192,116565,1,0,0:0:0:0:
256,192,116621,1,8,0:0:0:0:
256,192,116676,1,8,0:0:0:0:
256,192,116732,1,0,0:0:0:0:
256,192,116787,1,0,0:0:0:0:
256,192,116843,1,0,0:0:0:0:
256,192,116899,1,0,0:0:0:0:
256,192,116954,1,8,0:0:0:0:
256,192,117010,1,0,0:0:0:0:
256,192,117065,1,8,0:0:0:0:
256,192,117121,1,8,0:0:0:0:
256,192,117176,1,0,0:0:0:0:
256,192,117232,1,8,0:0:0:0:
256,192,117287,1,0,0:0:0:0:
256,192,117343,1,0,0:0:0:0:
256,192,117399,1,8,0:0:0:0:
256,192,117454,1,8,0:0:0:0:
256,192,117510,1,8,0:0:0:0:
256,192,117565,1,8,0:0:0:0:
256,192,117621,1,0,0:0:0:0:
256,192,118065,1,0,0:0:0:0:
256,192,118465,1,8,0:0:0:0:
256,192,118865,1,0,0:0:0:0:
256,192,119265,1,8,0:0:0:0:
256,192,120065,1,8,0:0:0:0:
256,192,120265,1,8,0:0:0:0:
256,192,120465,1,0,0:0:0:0:
256,192,120665,1,0,0:0:0:0:
256,192,120865,1,8,0:0:0:0:
256,192,121065,1,8,0:0:0:0:
256,192,121265,1,0,0:0:0:0:
256,192,121465,1,8,0:0:0:0:
256,192,121665,1,8,0:0:0:0:
256,192,121865,1,0,0:0:0:0:
256,192,122065,1,8,0:0:0:0:
256,192,122465,1,0,0:0:0:0:
256,192,122865,1,8,0:0:0:0:
256,192,123265,1,0,0:0:0:0:
256,192,123665,1,8,0:0:0:0:
256,192,124465,1,8,0:0:0:0:
256,192,124665,1,8,0:0:0:0:
256,192,124865,1,0,0:0:0:0:
256,192,125065,1,0,0:0:0:0:
256,192,125265,1,8,0:0:0:0:
256,192,125665,1,8,0:0:0:0:
256,192,125798,1,0,0:0:0:0:
256,192,125931,1,8,0:0:0:0:
256,192,126065,1,0,0:0:0:0:
256,192,126465,1,0,0:0:0:0:
256,192,126665,1,0,0:0:0:0:
256,192,126865,1,8,0:0:0:0:
256,192,127465,1,8,0:0:0:0:
256,192,128065,1,8,0:0:0:0:
256,192,128265,1,0,0:0:0:0:
256,192,128465,1,8,0:0:0:0:
256,192,128865,1,0,0:0:0:0:
256,192,129265,1,0,0:0:0:0:
256,192,130065,1,12,0:0:0:0:
256,192,130465,1,0,0:0:0:0:
256,192,130865,1,8,0:0:0:0:
256,192,131265,1,8,0:0:0:0:
256,192,131665,1,0,0:0:0:0:
256,192,132065,1,0,0:0:0:0:
256,192,132265,1,0,0:0:0:0:
256,192,132465,1,8,0:0:0:0:
256,192,132865,1,8,0:0:0:0:
256,192,133065,1,8,0:0:0:0:
256,192,133265,1,0,0:0:0:0:
256,192,133465,1,8,0:0:0:0:
256,192,133665,1,0,0:0:0:0:
256,192,133865,1,8,0:0:0:0:
256,192,134065,1,8,0:0:0:0:
256,192,134265,1,0,0:0:0:0:
256,192,134465,1,8,0:0:0:0:
256,192,134665,1,0,0:0:0:0:
256,192,134865,1,8,0:0:0:0:
256,192,135265,1,8,0:0:0:0:
256,192,135465,1,0,0:0:0:0:
256,192,135665,1,8,0:0:0:0:
256,192,135865,1,0,0:0:0:0:
256,192,136065,1,8,0:0:0:0:
256,192,136265,1,8,0:0:0:0:
256,192,136465,1,0,0:0:0:0:
256,192,136865,1,0,0:0:0:0:
256,192,137265,1,8,0:0:0:0:
256,192,137465,1,8,0:0:0:0:
256,192,137665,1,0,0:0:0:0:
256,192,137865,1,8,0:0:0:0:
256,192,138065,1,0,0:0:0:0:
256,192,138465,1,8,0:0:0:0:
256,192,138598,1,0,0:0:0:0:
256,192,138731,1,0,0:0:0:0:
256,192,138865,1,8,0:0:0:0:
256,192,139265,1,8,0:0:0:0:
256,192,139465,1,0,0:0:0:0:
256,192,139665,1,8,0:0:0:0:
256,192,140065,1,0,0:0:0:0:
256,192,140265,1,8,0:0:0:0:
256,192,140465,1,8,0:0:0:0:
256,192,140865,1,0,0:0:0:0:
256,192,141065,1,8,0:0:0:0:
256,192,141265,1,0,0:0:0:0:
256,192,141665,1,0,0:0:0:0:
256,192,141865,1,0,0:0:0:0:
256,192,142065,1,8,0:0:0:0:
256,192,142265,1,0,0:0:0:0:
256,192,142465,1,8,0:0:0:0:
256,192,142565,1,8,0:0:0:0:
256,192,142665,1,8,0:0:0:0:
256,192,142865,1,12,0:0:0:0:
256,192,143265,1,0,0:0:0:0:
256,192,143665,1,8,0:0:0:0:
256,192,144065,1,8,0:0:0:0:
256,192,144465,1,0,0:0:0:0:
256,192,144865,1,0,0:0:0:0:
256,192,145065,1,0,0:0:0:0:
256,192,145265,1,8,0:0:0:0:
256,192,145665,1,8,0:0:0:0:
256,192,145865,1,8,0:0:0:0:
256,192,146065,1,0,0:0:0:0:
256,192,146265,1,8,0:0:0:0:
256,192,146465,1,0,0:0:0:0:
256,192,146665,1,8,0:0:0:0:
256,192,146865,1,8,0:0:0:0:
256,192,147065,1,0,0:0:0:0:
256,192,147265,1,8,0:0:0:0:
256,192,147465,1,0,0:0:0:0:
256,192,147665,1,8,0:0:0:0:
256,192,148065,1,8,0:0:0:0:
256,192,148265,1,0,0:0:0:0:
256,192,148465,1,8,0:0:0:0:
256,192,148665,1,0,0:0:0:0:
256,192,148865,1,8,0:0:0:0:
256,192,149065,1,8,0:0:0:0:
256,192,149265,1,0,0:0:0:0:
256,192,149665,1,0,0:0:0:0:
256,192,150065,1,8,0:0:0:0:
256,192,150265,1,8,0:0:0:0:
256,192,150465,1,0,0:0:0:0:
256,192,150665,1,8,0:0:0:0:
256,192,150865,1,0,0:0:0:0:
256,192,151265,1,8,0:0:0:0:
256,192,151398,1,0,0:0:0:0:
256,192,151531,1,0,0:0:0:0:
256,192,151665,1,8,0:0:0:0:
256,192,152065,1,8,0:0:0:0:
256,192,152265,1,0,0:0:0:0:
256,192,152465,1,8,0:0:0:0:
256,192,152865,1,0,0:0:0:0:
256,192,153065,1,8,0:0:0:0:
256,192,153265,1,8,0:0:0:0:
256,192,153665,1,0,0:0:0:0:
256,192,153865,1,8,0:0:0:0:
256,192,154065,1,0,0:0:0:0:
256,192,154465,1,0,0:0:0:0:
256,192,154665,1,0,0:0:0:0:
256,192,154865,1,8,0:0:0:0:
256,192,155065,1,0,0:0:0:0:
256,192,155265,1,8,0:0:0:0:
256,192,155365,1,8,0:0:0:0:
256,192,155465,1,8,0:0:0:0:
256,192,155665,1,12,0:0:0:0:
256,192,156028,1,0,0:0:0:0:
256,192,156392,1,0,0:0:0:0:
256,192,156755,1,0,0:0:0:0:
256,192,157119,1,12,0:0:0:0:
256,192,157452,1,0,0:0:0:0:
256,192,157785,1,0,0:0:0:0:
256,192,158119,1,0,0:0:0:0:
256,192,158452,1,12,0:0:0:0:
256,192,158759,1,0,0:0:0:0:
256,192,159067,1,0,0:0:0:0:
256,192,159375,1,0,0:0:0:0:
256,192,159682,1,12,0:0:0:0:
256,192,159967,1,0,0:0:0:0:
256,192,160253,1,0,0:0:0:0:
256,192,160539,1,0,0:0:0:0:
256,192,160824,1,12,0:0:0:0:
256,192,161090,1,0,0:0:0:0:
256,192,161357,1,0,0:0:0:0:
256,192,161624,1,0,0:0:0:0:
256,192,161890,1,12,0:0:0:0:
256,192,162140,1,0,0:0:0:0:
256,192,162390,1,0,0:0:0:0:
256,192,162640,1,0,0:0:0:0:
256,192,162890,1,12,0:0:0:0:
256,192,163125,1,0,0:0:0:0:
256,192,163360,1,0,0:0:0:0:
256,192,163595,1,0,0:0:0:0:
256,192,163831,1,12,0:0:0:0:
256,192,164053,1,0,0:0:0:0:
256,192,164275,1,0,0:0:0:0:
256,192,164497,1,0,0:0:0:0:
256,192,164719,1,12,0:0:0:0:
256,192,164929,1,0,0:0:0:0:
256,192,165140,1,0,0:0:0:0:
256,192,165350,1,0,0:0:0:0:
256,192,165561,1,12,0:0:0:0:
256,192,165761,1,0,0:0:0:0:
256,192,165961,1,0,0:0:0:0:
256,192,166161,1,0,0:0:0:0:
256,192,166361,1,12,0:0:0:0:
256,192,166551,1,0,0:0:0:0:
256,192,166741,1,0,0:0:0:0:
256,192,166932,1,0,0:0:0:0:
256,192,167122,1,12,0:0:0:0:
256,192,167303,1,0,0:0:0:0:
256,192,167485,1,0,0:0:0:0:
256,192,167667,1,0,0:0:0:0:
256,192,167849,1,12,0:0:0:0:
256,192,168022,1,0,0:0:0:0:
256,192,168196,1,0,0:0:0:0:
256,192,168370,1,0,0:0:0:0:
256,192,168544,1,12,0:0:0:0:
256,192,168710,1,0,0:0:0:0:
256,192,168877,1,0,0:0:0:0:
256,192,169044,1,0,0:0:0:0:
256,192,169210,1,12,0:0:0:0:
256,192,169370,1,0,0:0:0:0:
256,192,169530,1,0,0:0:0:0:
256,192,169690,1,0,0:0:0:0:
256,192,169850,1,12,0:0:0:0:
256,192,170003,1,0,0:0:0:0:
256,192,170157,1,0,0:0:0:0:
256,192,170311,1,0,0:0:0:0:
256,192,170465,1,12,0:0:0:0:
256,192,170613,1,0,0:0:0:0:
256,192,170761,1,0,0:0:0:0:
256,192,170909,1,0,0:0:0:0:
256,192,171057,1,12,0:0:0:0:
256,192,171199,1,0,0:0:0:0:
256,192,171342,1,0,0:0:0:0:
256,192,171485,1,0,0:0:0:0:
256,192,171628,1,12,0:0:0:0:
256,192,171765,1,0,0:0:0:0:
256,192,171903,1,0,0:0:0:0:
256,192,172041,1,0,0:0:0:0:
256,192,172179,1,12,0:0:0:0:
256,192,172312,1,0,0:0:0:0:
256,192,172445,1,0,0:0:0:0:
256,192,172579,1,0,0:0:0:0:
256,192,172712,1,12,0:0:0:0:
256,192,172841,1,0,0:0:0:0:
256,192,172970,1,0,0:0:0:0:
256,192,173099,1,0,0:0:0:0:
256,192,173228,1,12,0:0:0:0:
256,192,173353,1,0,0:0:0:0:
256,192,173478,1,0,0:0:0:0:
256,192,173603,1,0,0:0:0:0:
256,192,173728,1,12,0:0:0:0:
256,192,173849,1,0,0:0:0:0:
256,192,173970,1,0,0:0:0:0:
256,192,174091,1,0,0:0:0:0:
256,192,174212,1,12,0:0:0:0:
256,192,174329,1,0,0:0:0:0:
256,192,174447,1,0,0:0:0:0:
256,192,174564,1,0,0:0:0:0:
256,192,174682,1,12,0:0:0:0:
256,192,174797,1,0,0:0:0:0:
256,192,174912,1,0,0:0:0:0:
256,192,175028,1,0,0:0:0:0:
256,192,175143,1,12,0:0:0:0:
256,192,175258,1,0,0:0:0:0:
256,192,175374,1,12,0:0:0:0:
256,192,175489,1,0,0:0:0:0:
256,192,175605,1,8,0:0:0:0:
256,192,175662,1,8,0:0:0:0:
256,192,175720,1,0,0:0:0:0:
256,192,175778,1,0,0:0:0:0:
256,192,175835,1,8,0:0:0:0:
256,192,175893,1,8,0:0:0:0:
256,192,175951,1,0,0:0:0:0:
256,192,176008,1,0,0:0:0:0:
256,192,176066,1,8,0:0:0:0:
256,192,176124,1,8,0:0:0:0:
256,192,176182,1,8,0:0:0:0:
256,192,176239,1,8,0:0:0:0:
256,192,176297,1,8,0:0:0:0:
256,192,176355,1,8,0:0:0:0:
256,192,176412,1,8,0:0:0:0:
256,192,176470,1,8,0:0:0:0:
256,192,176528,1,4,0:0:0:0:
256,192,176638,8,0,178938,0:0:0:0:
256,192,179738,5,12,0:0:0:0:
256,192,179938,1,0,0:0:0:0:
256,192,180038,1,0,0:0:0:0:
256,192,180088,1,0,0:0:0:0:
256,192,180138,1,8,0:0:0:0:
256,192,180238,1,0,0:0:0:0:
256,192,180338,1,8,0:0:0:0:
256,192,180438,1,0,0:0:0:0:
256,192,180538,1,8,0:0:0:0:
256,192,180588,1,8,0:0:0:0:
256,192,180638,1,8,0:0:0:0:
256,192,180688,1,8,0:0:0:0:
256,192,180738,1,0,0:0:0:0:
256,192,180838,1,8,0:0:0:0:
256,192,180888,1,8,0:0:0:0:
256,192,180938,1,0,0:0:0:0:
256,192,181038,1,0,0:0:0:0:
256,192,181138,1,8,0:0:0:0:
256,192,181188,1,8,0:0:0:0:
256,192,181238,1,0,0:0:0:0:
256,192,181288,1,0,0:0:0:0:
256,192,181338,1,8,0:0:0:0:
256,192,181438,1,0,0:0:0:0:
256,192,181538,1,0,0:0:0:0:
256,192,181638,1,8,0:0:0:0:
256,192,181688,1,8,0:0:0:0:
256,192,181738,1,8,0:0:0:0:
256,192,181838,1,0,0:0:0:0:
256,192,181938,1,8,0:0:0:0:
256,192,182038,1,0,0:0:0:0:
256,192,182138,1,8,0:0:0:0:
256,192,182188,1,8,0:0:0:0:
256,192,182238,1,8,0:0:0:0:
256,192,182288,1,8,0:0:0:0:
256,192,182338,1,0,0:0:0:0:
256,192,182438,1,8,0:0:0:0:
256,192,182488,1,8,0:0:0:0:
256,192,182538,1,0,0:0:0:0:
256,192,182638,1,0,0:0:0:0:
256,192,182738,1,8,0:0:0:0:
256,192,182788,1,8,0:0:0:0:
256,192,182838,1,0,0:0:0:0:
256,192,182888,1,0,0:0:0:0:
256,192,182938,1,8,0:0:0:0:
256,192,183038,1,0,0:0:0:0:
256,192,183138,1,0,0:0:0:0:
256,192,183238,1,8,0:0:0:0:
256,192,183288,1,8,0:0:0:0:
256,192,183338,1,0,0:0:0:0:
256,192,183438,1,0,0:0:0:0:
256,192,183538,1,8,0:0:0:0:
256,192,183638,1,0,0:0:0:0:
256,192,183738,1,8,0:0:0:0:
256,192,183788,1,8,0:0:0:0:
256,192,183838,1,8,0:0:0:0:
256,192,183888,1,8,0:0:0:0:
256,192,183938,1,0,0:0:0:0:
256,192,184038,1,8,0:0:0:0:
256,192,184088,1,8,0:0:0:0:
256,192,184138,1,0,0:0:0:0:
256,192,184238,1,0,0:0:0:0:
256,192,184338,1,8,0:0:0:0:
256,192,184388,1,8,0:0:0:0:
256,192,184438,1,0,0:0:0:0:
256,192,184488,1,0,0:0:0:0:
256,192,184538,1,8,0:0:0:0:
256,192,184738,1,8,0:0:0:0:
256,192,184838,1,0,0:0:0:0:
256,192,185038,1,0,0:0:0:0:
256,192,185138,1,8,0:0:0:0:
256,192,185238,1,0,0:0:0:0:
256,192,185338,1,8,0:0:0:0:
256,192,185438,1,8,0:0:0:0:
256,192,185538,1,0,0:0:0:0:
256,192,185638,1,0,0:0:0:0:
256,192,185738,1,8,0:0:0:0:
256,192,185788,1,8,0:0:0:0:
256,192,185838,1,8,0:0:0:0:
256,192,185888,1,8,0:0:0:0:
256,192,185938,1,0,0:0:0:0:
256,192,185988,1,0,0:0:0:0:
256,192,186038,1,0,0:0:0:0:
256,192,186088,1,0,0:0:0:0:
256,192,186138,1,8,0:0:0:0:
256,192,186238,1,0,0:0:0:0:
256,192,186338,1,8,0:0:0:0:
256,192,186438,1,0,0:0:0:0:
256,192,186488,1,0,0:0:0:0:
256,192,186538,1,8,0:0:0:0:
256,192,186638,1,0,0:0:0:0:
256,192,186738,1,8,0:0:0:0:
256,192,186838,1,0,0:0:0:0:
256,192,186938,1,8,0:0:0:0:
256,192,186988,1,8,0:0:0:0:
256,192,187038,1,8,0:0:0:0:
256,192,187088,1,8,0:0:0:0:
256,192,187138,1,0,0:0:0:0:
256,192,187238,1,8,0:0:0:0:
256,192,187288,1,8,0:0:0:0:
256,192,187338,1,0,0:0:0:0:
256,192,187438,1,0,0:0:0:0:
256,192,187538,1,8,0:0:0:0:
256,192,187588,1,8,0:0:0:0:
256,192,187638,1,0,0:0:0:0:
256,192,187688,1,0,0:0:0:0:
256,192,187738,1,8,0:0:0:0:
256,192,187838,1,0,0:0:0:0:
256,192,187938,1,0,0:0:0:0:
256,192,188038,1,8,0:0:0:0:
256,192,188088,1,8,0:0:0:0:
256,192,188138,1,8,0:0:0:0:
256,192,188238,1,0,0:0:0:0:
256,192,188338,1,8,0:0:0:0:
256,192,188438,1,0,0:0:0:0:
256,192,188538,1,8,0:0:0:0:
256,192,188588,1,8,0:0:0:0:
256,192,188638,1,8,0:0:0:0:
256,192,188688,1,8,0:0:0:0:
256,192,188738,1,0,0:0:0:0:
256,192,188838,1,8,0:0:0:0:
256,192,188888,1,8,0:0:0:0:
256,192,188938,1,0,0:0:0:0:
256,192,189038,1,0,0:0:0:0:
256,192,189138,1,8,0:0:0:0:
256,192,189188,1,8,0:0:0:0:
256,192,189238,1,0,0:0:0:0:
256,192,189288,1,0,0:0:0:0:
256,192,189338,1,8,0:0:0:0:
256,192,189438,1,0,0:0:0:0:
256,192,189488,1,0,0:0:0:0:
256,192,189538,1,8,0:0:0:0:
256,192,189638,1,8,0:0:0:0:
256,192,189738,1,0,0:0:0:0:
256,192,189838,1,0,0:0:0:0:
256,192,189938,1,8,0:0:0:0:
256,192,189988,1,8,0:0:0:0:
256,192,190038,1,0,0:0:0:0:
256,192,190088,1,0,0:0:0:0:
256,192,190138,1,8,0:0:0:0:
256,192,190238,1,0,0:0:0:0:
256,192,190288,1,0,0:0:0:0:
256,192,190338,1,8,0:0:0:0:
256,192,190438,1,0,0:0:0:0:
256,192,190538,1,8,0:0:0:0:
256,192,190588,1,8,0:0:0:0:
256,192,190638,1,0,0:0:0:0:
256,192,190738,1,8,0:0:0:0:
256,192,190838,1,0,0:0:0:0:
256,192,190888,1,0,0:0:0:0:
256,192,190938,1,8,0:0:0:0:
256,192,191038,1,0,0:0:0:0:
256,192,191138,1,8,0:0:0:0:
256,192,191238,1,0,0:0:0:0:
256,192,191438,1,0,0:0:0:0:
256,192,191538,1,8,0:0:0:0:
256,192,191638,1,0,0:0:0:0:
256,192,191738,1,8,0:0:0:0:
256,192,191788,1,8,0:0:0:0:
256,192,191838,1,8,0:0:0:0:
256,192,191938,1,0,0:0:0:0:
256,192,192038,1,0,0:0:0:0:
256,192,192138,1,8,0:0:0:0:
256,192,192188,1,8,0:0:0:0:
256,192,192238,1,8,0:0:0:0:
256,192,192288,1,8,0:0:0:0:
256,192,192338,1,0,0:0:0:0:
256,192,192388,1,0,0:0:0:0:
256,192,192438,1,0,0:0:0:0:
256,192,192488,1,0,0:0:0:0:
256,192,192538,1,12,0:0:0:0:
256,192,192738,1,0,0:0:0:0:
256,192,192838,1,0,0:0:0:0:
256,192,192888,1,0,0:0:0:0:
256,192,192938,1,8,0:0:0:0:
256,192,193038,1,0,0:0:0:0:
256,192,193138,1,8,0:0:0:0:
256,192,193238,1,0,0:0:0:0:
256,192,193338,1,8,0:0:0:0:
256,192,193388,1,8,0:0:0:0:
256,192,193438,1,8,0:0:0:0:
256,192,193488,1,8,0:0:0:0:
256,192,193538,1,0,0:0:0:0:
256,192,193638,1,8,0:0:0:0:
256,192,193688,1,8,0:0:0:0:
256,192,193738,1,0,0:0:0:0:
256,192,193838,1,0,0:0:0:0:
256,192,193938,1,8,0:0:0:0:
256,192,193988,1,8,0:0:0:0:
256,192,194038,1,0,0:0:0:0:
256,192,194088,1,0,0:0:0:0:
256,192,194138,1,8,0:0:0:0:
256,192,194238,1,0,0:0:0:0:
256,192,194338,1,0,0:0:0:0:
256,192,194438,1,8,0:0:0:0:
256,192,194488,1,8,0:0:0:0:
256,192,194538,1,8,0:0:0:0:
256,192,194638,1,0,0:0:0:0:
256,192,194738,1,8,0:0:0:0:
256,192,194838,1,0,0:0:0:0:
256,192,194938,1,8,0:0:0:0:
256,192,194988,1,8,0:0:0:0:
256,192,195038,1,8,0:0:0:0:
256,192,195088,1,8,0:0:0:0:
256,192,195138,1,0,0:0:0:0:
256,192,195238,1,8,0:0:0:0:
256,192,195288,1,8,0:0:0:0:
256,192,195338,1,0,0:0:0:0:
256,192,195438,1,0,0:0:0:0:
256,192,195538,1,8,0:0:0:0:
256,192,195588,1,8,0:0:0:0:
256,192,195638,1,0,0:0:0:0:
256,192,195688,1,0,0:0:0:0:
256,192,195738,1,8,0:0:0:0:
256,192,195838,1,0,0:0:0:0:
256,192,195938,1,0,0:0:0:0:
256,192,196038,1,8,0:0:0:0:
256,192,196088,1,8,0:0:0:0:
256,192,196138,1,0,0:0:0:0:
256,192,196238,1,0,0:0:0:0:
256,192,196338,1,8,0:0:0:0:
256,192,196438,1,0,0:0:0:0:
256,192,196538,1,8,0:0:0:0:
256,192,196588,1,8,0:0:0:0:
256,192,196638,1,8,0:0:0:0:
256,192,196688,1,8,0:0:0:0:
256,192,196738,1,0,0:0:0:0:
256,192,196838,1,8,0:0:0:0:
256,192,196888,1,8,0:0:0:0:
256,192,196938,1,0,0:0:0:0:
256,192,197038,1,0,0:0:0:0:
256,192,197138,1,8,0:0:0:0:
256,192,197188,1,8,0:0:0:0:
256,192,197238,1,0,0:0:0:0:
256,192,197288,1,0,0:0:0:0:
256,192,197338,1,8,0:0:0:0:
256,192,197538,1,8,0:0:0:0:
256,192,197638,1,0,0:0:0:0:
256,192,197838,1,0,0:0:0:0:
256,192,197938,1,8,0:0:0:0:
256,192,198038,1,0,0:0:0:0:
256,192,198138,1,8,0:0:0:0:
256,192,198238,1,8,0:0:0:0:
256,192,198338,1,0,0:0:0:0:
256,192,198438,1,0,0:0:0:0:
256,192,198538,1,8,0:0:0:0:
256,192,198588,1,8,0:0:0:0:
256,192,198638,1,8,0:0:0:0:
256,192,198688,1,8,0:0:0:0:
256,192,198738,1,0,0:0:0:0:
256,192,198788,1,0,0:0:0:0:
256,192,198838,1,0,0:0:0:0:
256,192,198888,1,0,0:0:0:0:
256,192,198938,1,8,0:0:0:0:
256,192,199038,1,0,0:0:0:0:
256,192,199138,1,8,0:0:0:0:
256,192,199238,1,0,0:0:0:0:
256,192,199288,1,0,0:0:0:0:
256,192,199338,1,8,0:0:0:0:
256,192,199438,1,0,0:0:0:0:
256,192,199538,1,8,0:0:0:0:
256,192,199638,1,0,0:0:0:0:
256,192,199738,1,8,0:0:0:0:
256,192,199788,1,8,0:0:0:0:
256,192,199838,1,8,0:0:0:0:
256,192,199888,1,8,0:0:0:0:
256,192,199938,1,0,0:0:0:0:
256,192,200038,1,8,0:0:0:0:
256,192,200088,1,8,0:0:0:0:
256,192,200138,1,0,0:0:0:0:
256,192,200238,1,0,0:0:0:0:
256,192,200338,1,8,0:0:0:0:
256,192,200388,1,8,0:0:0:0:
256,192,200438,1,0,0:0:0:0:
256,192,200488,1,0,0:0:0:0:
256,192,200538,1,8,0:0:0:0:
256,192,200638,1,0,0:0:0:0:
256,192,200738,1,0,0:0:0:0:
256,192,200838,1,8,0:0:0:0:
256,192,200888,1,8,0:0:0:0:
256,192,200938,1,8,0:0:0:0:
256,192,201038,1,0,0:0:0:0:
256,192,201138,1,8,0:0:0:0:
256,192,201238,1,0,0:0:0:0:
256,192,201338,1,8,0:0:0:0:
256,192,201388,1,8,0:0:0:0:
256,192,201438,1,8,0:0:0:0:
256,192,201488,1,8,0:0:0:0:
256,192,201538,1,0,0:0:0:0:
256,192,201638,1,8,0:0:0:0:
256,192,201688,1,8,0:0:0:0:
256,192,201738,1,0,0:0:0:0:
256,192,201838,1,0,0:0:0:0:
256,192,201938,1,8,0:0:0:0:
256,192,201988,1,8,0:0:0:0:
256,192,202038,1,0,0:0:0:0:
256,192,202088,1,0,0:0:0:0:
256,192,202138,1,8,0:0:0:0:
256,192,202238,1,0,0:0:0:0:
256,192,202288,1,0,0:0:0:0:
256,192,202338,1,8,0:0:0:0:
256,192,202438,1,8,0:0:0:0:
256,192,202538,1,0,0:0:0:0:
256,192,202588,1,0,0:0:0:0:
256,192,202638,1,0,0:0:0:0:
256,192,202738,1,8,0:0:0:0:
256,192,202838,1,0,0:0:0:0:
256,192,202888,1,0,0:0:0:0:
256,192,202938,1,8,0:0:0:0:
256,192,202988,1,8,0:0:0:0:
256,192,203038,1,8,0:0:0:0:
256,192,203088,1,8,0:0:0:0:
256,192,203138,1,0,0:0:0:0:
256,192,203238,1,0,0:0:0:0:
256,192,203288,1,0,0:0:0:0:
256,192,203338,1,8,0:0:0:0:
256,192,203438,1,0,0:0:0:0:
256,192,203538,1,8,0:0:0:0:
256,192,203588,1,8,0:0:0:0:
256,192,203638,1,0,0:0:0:0:
256,192,203688,1,0,0:0:0:0:
256,192,203738,1,8,0:0:0:0:
256,192,203838,1,0,0:0:0:0:
256,192,203938,1,8,0:0:0:0:
256,192,203988,1,0,0:0:0:0:
256,192,204038,1,8,0:0:0:0:
256,192,204088,1,8,0:0:0:0:
256,192,204138,1,0,0:0:0:0:
256,192,204238,1,0,0:0:0:0:
256,192,204338,1,8,0:0:0:0:
256,192,204388,1,8,0:0:0:0:
256,192,204438,1,8,0:0:0:0:
256,192,204488,1,8,0:0:0:0:
256,192,204538,1,0,0:0:0:0:
256,192,204588,1,0,0:0:0:0:
256,192,204638,1,8,0:0:0:0:
256,192,204738,1,0,0:0:0:0:
256,192,204838,1,0,0:0:0:0:
256,192,204938,1,8,0:0:0:0:
256,192,204988,1,8,0:0:0:0:
256,192,205038,1,8,0:0:0:0:
256,192,205088,1,8,0:0:0:0:
256,192,205138,1,0,0:0:0:0:
256,192,205188,1,0,0:0:0:0:
256,192,205238,1,0,0:0:0:0:
256,192,205288,1,0,0:0:0:0:
256,192,205338,1,12,0:0:0:0:
256,192,205538,1,0,0:0:0:0:
256,192,205638,1,0,0:0:0:0:
256,192,205688,1,0,0:0:0:0:
256,192,205738,1,8,0:0:0:0:
256,192,205838,1,0,0:0:0:0:
256,192,205938,1,8,0:0:0:0:
256,192,206038,1,0,0:0:0:0:
256,192,206138,1,8,0:0:0:0:
256,192,206188,1,8,0:0:0:0:
256,192,206238,1,8,0:0:0:0:
256,192,206288,1,8,0:0:0:0:
256,192,206338,1,0,0:0:0:0:
256,192,206438,1,8,0:0:0:0:
256,192,206488,1,8,0:0:0:0:
256,192,206538,1,0,0:0:0:0:
256,192,206638,1,0,0:0:0:0:
256,192,206738,1,8,0:0:0:0:
256,192,206788,1,8,0:0:0:0:
256,192,206838,1,0,0:0:0:0:
256,192,206888,1,0,0:0:0:0:
256,192,206938,1,8,0:0:0:0:
256,192,207038,1,0,0:0:0:0:
256,192,207138,1,0,0:0:0:0:
256,192,207238,1,8,0:0:0:0:
256,192,207288,1,8,0:0:0:0:
256,192,207338,1,8,0:0:0:0:
256,192,207438,1,0,0:0:0:0:
256,192,207538,1,8,0:0:0:0:
256,192,207638,1,0,0:0:0:0:
256,192,207738,1,8,0:0:0:0:
256,192,207788,1,8,0:0:0:0:
256,192,207838,1,8,0:0:0:0:
256,192,207888,1,8,0:0:0:0:
256,192,207938,1,0,0:0:0:0:
256,192,208038,1,8,0:0:0:0:
256,192,208088,1,8,0:0:0:0:
256,192,208138,1,0,0:0:0:0:
256,192,208188,1,8,0:0:0:0:
256,192,208238,1,0,0:0:0:0:
256,192,208288,1,0,0:0:0:0:
256,192,208338,1,8,0:0:0:0:
256,192,208438,1,0,0:0:0:0:
256,192,208538,1,8,0:0:0:0:
256,192,208638,1,0,0:0:0:0:
256,192,208738,1,0,0:0:0:0:
256,192,208838,1,8,0:0:0:0:
256,192,208888,1,8,0:0:0:0:
256,192,208938,1,0,0:0:0:0:
256,192,209038,1,0,0:0:0:0:
256,192,209138,1,8,0:0:0:0:
256,192,209238,1,0,0:0:0:0:
256,192,209338,1,8,0:0:0:0:
256,192,209388,1,8,0:0:0:0:
256,192,209438,1,8,0:0:0:0:
256,192,209488,1,8,0:0:0:0:
256,192,209538,1,0,0:0:0:0:
256,192,209638,1,8,0:0:0:0:
256,192,209688,1,8,0:0:0:0:
256,192,209738,1,0,0:0:0:0:
256,192,209838,1,0,0:0:0:0:
256,192,209938,1,8,0:0:0:0:
256,192,209988,1,8,0:0:0:0:
256,192,210038,1,0,0:0:0:0:
256,192,210088,1,0,0:0:0:0:
256,192,210138,1,8,0:0:0:0:
256,192,210238,1,8,0:0:0:0:
256,192,210288,1,8,0:0:0:0:
256,192,210338,1,0,0:0:0:0:
256,192,210438,1,0,0:0:0:0:
256,192,210538,1,8,0:0:0:0:
256,192,210588,1,8,0:0:0:0:
256,192,210638,1,0,0:0:0:0:
256,192,210688,1,0,0:0:0:0:
256,192,210738,1,8,0:0:0:0:
256,192,210838,1,0,0:0:0:0:
256,192,210938,1,8,0:0:0:0:
256,192,210988,1,0,0:0:0:0:
256,192,211038,1,8,0:0:0:0:
256,192,211088,1,8,0:0:0:0:
256,192,211138,1,0,0:0:0:0:
256,192,211238,1,0,0:0:0:0:
256,192,211338,1,8,0:0:0:0:
256,192,211388,1,8,0:0:0:0:
256,192,211438,1,8,0:0:0:0:
256,192,211488,1,8,0:0:0:0:
256,192,211538,1,0,0:0:0:0:
256,192,211588,1,0,0:0:0:0:
256,192,211638,1,0,0:0:0:0:
256,192,211688,1,0,0:0:0:0:
256,192,211738,1,8,0:0:0:0:
256,192,211838,1,0,0:0:0:0:
256,192,211938,1,8,0:0:0:0:
256,192,212038,1,0,0:0:0:0:
256,192,212088,1,0,0:0:0:0:
256,192,212138,1,8,0:0:0:0:
256,192,212238,1,0,0:0:0:0:
256,192,212338,1,8,0:0:0:0:
256,192,212438,1,0,0:0:0:0:
256,192,212538,1,8,0:0:0:0:
256,192,212588,1,8,0:0:0:0:
256,192,212638,1,8,0:0:0:0:
256,192,212688,1,8,0:0:0:0:
256,192,212738,1,0,0:0:0:0:
256,192,212838,1,8,0:0:0:0:
256,192,212888,1,8,0:0:0:0:
256,192,212938,1,0,0:0:0:0:
256,192,213038,1,0,0:0:0:0:
256,192,213138,1,8,0:0:0:0:
256,192,213188,1,8,0:0:0:0:
256,192,213238,1,0,0:0:0:0:
256,192,213288,1,0,0:0:0:0:
256,192,213338,1,8,0:0:0:0:
256,192,213438,1,0,0:0:0:0:
256,192,213538,1,0,0:0:0:0:
256,192,213638,1,8,0:0:0:0:
256,192,213688,1,8,0:0:0:0:
256,192,213738,1,8,0:0:0:0:
256,192,213838,1,0,0:0:0:0:
256,192,213938,1,8,0:0:0:0:
256,192,214038,1,0,0:0:0:0:
256,192,214138,1,8,0:0:0:0:
256,192,214188,1,8,0:0:0:0:
256,192,214238,1,8,0:0:0:0:
256,192,214288,1,8,0:0:0:0:
256,192,214338,1,0,0:0:0:0:
256,192,214438,1,8,0:0:0:0:
256,192,214488,1,8,0:0:0:0:
256,192,214538,1,0,0:0:0:0:
256,192,214588,1,0,0:0:0:0:
256,192,214638,1,0,0:0:0:0:
256,192,214688,1,0,0:0:0:0:
256,192,214738,1,8,0:0:0:0:
256,192,214838,1,0,0:0:0:0:
256,192,214938,1,8,0:0:0:0:
256,192,215038,1,0,0:0:0:0:
256,192,215088,1,0,0:0:0:0:
256,192,215138,1,8,0:0:0:0:
256,192,215238,1,8,0:0:0:0:
256,192,215338,1,0,0:0:0:0:
256,192,215438,1,0,0:0:0:0:
256,192,215538,1,8,0:0:0:0:
256,192,215588,1,8,0:0:0:0:
256,192,215638,1,0,0:0:0:0:
256,192,215688,1,0,0:0:0:0:
256,192,215738,1,8,0:0:0:0:
256,192,215838,1,0,0:0:0:0:
256,192,215938,1,8,0:0:0:0:
256,192,215988,1,8,0:0:0:0:
256,192,216038,1,0,0:0:0:0:
256,192,216088,1,0,0:0:0:0:
256,192,216138,1,0,0:0:0:0:
256,192,216238,1,0,0:0:0:0:
256,192,216338,1,8,0:0:0:0:
256,192,216388,1,8,0:0:0:0:
256,192,216438,1,0,0:0:0:0:
256,192,216488,1,0,0:0:0:0:
256,192,216538,1,8,0:0:0:0:
256,192,216638,1,8,0:0:0:0:
256,192,216688,1,8,0:0:0:0:
256,192,216738,1,0,0:0:0:0:
256,192,216838,1,0,0:0:0:0:
256,192,216938,1,8,0:0:0:0:
256,192,216988,1,8,0:0:0:0:
256,192,217038,1,0,0:0:0:0:
256,192,217138,1,8,0:0:0:0:
256,192,217188,1,8,0:0:0:0:
256,192,217238,1,0,0:0:0:0:
256,192,217288,1,0,0:0:0:0:
256,192,217338,1,8,0:0:0:0:
256,192,217388,1,8,0:0:0:0:
256,192,217438,1,8,0:0:0:0:
256,192,217488,1,8,0:0:0:0:
256,192,217538,1,0,0:0:0:0:
256,192,217588,1,0,0:0:0:0:
256,192,217638,1,0,0:0:0:0:
256,192,217688,1,0,0:0:0:0:
256,192,217738,1,8,0:0:0:0:
256,192,217788,1,8,0:0:0:0:
256,192,217838,1,8,0:0:0:0:
256,192,217888,1,8,0:0:0:0:
256,192,217938,1,0,0:0:0:0:
256,192,217988,1,0,0:0:0:0:
256,192,218038,1,0,0:0:0:0:
256,192,218088,1,0,0:0:0:0:
256,192,218138,1,12,0:0:0:0:
256,192,218338,1,0,0:0:0:0:
256,192,218438,1,0,0:0:0:0:
256,192,218488,1,0,0:0:0:0:
256,192,218538,1,8,0:0:0:0:
256,192,218638,1,0,0:0:0:0:
256,192,218738,1,8,0:0:0:0:
256,192,218838,1,0,0:0:0:0:
256,192,218938,1,8,0:0:0:0:
256,192,218988,1,8,0:0:0:0:
256,192,219038,1,8,0:0:0:0:
256,192,219088,1,8,0:0:0:0:
256,192,219138,1,0,0:0:0:0:
256,192,219238,1,8,0:0:0:0:
256,192,219288,1,8,0:0:0:0:
256,192,219338,1,0,0:0:0:0:
256,192,219438,1,0,0:0:0:0:
256,192,219538,1,8,0:0:0:0:
256,192,219588,1,8,0:0:0:0:
256,192,219638,1,0,0:0:0:0:
256,192,219688,1,0,0:0:0:0:
256,192,219738,1,8,0:0:0:0:
256,192,219838,1,0,0:0:0:0:
256,192,219938,1,0,0:0:0:0:
256,192,220038,1,8,0:0:0:0:
256,192,220088,1,8,0:0:0:0:
256,192,220138,1,8,0:0:0:0:
256,192,220238,1,0,0:0:0:0:
256,192,220338,1,8,0:0:0:0:
256,192,220438,1,0,0:0:0:0:
256,192,220538,1,8,0:0:0:0:
256,192,220588,1,8,0:0:0:0:
256,192,220638,1,8,0:0:0:0:
256,192,220688,1,8,0:0:0:0:
256,192,220738,1,0,0:0:0:0:
256,192,220838,1,8,0:0:0:0:
256,192,220888,1,8,0:0:0:0:
256,192,220938,1,0,0:0:0:0:
256,192,220988,1,8,0:0:0:0:
256,192,221038,1,0,0:0:0:0:
256,192,221088,1,0,0:0:0:0:
256,192,221138,1,8,0:0:0:0:
256,192,221238,1,0,0:0:0:0:
256,192,221338,1,8,0:0:0:0:
256,192,221438,1,0,0:0:0:0:
256,192,221538,1,0,0:0:0:0:
256,192,221638,1,8,0:0:0:0:
256,192,221688,1,8,0:0:0:0:
256,192,221738,1,0,0:0:0:0:
256,192,221838,1,0,0:0:0:0:
256,192,221938,1,8,0:0:0:0:
256,192,222038,1,0,0:0:0:0:
256,192,222138,1,8,0:0:0:0:
256,192,222188,1,8,0:0:0:0:
256,192,222238,1,8,0:0:0:0:
256,192,222288,1,8,0:0:0:0:
256,192,222338,1,0,0:0:0:0:
256,192,222438,1,8,0:0:0:0:
256,192,222488,1,8,0:0:0:0:
256,192,222538,1,0,0:0:0:0:
256,192,222638,1,0,0:0:0:0:
256,192,222738,1,8,0:0:0:0:
256,192,222788,1,8,0:0:0:0:
256,192,222838,1,0,0:0:0:0:
256,192,222888,1,0,0:0:0:0:
256,192,222938,1,8,0:0:0:0:
256,192,223038,1,8,0:0:0:0:
256,192,223088,1,8,0:0:0:0:
256,192,223138,1,0,0:0:0:0:
256,192,223238,1,0,0:0:0:0:
256,192,223338,1,8,0:0:0:0:
256,192,223388,1,8,0:0:0:0:
256,192,223438,1,0,0:0:0:0:
256,192,223488,1,0,0:0:0:0:
256,192,223538,1,8,0:0:0:0:
256,192,223638,1,0,0:0:0:0:
256,192,223738,1,8,0:0:0:0:
256,192,223788,1,0,0:0:0:0:
256,192,223838,1,8,0:0:0:0:
256,192,223888,1,8,0:0:0:0:
256,192,223938,1,0,0:0:0:0:
256,192,224038,1,0,0:0:0:0:
256,192,224138,1,8,0:0:0:0:
256,192,224188,1,8,0:0:0:0:
256,192,224238,1,8,0:0:0:0:
256,192,224288,1,8,0:0:0:0:
256,192,224338,1,0,0:0:0:0:
256,192,224388,1,0,0:0:0:0:
256,192,224438,1,0,0:0:0:0:
256,192,224488,1,0,0:0:0:0:
256,192,224538,1,8,0:0:0:0:
256,192,224638,1,0,0:0:0:0:
256,192,224738,1,8,0:0:0:0:
256,192,224838,1,0,0:0:0:0:
256,192,224888,1,0,0:0:0:0:
256,192,224938,1,8,0:0:0:0:
256,192,225038,1,0,0:0:0:0:
256,192,225138,1,8,0:0:0:0:
256,192,225188,1,0,0:0:0:0:
256,192,225238,1,0,0:0:0:0:
256,192,225338,1,8,0:0:0:0:
256,192,225388,1,8,0:0:0:0:
256,192,225438,1,8,0:0:0:0:
256,192,225488,1,8,0:0:0:0:
256,192,225538,1,0,0:0:0:0:
256,192,225638,1,8,0:0:0:0:
256,192,225688,1,8,0:0:0:0:
256,192,225738,1,0,0:0:0:0:
256,192,225838,1,0,0:0:0:0:
256,192,225938,1,8,0:0:0:0:
256,192,225988,1,8,0:0:0:0:
256,192,226038,1,0,0:0:0:0:
256,192,226088,1,0,0:0:0:0:
256,192,226138,1,8,0:0:0:0:
256,192,226238,1,0,0:0:0:0:
256,192,226338,1,0,0:0:0:0:
256,192,226438,1,8,0:0:0:0:
256,192,226488,1,8,0:0:0:0:
256,192,226538,1,8,0:0:0:0:
256,192,226638,1,0,0:0:0:0:
256,192,226738,1,8,0:0:0:0:
256,192,226788,1,0,0:0:0:0:
256,192,226838,1,0,0:0:0:0:
256,192,226938,1,8,0:0:0:0:
256,192,226988,1,8,0:0:0:0:
256,192,227038,1,8,0:0:0:0:
256,192,227088,1,8,0:0:0:0:
256,192,227138,1,0,0:0:0:0:
256,192,227238,1,8,0:0:0:0:
256,192,227288,1,8,0:0:0:0:
256,192,227338,1,0,0:0:0:0:
256,192,227388,1,0,0:0:0:0:
256,192,227438,1,8,0:0:0:0:
256,192,227488,1,0,0:0:0:0:
256,192,227538,1,8,0:0:0:0:
256,192,227638,1,0,0:0:0:0:
256,192,227738,1,8,0:0:0:0:
256,192,227788,1,8,0:0:0:0:
256,192,227838,1,0,0:0:0:0:
256,192,227888,1,0,0:0:0:0:
256,192,227938,1,8,0:0:0:0:
256,192,227988,1,8,0:0:0:0:
256,192,228038,1,0,0:0:0:0:
256,192,228088,1,0,0:0:0:0:
256,192,228138,1,8,0:0:0:0:
256,192,228188,1,8,0:0:0:0:
256,192,228238,1,8,0:0:0:0:
256,192,228288,1,8,0:0:0:0:
256,192,228338,1,0,0:0:0:0:
256,192,228388,1,8,0:0:0:0:
256,192,228438,1,0,0:0:0:0:
256,192,228488,1,0,0:0:0:0:
256,192,228538,1,8,0:0:0:0:
256,192,228588,1,8,0:0:0:0:
256,192,228638,1,0,0:0:0:0:
256,192,228688,1,0,0:0:0:0:
256,192,228738,1,8,0:0:0:0:
256,192,228788,1,8,0:0:0:0:
256,192,228838,1,0,0:0:0:0:
256,192,228888,1,0,0:0:0:0:
256,192,228938,1,8,0:0:0:0:
256,192,228988,1,8,0:0:0:0:
256,192,229038,1,8,0:0:0:0:
256,192,229088,1,8,0:0:0:0:
256,192,229138,1,0,0:0:0:0:
256,192,229188,1,0,0:0:0:0:
256,192,229238,1,8,0:0:0:0:
256,192,229288,1,8,0:0:0:0:
256,192,229338,1,0,0:0:0:0:
256,192,229388,1,8,0:0:0:0:
256,192,229438,1,0,0:0:0:0:
256,192,229488,1,0,0:0:0:0:
256,192,229538,1,8,0:0:0:0:
256,192,229588,1,8,0:0:0:0:
256,192,229638,1,0,0:0:0:0:
256,192,229688,1,8,0:0:0:0:
256,192,229738,1,0,0:0:0:0:
256,192,229788,1,0,0:0:0:0:
256,192,229838,1,0,0:0:0:0:
256,192,229888,1,0,0:0:0:0:
256,192,229938,1,8,0:0:0:0:
256,192,229988,1,8,0:0:0:0:
256,192,230038,1,0,0:0:0:0:
256,192,230088,1,0,0:0:0:0:
256,192,230138,1,8,0:0:0:0:
256,192,230188,1,8,0:0:0:0:
256,192,230238,1,0,0:0:0:0:
256,192,230288,1,0,0:0:0:0:
256,192,230338,1,0,0:0:0:0:
256,192,230388,1,0,0:0:0:0:
256,192,230438,1,8,0:0:0:0:
256,192,230488,1,8,0:0:0:0:
256,192,230538,1,0,0:0:0:0:
256,192,230588,1,0,0:0:0:0:
256,192,230638,1,0,0:0:0:0:
256,192,230688,1,0,0:0:0:0:
256,192,230738,1,8,0:0:0:0:
256,192,230788,1,8,0:0:0:0:
256,192,230838,1,8,0:0:0:0:
256,192,230888,1,8,0:0:0:0:
256,192,230938,1,4,0:0:0:0:
256,192,232282,1,4,0:0:0:0:
256,192,232489,1,4,0:0:0:0:
256,192,232593,1,4,0:0:0:0:
256,192,234248,1,4,0:0:0:0:
256,192,235593,1,4,0:0:0:0:
256,192,235800,1,4,0:0:0:0:
256,192,235903,1,4,0:0:0:0:
256,192,236731,1,4,0:0:0:0:
256,192,236834,1,0,0:0:0:0:
256,192,236938,1,0,0:0:0:0:
256,192,237041,1,0,0:0:0:0:
256,192,237144,1,8,0:0:0:0:
256,192,237196,1,8,0:0:0:0:
256,192,237248,1,8,0:0:0:0:
256,192,237300,1,8,0:0:0:0:
256,192,237351,1,0,0:0:0:0:
256,192,237403,1,0,0:0:0:0:
256,192,237455,1,8,0:0:0:0:
256,192,237506,1,8,0:0:0:0:
256,192,237558,1,4,0:0:0:0:
256,192,238950,1,4,0:0:0:0:
256,192,239165,1,4,0:0:0:0:
256,192,239272,1,4,0:0:0:0:
256,192,240986,1,4,0:0:0:0:
256,192,242379,1,4,0:0:0:0:
256,192,242593,1,4,0:0:0:0:
256,192,242700,1,4,0:0:0:0:
256,192,243558,1,4,0:0:0:0:
256,192,243665,1,0,0:0:0:0:
256,192,243772,1,0,0:0:0:0:
256,192,243879,1,0,0:0:0:0:
256,192,243986,1,8,0:0:0:0:
256,192,244040,1,8,0:0:0:0:
256,192,244093,1,0,0:0:0:0:
256,192,244147,1,0,0:0:0:0:
256,192,244200,1,8,0:0:0:0:
256,192,244254,1,8,0:0:0:0:
256,192,244308,1,8,0:0:0:0:
256,192,244361,1,8,0:0:0:0:
256,192,244415,1,4,0:0:0:0:
256,192,244637,1,8,0:0:0:0:
256,192,244859,1,8,0:0:0:0:
256,192,245081,1,0,0:0:0:0:
256,192,245303,1,8,0:0:0:0:
256,192,245526,1,8,0:0:0:0:
256,192,245748,1,0,0:0:0:0:
256,192,245970,1,8,0:0:0:0:
256,192,246081,1,8,0:0:0:0:
256,192,246192,1,0,0:0:0:0:
256,192,246415,1,8,0:0:0:0:
256,192,246637,1,0,0:0:0:0:
256,192,246859,1,8,0:0:0:0:
256,192,247081,1,8,0:0:0:0:
256,192,247303,1,0,0:0:0:0:
256,192,247526,1,8,0:0:0:0:
256,192,247748,1,8,0:0:0:0:
256,192,247803,1,8,0:0:0:0:
256,192,247859,1,8,0:0:0:0:
256,192,247915,1,8,0:0:0:0:
256,192,247970,1,0,0:0:0:0:
256,192,248192,1,8,0:0:0:0:
256,192,248415,1,8,0:0:0:0:
256,192,248637,1,0,0:0:0:0:
256,192,248859,1,8,0:0:0:0:
256,192,249081,1,8,0:0:0:0:
256,192,249303,1,0,0:0:0:0:
256,192,249526,1,8,0:0:0:0:
256,192,249637,1,8,0:0:0:0:
256,192,249748,1,0,0:0:0:0:
256,192,249970,1,8,0:0:0:0:
256,192,250192,1,0,0:0:0:0:
256,192,250415,1,8,0:0:0:0:
256,192,250637,1,8,0:0:0:0:
256,192,250859,1,0,0:0:0:0:
256,192,251081,1,8,0:0:0:0:
256,192,251303,1,8,0:0:0:0:
256,192,251359,1,8,0:0:0:0:
256,192,251415,1,8,0:0:0:0:
256,192,251470,1,8,0:0:0:0:
256,192,251526,1,4,0:0:0:0:
256,192,251748,1,8,0:0:0:0:
256,192,251970,1,8,0:0:0:0:
256,192,252192,1,0,0:0:0:0:
256,192,252415,1,8,0:0:0:0:
256,192,252637,1,8,0:0:0:0:
256,192,252859,1,0,0:0:0:0:
256,192,253081,1,8,0:0:0:0:
256,192,253192,1,8,0:0:0:0:
256,192,253303,1,0,0:0:0:0:
256,192,253526,1,8,0:0:0:0:
256,192,253748,1,0,0:0:0:0:
256,192,253970,1,8,0:0:0:0:
256,192,254192,1,8,0:0:0:0:
256,192,254415,1,0,0:0:0:0:
256,192,254637,1,8,0:0:0:0:
256,192,254859,1,8,0:0:0:0:
256,192,254915,1,8,0:0:0:0:
256,192,254970,1,8,0:0:0:0:
256,192,255026,1,8,0:0:0:0:
256,192,255081,1,0,0:0:0:0:
256,192,255303,1,8,0:0:0:0:
256,192,255526,1,8,0:0:0:0:
256,192,255748,1,0,0:0:0:0:
256,192,255970,1,8,0:0:0:0:
256,192,256192,1,8,0:0:0:0:
256,192,256415,1,0,0:0:0:0:
256,192,256637,1,8,0:0:0:0:
256,192,256748,1,8,0:0:0:0:
256,192,256859,1,0,0:0:0:0:
256,192,257081,1,8,0:0:0:0:
256,192,257303,1,0,0:0:0:0:
256,192,257526,1,8,0:0:0:0:
256,192,257748,1,8,0:0:0:0:
256,192,257970,1,0,0:0:0:0:
256,192,258192,1,8,0:0:0:0:
256,192,258415,1,8,0:0:0:0:
256,192,258470,1,8,0:0:0:0:
256,192,258526,1,8,0:0:0:0:
256,192,258581,1,8,0:0:0:0:
256,192,258637,1,4,0:0:0:0:
256,192,258859,1,8,0:0:0:0:
256,192,259081,1,8,0:0:0:0:
256,192,259303,1,0,0:0:0:0:
256,192,259415,1,0,0:0:0:0:
256,192,259526,1,8,0:0:0:0:
256,192,259748,1,8,0:0:0:0:
256,192,259970,1,0,0:0:0:0:
256,192,260081,1,0,0:0:0:0:
256,192,260192,1,8,0:0:0:0:
256,192,260303,1,8,0:0:0:0:
256,192,260414,1,0,0:0:0:0:
256,192,260637,1,8,0:0:0:0:
256,192,260859,1,0,0:0:0:0:
256,192,261081,1,8,0:0:0:0:
256,192,261192,1,8,0:0:0:0:
256,192,261303,1,8,0:0:0:0:
256,192,261526,1,0,0:0:0:0:
256,192,261748,1,8,0:0:0:0:
256,192,261970,1,8,0:0:0:0:
256,192,262026,1,8,0:0:0:0:
256,192,262081,1,8,0:0:0:0:
256,192,262137,1,8,0:0:0:0:
256,192,262192,1,0,0:0:0:0:
256,192,262415,1,8,0:0:0:0:
256,192,262637,1,8,0:0:0:0:
256,192,262859,1,0,0:0:0:0:
256,192,262970,1,0,0:0:0:0:
256,192,263081,1,8,0:0:0:0:
256,192,263303,1,8,0:0:0:0:
256,192,263526,1,0,0:0:0:0:
256,192,263637,1,0,0:0:0:0:
256,192,263748,1,8,0:0:0:0:
256,192,263859,1,8,0:0:0:0:
256,192,263970,1,0,0:0:0:0:
256,192,264192,1,8,0:0:0:0:
256,192,264415,1,0,0:0:0:0:
256,192,264637,1,8,0:0:0:0:
256,192,264748,1,0,0:0:0:0:
256,192,264859,1,8,0:0:0:0:
256,192,264970,1,8,0:0:0:0:
256,192,265081,1,0,0:0:0:0:
256,192,265303,1,8,0:0:0:0:
256,192,265526,1,8,0:0:0:0:
256,192,265581,1,8,0:0:0:0:
256,192,265637,1,8,0:0:0:0:
256,192,265692,1,8,0:0:0:0:
256,192,265748,1,4,0:0:0:0:
256,192,265970,1,8,0:0:0:0:
256,192,266192,1,8,0:0:0:0:
256,192,266415,1,0,0:0:0:0:
256,192,266526,1,0,0:0:0:0:
256,192,266637,1,8,0:0:0:0:
256,192,266859,1,8,0:0:0:0:
256,192,267081,1,0,0:0:0:0:
256,192,267192,1,0,0:0:0:0:
256,192,267303,1,8,0:0:0:0:
256,192,267415,1,8,0:0:0:0:
256,192,267526,1,0,0:0:0:0:
256,192,267748,1,8,0:0:0:0:
256,192,267970,1,0,0:0:0:0:
256,192,268192,1,8,0:0:0:0:
256,192,268415,1,8,0:0:0:0:
256,192,268637,1,0,0:0:0:0:
256,192,268859,1,8,0:0:0:0:
256,192,269081,1,8,0:0:0:0:
256,192,269137,1,8,0:0:0:0:
256,192,269192,1,8,0:0:0:0:
256,192,269248,1,8,0:0:0:0:
256,192,269303,1,4,0:0:0:0:
256,192,269415,1,0,0:0:0:0:
256,192,269526,1,8,0:0:0:0:
256,192,269637,1,8,0:0:0:0:
256,192,269748,1,0,0:0:0:0:
256,192,269859,1,8,0:0:0:0:
256,192,269970,1,0,0:0:0:0:
256,192,270081,1,0,0:0:0:0:
256,192,270137,1,0,0:0:0:0:
256,192,270192,1,8,0:0:0:0:
256,192,270303,1,0,0:0:0:0:
256,192,270415,1,0,0:0:0:0:
256,192,270526,1,0,0:0:0:0:
256,192,270637,1,8,0:0:0:0:
256,192,270692,1,8,0:0:0:0:
256,192,270748,1,0,0:0:0:0:
256,192,270803,1,0,0:0:0:0:
256,192,270859,1,8,0:0:0:0:
256,192,270970,1,0,0:0:0:0:
256,192,271081,1,8,0:0:0:0:
256,192,271192,1,0,0:0:0:0:
256,192,271303,1,8,0:0:0:0:
256,192,271359,1,8,0:0:0:0:
256,192,271415,1,8,0:0:0:0:
256,192,271470,1,8,0:0:0:0:
256,192,271526,1,0,0:0:0:0:
256,192,271637,1,0,0:0:0:0:
256,192,271748,1,8,0:0:0:0:
256,192,271803,1,8,0:0:0:0:
256,192,271859,1,0,0:0:0:0:
256,192,271915,1,0,0:0:0:0:
256,192,271970,1,8,0:0:0:0:
256,192,272026,1,8,0:0:0:0:
256,192,272081,1,8,0:0:0:0:
256,192,272137,1,8,0:0:0:0:
256,192,272192,1,0,0:0:0:0:
256,192,272248,1,0,0:0:0:0:
256,192,272303,1,0,0:0:0:0:
256,192,272359,1,0,0:0:0:0:
256,192,272415,1,8,0:0:0:0:
256,192,272526,1,0,0:0:0:0:
256,192,272637,1,8,0:0:0:0:
256,192,272748,1,0,0:0:0:0:
256,192,272859,1,12,0:0:0:0:
256,192,273303,1,8,0:0:0:0:
256,192,273747,1,0,0:0:0:0:
256,192,274192,1,8,0:0:0:0:
256,192,274636,1,0,0:0:0:0:
256,192,275081,1,8,0:0:0:0:
256,192,275970,1,8,0:0:0:0:
256,192,276192,1,8,0:0:0:0:
256,192,276414,1,0,0:0:0:0:
256,192,276636,1,0,0:0:0:0:
256,192,276859,1,8,0:0:0:0:
256,192,277081,1,8,0:0:0:0:
256,192,277303,1,0,0:0:0:0:
256,192,277525,1,8,0:0:0:0:
256,192,277747,1,8,0:0:0:0:
256,192,277970,1,0,0:0:0:0:
256,192,278192,1,8,0:0:0:0:
256,192,278636,1,0,0:0:0:0:
256,192,279081,1,8,0:0:0:0:
256,192,279525,1,0,0:0:0:0:
256,192,279970,1,8,0:0:0:0:
256,192,280859,1,8,0:0:0:0:
256,192,281081,1,8,0:0:0:0:
256,192,281303,1,0,0:0:0:0:
256,192,281525,1,8,0:0:0:0:
256,192,281747,1,0,0:0:0:0:
256,192,282192,1,8,0:0:0:0:
256,192,282340,1,0,0:0:0:0:
256,192,282488,1,8,0:0:0:0:
256,192,282636,1,0,0:0:0:0:
256,192,283081,1,0,0:0:0:0:
256,192,283303,1,0,0:0:0:0:
256,192,283525,1,8,0:0:0:0:
256,192,284192,1,8,0:0:0:0:
256,192,284859,1,8,0:0:0:0:
256,192,285081,1,8,0:0:0:0:
256,192,285303,1,0,0:0:0:0:
256,192,285747,1,8,0:0:0:0:
256,192,286192,1,0,0:0:0:0:
256,192,287081,1,12,0:0:0:0:
256,192,287303,1,8,0:0:0:0:
256,192,287525,1,0,0:0:0:0:
256,192,287747,1,8,0:0:0:0:
256,192,287859,1,8,0:0:0:0:
256,192,287970,1,0,0:0:0:0:
256,192,288192,1,0,0:0:0:0:
256,192,288303,1,0,0:0:0:0:
256,192,288414,1,8,0:0:0:0:
256,192,288636,1,8,0:0:0:0:
256,192,288747,1,8,0:0:0:0:
256,192,288859,1,0,0:0:0:0:
256,192,288970,1,0,0:0:0:0:
256,192,289081,1,0,0:0:0:0:
256,192,289303,1,0,0:0:0:0:
256,192,289525,1,8,0:0:0:0:
256,192,289747,1,0,0:0:0:0:
256,192,289970,1,0,0:0:0:0:
256,192,290081,1,0,0:0:0:0:
256,192,290192,1,8,0:0:0:0:
256,192,290414,1,8,0:0:0:0:
256,192,290525,1,8,0:0:0:0:
256,192,290636,1,0,0:0:0:0:
256,192,290747,1,0,0:0:0:0:
256,192,290859,1,0,0:0:0:0:
256,192,291081,1,0,0:0:0:0:
256,192,291303,1,8,0:0:0:0:
256,192,291525,1,0,0:0:0:0:
256,192,291747,1,0,0:0:0:0:
256,192,291859,1,0,0:0:0:0:
256,192,291970,1,8,0:0:0:0:
256,192,292192,1,0,0:0:0:0:
256,192,292303,1,8,0:0:0:0:
256,192,292414,1,0,0:0:0:0:
256,192,292525,1,0,0:0:0:0:
256,192,292636,1,8,0:0:0:0:
256,192,292747,1,8,0:0:0:0:
256,192,292859,1,0,0:0:0:0:
256,192,293081,1,8,0:0:0:0:
256,192,293192,1,8,0:0:0:0:
256,192,293303,1,0,0:0:0:0:
256,192,293414,1,0,0:0:0:0:
256,192,293525,1,0,0:0:0:0:
256,192,293747,1,0,0:0:0:0:
256,192,293970,1,8,0:0:0:0:
256,192,294192,1,8,0:0:0:0:
256,192,294303,1,0,0:0:0:0:
256,192,294414,1,0,0:0:0:0:
256,192,294525,1,0,0:0:0:0:
256,192,294636,1,8,0:0:0:0:
256,192,294859,1,0,0:0:0:0:
256,192,295081,1,8,0:0:0:0:
256,192,295192,1,8,0:0:0:0:
256,192,295303,1,0,0:0:0:0:
256,192,295414,1,0,0:0:0:0:
256,192,295525,1,8,0:0:0:0:
256,192,295747,1,8,0:0:0:0:
256,192,295859,1,0,0:0:0:0:
256,192,295970,1,0,0:0:0:0:
256,192,296192,1,0,0:0:0:0:
256,192,296414,1,8,0:0:0:0:
256,192,296562,1,0,0:0:0:0:
256,192,296710,1,8,0:0:0:0:
256,192,296859,1,0,0:0:0:0:
256,192,297081,1,0,0:0:0:0:
256,192,297192,1,0,0:0:0:0:
256,192,297303,1,8,0:0:0:0:
256,192,297525,1,0,0:0:0:0:
256,192,297747,1,8,0:0:0:0:
256,192,297859,1,0,0:0:0:0:
256,192,297970,1,8,0:0:0:0:
256,192,298081,1,8,0:0:0:0:
256,192,298192,1,0,0:0:0:0:
256,192,298303,1,0,0:0:0:0:
256,192,298414,1,8,0:0:0:0:
256,192,298525,1,8,0:0:0:0:
256,192,298636,1,0,0:0:0:0:
256,192,298747,1,0,0:0:0:0:
256,192,298859,1,8,0:0:0:0:
256,192,298970,1,0,0:0:0:0:
256,192,299081,1,8,0:0:0:0:
256,192,299192,1,0,0:0:0:0:
256,192,299303,1,0,0:0:0:0:
256,192,299414,1,0,0:0:0:0:
256,192,299525,1,12,0:0:0:0:
256,192,299859,1,12,0:0:0:0:
256,192,300192,1,12,0:0:0:0:
256,192,300525,1,12,0:0:0:0:
256,192,300859,1,12,0:0:0:0:
256,192,301303,1,4,0:0:0:0:
256,192,301503,8,0,303703,0:0:0:0:
256,192,304503,5,12,0:0:0:0:
256,192,304703,1,0,0:0:0:0:
256,192,304803,1,0,0:0:0:0:
256,192,304853,1,0,0:0:0:0:
256,192,304903,1,8,0:0:0:0:
256,192,305003,1,0,0:0:0:0:
256,192,305053,1,0,0:0:0:0:
256,192,305103,1,8,0:0:0:0:
256,192,305203,1,0,0:0:0:0:
256,192,305303,1,8,0:0:0:0:
256,192,305353,1,8,0:0:0:0:
256,192,305403,1,8,0:0:0:0:
256,192,305453,1,8,0:0:0:0:
256,192,305503,1,0,0:0:0:0:
256,192,305603,1,8,0:0:0:0:
256,192,305653,1,8,0:0:0:0:
256,192,305703,1,0,0:0:0:0:
256,192,305803,1,0,0:0:0:0:
256,192,305903,1,8,0:0:0:0:
256,192,305953,1,8,0:0:0:0:
256,192,306003,1,0,0:0:0:0:
256,192,306053,1,0,0:0:0:0:
256,192,306103,1,8,0:0:0:0:
256,192,306203,1,0,0:0:0:0:
256,192,306303,1,0,0:0:0:0:
256,192,306403,1,8,0:0:0:0:
256,192,306453,1,8,0:0:0:0:
256,192,306503,1,8,0:0:0:0:
256,192,306603,1,0,0:0:0:0:
256,192,306653,1,0,0:0:0:0:
256,192,306703,1,8,0:0:0:0:
256,192,306803,1,0,0:0:0:0:
256,192,306903,1,8,0:0:0:0:
256,192,306953,1,0,0:0:0:0:
256,192,307003,1,8,0:0:0:0:
256,192,307053,1,8,0:0:0:0:
256,192,307103,1,0,0:0:0:0:
256,192,307203,1,8,0:0:0:0:
256,192,307253,1,8,0:0:0:0:
256,192,307303,1,0,0:0:0:0:
256,192,307403,1,0,0:0:0:0:
256,192,307503,1,8,0:0:0:0:
256,192,307553,1,8,0:0:0:0:
256,192,307603,1,0,0:0:0:0:
256,192,307653,1,0,0:0:0:0:
256,192,307703,1,8,0:0:0:0:
256,192,307803,1,0,0:0:0:0:
256,192,307903,1,0,0:0:0:0:
256,192,308003,1,8,0:0:0:0:
256,192,308053,1,8,0:0:0:0:
256,192,308103,1,0,0:0:0:0:
256,192,308203,1,0,0:0:0:0:
256,192,308253,1,0,0:0:0:0:
256,192,308303,1,8,0:0:0:0:
256,192,308403,1,0,0:0:0:0:
256,192,308503,1,8,0:0:0:0:
256,192,308553,1,8,0:0:0:0:
256,192,308603,1,8,0:0:0:0:
256,192,308653,1,8,0:0:0:0:
256,192,308703,1,0,0:0:0:0:
256,192,308803,1,8,0:0:0:0:
256,192,308853,1,8,0:0:0:0:
256,192,308903,1,0,0:0:0:0:
256,192,309003,1,0,0:0:0:0:
256,192,309103,1,8,0:0:0:0:
256,192,309153,1,8,0:0:0:0:
256,192,309203,1,0,0:0:0:0:
256,192,309253,1,0,0:0:0:0:
256,192,309303,1,8,0:0:0:0:
256,192,309503,1,8,0:0:0:0:
256,192,309603,1,0,0:0:0:0:
256,192,309803,1,0,0:0:0:0:
256,192,309903,1,8,0:0:0:0:
256,192,310003,1,0,0:0:0:0:
256,192,310053,1,0,0:0:0:0:
256,192,310103,1,8,0:0:0:0:
256,192,310153,1,8,0:0:0:0:
256,192,310203,1,8,0:0:0:0:
256,192,310303,1,0,0:0:0:0:
256,192,310403,1,0,0:0:0:0:
256,192,310503,1,8,0:0:0:0:
256,192,310553,1,8,0:0:0:0:
256,192,310603,1,8,0:0:0:0:
256,192,310653,1,8,0:0:0:0:
256,192,310703,1,0,0:0:0:0:
256,192,310753,1,0,0:0:0:0:
256,192,310803,1,0,0:0:0:0:
256,192,310853,1,0,0:0:0:0:
256,192,310903,1,8,0:0:0:0:
256,192,311003,1,0,0:0:0:0:
256,192,311103,1,8,0:0:0:0:
256,192,311203,1,0,0:0:0:0:
256,192,311253,1,0,0:0:0:0:
256,192,311303,1,8,0:0:0:0:
256,192,311403,1,0,0:0:0:0:
256,192,311453,1,0,0:0:0:0:
256,192,311503,1,8,0:0:0:0:
256,192,311603,1,0,0:0:0:0:
256,192,311703,1,8,0:0:0:0:
256,192,311753,1,8,0:0:0:0:
256,192,311803,1,8,0:0:0:0:
256,192,311853,1,8,0:0:0:0:
256,192,311903,1,0,0:0:0:0:
256,192,312003,1,8,0:0:0:0:
256,192,312053,1,8,0:0:0:0:
256,192,312103,1,0,0:0:0:0:
256,192,312203,1,0,0:0:0:0:
256,192,312303,1,8,0:0:0:0:
256,192,312353,1,8,0:0:0:0:
256,192,312403,1,0,0:0:0:0:
256,192,312453,1,0,0:0:0:0:
256,192,312503,1,8,0:0:0:0:
256,192,312603,1,0,0:0:0:0:
256,192,312703,1,0,0:0:0:0:
256,192,312803,1,8,0:0:0:0:
256,192,312853,1,8,0:0:0:0:
256,192,312903,1,8,0:0:0:0:
256,192,313003,1,0,0:0:0:0:
256,192,313053,1,0,0:0:0:0:
256,192,313103,1,8,0:0:0:0:
256,192,313203,1,0,0:0:0:0:
256,192,313303,1,8,0:0:0:0:
256,192,313353,1,0,0:0:0:0:
256,192,313403,1,8,0:0:0:0:
256,192,313453,1,8,0:0:0:0:
256,192,313503,1,0,0:0:0:0:
256,192,313603,1,8,0:0:0:0:
256,192,313653,1,8,0:0:0:0:
256,192,313703,1,0,0:0:0:0:
256,192,313803,1,0,0:0:0:0:
256,192,313903,1,8,0:0:0:0:
256,192,313953,1,8,0:0:0:0:
256,192,314003,1,0,0:0:0:0:
256,192,314053,1,0,0:0:0:0:
256,192,314103,1,8,0:0:0:0:
256,192,314203,1,0,0:0:0:0:
256,192,314253,1,0,0:0:0:0:
256,192,314303,1,8,0:0:0:0:
256,192,314353,1,8,0:0:0:0:
256,192,314403,1,8,0:0:0:0:
256,192,314503,1,0,0:0:0:0:
256,192,314603,1,0,0:0:0:0:
256,192,314703,1,8,0:0:0:0:
256,192,314753,1,8,0:0:0:0:
256,192,314803,1,0,0:0:0:0:
256,192,314853,1,0,0:0:0:0:
256,192,314903,1,8,0:0:0:0:
256,192,315003,1,0,0:0:0:0:
256,192,315053,1,0,0:0:0:0:
256,192,315103,1,8,0:0:0:0:
256,192,315203,1,0,0:0:0:0:
256,192,315303,1,8,0:0:0:0:
256,192,315353,1,8,0:0:0:0:
256,192,315403,1,0,0:0:0:0:
256,192,315503,1,8,0:0:0:0:
256,192,315603,1,0,0:0:0:0:
256,192,315653,1,0,0:0:0:0:
256,192,315703,1,8,0:0:0:0:
256,192,315803,1,0,0:0:0:0:
256,192,315903,1,8,0:0:0:0:
256,192,316003,1,0,0:0:0:0:
256,192,316203,1,0,0:0:0:0:
256,192,316303,1,8,0:0:0:0:
256,192,316403,1,0,0:0:0:0:
256,192,316503,1,8,0:0:0:0:
256,192,316553,1,8,0:0:0:0:
256,192,316603,1,8,0:0:0:0:
256,192,316703,1,0,0:0:0:0:
256,192,316803,1,0,0:0:0:0:
256,192,316903,1,8,0:0:0:0:
256,192,316953,1,8,0:0:0:0:
256,192,317003,1,8,0:0:0:0:
256,192,317053,1,8,0:0:0:0:
256,192,317103,1,0,0:0:0:0:
256,192,317153,1,0,0:0:0:0:
256,192,317203,1,0,0:0:0:0:
256,192,317253,1,0,0:0:0:0:
256,192,317303,1,12,0:0:0:0:
256,192,317503,1,0,0:0:0:0:
256,192,317603,1,0,0:0:0:0:
256,192,317653,1,0,0:0:0:0:
256,192,317703,1,8,0:0:0:0:
256,192,317803,1,0,0:0:0:0:
256,192,317853,1,0,0:0:0:0:
256,192,317903,1,8,0:0:0:0:
256,192,318003,1,0,0:0:0:0:
256,192,318103,1,8,0:0:0:0:
256,192,318153,1,8,0:0:0:0:
256,192,318203,1,8,0:0:0:0:
256,192,318253,1,8,0:0:0:0:
256,192,318303,1,0,0:0:0:0:
256,192,318403,1,8,0:0:0:0:
256,192,318453,1,8,0:0:0:0:
256,192,318503,1,0,0:0:0:0:
256,192,318603,1,0,0:0:0:0:
256,192,318703,1,8,0:0:0:0:
256,192,318753,1,8,0:0:0:0:
256,192,318803,1,0,0:0:0:0:
256,192,318853,1,0,0:0:0:0:
256,192,318903,1,8,0:0:0:0:
256,192,319003,1,0,0:0:0:0:
256,192,319103,1,0,0:0:0:0:
256,192,319203,1,8,0:0:0:0:
256,192,319253,1,8,0:0:0:0:
256,192,319303,1,8,0:0:0:0:
256,192,319403,1,0,0:0:0:0:
256,192,319453,1,0,0:0:0:0:
256,192,319503,1,8,0:0:0:0:
256,192,319603,1,0,0:0:0:0:
256,192,319703,1,8,0:0:0:0:
256,192,319753,1,8,0:0:0:0:
256,192,319803,1,8,0:0:0:0:
256,192,319853,1,8,0:0:0:0:
256,192,319903,1,0,0:0:0:0:
256,192,320003,1,8,0:0:0:0:
256,192,320053,1,8,0:0:0:0:
256,192,320103,1,0,0:0:0:0:
256,192,320203,1,0,0:0:0:0:
256,192,320303,1,8,0:0:0:0:
256,192,320353,1,8,0:0:0:0:
256,192,320403,1,0,0:0:0:0:
256,192,320453,1,0,0:0:0:0:
256,192,320503,1,8,0:0:0:0:
256,192,320603,1,0,0:0:0:0:
256,192,320703,1,0,0:0:0:0:
256,192,320803,1,8,0:0:0:0:
256,192,320853,1,8,0:0:0:0:
256,192,320903,1,0,0:0:0:0:
256,192,321003,1,0,0:0:0:0:
256,192,321053,1,0,0:0:0:0:
256,192,321103,1,8,0:0:0:0:
256,192,321203,1,0,0:0:0:0:
256,192,321303,1,8,0:0:0:0:
256,192,321353,1,8,0:0:0:0:
256,192,321403,1,8,0:0:0:0:
256,192,321453,1,8,0:0:0:0:
256,192,321503,1,0,0:0:0:0:
256,192,321603,1,8,0:0:0:0:
256,192,321653,1,8,0:0:0:0:
256,192,321703,1,0,0:0:0:0:
256,192,321803,1,0,0:0:0:0:
256,192,321903,1,8,0:0:0:0:
256,192,321953,1,8,0:0:0:0:
256,192,322003,1,0,0:0:0:0:
256,192,322053,1,0,0:0:0:0:
256,192,322103,1,8,0:0:0:0:
256,192,322303,1,8,0:0:0:0:
256,192,322403,1,0,0:0:0:0:
256,192,322603,1,0,0:0:0:0:
256,192,322703,1,8,0:0:0:0:
256,192,322803,1,0,0:0:0:0:
256,192,322853,1,0,0:0:0:0:
256,192,322903,1,8,0:0:0:0:
256,192,322953,1,8,0:0:0:0:
256,192,323003,1,8,0:0:0:0:
256,192,323103,1,0,0:0:0:0:
256,192,323203,1,0,0:0:0:0:
256,192,323303,1,8,0:0:0:0:
256,192,323353,1,8,0:0:0:0:
256,192,323403,1,8,0:0:0:0:
256,192,323453,1,8,0:0:0:0:
256,192,323503,1,0,0:0:0:0:
256,192,323553,1,0,0:0:0:0:
256,192,323603,1,0,0:0:0:0:
256,192,323653,1,0,0:0:0:0:
256,192,323703,1,8,0:0:0:0:
256,192,323803,1,0,0:0:0:0:
256,192,323903,1,8,0:0:0:0:
256,192,324003,1,0,0:0:0:0:
256,192,324053,1,0,0:0:0:0:
256,192,324103,1,8,0:0:0:0:
256,192,324203,1,0,0:0:0:0:
256,192,324253,1,0,0:0:0:0:
256,192,324303,1,8,0:0:0:0:
256,192,324403,1,0,0:0:0:0:
256,192,324503,1,8,0:0:0:0:
256,192,324553,1,8,0:0:0:0:
256,192,324603,1,8,0:0:0:0:
256,192,324653,1,8,0:0:0:0:
256,192,324703,1,0,0:0:0:0:
256,192,324803,1,8,0:0:0:0:
256,192,324853,1,8,0:0:0:0:
256,192,324903,1,0,0:0:0:0:
256,192,325003,1,0,0:0:0:0:
256,192,325103,1,8,0:0:0:0:
256,192,325153,1,8,0:0:0:0:
256,192,325203,1,0,0:0:0:0:
256,192,325253,1,0,0:0:0:0:
256,192,325303,1,8,0:0:0:0:
256,192,325403,1,0,0:0:0:0:
256,192,325503,1,8,0:0:0:0:
256,192,325603,1,0,0:0:0:0:
256,192,325653,1,0,0:0:0:0:
256,192,325703,1,8,0:0:0:0:
256,192,325803,1,0,0:0:0:0:
256,192,325853,1,0,0:0:0:0:
256,192,325903,1,8,0:0:0:0:
256,192,326003,1,0,0:0:0:0:
256,192,326103,1,8,0:0:0:0:
256,192,326153,1,8,0:0:0:0:
256,192,326203,1,8,0:0:0:0:
256,192,326253,1,8,0:0:0:0:
256,192,326303,1,0,0:0:0:0:
256,192,326403,1,8,0:0:0:0:
256,192,326453,1,8,0:0:0:0:
256,192,326503,1,0,0:0:0:0:
256,192,326603,1,0,0:0:0:0:
256,192,326703,1,8,0:0:0:0:
256,192,326753,1,8,0:0:0:0:
256,192,326803,1,0,0:0:0:0:
256,192,326853,1,0,0:0:0:0:
256,192,326903,1,8,0:0:0:0:
256,192,327003,1,0,0:0:0:0:
256,192,327053,1,0,0:0:0:0:
256,192,327103,1,8,0:0:0:0:
256,192,327203,1,8,0:0:0:0:
256,192,327303,1,0,0:0:0:0:
256,192,327353,1,0,0:0:0:0:
256,192,327403,1,0,0:0:0:0:
256,192,327503,1,8,0:0:0:0:
256,192,327553,1,8,0:0:0:0:
256,192,327603,1,0,0:0:0:0:
256,192,327653,1,0,0:0:0:0:
256,192,327703,1,8,0:0:0:0:
256,192,327753,1,8,0:0:0:0:
256,192,327803,1,8,0:0:0:0:
256,192,327853,1,8,0:0:0:0:
256,192,327903,1,0,0:0:0:0:
256,192,328003,1,8,0:0:0:0:
256,192,328053,1,8,0:0:0:0:
256,192,328103,1,0,0:0:0:0:
256,192,328203,1,0,0:0:0:0:
256,192,328303,1,8,0:0:0:0:
256,192,328353,1,8,0:0:0:0:
256,192,328403,1,0,0:0:0:0:
256,192,328453,1,0,0:0:0:0:
256,192,328503,1,8,0:0:0:0:
256,192,328603,1,0,0:0:0:0:
256,192,328703,1,8,0:0:0:0:
256,192,328753,1,0,0:0:0:0:
256,192,328803,1,8,0:0:0:0:
256,192,328853,1,8,0:0:0:0:
256,192,328903,1,0,0:0:0:0:
256,192,329003,1,0,0:0:0:0:
256,192,329103,1,8,0:0:0:0:
256,192,329153,1,8,0:0:0:0:
256,192,329203,1,8,0:0:0:0:
256,192,329253,1,8,0:0:0:0:
256,192,329303,1,0,0:0:0:0:
256,192,329353,1,0,0:0:0:0:
256,192,329403,1,8,0:0:0:0:
256,192,329503,1,0,0:0:0:0:
256,192,329603,1,0,0:0:0:0:
256,192,329703,1,8,0:0:0:0:
256,192,329753,1,8,0:0:0:0:
256,192,329803,1,8,0:0:0:0:
256,192,329853,1,8,0:0:0:0:
256,192,329903,1,0,0:0:0:0:
256,192,329953,1,0,0:0:0:0:
256,192,330003,1,0,0:0:0:0:
256,192,330053,1,0,0:0:0:0:
256,192,330103,1,12,0:0:0:0:
256,192,330290,1,8,0:0:0:0:
256,192,330384,1,0,0:0:0:0:
256,192,330431,1,0,0:0:0:0:
256,192,330478,1,8,0:0:0:0:
256,192,330571,1,0,0:0:0:0:
256,192,330618,1,0,0:0:0:0:
256,192,330665,1,8,0:0:0:0:
256,192,330759,1,0,0:0:0:0:
256,192,330806,1,0,0:0:0:0:
256,192,330853,1,8,0:0:0:0:
256,192,330899,1,8,0:0:0:0:
256,192,330946,1,8,0:0:0:0:
256,192,331040,1,0,0:0:0:0:
256,192,331134,1,8,0:0:0:0:
256,192,331181,1,8,0:0:0:0:
256,192,331228,1,0,0:0:0:0:
256,192,331321,1,0,0:0:0:0:
256,192,331415,1,8,0:0:0:0:
256,192,331462,1,8,0:0:0:0:
256,192,331509,1,8,0:0:0:0:
256,192,331556,1,8,0:0:0:0:
256,192,331603,1,0,0:0:0:0:
256,192,331696,1,0,0:0:0:0:
256,192,331790,1,8,0:0:0:0:
256,192,331837,1,8,0:0:0:0:
256,192,331884,1,0,0:0:0:0:
256,192,331931,1,0,0:0:0:0:
256,192,331978,1,8,0:0:0:0:
256,192,332071,1,0,0:0:0:0:
256,192,332118,1,0,0:0:0:0:
256,192,332165,1,8,0:0:0:0:
256,192,332259,1,0,0:0:0:0:
256,192,332306,1,0,0:0:0:0:
256,192,332353,1,8,0:0:0:0:
256,192,332399,1,8,0:0:0:0:
256,192,332446,1,8,0:0:0:0:
256,192,332540,1,0,0:0:0:0:
256,192,332634,1,8,0:0:0:0:
256,192,332681,1,8,0:0:0:0:
256,192,332728,1,0,0:0:0:0:
256,192,332774,1,8,0:0:0:0:
256,192,332821,1,0,0:0:0:0:
256,192,332868,1,0,0:0:0:0:
256,192,332915,1,8,0:0:0:0:
256,192,333009,1,0,0:0:0:0:
256,192,333103,1,8,0:0:0:0:
256,192,333149,1,8,0:0:0:0:
256,192,333196,1,0,0:0:0:0:
256,192,333243,1,0,0:0:0:0:
256,192,333290,1,8,0:0:0:0:
256,192,333384,1,0,0:0:0:0:
256,192,333478,1,8,0:0:0:0:
256,192,333524,1,8,0:0:0:0:
256,192,333571,1,8,0:0:0:0:
256,192,333618,1,8,0:0:0:0:
256,192,333665,1,0,0:0:0:0:
256,192,333759,1,0,0:0:0:0:
256,192,333853,1,8,0:0:0:0:
256,192,333899,1,8,0:0:0:0:
256,192,333946,1,0,0:0:0:0:
256,192,334040,1,0,0:0:0:0:
256,192,334134,1,8,0:0:0:0:
256,192,334181,1,8,0:0:0:0:
256,192,334228,1,0,0:0:0:0:
256,192,334321,1,0,0:0:0:0:
256,192,334415,1,8,0:0:0:0:
256,192,334462,1,8,0:0:0:0:
256,192,334509,1,8,0:0:0:0:
256,192,334556,1,8,0:0:0:0:
256,192,334603,1,0,0:0:0:0:
256,192,334696,1,8,0:0:0:0:
256,192,334790,1,0,0:0:0:0:
256,192,334884,1,8,0:0:0:0:
256,192,334931,1,8,0:0:0:0:
256,192,334978,1,0,0:0:0:0:
256,192,335024,1,0,0:0:0:0:
256,192,335071,1,8,0:0:0:0:
256,192,335118,1,0,0:0:0:0:
256,192,335165,1,8,0:0:0:0:
256,192,335212,1,8,0:0:0:0:
256,192,335259,1,0,0:0:0:0:
256,192,335353,1,8,0:0:0:0:
256,192,335399,1,8,0:0:0:0:
256,192,335446,1,8,0:0:0:0:
256,192,335493,1,8,0:0:0:0:
256,192,335540,1,0,0:0:0:0:
256,192,335634,1,0,0:0:0:0:
256,192,335728,1,8,0:0:0:0:
256,192,335774,1,8,0:0:0:0:
256,192,335821,1,8,0:0:0:0:
256,192,335868,1,8,0:0:0:0:
256,192,335915,1,0,0:0:0:0:
256,192,335962,1,0,0:0:0:0:
256,192,336009,1,0,0:0:0:0:
256,192,336056,1,0,0:0:0:0:
256,192,336103,1,8,0:0:0:0:
256,192,336196,1,0,0:0:0:0:
256,192,336290,1,8,0:0:0:0:
256,192,336337,1,8,0:0:0:0:
256,192,336384,1,0,0:0:0:0:
256,192,336478,1,8,0:0:0:0:
256,192,336571,1,0,0:0:0:0:
256,192,336618,1,0,0:0:0:0:
256,192,336665,1,8,0:0:0:0:
256,192,336759,1,0,0:0:0:0:
256,192,336853,1,8,0:0:0:0:
256,192,336899,1,8,0:0:0:0:
256,192,336946,1,8,0:0:0:0:
256,192,336993,1,8,0:0:0:0:
256,192,337040,1,0,0:0:0:0:
256,192,337134,1,8,0:0:0:0:
256,192,337181,1,8,0:0:0:0:
256,192,337228,1,0,0:0:0:0:
256,192,337321,1,0,0:0:0:0:
256,192,337415,1,8,0:0:0:0:
256,192,337462,1,8,0:0:0:0:
256,192,337509,1,8,0:0:0:0:
256,192,337556,1,8,0:0:0:0:
256,192,337603,1,0,0:0:0:0:
256,192,337696,1,0,0:0:0:0:
256,192,337790,1,8,0:0:0:0:
256,192,337837,1,8,0:0:0:0:
256,192,337884,1,0,0:0:0:0:
256,192,337931,1,0,0:0:0:0:
256,192,337978,1,8,0:0:0:0:
256,192,338071,1,0,0:0:0:0:
256,192,338118,1,0,0:0:0:0:
256,192,338165,1,8,0:0:0:0:
256,192,338259,1,0,0:0:0:0:
256,192,338353,1,8,0:0:0:0:
256,192,338399,1,8,0:0:0:0:
256,192,338446,1,8,0:0:0:0:
256,192,338493,1,8,0:0:0:0:
256,192,338540,1,0,0:0:0:0:
256,192,338634,1,0,0:0:0:0:
256,192,338728,1,8,0:0:0:0:
256,192,338774,1,8,0:0:0:0:
256,192,338821,1,0,0:0:0:0:
256,192,338868,1,0,0:0:0:0:
256,192,338915,1,8,0:0:0:0:
256,192,338962,1,0,0:0:0:0:
256,192,339009,1,8,0:0:0:0:
256,192,339056,1,8,0:0:0:0:
256,192,339103,1,0,0:0:0:0:
256,192,339196,1,0,0:0:0:0:
256,192,339290,1,8,0:0:0:0:
256,192,339337,1,8,0:0:0:0:
256,192,339384,1,8,0:0:0:0:
256,192,339431,1,8,0:0:0:0:
256,192,339478,1,0,0:0:0:0:
256,192,339571,1,0,0:0:0:0:
256,192,339665,1,8,0:0:0:0:
256,192,339712,1,8,0:0:0:0:
256,192,339759,1,0,0:0:0:0:
256,192,339806,1,0,0:0:0:0:
256,192,339853,1,8,0:0:0:0:
256,192,339946,1,0,0:0:0:0:
256,192,340040,1,8,0:0:0:0:
256,192,340087,1,0,0:0:0:0:
256,192,340134,1,8,0:0:0:0:
256,192,340181,1,8,0:0:0:0:
256,192,340228,1,0,0:0:0:0:
256,192,340321,1,0,0:0:0:0:
256,192,340415,1,8,0:0:0:0:
256,192,340462,1,8,0:0:0:0:
256,192,340509,1,0,0:0:0:0:
256,192,340556,1,0,0:0:0:0:
256,192,340603,1,8,0:0:0:0:
256,192,340696,1,0,0:0:0:0:
256,192,340743,1,0,0:0:0:0:
256,192,340790,1,8,0:0:0:0:
256,192,340884,1,0,0:0:0:0:
256,192,340978,1,8,0:0:0:0:
256,192,341024,1,8,0:0:0:0:
256,192,341071,1,8,0:0:0:0:
256,192,341118,1,8,0:0:0:0:
256,192,341165,1,0,0:0:0:0:
256,192,341259,1,0,0:0:0:0:
256,192,341353,1,8,0:0:0:0:
256,192,341399,1,8,0:0:0:0:
256,192,341446,1,0,0:0:0:0:
256,192,341493,1,0,0:0:0:0:
256,192,341540,1,8,0:0:0:0:
256,192,341587,1,8,0:0:0:0:
256,192,341634,1,0,0:0:0:0:
256,192,341681,1,0,0:0:0:0:
256,192,341728,1,8,0:0:0:0:
256,192,341774,1,8,0:0:0:0:
256,192,341821,1,8,0:0:0:0:
256,192,341868,1,8,0:0:0:0:
256,192,341915,1,0,0:0:0:0:
256,192,341962,1,0,0:0:0:0:
256,192,342009,1,0,0:0:0:0:
256,192,342056,1,0,0:0:0:0:
256,192,342103,1,12,0:0:0:0:
256,192,342290,1,8,0:0:0:0:
256,192,342384,1,0,0:0:0:0:
256,192,342431,1,0,0:0:0:0:
256,192,342478,1,8,0:0:0:0:
256,192,342571,1,0,0:0:0:0:
256,192,342618,1,0,0:0:0:0:
256,192,342665,1,8,0:0:0:0:
256,192,342759,1,0,0:0:0:0:
256,192,342806,1,0,0:0:0:0:
256,192,342853,1,8,0:0:0:0:
256,192,342899,1,8,0:0:0:0:
256,192,342946,1,8,0:0:0:0:
256,192,343040,1,0,0:0:0:0:
256,192,343134,1,8,0:0:0:0:
256,192,343181,1,8,0:0:0:0:
256,192,343228,1,0,0:0:0:0:
256,192,343321,1,0,0:0:0:0:
256,192,343415,1,8,0:0:0:0:
256,192,343462,1,8,0:0:0:0:
256,192,343509,1,8,0:0:0:0:
256,192,343556,1,8,0:0:0:0:
256,192,343603,1,0,0:0:0:0:
256,192,343696,1,0,0:0:0:0:
256,192,343790,1,8,0:0:0:0:
256,192,343837,1,8,0:0:0:0:
256,192,343884,1,0,0:0:0:0:
256,192,343931,1,0,0:0:0:0:
256,192,343978,1,8,0:0:0:0:
256,192,344071,1,0,0:0:0:0:
256,192,344118,1,0,0:0:0:0:
256,192,344165,1,8,0:0:0:0:
256,192,344259,1,0,0:0:0:0:
256,192,344306,1,0,0:0:0:0:
256,192,344353,1,8,0:0:0:0:
256,192,344399,1,8,0:0:0:0:
256,192,344446,1,8,0:0:0:0:
256,192,344540,1,0,0:0:0:0:
256,192,344634,1,8,0:0:0:0:
256,192,344681,1,8,0:0:0:0:
256,192,344728,1,0,0:0:0:0:
256,192,344774,1,8,0:0:0:0:
256,192,344821,1,0,0:0:0:0:
256,192,344868,1,0,0:0:0:0:
256,192,344915,1,8,0:0:0:0:
256,192,345009,1,0,0:0:0:0:
256,192,345103,1,8,0:0:0:0:
256,192,345149,1,8,0:0:0:0:
256,192,345196,1,0,0:0:0:0:
256,192,345243,1,0,0:0:0:0:
256,192,345290,1,8,0:0:0:0:
256,192,345384,1,0,0:0:0:0:
256,192,345478,1,8,0:0:0:0:
256,192,345524,1,8,0:0:0:0:
256,192,345571,1,8,0:0:0:0:
256,192,345618,1,8,0:0:0:0:
256,192,345665,1,0,0:0:0:0:
256,192,345759,1,0,0:0:0:0:
256,192,345853,1,8,0:0:0:0:
256,192,345899,1,8,0:0:0:0:
256,192,345946,1,8,0:0:0:0:
256,192,345993,1,8,0:0:0:0:
256,192,346040,1,0,0:0:0:0:
256,192,346134,1,8,0:0:0:0:
256,192,346181,1,8,0:0:0:0:
256,192,346228,1,0,0:0:0:0:
256,192,346321,1,0,0:0:0:0:
256,192,346415,1,8,0:0:0:0:
256,192,346462,1,8,0:0:0:0:
256,192,346509,1,8,0:0:0:0:
256,192,346556,1,8,0:0:0:0:
256,192,346603,1,0,0:0:0:0:
256,192,346696,1,0,0:0:0:0:
256,192,346743,1,0,0:0:0:0:
256,192,346790,1,8,0:0:0:0:
256,192,346884,1,8,0:0:0:0:
256,192,346931,1,8,0:0:0:0:
256,192,346978,1,0,0:0:0:0:
256,192,347024,1,0,0:0:0:0:
256,192,347071,1,8,0:0:0:0:
256,192,347118,1,0,0:0:0:0:
256,192,347165,1,8,0:0:0:0:
256,192,347212,1,8,0:0:0:0:
256,192,347259,1,0,0:0:0:0:
256,192,347353,1,8,0:0:0:0:
256,192,347399,1,8,0:0:0:0:
256,192,347446,1,0,0:0:0:0:
256,192,347493,1,0,0:0:0:0:
256,192,347540,1,8,0:0:0:0:
256,192,347634,1,0,0:0:0:0:
256,192,347728,1,8,0:0:0:0:
256,192,347774,1,8,0:0:0:0:
256,192,347821,1,8,0:0:0:0:
256,192,347868,1,8,0:0:0:0:
256,192,347915,1,0,0:0:0:0:
256,192,347962,1,0,0:0:0:0:
256,192,348009,1,0,0:0:0:0:
256,192,348056,1,0,0:0:0:0:
256,192,348103,1,8,0:0:0:0:
256,192,348196,1,8,0:0:0:0:
256,192,348243,1,8,0:0:0:0:
256,192,348290,1,0,0:0:0:0:
256,192,348384,1,8,0:0:0:0:
256,192,348478,1,0,0:0:0:0:
256,192,348524,1,0,0:0:0:0:
256,192,348571,1,8,0:0:0:0:
256,192,348618,1,8,0:0:0:0:
256,192,348665,1,0,0:0:0:0:
256,192,348759,1,0,0:0:0:0:
256,192,348853,1,8,0:0:0:0:
256,192,348899,1,8,0:0:0:0:
256,192,348946,1,0,0:0:0:0:
256,192,349040,1,0,0:0:0:0:
256,192,349134,1,8,0:0:0:0:
256,192,349181,1,8,0:0:0:0:
256,192,349228,1,0,0:0:0:0:
256,192,349321,1,0,0:0:0:0:
256,192,349415,1,8,0:0:0:0:
256,192,349462,1,8,0:0:0:0:
256,192,349509,1,8,0:0:0:0:
256,192,349556,1,8,0:0:0:0:
256,192,349603,1,0,0:0:0:0:
256,192,349696,1,0,0:0:0:0:
256,192,349790,1,8,0:0:0:0:
256,192,349884,1,0,0:0:0:0:
256,192,349931,1,0,0:0:0:0:
256,192,349978,1,8,0:0:0:0:
256,192,350024,1,8,0:0:0:0:
256,192,350071,1,0,0:0:0:0:
256,192,350118,1,0,0:0:0:0:
256,192,350165,1,8,0:0:0:0:
256,192,350259,1,0,0:0:0:0:
256,192,350353,1,8,0:0:0:0:
256,192,350399,1,8,0:0:0:0:
256,192,350446,1,8,0:0:0:0:
256,192,350493,1,8,0:0:0:0:
256,192,350540,1,0,0:0:0:0:
256,192,350634,1,8,0:0:0:0:
256,192,350681,1,8,0:0:0:0:
256,192,350728,1,0,0:0:0:0:
256,192,350774,1,0,0:0:0:0:
256,192,350821,1,0,0:0:0:0:
256,192,350868,1,0,0:0:0:0:
256,192,350915,1,8,0:0:0:0:
256,192,350962,1,8,0:0:0:0:
256,192,351009,1,0,0:0:0:0:
256,192,351103,1,8,0:0:0:0:
256,192,351149,1,8,0:0:0:0:
256,192,351196,1,0,0:0:0:0:
256,192,351243,1,0,0:0:0:0:
256,192,351290,1,8,0:0:0:0:
256,192,351337,1,8,0:0:0:0:
256,192,351384,1,0,0:0:0:0:
256,192,351431,1,0,0:0:0:0:
256,192,351478,1,8,0:0:0:0:
256,192,351524,1,8,0:0:0:0:
256,192,351571,1,8,0:0:0:0:
256,192,351618,1,8,0:0:0:0:
256,192,351665,1,0,0:0:0:0:
256,192,351712,1,0,0:0:0:0:
256,192,351759,1,8,0:0:0:0:
256,192,351806,1,0,0:0:0:0:
256,192,351853,1,8,0:0:0:0:
256,192,351899,1,8,0:0:0:0:
256,192,351946,1,0,0:0:0:0:
256,192,351993,1,0,0:0:0:0:
256,192,352040,1,8,0:0:0:0:
256,192,352087,1,8,0:0:0:0:
256,192,352134,1,0,0:0:0:0:
256,192,352181,1,0,0:0:0:0:
256,192,352228,1,8,0:0:0:0:
256,192,352274,1,8,0:0:0:0:
256,192,352321,1,8,0:0:0:0:
256,192,352368,1,8,0:0:0:0:
256,192,352415,1,0,0:0:0:0:
256,192,352462,1,0,0:0:0:0:
256,192,352509,1,8,0:0:0:0:
256,192,352556,1,8,0:0:0:0:
256,192,352603,1,0,0:0:0:0:
256,192,352649,1,0,0:0:0:0:
256,192,352696,1,0,0:0:0:0:
256,192,352743,1,0,0:0:0:0:
256,192,352790,1,8,0:0:0:0:
256,192,352837,1,8,0:0:0:0:
256,192,352884,1,8,0:0:0:0:
256,192,352931,1,8,0:0:0:0:
256,192,352978,1,0,0:0:0:0:
256,192,353024,1,0,0:0:0:0:
256,192,353071,1,0,0:0:0:0:
256,192,353118,1,0,0:0:0:0:
256,192,353165,1,8,0:0:0:0:
256,192,353212,1,8,0:0:0:0:
256,192,353259,1,0,0:0:0:0:
256,192,353306,1,0,0:0:0:0:
256,192,353353,1,8,0:0:0:0:
256,192,353399,1,8,0:0:0:0:
256,192,353446,1,8,0:0:0:0:
256,192,353493,1,8,0:0:0:0:
256,192,353540,1,0,0:0:0:0:
256,192,353587,1,0,0:0:0:0:
256,192,353634,1,0,0:0:0:0:
256,192,353681,1,0,0:0:0:0:
256,192,353728,1,8,0:0:0:0:
256,192,353774,1,8,0:0:0:0:
256,192,353821,1,0,0:0:0:0:
256,192,353868,1,0,0:0:0:0:
256,192,353915,1,8,0:0:0:0:
256,192,353962,1,8,0:0:0:0:
256,192,354009,1,8,0:0:0:0:
256,192,354056,1,8,0:0:0:0:
256,192,354103,1,4,0:0:0:0:
256,192,354853,1,8,0:0:0:0:
256,192,355134,1,0,0:0:0:0:
256,192,355415,1,8,0:0:0:0:
256,192,355603,1,0,0:0:0:0:
256,192,356353,1,8,0:0:0:0:
256,192,356634,1,0,0:0:0:0:
256,192,356915,1,8,0:0:0:0:
256,192,357103,1,0,0:0:0:0:
256,192,357853,1,8,0:0:0:0:
256,192,358134,1,0,0:0:0:0:
256,192,358415,1,8,0:0:0:0:
256,192,358603,1,0,0:0:0:0:
256,192,358884,1,0,0:0:0:0:
256,192,359165,1,0,0:0:0:0:
256,192,359353,1,8,0:0:0:0:
256,192,359540,1,0,0:0:0:0:
256,192,359728,1,8,0:0:0:0:
256,192,359915,1,8,0:0:0:0:
256,192,360103,1,0,0:0:0:0:
256,192,360853,1,8,0:0:0:0:
256,192,361134,1,0,0:0:0:0:
256,192,361415,1,8,0:0:0:0:
256,192,361603,1,0,0:0:0:0:
256,192,362353,1,8,0:0:0:0:
256,192,362634,1,0,0:0:0:0:
256,192,362915,1,8,0:0:0:0:
256,192,363103,1,0,0:0:0:0:
256,192,363290,1,8,0:0:0:0:
256,192,363665,1,8,0:0:0:0:
256,192,363853,1,8,0:0:0:0:
256,192,364040,1,8,0:0:0:0:
256,192,364134,1,0,0:0:0:0:
256,192,364228,1,8,0:0:0:0:
256,192,364415,1,0,0:0:0:0:
256,192,364603,1,8,0:0:0:0:
256,192,365353,1,8,0:0:0:0:
256,192,366103,1,4,0:0:0:0:
256,192,366853,1,8,0:0:0:0:
256,192,367134,1,0,0:0:0:0:
256,192,367415,1,8,0:0:0:0:
256,192,367603,1,0,0:0:0:0:
256,192,368353,1,8,0:0:0:0:
256,192,368634,1,0,0:0:0:0:
256,192,368915,1,8,0:0:0:0:
256,192,369103,1,0,0:0:0:0:
256,192,369853,1,8,0:0:0:0:
256,192,370134,1,0,0:0:0:0:
256,192,370415,1,8,0:0:0:0:
256,192,370603,1,0,0:0:0:0:
256,192,370884,1,0,0:0:0:0:
256,192,371165,1,0,0:0:0:0:
256,192,371353,1,8,0:0:0:0:
256,192,371540,1,0,0:0:0:0:
256,192,371728,1,8,0:0:0:0:
256,192,371915,1,8,0:0:0:0:
256,192,372103,1,0,0:0:0:0:
256,192,372853,1,8,0:0:0:0:
256,192,373134,1,0,0:0:0:0:
256,192,373415,1,8,0:0:0:0:
256,192,373603,1,0,0:0:0:0:
256,192,374353,1,8,0:0:0:0:
256,192,374634,1,0,0:0:0:0:
256,192,374915,1,8,0:0:0:0:
256,192,375103,1,0,0:0:0:0:
256,192,376415,1,0,0:0:0:0:
256,192,376603,1,0,0:0:0:0:
256,192,376790,1,8,0:0:0:0:
256,192,376978,1,0,0:0:0:0:
256,192,377165,1,8,0:0:0:0:
256,192,377353,1,0,0:0:0:0:
256,192,377540,1,0,0:0:0:0:
256,192,377728,1,8,0:0:0:0:
256,192,377915,1,8,0:0:0:0:
256,192,378103,1,4,0:0:0:0:
256,192,378853,1,8,0:0:0:0:
256,192,379134,1,0,0:0:0:0:
256,192,379415,1,8,0:0:0:0:
256,192,379603,1,0,0:0:0:0:
256,192,380353,1,8,0:0:0:0:
256,192,380634,1,0,0:0:0:0:
256,192,380915,1,8,0:0:0:0:
256,192,381103,1,0,0:0:0:0:
256,192,381853,1,8,0:0:0:0:
256,192,382134,1,0,0:0:0:0:
256,192,382415,1,8,0:0:0:0:
256,192,382603,1,0,0:0:0:0:
256,192,382884,1,0,0:0:0:0:
256,192,383165,1,0,0:0:0:0:
256,192,383353,1,8,0:0:0:0:
256,192,383540,1,0,0:0:0:0:
256,192,383728,1,8,0:0:0:0:
256,192,383915,1,8,0:0:0:0:
256,192,384103,1,0,0:0:0:0:
256,192,384853,1,8,0:0:0:0:
256,192,385134,1,0,0:0:0:0:
256,192,385415,1,8,0:0:0:0:
256,192,385603,1,0,0:0:0:0:
256,192,386353,1,8,0:0:0:0:
256,192,386634,1,0,0:0:0:0:
256,192,386915,1,8,0:0:0:0:
256,192,387103,1,0,0:0:0:0:
256,192,387290,1,8,0:0:0:0:
256,192,387665,1,8,0:0:0:0:
256,192,387853,1,8,0:0:0:0:
256,192,388040,1,8,0:0:0:0:
256,192,388134,1,8,0:0:0:0:
256,192,388228,1,0,0:0:0:0:
256,192,388415,1,0,0:0:0:0:
256,192,388603,1,8,0:0:0:0:
256,192,389353,1,8,0:0:0:0:
256,192,390103,1,4,0:0:0:0:
256,192,390853,1,8,0:0:0:0:
256,192,391134,1,0,0:0:0:0:
256,192,391415,1,8,0:0:0:0:
256,192,391603,1,0,0:0:0:0:
256,192,392353,1,8,0:0:0:0:
256,192,392634,1,0,0:0:0:0:
256,192,392915,1,8,0:0:0:0:
256,192,393103,1,0,0:0:0:0:
256,192,393853,1,8,0:0:0:0:
256,192,394134,1,0,0:0:0:0:
256,192,394415,1,8,0:0:0:0:
256,192,394603,1,0,0:0:0:0:
256,192,394884,1,0,0:0:0:0:
256,192,395165,1,0,0:0:0:0:
256,192,395353,1,8,0:0:0:0:
256,192,395540,1,0,0:0:0:0:
256,192,395728,1,8,0:0:0:0:
256,192,395915,1,8,0:0:0:0:
256,192,396103,1,0,0:0:0:0:
256,192,396853,1,8,0:0:0:0:
256,192,397134,1,0,0:0:0:0:
256,192,397415,1,8,0:0:0:0:
256,192,397603,1,0,0:0:0:0:
256,192,398353,1,8,0:0:0:0:
256,192,398634,1,0,0:0:0:0:
256,192,398915,1,8,0:0:0:0:
256,192,399103,1,0,0:0:0:0:
256,192,399853,1,0,0:0:0:0:
256,192,400415,1,8,0:0:0:0:
256,192,400603,1,0,0:0:0:0:
256,192,400790,1,8,0:0:0:0:
256,192,400978,1,8,0:0:0:0:
256,192,401165,1,8,0:0:0:0:
256,192,401353,1,0,0:0:0:0:
256,192,401540,1,8,0:0:0:0:
256,192,401728,1,0,0:0:0:0:
256,192,401915,1,8,0:0:0:0:
