osu file format v14

[General]
AudioFilename: audio.mp3
AudioLeadIn: 0
PreviewTime: -1
Countdown: 1
SampleSet: None
StackLeniency: 0.7
Mode: 3
LetterboxInBreaks: 0
SpecialStyle: 0
WidescreenStoryboard: 0

[Editor]
DistanceSpacing: 3
BeatDivisor: 8
GridSize: 4
TimelineZoom: 1

[Metadata]
Title:Galaxy Collapse
TitleUnicode:Galaxy Collapse
Artist:Kurokotei
ArtistUnicode:Kurokotei
Creator:Melt3dCheeze
Version:SOMEBODY SCREAM
Source:
Tags:meme
BeatmapID:1282044
BeatmapSetID:606932

[Difficulty]
HPDrainRate:5
CircleSize:4
OverallDifficulty:5
ApproachRate:5
SliderMultiplier:1.4
SliderTickRate:1

[Events]
//Background and Video events
//Break Periods
//Storyboard Layer 0 (Background)
//Storyboard Layer 1 (Fail)
//Storyboard Layer 2 (Pass)
//Storyboard Layer 3 (Foreground)
//Storyboard Sound Samples

[TimingPoints]
0,500,4,2,0,100,1,0

[HitObjects]
320,192,0,5,0,0:0:0:0:
448,192,0,1,0,0:0:0:0:
64,192,0,1,0,0:0:0:0:
192,192,0,1,0,0:0:0:0:
448,192,187,1,0,0:0:0:0:
192,192,250,1,0,0:0:0:0:
64,192,250,1,0,0:0:0:0:
448,192,312,1,0,0:0:0:0:
192,192,312,1,0,0:0:0:0:
192,192,375,1,0,0:0:0:0:
448,192,437,1,0,0:0:0:0:
192,192,562,1,0,0:0:0:0:
192,192,687,1,0,0:0:0:0:
448,192,750,1,0,0:0:0:0:
64,192,750,1,0,0:0:0:0:
192,192,812,1,0,0:0:0:0:
320,192,875,1,0,0:0:0:0:
320,192,1000,1,0,0:0:0:0:
64,192,1125,1,0,0:0:0:0:
192,192,1187,1,0,0:0:0:0:
448,192,1187,1,0,0:0:0:0:
320,192,1250,1,0,0:0:0:0:
64,192,1312,1,0,0:0:0:0:
64,192,1375,1,0,0:0:0:0:
192,192,1437,1,0,0:0:0:0:
64,192,1562,1,0,0:0:0:0:
448,192,1562,1,0,0:0:0:0:
320,192,1625,1,0,0:0:0:0:
64,192,1687,1,0,0:0:0:0:
448,192,1750,1,0,0:0:0:0:
64,192,1875,1,0,0:0:0:0:
448,192,1875,1,0,0:0:0:0:
64,192,1937,1,0,0:0:0:0:
448,192,2000,1,0,0:0:0:0:
192,192,2062,1,0,0:0:0:0:
448,192,2187,1,0,0:0:0:0:
64,192,2250,1,0,0:0:0:0:
448,192,2437,1,0,0:0:0:0:
64,192,2500,1,0,0:0:0:0:
192,192,2562,1,0,0:0:0:0:
448,192,2750,1,0,0:0:0:0:
192,192,2937,1,0,0:0:0:0:
320,192,2937,1,0,0:0:0:0:
320,192,3250,1,0,0:0:0:0:
448,192,3562,1,0,0:0:0:0:
192,192,3625,1,0,0:0:0:0:
192,192,3812,1,0,0:0:0:0:
192,192,3937,1,0,0:0:0:0:
320,192,4062,1,0,0:0:0:0:
64,192,4062,1,0,0:0:0:0:
320,192,4125,1,0,0:0:0:0:
64,192,4250,1,0,0:0:0:0:
320,192,4312,1,0,0:0:0:0:
448,192,4312,1,0,0:0:0:0:
192,192,4500,1,0,0:0:0:0:
448,192,4500,1,0,0:0:0:0:
320,192,4500,1,0,0:0:0:0:
64,192,4500,1,0,0:0:0:0:
192,192,4562,1,0,0:0:0:0:
448,192,4687,1,0,0:0:0:0:
192,192,4750,1,0,0:0:0:0:
64,192,4750,1,0,0:0:0:0:
448,192,4750,1,0,0:0:0:0:
320,192,4750,1,0,0:0:0:0:
