osu file format v14

[General]
AudioFilename: Galaxy Collapse.mp3
AudioLeadIn: 0
PreviewTime: 179453
Countdown: 0
SampleSet: Soft
StackLeniency: 0.7
Mode: 3
LetterboxInBreaks: 0
SpecialStyle: 0
WidescreenStoryboard: 0

[Editor]
DistanceSpacing: 0.85
BeatDivisor: 4
GridSize: 32
TimelineZoom: 2

[Metadata]
Title:Galaxy Collapse
TitleUnicode:Galaxy Collapse
Artist:Kurokotei
ArtistUnicode:黒皇帝
Creator:Mat
Version:Cataclysmic Hypernova
Source:東方Project
Tags:touhou 12 speedcore marathon kurokoutei sayaka- nue houjuu Heian Alien ZUN 東方星蓮船 ~ Undefined Fantastic Object extra stage boss theme
BeatmapID:992512
BeatmapSetID:400078

[Difficulty]
HPDrainRate:8.2
CircleSize:4
OverallDifficulty:8
ApproachRate:5
SliderMultiplier:1.4
SliderTickRate:1

[Events]
//Background and Video events
0,0,"gallaxy collapse.jpg",0,0
//Break Periods
//Storyboard Layer 0 (Background)
//Storyboard Layer 1 (Fail)
//Storyboard Layer 2 (Pass)
//Storyboard Layer 3 (Foreground)
//Storyboard Sound Samples

[TimingPoints]
13,222.222222222222,4,2,1,25,1,0
32012,-100,4,2,1,40,0,0
117346,-104.166666666667,4,2,1,40,0,0
117401,-107.52688172043,4,2,1,40,0,0
117457,-111.111111111111,4,2,1,40,0,0
117512,-114.942528735632,4,2,1,40,0,0
117568,-120.481927710843,4,2,1,40,0,0
117790,400,4,2,1,25,1,8
117790,-66.6666666666667,4,2,1,25,0,8
118590,400,4,2,1,25,1,0
118590,-66.6666666666667,4,2,1,25,0,0
128990,-62.5,4,2,1,25,0,0
129190,-60.6060606060606,4,2,1,25,0,0
129390,-58.8235294117647,4,2,1,25,0,0
129590,-57.1428571428571,4,2,1,25,0,0
129790,-55.5555555555556,4,2,1,25,0,0
155390,363.636363636364,4,2,1,40,1,0
155390,-60.9756097560976,4,2,1,40,0,0
156844,333.333333333333,4,2,1,40,1,0
156844,-66.6666666666667,4,2,1,40,0,0
158177,307.692307692308,4,2,1,40,1,0
158177,-72.463768115942,4,2,1,40,0,0
159407,285.714285714286,4,2,1,40,1,0
159407,-77.5193798449612,4,2,1,40,0,0
160549,266.666666666667,4,2,1,40,1,0
160549,-83.3333333333333,4,2,1,40,0,0
161615,250,4,2,1,40,1,0
161615,-88.4955752212389,4,2,1,40,0,0
162615,235.294117647059,4,2,1,40,1,0
162615,-94.3396226415094,4,2,1,40,0,0
163556,222.222222222222,4,2,1,40,1,0
163556,-100,4,2,1,40,0,0
164444,210.526315789474,4,2,1,40,1,0
164444,-105.263157894737,4,2,1,40,0,0
165286,200,4,2,1,40,1,0
165286,-111.111111111111,4,2,1,40,0,0
166086,190.47619047619,4,2,1,40,1,0
166086,-116.279069767442,4,2,1,40,0,0
166847,181.818181818182,4,2,1,40,1,0
166847,-121.951219512195,4,2,1,40,0,0
167574,173.913043478261,4,2,1,40,1,0
167574,-128.205128205128,4,2,1,40,0,0
168269,166.666666666667,4,2,1,40,1,0
168269,-133.333333333333,4,2,1,40,0,0
168935,160,4,2,1,40,1,0
168935,-138.888888888889,4,2,1,40,0,0
169575,153.846153846154,4,2,1,40,1,0
169575,-144.981326405159,4,2,1,40,0,0
170190,148.148148148148,4,2,1,40,1,0
170190,-149.253731343284,4,2,1,40,0,0
170782,142.857142857143,4,2,1,40,1,0
170782,-156.25,4,2,1,40,0,0
171353,137.931034482759,4,2,1,40,1,0
171353,-161.290322580645,4,2,1,40,0,0
171904,133.333333333333,4,2,1,40,1,0
171904,-166.666666666667,4,2,1,40,0,0
172437,129.032258064516,4,2,1,40,1,0
172437,-172.413793103448,4,2,1,40,0,0
172953,125,4,2,1,40,1,0
172953,-178.571428571429,4,2,1,40,0,0
173453,121.212121212121,4,2,1,40,1,0
173453,-181.818181818182,4,2,1,40,0,0
173937,117.647058823529,4,2,1,40,1,0
173937,-188.888804938309,4,2,1,40,0,0
174407,115.384615384615,4,2,1,40,1,0
174407,-190.90891735553,4,2,1,40,0,0
176253,200,4,2,1,40,1,0
176253,-111.111111111111,4,2,1,40,0,0
179453,-111.111111111111,4,2,1,50,0,1
230653,206.896551724138,4,2,1,40,1,0
230653,-107.52688172043,4,2,1,40,0,0
237273,214.285714285714,4,2,1,40,1,0
237273,-103.092783505155,4,2,1,40,0,0
244130,222.222222222222,4,2,1,40,1,0
244130,-100,4,2,1,40,0,0
272574,444.444444444444,4,2,1,25,1,0
272574,-50,4,2,1,25,0,0
272685,-52.6315789473684,4,2,1,25,0,0
272796,-55.5555555555556,4,2,1,25,0,0
272907,-58.8235294117647,4,2,1,25,0,0
273018,-62.5,4,2,1,25,0,0
286796,-50,4,2,1,25,0,0
301018,400,4,2,1,40,1,0
301018,-55.5555555555556,4,2,1,40,0,0
304218,200,4,2,1,50,1,1
304218,-111.111111111111,4,2,1,50,0,1
329818,187.5,4,2,1,50,1,1
329818,-119.047619047619,4,2,1,50,0,1
353818,-119.047619047619,4,2,1,20,0,0
377818,-142.857142857143,4,2,1,15,0,0

[HitObjects]
448,192,13,5,0,0:0:0:0:
64,192,124,1,0,0:0:0:0:
192,192,235,1,0,0:0:0:0:
448,192,346,1,0,0:0:0:0:
64,192,457,1,0,0:0:0:0:
448,192,568,1,0,0:0:0:0:
320,192,679,1,0,0:0:0:0:
64,192,790,1,0,0:0:0:0:
448,192,901,1,0,0:0:0:0:
192,192,1012,1,0,0:0:0:0:
320,192,1124,1,0,0:0:0:0:
192,192,1235,1,0,0:0:0:0:
448,192,1346,1,0,0:0:0:0:
64,192,1457,1,0,0:0:0:0:
192,192,1568,1,0,0:0:0:0:
320,192,1679,1,0,0:0:0:0:
64,192,1790,1,0,0:0:0:0:
448,192,1901,1,0,0:0:0:0:
320,192,2012,1,0,0:0:0:0:
192,192,2124,1,0,0:0:0:0:
448,192,2235,1,0,0:0:0:0:
64,192,2346,1,0,0:0:0:0:
192,192,2457,1,0,0:0:0:0:
64,192,2568,1,0,0:0:0:0:
448,192,2679,1,0,0:0:0:0:
192,192,2790,1,0,0:0:0:0:
320,192,2901,1,0,0:0:0:0:
448,192,3012,1,0,0:0:0:0:
64,192,3124,1,0,0:0:0:0:
320,192,3235,1,0,0:0:0:0:
192,192,3346,1,0,0:0:0:0:
320,192,3457,1,0,0:0:0:0:
64,192,3568,1,0,0:0:0:0:
448,192,3679,1,0,0:0:0:0:
192,192,3790,1,0,0:0:0:0:
64,192,3901,1,0,0:0:0:0:
448,192,4012,1,0,0:0:0:0:
192,192,4124,1,0,0:0:0:0:
320,192,4235,1,0,0:0:0:0:
448,192,4346,1,0,0:0:0:0:
64,192,4457,1,0,0:0:0:0:
320,192,4568,1,0,0:0:0:0:
192,192,4679,1,0,0:0:0:0:
64,192,4790,1,0,0:0:0:0:
448,192,4901,1,0,0:0:0:0:
64,192,5012,1,0,0:0:0:0:
192,192,5124,1,0,0:0:0:0:
320,192,5235,1,0,0:0:0:0:
64,192,5346,1,0,0:0:0:0:
448,192,5457,1,0,0:0:0:0:
320,192,5568,1,0,0:0:0:0:
192,192,5679,1,0,0:0:0:0:
448,192,5790,1,0,0:0:0:0:
64,192,5901,1,0,0:0:0:0:
320,192,6012,1,0,0:0:0:0:
448,192,6124,1,0,0:0:0:0:
64,192,6235,1,0,0:0:0:0:
320,192,6346,1,0,0:0:0:0:
192,192,6457,1,0,0:0:0:0:
64,192,6568,1,0,0:0:0:0:
448,192,6679,1,0,0:0:0:0:
192,192,6790,1,0,0:0:0:0:
320,192,6901,1,0,0:0:0:0:
448,192,7012,1,0,0:0:0:0:
320,192,7124,1,0,0:0:0:0:
64,192,7124,1,0,0:0:0:0:
192,192,7235,1,0,0:0:0:0:
320,192,7346,1,0,0:0:0:0:
448,192,7457,1,0,0:0:0:0:
192,192,7568,1,0,0:0:0:0:
64,192,7568,1,0,0:0:0:0:
320,192,7679,1,0,0:0:0:0:
448,192,7790,1,0,0:0:0:0:
64,192,7901,1,0,0:0:0:0:
192,192,8012,1,0,0:0:0:0:
448,192,8012,1,0,0:0:0:0:
320,192,8124,1,0,0:0:0:0:
192,192,8235,1,0,0:0:0:0:
64,192,8346,1,0,0:0:0:0:
192,192,8457,1,0,0:0:0:0:
448,192,8457,1,0,0:0:0:0:
64,192,8568,1,0,0:0:0:0:
448,192,8679,1,0,0:0:0:0:
320,192,8790,1,0,0:0:0:0:
64,192,8901,1,0,0:0:0:0:
448,192,8901,1,0,0:0:0:0:
192,192,9012,1,0,0:0:0:0:
320,192,9124,1,0,0:0:0:0:
448,192,9235,1,0,0:0:0:0:
192,192,9346,1,0,0:0:0:0:
64,192,9346,1,0,0:0:0:0:
448,192,9457,1,0,0:0:0:0:
320,192,9568,1,0,0:0:0:0:
192,192,9679,1,0,0:0:0:0:
320,192,9790,1,0,0:0:0:0:
448,192,9790,1,0,0:0:0:0:
64,192,9901,1,0,0:0:0:0:
192,192,10012,1,0,0:0:0:0:
448,192,10124,1,0,0:0:0:0:
320,192,10235,1,0,0:0:0:0:
64,192,10235,1,0,0:0:0:0:
192,192,10346,1,0,0:0:0:0:
320,192,10457,1,0,0:0:0:0:
448,192,10568,1,0,0:0:0:0:
320,192,10679,1,0,0:0:0:0:
192,192,10679,1,0,0:0:0:0:
64,192,10790,1,0,0:0:0:0:
192,192,10901,1,0,0:0:0:0:
320,192,11012,1,0,0:0:0:0:
192,192,11124,1,0,0:0:0:0:
448,192,11124,1,0,0:0:0:0:
64,192,11235,1,0,0:0:0:0:
192,192,11346,1,0,0:0:0:0:
320,192,11457,1,0,0:0:0:0:
64,192,11568,1,0,0:0:0:0:
448,192,11568,1,0,0:0:0:0:
192,192,11679,1,0,0:0:0:0:
448,192,11790,1,0,0:0:0:0:
320,192,11901,1,0,0:0:0:0:
192,192,12012,1,0,0:0:0:0:
64,192,12012,1,0,0:0:0:0:
320,192,12124,1,0,0:0:0:0:
192,192,12235,1,0,0:0:0:0:
64,192,12346,1,0,0:0:0:0:
192,192,12457,1,0,0:0:0:0:
448,192,12457,1,0,0:0:0:0:
320,192,12568,1,0,0:0:0:0:
192,192,12679,1,0,0:0:0:0:
64,192,12790,1,0,0:0:0:0:
448,192,12901,1,0,0:0:0:0:
320,192,12901,1,0,0:0:0:0:
192,192,13012,1,0,0:0:0:0:
64,192,13124,1,0,0:0:0:0:
192,192,13235,1,0,0:0:0:0:
448,192,13346,1,0,0:0:0:0:
320,192,13346,1,0,0:0:0:0:
192,192,13457,1,0,0:0:0:0:
64,192,13568,1,0,0:0:0:0:
320,192,13679,1,0,0:0:0:0:
448,192,13790,1,0,0:0:0:0:
64,192,13790,1,0,0:0:0:0:
192,192,13901,1,0,0:0:0:0:
448,192,14012,1,0,0:0:0:0:
64,192,14124,1,0,0:0:0:0:
320,192,14235,1,4,0:0:0:0:
448,192,14235,128,0,14346:0:0:0:0:
192,192,14235,1,0,0:0:0:0:
64,192,14346,128,0,14457:0:0:0:0:
192,192,14457,128,0,14568:0:0:0:0:
448,192,14568,128,0,14679:0:0:0:0:
64,192,14679,128,0,14790:0:0:0:0:
448,192,14790,128,0,14901:0:0:0:0:
320,192,14901,128,0,15012:0:0:0:0:
64,192,15012,128,0,15124:0:0:0:0:
448,192,15124,128,0,15235:0:0:0:0:
192,192,15235,128,0,15346:0:0:0:0:
320,192,15346,128,0,15457:0:0:0:0:
192,192,15457,128,0,15568:0:0:0:0:
448,192,15568,128,0,15679:0:0:0:0:
64,192,15679,128,0,15790:0:0:0:0:
192,192,15790,128,0,15901:0:0:0:0:
320,192,15901,128,0,16012:0:0:0:0:
64,192,16012,128,0,16124:0:0:0:0:
448,192,16124,128,0,16235:0:0:0:0:
320,192,16235,128,0,16346:0:0:0:0:
192,192,16346,128,0,16457:0:0:0:0:
448,192,16457,128,0,16568:0:0:0:0:
64,192,16568,128,0,16679:0:0:0:0:
192,192,16679,128,0,16790:0:0:0:0:
64,192,16790,128,0,16901:0:0:0:0:
448,192,16901,128,0,17012:0:0:0:0:
192,192,17012,128,0,17124:0:0:0:0:
320,192,17124,128,0,17235:0:0:0:0:
448,192,17235,128,0,17346:0:0:0:0:
64,192,17346,128,0,17457:0:0:0:0:
320,192,17457,128,0,17568:0:0:0:0:
192,192,17568,128,0,17679:0:0:0:0:
320,192,17679,128,0,17790:0:0:0:0:
64,192,17790,128,0,17901:0:0:0:0:
448,192,17901,128,0,18012:0:0:0:0:
192,192,18012,128,0,18124:0:0:0:0:
64,192,18124,128,0,18235:0:0:0:0:
448,192,18235,128,0,18346:0:0:0:0:
192,192,18346,128,0,18457:0:0:0:0:
320,192,18457,128,0,18568:0:0:0:0:
448,192,18568,128,0,18679:0:0:0:0:
64,192,18679,128,0,18790:0:0:0:0:
320,192,18790,128,0,18901:0:0:0:0:
192,192,18901,128,0,19012:0:0:0:0:
64,192,19012,128,0,19124:0:0:0:0:
448,192,19124,128,0,19235:0:0:0:0:
64,192,19235,128,0,19346:0:0:0:0:
192,192,19346,128,0,19457:0:0:0:0:
320,192,19457,128,0,19568:0:0:0:0:
64,192,19568,128,0,19679:0:0:0:0:
448,192,19679,128,0,19790:0:0:0:0:
320,192,19790,128,0,19901:0:0:0:0:
192,192,19901,128,0,20012:0:0:0:0:
448,192,20012,128,0,20124:0:0:0:0:
64,192,20124,128,0,20235:0:0:0:0:
320,192,20235,128,0,20346:0:0:0:0:
448,192,20346,128,0,20457:0:0:0:0:
64,192,20457,128,0,20568:0:0:0:0:
320,192,20568,128,0,20679:0:0:0:0:
192,192,20679,128,0,20790:0:0:0:0:
64,192,20790,128,0,20901:0:0:0:0:
448,192,20901,128,0,21012:0:0:0:0:
192,192,21012,128,0,21124:0:0:0:0:
320,192,21124,128,0,21235:0:0:0:0:
448,192,21235,128,0,21346:0:0:0:0:
192,192,21346,1,0,0:0:0:0:
320,192,21346,1,4,0:0:0:0:
64,192,21346,128,0,21457:0:0:0:0:
448,192,21457,128,0,21568:0:0:0:0:
320,192,21568,128,0,21679:0:0:0:0:
192,192,21679,128,0,21790:0:0:0:0:
64,192,21790,1,0,0:0:0:0:
448,192,21790,128,0,21901:0:0:0:0:
320,192,21901,128,0,22012:0:0:0:0:
192,192,22012,128,0,22124:0:0:0:0:
64,192,22124,128,0,22235:0:0:0:0:
448,192,22235,1,0,0:0:0:0:
320,192,22235,128,0,22346:0:0:0:0:
192,192,22346,128,0,22457:0:0:0:0:
64,192,22457,128,0,22568:0:0:0:0:
448,192,22568,128,0,22679:0:0:0:0:
320,192,22679,1,0,0:0:0:0:
64,192,22679,128,0,22790:0:0:0:0:
192,192,22790,128,0,22901:0:0:0:0:
320,192,22901,128,0,23012:0:0:0:0:
448,192,23012,128,0,23124:0:0:0:0:
64,192,23124,1,0,0:0:0:0:
192,192,23124,128,0,23235:0:0:0:0:
320,192,23235,128,0,23346:0:0:0:0:
448,192,23346,128,0,23457:0:0:0:0:
64,192,23457,128,0,23568:0:0:0:0:
192,192,23568,1,0,0:0:0:0:
320,192,23568,128,0,23679:0:0:0:0:
448,192,23679,128,0,23790:0:0:0:0:
320,192,23790,128,0,23901:0:0:0:0:
192,192,23901,128,0,24012:0:0:0:0:
64,192,24012,128,0,24124:0:0:0:0:
448,192,24012,1,0,0:0:0:0:
192,192,24124,128,0,24235:0:0:0:0:
320,192,24235,128,0,24346:0:0:0:0:
448,192,24346,128,0,24457:0:0:0:0:
64,192,24457,1,0,0:0:0:0:
320,192,24457,128,0,24568:0:0:0:0:
192,192,24568,128,0,24679:0:0:0:0:
64,192,24679,128,0,24790:0:0:0:0:
192,192,24790,128,0,24901:0:0:0:0:
448,192,24901,1,0,0:0:0:0:
320,192,24901,128,0,25012:0:0:0:0:
64,192,25012,128,0,25124:0:0:0:0:
192,192,25124,128,0,25235:0:0:0:0:
448,192,25235,128,0,25346:0:0:0:0:
64,192,25346,1,0,0:0:0:0:
320,192,25346,128,0,25457:0:0:0:0:
192,192,25457,128,0,25568:0:0:0:0:
64,192,25568,128,0,25679:0:0:0:0:
448,192,25679,128,0,25790:0:0:0:0:
320,192,25790,128,0,25901:0:0:0:0:
192,192,25790,1,0,0:0:0:0:
64,192,25901,128,0,26012:0:0:0:0:
192,192,26012,128,0,26124:0:0:0:0:
448,192,26124,128,0,26235:0:0:0:0:
64,192,26235,1,0,0:0:0:0:
320,192,26235,128,0,26346:0:0:0:0:
192,192,26346,128,0,26457:0:0:0:0:
64,192,26457,128,0,26568:0:0:0:0:
192,192,26568,128,0,26679:0:0:0:0:
448,192,26679,1,0,0:0:0:0:
320,192,26679,128,0,26790:0:0:0:0:
64,192,26790,128,0,26901:0:0:0:0:
448,192,26901,128,0,27012:0:0:0:0:
320,192,27012,128,0,27124:0:0:0:0:
64,192,27124,1,0,0:0:0:0:
192,192,27124,128,0,27235:0:0:0:0:
320,192,27235,128,0,27346:0:0:0:0:
448,192,27346,128,0,27457:0:0:0:0:
192,192,27457,128,0,27568:0:0:0:0:
64,192,27568,1,0,0:0:0:0:
320,192,27568,128,0,27679:0:0:0:0:
448,192,27679,128,0,27790:0:0:0:0:
64,192,27790,128,0,27901:0:0:0:0:
192,192,27901,128,0,28012:0:0:0:0:
320,192,28012,128,0,28124:0:0:0:0:
448,192,28012,1,0,0:0:0:0:
64,192,28124,128,0,28235:0:0:0:0:
192,192,28235,128,0,28346:0:0:0:0:
448,192,28346,128,0,28457:0:0:0:0:
64,192,32012,1,8,0:0:0:0:
192,192,32012,1,0,0:0:0:0:
448,192,32012,1,4,0:0:0:0:
320,192,32124,1,8,0:0:0:0:
448,192,32124,1,0,0:0:0:0:
64,192,32235,1,8,0:0:0:0:
192,192,32235,1,0,0:0:0:0:
320,192,32346,1,0,0:0:0:0:
448,192,32457,1,0,0:0:0:0:
192,192,32457,1,8,0:0:0:0:
64,192,32568,1,0,0:0:0:0:
320,192,32679,1,8,0:0:0:0:
448,192,32679,1,0,0:0:0:0:
192,192,32790,1,0,0:0:0:0:
64,192,32901,1,8,0:0:0:0:
448,192,32901,1,0,0:0:0:0:
192,192,33012,1,0,0:0:0:0:
320,192,33124,1,8,0:0:0:0:
448,192,33124,1,0,0:0:0:0:
64,192,33235,1,0,0:0:0:0:
448,192,33346,1,0,0:0:0:0:
192,192,33346,1,8,0:0:0:0:
320,192,33457,1,0,0:0:0:0:
192,192,33568,1,0,0:0:0:0:
64,192,33568,1,8,0:0:0:0:
64,192,33679,1,8,0:0:0:0:
448,192,33679,1,0,0:0:0:0:
448,192,33790,1,0,0:0:0:0:
320,192,33790,1,8,0:0:0:0:
64,192,33901,1,0,0:0:0:0:
448,192,34012,1,0,0:0:0:0:
192,192,34012,1,8,0:0:0:0:
64,192,34124,1,0,0:0:0:0:
448,192,34235,1,0,0:0:0:0:
320,192,34235,1,8,0:0:0:0:
192,192,34346,1,0,0:0:0:0:
448,192,34457,1,0,0:0:0:0:
64,192,34457,1,8,0:0:0:0:
192,192,34568,1,0,0:0:0:0:
448,192,34679,1,0,0:0:0:0:
320,192,34679,1,8,0:0:0:0:
192,192,34790,1,0,0:0:0:0:
448,192,34901,1,0,0:0:0:0:
64,192,34901,1,8,0:0:0:0:
192,192,35012,1,0,0:0:0:0:
448,192,35124,1,0,0:0:0:0:
320,192,35124,1,8,0:0:0:0:
192,192,35235,1,0,0:0:0:0:
64,192,35235,1,8,0:0:0:0:
320,192,35346,1,8,0:0:0:0:
448,192,35346,1,0,0:0:0:0:
192,192,35401,1,8,0:0:0:0:
64,192,35401,1,0,0:0:0:0:
320,192,35457,1,8,0:0:0:0:
448,192,35457,1,0,0:0:0:0:
192,192,35512,1,8,0:0:0:0:
64,192,35512,1,0,0:0:0:0:
448,192,35568,1,0,0:0:0:0:
320,192,35568,1,8,0:0:0:0:
64,192,35679,1,0,0:0:0:0:
448,192,35790,1,0,0:0:0:0:
192,192,35790,1,8,0:0:0:0:
320,192,35901,1,0,0:0:0:0:
64,192,36012,1,8,0:0:0:0:
192,192,36012,1,0,0:0:0:0:
448,192,36124,1,0,0:0:0:0:
320,192,36235,1,0,0:0:0:0:
64,192,36235,1,8,0:0:0:0:
192,192,36346,1,0,0:0:0:0:
320,192,36457,1,8,0:0:0:0:
448,192,36457,1,0,0:0:0:0:
192,192,36568,1,0,0:0:0:0:
448,192,36679,1,0,0:0:0:0:
64,192,36679,1,8,0:0:0:0:
320,192,36790,1,0,0:0:0:0:
448,192,36901,1,0,0:0:0:0:
192,192,36901,1,8,0:0:0:0:
64,192,37012,1,0,0:0:0:0:
320,192,37124,1,8,0:0:0:0:
448,192,37124,1,0,0:0:0:0:
448,192,37235,1,0,0:0:0:0:
320,192,37235,1,8,0:0:0:0:
192,192,37346,1,0,0:0:0:0:
64,192,37346,1,8,0:0:0:0:
320,192,37457,1,0,0:0:0:0:
448,192,37568,1,0,0:0:0:0:
64,192,37568,1,8,0:0:0:0:
192,192,37679,1,0,0:0:0:0:
448,192,37790,1,0,0:0:0:0:
320,192,37790,1,8,0:0:0:0:
192,192,37901,1,0,0:0:0:0:
64,192,38012,1,8,0:0:0:0:
448,192,38012,1,0,0:0:0:0:
192,192,38124,1,0,0:0:0:0:
64,192,38235,1,8,0:0:0:0:
448,192,38235,1,0,0:0:0:0:
448,192,38346,1,8,0:0:0:0:
320,192,38346,1,0,0:0:0:0:
320,192,38457,1,8,0:0:0:0:
64,192,38457,1,0,0:0:0:0:
64,192,38568,1,0,0:0:0:0:
192,192,38568,1,8,0:0:0:0:
448,192,38679,128,0,38901:0:0:0:0:
320,192,38679,1,0,0:0:0:0:
192,192,38901,1,0,0:0:0:0:
64,192,38901,128,0,39124:0:0:0:0:
448,192,39124,1,4,0:0:0:0:
320,192,39124,1,8,0:0:0:0:
192,192,39124,1,0,0:0:0:0:
64,192,39235,1,0,0:0:0:0:
448,192,39346,1,0,0:0:0:0:
192,192,39346,1,8,0:0:0:0:
320,192,39457,1,0,0:0:0:0:
448,192,39568,1,0,0:0:0:0:
64,192,39568,1,8,0:0:0:0:
192,192,39679,1,0,0:0:0:0:
320,192,39790,1,8,0:0:0:0:
448,192,39790,1,0,0:0:0:0:
192,192,39901,1,0,0:0:0:0:
64,192,40012,1,8,0:0:0:0:
320,192,40012,1,0,0:0:0:0:
448,192,40124,1,0,0:0:0:0:
320,192,40235,1,0,0:0:0:0:
192,192,40235,1,8,0:0:0:0:
64,192,40346,1,0,0:0:0:0:
448,192,40457,1,0,0:0:0:0:
192,192,40457,1,8,0:0:0:0:
320,192,40568,1,0,0:0:0:0:
192,192,40679,1,0,0:0:0:0:
64,192,40679,1,8,0:0:0:0:
64,192,40790,1,8,0:0:0:0:
192,192,40790,1,0,0:0:0:0:
320,192,40901,1,8,0:0:0:0:
448,192,40901,1,0,0:0:0:0:
192,192,41012,1,0,0:0:0:0:
448,192,41124,1,0,0:0:0:0:
64,192,41124,1,8,0:0:0:0:
320,192,41235,1,0,0:0:0:0:
192,192,41346,1,0,0:0:0:0:
64,192,41346,1,8,0:0:0:0:
320,192,41457,1,0,0:0:0:0:
448,192,41568,1,0,0:0:0:0:
64,192,41568,1,8,0:0:0:0:
192,192,41679,1,0,0:0:0:0:
448,192,41790,1,0,0:0:0:0:
320,192,41790,1,8,0:0:0:0:
64,192,41901,1,0,0:0:0:0:
448,192,42012,1,0,0:0:0:0:
192,192,42012,1,8,0:0:0:0:
320,192,42124,1,0,0:0:0:0:
64,192,42235,1,8,0:0:0:0:
448,192,42235,1,0,0:0:0:0:
192,192,42346,1,8,0:0:0:0:
320,192,42346,1,0,0:0:0:0:
64,192,42457,1,8,0:0:0:0:
448,192,42457,1,0,0:0:0:0:
192,192,42512,1,8,0:0:0:0:
320,192,42512,1,0,0:0:0:0:
64,192,42568,1,8,0:0:0:0:
448,192,42568,1,0,0:0:0:0:
192,192,42624,1,8,0:0:0:0:
320,192,42624,1,0,0:0:0:0:
64,192,42679,1,8,0:0:0:0:
448,192,42679,1,0,0:0:0:0:
320,192,42790,1,0,0:0:0:0:
192,192,42901,1,0,0:0:0:0:
64,192,42901,1,8,0:0:0:0:
448,192,43012,1,0,0:0:0:0:
64,192,43124,1,8,0:0:0:0:
320,192,43124,1,0,0:0:0:0:
192,192,43235,1,0,0:0:0:0:
448,192,43346,1,0,0:0:0:0:
320,192,43346,1,8,0:0:0:0:
192,192,43457,1,8,0:0:0:0:
320,192,43457,1,0,0:0:0:0:
448,192,43568,1,0,0:0:0:0:
64,192,43568,1,8,0:0:0:0:
192,192,43679,1,0,0:0:0:0:
448,192,43790,1,0,0:0:0:0:
320,192,43790,1,8,0:0:0:0:
64,192,43901,1,0,0:0:0:0:
448,192,44012,1,0,0:0:0:0:
320,192,44012,1,8,0:0:0:0:
320,192,44124,1,8,0:0:0:0:
448,192,44124,1,0,0:0:0:0:
192,192,44235,1,0,0:0:0:0:
64,192,44235,1,8,0:0:0:0:
192,192,44346,1,0,0:0:0:0:
64,192,44346,1,8,0:0:0:0:
320,192,44457,1,8,0:0:0:0:
448,192,44457,1,0,0:0:0:0:
64,192,44568,1,0,0:0:0:0:
448,192,44679,1,0,0:0:0:0:
192,192,44679,1,8,0:0:0:0:
320,192,44790,1,0,0:0:0:0:
448,192,44901,1,0,0:0:0:0:
64,192,44901,1,8,0:0:0:0:
192,192,45012,1,0,0:0:0:0:
320,192,45124,1,8,0:0:0:0:
448,192,45124,1,0,0:0:0:0:
448,192,45235,1,8,0:0:0:0:
64,192,45235,1,0,0:0:0:0:
320,192,45346,1,0,0:0:0:0:
448,192,45346,1,8,0:0:0:0:
64,192,45457,1,0,0:0:0:0:
192,192,45457,1,8,0:0:0:0:
192,192,45568,1,8,0:0:0:0:
448,192,45568,1,0,0:0:0:0:
64,192,45679,1,0,0:0:0:0:
320,192,45679,1,8,0:0:0:0:
448,192,45790,1,0,0:0:0:0:
320,192,45818,1,0,0:0:0:0:
64,192,45846,1,0,0:0:0:0:
192,192,45874,1,0,0:0:0:0:
448,192,45901,1,0,0:0:0:0:
320,192,45929,1,0,0:0:0:0:
64,192,45957,1,0,0:0:0:0:
192,192,45985,1,0,0:0:0:0:
448,192,46012,1,0,0:0:0:0:
320,192,46068,1,0,0:0:0:0:
64,192,46124,1,0,0:0:0:0:
192,192,46179,1,0,0:0:0:0:
320,192,46235,1,8,0:0:0:0:
448,192,46235,1,4,0:0:0:0:
448,192,46346,1,0,0:0:0:0:
64,192,46346,1,8,0:0:0:0:
64,192,46457,1,8,0:0:0:0:
192,192,46457,1,0,0:0:0:0:
192,192,46568,1,8,0:0:0:0:
448,192,46568,1,0,0:0:0:0:
448,192,46679,1,0,0:0:0:0:
64,192,46679,1,8,0:0:0:0:
192,192,46790,1,8,0:0:0:0:
320,192,46790,1,0,0:0:0:0:
64,192,46901,1,8,0:0:0:0:
448,192,46901,1,0,0:0:0:0:
192,192,46957,1,8,0:0:0:0:
320,192,46957,1,0,0:0:0:0:
64,192,47012,1,8,0:0:0:0:
448,192,47012,1,0,0:0:0:0:
320,192,47068,1,0,0:0:0:0:
192,192,47068,1,8,0:0:0:0:
64,192,47124,1,8,0:0:0:0:
448,192,47124,1,0,0:0:0:0:
192,192,47235,1,0,0:0:0:0:
448,192,47346,1,0,0:0:0:0:
64,192,47346,1,8,0:0:0:0:
320,192,47457,1,0,0:0:0:0:
64,192,47568,1,8,0:0:0:0:
448,192,47568,1,0,0:0:0:0:
192,192,47679,1,0,0:0:0:0:
320,192,47790,1,8,0:0:0:0:
448,192,47790,1,0,0:0:0:0:
64,192,47901,1,8,0:0:0:0:
448,192,47901,1,0,0:0:0:0:
320,192,48012,1,8,0:0:0:0:
192,192,48012,1,0,0:0:0:0:
64,192,48124,1,0,0:0:0:0:
320,192,48235,1,0,0:0:0:0:
192,192,48235,1,8,0:0:0:0:
448,192,48346,1,0,0:0:0:0:
320,192,48457,1,0,0:0:0:0:
64,192,48457,1,8,0:0:0:0:
192,192,48568,1,0,0:0:0:0:
448,192,48679,1,0,0:0:0:0:
320,192,48679,1,8,0:0:0:0:
320,192,48790,1,8,0:0:0:0:
448,192,48790,1,0,0:0:0:0:
192,192,48901,1,0,0:0:0:0:
64,192,48901,1,8,0:0:0:0:
192,192,49012,1,0,0:0:0:0:
64,192,49012,1,8,0:0:0:0:
320,192,49124,1,8,0:0:0:0:
448,192,49124,1,0,0:0:0:0:
448,192,49290,1,0,0:0:0:0:
64,192,49290,1,8,0:0:0:0:
320,192,49346,1,8,0:0:0:0:
192,192,49346,1,0,0:0:0:0:
320,192,49457,1,8,0:0:0:0:
192,192,49457,1,0,0:0:0:0:
448,192,49568,1,0,0:0:0:0:
64,192,49568,1,8,0:0:0:0:
320,192,49679,1,8,0:0:0:0:
448,192,49679,1,0,0:0:0:0:
192,192,49790,1,0,0:0:0:0:
64,192,49790,1,8,0:0:0:0:
320,192,49901,1,0,0:0:0:0:
448,192,50012,1,0,0:0:0:0:
64,192,50012,1,8,0:0:0:0:
192,192,50124,1,0,0:0:0:0:
64,192,50235,1,8,0:0:0:0:
448,192,50235,1,0,0:0:0:0:
320,192,50346,1,0,0:0:0:0:
64,192,50457,1,8,0:0:0:0:
192,192,50457,1,0,0:0:0:0:
320,192,50568,1,0,0:0:0:0:
448,192,50679,1,0,0:0:0:0:
192,192,50679,1,8,0:0:0:0:
64,192,50790,1,0,0:0:0:0:
320,192,50901,1,0,0:0:0:0:
192,192,50901,1,8,0:0:0:0:
448,192,51012,1,0,0:0:0:0:
320,192,51124,1,0,0:0:0:0:
64,192,51124,1,8,0:0:0:0:
192,192,51235,1,0,0:0:0:0:
448,192,51346,1,0,0:0:0:0:
320,192,51346,1,8,0:0:0:0:
320,192,51457,1,8,0:0:0:0:
448,192,51457,1,0,0:0:0:0:
192,192,51568,1,0,0:0:0:0:
64,192,51568,1,8,0:0:0:0:
448,192,51679,1,0,0:0:0:0:
192,192,51790,1,0,0:0:0:0:
64,192,51790,1,8,0:0:0:0:
320,192,51901,1,0,0:0:0:0:
448,192,52012,1,8,0:0:0:0:
64,192,52012,1,0,0:0:0:0:
192,192,52124,1,0,0:0:0:0:
320,192,52235,1,8,0:0:0:0:
448,192,52235,1,0,0:0:0:0:
448,192,52346,1,0,0:0:0:0:
320,192,52346,1,8,0:0:0:0:
192,192,52457,1,0,0:0:0:0:
64,192,52457,1,8,0:0:0:0:
320,192,52568,1,8,0:0:0:0:
64,192,52568,1,0,0:0:0:0:
320,192,52679,1,0,0:0:0:0:
192,192,52679,1,8,0:0:0:0:
192,192,52790,1,0,0:0:0:0:
64,192,52790,1,8,0:0:0:0:
448,192,52901,1,0,0:0:0:0:
320,192,52901,128,0,53124:0:0:0:0:
64,192,53124,128,0,53346:0:0:0:0:
192,192,53124,1,0,0:0:0:0:
192,192,53346,1,8,0:0:0:0:
320,192,53346,1,0,0:0:0:0:
448,192,53346,1,4,0:0:0:0:
320,192,53457,1,8,0:0:0:0:
448,192,53457,1,0,0:0:0:0:
64,192,53568,1,8,0:0:0:0:
192,192,53568,1,0,0:0:0:0:
448,192,53679,1,0,0:0:0:0:
64,192,53679,1,8,0:0:0:0:
320,192,53790,1,8,0:0:0:0:
448,192,53790,1,0,0:0:0:0:
64,192,53901,1,8,0:0:0:0:
320,192,53901,1,0,0:0:0:0:
192,192,54012,1,0,0:0:0:0:
64,192,54012,1,8,0:0:0:0:
448,192,54124,1,0,0:0:0:0:
320,192,54124,1,8,0:0:0:0:
192,192,54179,1,8,0:0:0:0:
64,192,54179,1,0,0:0:0:0:
448,192,54235,1,0,0:0:0:0:
320,192,54235,1,8,0:0:0:0:
448,192,54346,1,0,0:0:0:0:
64,192,54346,1,8,0:0:0:0:
192,192,54457,1,8,0:0:0:0:
320,192,54457,1,0,0:0:0:0:
192,192,54568,1,0,0:0:0:0:
64,192,54568,1,8,0:0:0:0:
448,192,54679,1,0,0:0:0:0:
320,192,54679,1,8,0:0:0:0:
192,192,54735,1,8,0:0:0:0:
64,192,54735,1,0,0:0:0:0:
320,192,54790,1,8,0:0:0:0:
448,192,54790,1,0,0:0:0:0:
448,192,54901,1,0,0:0:0:0:
64,192,54901,1,8,0:0:0:0:
192,192,54957,1,8,0:0:0:0:
320,192,54957,1,0,0:0:0:0:
448,192,55012,1,0,0:0:0:0:
64,192,55012,1,8,0:0:0:0:
320,192,55068,1,0,0:0:0:0:
192,192,55068,1,8,0:0:0:0:
64,192,55124,1,8,0:0:0:0:
448,192,55124,1,0,0:0:0:0:
64,192,55235,1,8,0:0:0:0:
192,192,55235,1,0,0:0:0:0:
192,192,55346,1,8,0:0:0:0:
448,192,55346,1,0,0:0:0:0:
448,192,55457,1,0,0:0:0:0:
320,192,55457,1,8,0:0:0:0:
64,192,55568,1,8,0:0:0:0:
192,192,55568,1,0,0:0:0:0:
320,192,55679,1,0,0:0:0:0:
192,192,55679,1,8,0:0:0:0:
448,192,55790,1,0,0:0:0:0:
320,192,55790,1,8,0:0:0:0:
192,192,55901,1,8,0:0:0:0:
64,192,55901,1,0,0:0:0:0:
320,192,55957,1,8,0:0:0:0:
448,192,55957,1,0,0:0:0:0:
64,192,56012,1,0,0:0:0:0:
192,192,56012,1,8,0:0:0:0:
192,192,56124,1,8,0:0:0:0:
448,192,56124,1,0,0:0:0:0:
320,192,56235,1,8,0:0:0:0:
448,192,56235,1,0,0:0:0:0:
64,192,56346,1,8,0:0:0:0:
192,192,56346,1,0,0:0:0:0:
448,192,56457,1,0,0:0:0:0:
320,192,56457,1,8,0:0:0:0:
192,192,56512,1,8,0:0:0:0:
64,192,56512,1,0,0:0:0:0:
320,192,56568,1,8,0:0:0:0:
448,192,56568,1,0,0:0:0:0:
192,192,56624,1,8,0:0:0:0:
64,192,56624,1,0,0:0:0:0:
448,192,56679,1,0,0:0:0:0:
320,192,56679,1,8,0:0:0:0:
192,192,56735,1,8,0:0:0:0:
64,192,56735,1,0,0:0:0:0:
320,192,56790,1,8,0:0:0:0:
448,192,56790,1,0,0:0:0:0:
192,192,56846,1,8,0:0:0:0:
64,192,56846,1,0,0:0:0:0:
320,192,56901,1,8,0:0:0:0:
448,192,56901,1,0,0:0:0:0:
64,192,57012,1,8,0:0:0:0:
320,192,57012,1,0,0:0:0:0:
448,192,57124,1,0,0:0:0:0:
64,192,57124,1,8,0:0:0:0:
192,192,57235,1,8,0:0:0:0:
448,192,57235,1,0,0:0:0:0:
64,192,57346,1,8,0:0:0:0:
192,192,57346,1,0,0:0:0:0:
448,192,57457,1,0,0:0:0:0:
320,192,57457,1,8,0:0:0:0:
64,192,57568,1,0,0:0:0:0:
192,192,57624,1,0,0:0:0:0:
448,192,57679,1,0,0:0:0:0:
320,192,57735,1,0,0:0:0:0:
192,192,57790,1,0,0:0:0:0:
64,192,57790,1,8,0:0:0:0:
448,192,57901,1,0,0:0:0:0:
320,192,57901,1,8,0:0:0:0:
192,192,58012,1,8,0:0:0:0:
320,192,58012,1,0,0:0:0:0:
192,192,58124,1,0,0:0:0:0:
64,192,58124,1,8,0:0:0:0:
64,192,58235,1,8,0:0:0:0:
320,192,58235,1,0,0:0:0:0:
448,192,58346,1,0,0:0:0:0:
320,192,58346,1,8,0:0:0:0:
64,192,58457,1,0,0:0:0:0:
192,192,58485,1,0,0:0:0:0:
448,192,58512,1,0,0:0:0:0:
320,192,58540,1,0,0:0:0:0:
64,192,58568,1,0,0:0:0:0:
192,192,58596,1,0,0:0:0:0:
448,192,58624,1,0,0:0:0:0:
320,192,58651,1,0,0:0:0:0:
192,192,58679,1,0,0:0:0:0:
64,192,58679,1,8,0:0:0:0:
448,192,58790,1,0,0:0:0:0:
320,192,58790,1,8,0:0:0:0:
64,192,58901,1,0,0:0:0:0:
448,192,58957,1,0,0:0:0:0:
192,192,59012,1,0,0:0:0:0:
64,192,59068,1,0,0:0:0:0:
448,192,59124,1,8,0:0:0:0:
320,192,59124,1,0,0:0:0:0:
320,192,59235,1,8,0:0:0:0:
448,192,59235,1,0,0:0:0:0:
64,192,59346,1,0,0:0:0:0:
192,192,59374,1,0,0:0:0:0:
320,192,59401,1,0,0:0:0:0:
448,192,59429,1,0,0:0:0:0:
64,192,59457,1,0,0:0:0:0:
192,192,59485,1,0,0:0:0:0:
320,192,59512,1,0,0:0:0:0:
448,192,59540,1,0,0:0:0:0:
64,192,59568,1,0,0:0:0:0:
192,192,59624,1,0,0:0:0:0:
448,192,59679,1,0,0:0:0:0:
320,192,59735,1,0,0:0:0:0:
192,192,59790,1,0,0:0:0:0:
64,192,59790,1,0,0:0:0:0:
448,192,59846,1,0,0:0:0:0:
320,192,59901,1,0,0:0:0:0:
64,192,59901,1,0,0:0:0:0:
192,192,59957,1,0,0:0:0:0:
320,192,60012,1,0,0:0:0:0:
448,192,60040,1,0,0:0:0:0:
192,192,60068,1,0,0:0:0:0:
64,192,60096,1,0,0:0:0:0:
320,192,60124,1,0,0:0:0:0:
448,192,60151,1,0,0:0:0:0:
64,192,60179,1,0,0:0:0:0:
192,192,60207,1,0,0:0:0:0:
320,192,60235,1,0,0:0:0:0:
448,192,60262,1,0,0:0:0:0:
192,192,60290,1,0,0:0:0:0:
64,192,60318,1,0,0:0:0:0:
320,192,60346,1,0,0:0:0:0:
448,192,60374,1,0,0:0:0:0:
192,192,60401,1,0,0:0:0:0:
64,192,60429,1,0,0:0:0:0:
448,192,60457,1,8,0:0:0:0:
320,192,60457,1,4,0:0:0:0:
448,192,60679,1,0,0:0:0:0:
320,192,60679,1,0,0:0:0:0:
192,192,60679,1,8,0:0:0:0:
64,192,60901,1,8,0:0:0:0:
192,192,60901,1,0,0:0:0:0:
448,192,60901,1,0,0:0:0:0:
448,192,61124,1,0,0:0:0:0:
320,192,61124,1,0,0:0:0:0:
192,192,61124,1,8,0:0:0:0:
64,192,61346,1,8,0:0:0:0:
192,192,61346,1,0,0:0:0:0:
448,192,61346,1,0,0:0:0:0:
64,192,61568,1,8,0:0:0:0:
192,192,61568,1,0,0:0:0:0:
320,192,61568,1,0,0:0:0:0:
448,192,61790,1,0,0:0:0:0:
320,192,61790,1,0,0:0:0:0:
64,192,61790,1,8,0:0:0:0:
192,192,62012,1,0,0:0:0:0:
64,192,62012,1,8,0:0:0:0:
320,192,62012,1,0,0:0:0:0:
192,192,62124,1,0,0:0:0:0:
64,192,62235,1,8,0:0:0:0:
320,192,62235,1,0,0:0:0:0:
448,192,62235,1,0,0:0:0:0:
192,192,62457,1,8,0:0:0:0:
320,192,62457,1,0,0:0:0:0:
448,192,62457,1,0,0:0:0:0:
64,192,62679,1,8,0:0:0:0:
192,192,62679,1,0,0:0:0:0:
448,192,62679,1,0,0:0:0:0:
448,192,62901,1,0,0:0:0:0:
320,192,62901,1,0,0:0:0:0:
192,192,62901,1,8,0:0:0:0:
64,192,63124,1,8,0:0:0:0:
320,192,63124,1,0,0:0:0:0:
448,192,63124,1,0,0:0:0:0:
64,192,63346,1,8,0:0:0:0:
192,192,63346,1,0,0:0:0:0:
448,192,63346,1,0,0:0:0:0:
448,192,63568,1,0,0:0:0:0:
320,192,63568,1,0,0:0:0:0:
192,192,63568,1,8,0:0:0:0:
64,192,63679,1,0,0:0:0:0:
320,192,63790,1,8,0:0:0:0:
448,192,63790,1,0,0:0:0:0:
192,192,63846,1,0,0:0:0:0:
64,192,63846,1,8,0:0:0:0:
320,192,63901,1,8,0:0:0:0:
448,192,63901,1,0,0:0:0:0:
192,192,63957,1,0,0:0:0:0:
64,192,63957,1,8,0:0:0:0:
320,192,64012,1,8,0:0:0:0:
448,192,64012,1,0,0:0:0:0:
64,192,64235,1,8,0:0:0:0:
448,192,64235,1,0,0:0:0:0:
192,192,64235,1,0,0:0:0:0:
192,192,64457,1,8,0:0:0:0:
320,192,64457,1,0,0:0:0:0:
448,192,64457,1,0,0:0:0:0:
64,192,64679,1,8,0:0:0:0:
192,192,64679,1,0,0:0:0:0:
320,192,64679,1,0,0:0:0:0:
64,192,64901,1,8,0:0:0:0:
192,192,64901,1,0,0:0:0:0:
448,192,64901,1,0,0:0:0:0:
448,192,65124,1,0,0:0:0:0:
320,192,65124,1,0,0:0:0:0:
64,192,65124,1,8,0:0:0:0:
64,192,65346,1,8,0:0:0:0:
192,192,65346,1,0,0:0:0:0:
448,192,65346,1,0,0:0:0:0:
192,192,65568,1,8,0:0:0:0:
320,192,65568,1,0,0:0:0:0:
448,192,65568,1,0,0:0:0:0:
320,192,65679,1,0,0:0:0:0:
64,192,65790,1,8,0:0:0:0:
192,192,65790,1,0,0:0:0:0:
448,192,65790,1,0,0:0:0:0:
448,192,66012,1,0,0:0:0:0:
320,192,66012,1,0,0:0:0:0:
192,192,66012,1,8,0:0:0:0:
64,192,66235,1,8,0:0:0:0:
448,192,66235,1,0,0:0:0:0:
320,192,66235,1,0,0:0:0:0:
64,192,66457,1,8,0:0:0:0:
192,192,66457,1,0,0:0:0:0:
320,192,66457,1,0,0:0:0:0:
448,192,66679,1,0,0:0:0:0:
320,192,66679,1,0,0:0:0:0:
192,192,66679,1,8,0:0:0:0:
64,192,66901,1,8,0:0:0:0:
320,192,66901,1,0,0:0:0:0:
448,192,66901,1,0,0:0:0:0:
64,192,67124,1,8,0:0:0:0:
192,192,67124,1,0,0:0:0:0:
448,192,67124,1,0,0:0:0:0:
320,192,67235,1,0,0:0:0:0:
192,192,67346,1,8,0:0:0:0:
64,192,67346,1,0,0:0:0:0:
320,192,67401,1,8,0:0:0:0:
448,192,67401,1,0,0:0:0:0:
192,192,67457,1,8,0:0:0:0:
64,192,67457,1,0,0:0:0:0:
320,192,67512,1,8,0:0:0:0:
192,192,67568,1,8,0:0:0:0:
64,192,67568,1,0,0:0:0:0:
448,192,67568,1,4,0:0:0:0:
192,192,67790,1,8,0:0:0:0:
320,192,67790,1,0,0:0:0:0:
448,192,67790,1,0,0:0:0:0:
448,192,68012,1,0,0:0:0:0:
64,192,68012,1,8,0:0:0:0:
320,192,68012,1,0,0:0:0:0:
192,192,68235,1,0,0:0:0:0:
320,192,68235,1,0,0:0:0:0:
64,192,68235,1,8,0:0:0:0:
64,192,68457,1,8,0:0:0:0:
448,192,68457,1,0,0:0:0:0:
320,192,68457,1,0,0:0:0:0:
192,192,68679,1,8,0:0:0:0:
448,192,68679,1,0,0:0:0:0:
320,192,68679,1,0,0:0:0:0:
192,192,68901,1,0,0:0:0:0:
448,192,68901,1,0,0:0:0:0:
64,192,68901,1,8,0:0:0:0:
320,192,69124,1,0,0:0:0:0:
448,192,69124,1,0,0:0:0:0:
192,192,69124,1,8,0:0:0:0:
320,192,69235,1,0,0:0:0:0:
64,192,69346,1,8,0:0:0:0:
192,192,69346,1,0,0:0:0:0:
448,192,69346,1,0,0:0:0:0:
192,192,69568,1,0,0:0:0:0:
64,192,69568,1,8,0:0:0:0:
320,192,69568,1,0,0:0:0:0:
64,192,69790,1,8,0:0:0:0:
320,192,69790,1,0,0:0:0:0:
448,192,69790,1,0,0:0:0:0:
192,192,70012,1,0,0:0:0:0:
64,192,70012,1,8,0:0:0:0:
320,192,70012,1,0,0:0:0:0:
64,192,70235,1,8,0:0:0:0:
448,192,70235,1,0,0:0:0:0:
320,192,70235,1,0,0:0:0:0:
192,192,70457,1,0,0:0:0:0:
448,192,70457,1,0,0:0:0:0:
64,192,70457,1,8,0:0:0:0:
320,192,70679,1,0,0:0:0:0:
192,192,70679,1,8,0:0:0:0:
448,192,70679,1,0,0:0:0:0:
64,192,70790,1,0,0:0:0:0:
320,192,70901,1,0,0:0:0:0:
448,192,70901,1,8,0:0:0:0:
64,192,70957,1,8,0:0:0:0:
192,192,70957,1,0,0:0:0:0:
448,192,71012,1,8,0:0:0:0:
320,192,71012,1,0,0:0:0:0:
64,192,71068,1,8,0:0:0:0:
192,192,71068,1,0,0:0:0:0:
448,192,71124,1,8,0:0:0:0:
320,192,71124,1,0,0:0:0:0:
448,192,71346,1,0,0:0:0:0:
192,192,71346,1,0,0:0:0:0:
64,192,71346,1,8,0:0:0:0:
192,192,71568,1,8,0:0:0:0:
448,192,71568,1,0,0:0:0:0:
320,192,71568,1,0,0:0:0:0:
320,192,71790,1,0,0:0:0:0:
64,192,71790,1,8,0:0:0:0:
192,192,71790,1,0,0:0:0:0:
64,192,72012,1,8,0:0:0:0:
448,192,72012,1,0,0:0:0:0:
192,192,72012,1,0,0:0:0:0:
448,192,72235,1,0,0:0:0:0:
64,192,72235,1,8,0:0:0:0:
192,192,72235,1,0,0:0:0:0:
64,192,72457,1,8,0:0:0:0:
448,192,72457,1,0,0:0:0:0:
320,192,72457,1,0,0:0:0:0:
64,192,72679,1,8,0:0:0:0:
320,192,72679,1,0,0:0:0:0:
192,192,72679,1,0,0:0:0:0:
192,192,72790,1,0,0:0:0:0:
448,192,72901,1,0,0:0:0:0:
320,192,72901,1,0,0:0:0:0:
64,192,72901,1,8,0:0:0:0:
320,192,73124,1,0,0:0:0:0:
448,192,73124,1,0,0:0:0:0:
192,192,73124,1,8,0:0:0:0:
320,192,73346,1,0,0:0:0:0:
448,192,73346,1,0,0:0:0:0:
64,192,73346,1,8,0:0:0:0:
448,192,73568,1,0,0:0:0:0:
192,192,73568,1,8,0:0:0:0:
320,192,73568,1,0,0:0:0:0:
64,192,73790,1,8,0:0:0:0:
320,192,73790,1,0,0:0:0:0:
192,192,73790,1,0,0:0:0:0:
448,192,74012,1,0,0:0:0:0:
192,192,74012,1,0,0:0:0:0:
64,192,74012,1,8,0:0:0:0:
320,192,74235,1,0,0:0:0:0:
64,192,74235,1,8,0:0:0:0:
448,192,74235,1,0,0:0:0:0:
192,192,74346,1,0,0:0:0:0:
320,192,74457,1,8,0:0:0:0:
448,192,74457,1,0,0:0:0:0:
192,192,74512,1,8,0:0:0:0:
64,192,74512,1,0,0:0:0:0:
320,192,74568,1,8,0:0:0:0:
448,192,74568,1,0,0:0:0:0:
192,192,74624,1,8,0:0:0:0:
64,192,74679,1,4,0:0:0:0:
320,192,74679,1,8,0:0:0:0:
448,192,74679,128,0,74901:0:0:0:0:
64,192,74901,128,0,75124:0:0:0:0:
192,192,74901,1,8,0:0:0:0:
320,192,74901,1,0,0:0:0:0:
320,192,75124,128,0,75346:0:0:0:0:
192,192,75124,1,8,0:0:0:0:
448,192,75124,1,0,0:0:0:0:
192,192,75346,128,0,75568:0:0:0:0:
448,192,75346,1,0,0:0:0:0:
64,192,75346,1,8,0:0:0:0:
448,192,75568,128,0,75790:0:0:0:0:
320,192,75568,1,0,0:0:0:0:
64,192,75568,1,8,0:0:0:0:
320,192,75790,128,0,76012:0:0:0:0:
64,192,75790,1,8,0:0:0:0:
192,192,75790,1,0,0:0:0:0:
192,192,76012,128,0,76235:0:0:0:0:
448,192,76012,1,0,0:0:0:0:
64,192,76012,1,8,0:0:0:0:
64,192,76235,128,0,76457:0:0:0:0:
320,192,76235,1,8,0:0:0:0:
448,192,76235,1,0,0:0:0:0:
448,192,76346,1,0,0:0:0:0:
192,192,76457,128,0,76679:0:0:0:0:
448,192,76457,1,0,0:0:0:0:
320,192,76457,1,8,0:0:0:0:
320,192,76679,128,0,76901:0:0:0:0:
64,192,76679,1,8,0:0:0:0:
448,192,76679,1,0,0:0:0:0:
64,192,76901,128,0,77124:0:0:0:0:
192,192,76901,1,8,0:0:0:0:
448,192,76901,1,0,0:0:0:0:
448,192,77124,128,0,77346:0:0:0:0:
320,192,77124,1,0,0:0:0:0:
192,192,77124,1,8,0:0:0:0:
192,192,77346,128,0,77568:0:0:0:0:
64,192,77346,1,8,0:0:0:0:
320,192,77346,1,0,0:0:0:0:
320,192,77568,128,0,77790:0:0:0:0:
448,192,77568,1,0,0:0:0:0:
64,192,77568,1,8,0:0:0:0:
64,192,77790,128,0,78012:0:0:0:0:
448,192,77790,1,0,0:0:0:0:
192,192,77790,1,8,0:0:0:0:
192,192,77901,1,0,0:0:0:0:
320,192,78012,1,8,0:0:0:0:
448,192,78012,1,0,0:0:0:0:
192,192,78068,1,8,0:0:0:0:
64,192,78068,1,0,0:0:0:0:
320,192,78124,1,8,0:0:0:0:
448,192,78124,1,0,0:0:0:0:
192,192,78179,1,8,0:0:0:0:
64,192,78179,1,0,0:0:0:0:
320,192,78235,128,0,78457:0:0:0:0:
448,192,78235,1,8,0:0:0:0:
448,192,78457,128,0,78679:0:0:0:0:
64,192,78457,1,8,0:0:0:0:
192,192,78457,1,0,0:0:0:0:
320,192,78679,1,0,0:0:0:0:
64,192,78679,1,8,0:0:0:0:
192,192,78679,128,0,78901:0:0:0:0:
448,192,78901,1,0,0:0:0:0:
320,192,78901,128,0,79124:0:0:0:0:
64,192,78901,1,8,0:0:0:0:
448,192,79124,1,0,0:0:0:0:
192,192,79124,1,8,0:0:0:0:
64,192,79124,128,0,79346:0:0:0:0:
192,192,79346,128,0,79568:0:0:0:0:
448,192,79346,1,0,0:0:0:0:
320,192,79346,1,8,0:0:0:0:
320,192,79568,128,0,79790:0:0:0:0:
448,192,79568,1,0,0:0:0:0:
64,192,79568,1,8,0:0:0:0:
64,192,79790,1,8,0:0:0:0:
192,192,79790,1,0,0:0:0:0:
448,192,79790,128,0,80012:0:0:0:0:
64,192,79901,1,0,0:0:0:0:
64,192,80012,1,0,0:0:0:0:
192,192,80012,1,8,0:0:0:0:
320,192,80012,128,0,80235:0:0:0:0:
192,192,80235,128,0,80457:0:0:0:0:
64,192,80235,1,8,0:0:0:0:
448,192,80235,1,0,0:0:0:0:
448,192,80457,128,0,80679:0:0:0:0:
320,192,80457,1,0,0:0:0:0:
64,192,80457,1,8,0:0:0:0:
64,192,80679,128,0,80901:0:0:0:0:
192,192,80679,1,8,0:0:0:0:
320,192,80679,1,0,0:0:0:0:
320,192,80901,128,0,81124:0:0:0:0:
448,192,80901,1,0,0:0:0:0:
192,192,80901,1,8,0:0:0:0:
64,192,81124,1,8,0:0:0:0:
448,192,81124,1,0,0:0:0:0:
192,192,81124,128,0,81346:0:0:0:0:
448,192,81346,128,0,81568:0:0:0:0:
64,192,81346,1,8,0:0:0:0:
320,192,81346,1,0,0:0:0:0:
320,192,81457,1,0,0:0:0:0:
192,192,81568,1,8,0:0:0:0:
64,192,81568,1,0,0:0:0:0:
320,192,81624,1,8,0:0:0:0:
448,192,81624,1,0,0:0:0:0:
64,192,81679,1,0,0:0:0:0:
192,192,81679,1,8,0:0:0:0:
320,192,81735,1,8,0:0:0:0:
448,192,81790,1,4,0:0:0:0:
192,192,81790,1,8,0:0:0:0:
64,192,81790,128,0,82012:0:0:0:0:
448,192,82012,128,0,82235:0:0:0:0:
192,192,82012,1,8,0:0:0:0:
320,192,82012,1,0,0:0:0:0:
320,192,82235,128,0,82457:0:0:0:0:
192,192,82235,1,0,0:0:0:0:
64,192,82235,1,8,0:0:0:0:
64,192,82457,128,0,82679:0:0:0:0:
192,192,82457,1,8,0:0:0:0:
448,192,82457,1,0,0:0:0:0:
448,192,82679,128,0,82901:0:0:0:0:
320,192,82679,1,0,0:0:0:0:
192,192,82679,1,8,0:0:0:0:
320,192,82901,128,0,83124:0:0:0:0:
64,192,82901,1,8,0:0:0:0:
192,192,82901,1,0,0:0:0:0:
192,192,83124,128,0,83346:0:0:0:0:
448,192,83124,1,0,0:0:0:0:
64,192,83124,1,8,0:0:0:0:
64,192,83346,128,0,83568:0:0:0:0:
320,192,83346,1,8,0:0:0:0:
448,192,83346,1,0,0:0:0:0:
320,192,83457,1,0,0:0:0:0:
192,192,83568,128,0,83790:0:0:0:0:
320,192,83568,1,8,0:0:0:0:
448,192,83568,1,0,0:0:0:0:
320,192,83790,128,0,84012:0:0:0:0:
64,192,83790,1,8,0:0:0:0:
448,192,83790,1,0,0:0:0:0:
64,192,84012,128,0,84235:0:0:0:0:
192,192,84012,1,8,0:0:0:0:
448,192,84012,1,0,0:0:0:0:
448,192,84235,128,0,84457:0:0:0:0:
320,192,84235,1,0,0:0:0:0:
192,192,84235,1,8,0:0:0:0:
192,192,84457,128,0,84679:0:0:0:0:
64,192,84457,1,8,0:0:0:0:
320,192,84457,1,0,0:0:0:0:
320,192,84679,128,0,84901:0:0:0:0:
64,192,84679,1,8,0:0:0:0:
448,192,84679,1,0,0:0:0:0:
448,192,84901,128,0,85124:0:0:0:0:
192,192,84901,1,0,0:0:0:0:
64,192,84901,1,8,0:0:0:0:
320,192,85012,1,0,0:0:0:0:
64,192,85124,1,0,0:0:0:0:
192,192,85124,1,8,0:0:0:0:
320,192,85179,1,8,0:0:0:0:
448,192,85179,1,0,0:0:0:0:
192,192,85235,1,8,0:0:0:0:
64,192,85235,1,0,0:0:0:0:
320,192,85290,1,8,0:0:0:0:
64,192,85346,5,0,0:0:0:0:
192,192,85346,1,8,0:0:0:0:
448,192,85346,1,4,0:0:0:0:
320,192,85457,1,8,0:0:0:0:
448,192,85457,1,0,0:0:0:0:
64,192,85568,1,8,0:0:0:0:
320,192,85568,1,0,0:0:0:0:
192,192,85679,1,0,0:0:0:0:
64,192,85679,1,8,0:0:0:0:
448,192,85790,1,0,0:0:0:0:
192,192,85790,1,8,0:0:0:0:
320,192,85901,1,8,0:0:0:0:
448,192,85901,1,0,0:0:0:0:
64,192,86012,1,8,0:0:0:0:
192,192,86012,1,0,0:0:0:0:
320,192,86124,1,8,0:0:0:0:
448,192,86124,1,0,0:0:0:0:
192,192,86179,1,8,0:0:0:0:
448,192,86235,1,0,0:0:0:0:
320,192,86235,1,8,0:0:0:0:
64,192,86235,1,4,0:0:0:0:
192,192,86346,1,8,0:0:0:0:
64,192,86346,1,0,0:0:0:0:
192,192,86457,1,8,0:0:0:0:
448,192,86457,1,0,0:0:0:0:
320,192,86568,1,8,0:0:0:0:
448,192,86568,1,0,0:0:0:0:
64,192,86679,1,0,0:0:0:0:
192,192,86679,1,8,0:0:0:0:
320,192,86735,1,8,0:0:0:0:
448,192,86735,1,0,0:0:0:0:
192,192,86790,1,8,0:0:0:0:
64,192,86790,1,0,0:0:0:0:
320,192,86901,1,8,0:0:0:0:
448,192,86901,1,0,0:0:0:0:
192,192,86957,1,8,0:0:0:0:
64,192,86957,1,0,0:0:0:0:
320,192,87012,1,8,0:0:0:0:
448,192,87012,1,0,0:0:0:0:
192,192,87068,1,8,0:0:0:0:
64,192,87068,1,0,0:0:0:0:
320,192,87124,1,8,0:0:0:0:
448,192,87124,1,4,0:0:0:0:
64,192,87179,1,0,0:0:0:0:
192,192,87235,1,0,0:0:0:0:
448,192,87290,1,0,0:0:0:0:
320,192,87346,1,0,0:0:0:0:
192,192,87401,1,0,0:0:0:0:
64,192,87457,1,0,0:0:0:0:
320,192,87512,1,0,0:0:0:0:
448,192,87568,1,4,0:0:0:0:
64,192,87596,1,0,0:0:0:0:
192,192,87624,1,0,0:0:0:0:
320,192,87651,1,0,0:0:0:0:
448,192,87679,1,0,0:0:0:0:
64,192,87707,1,0,0:0:0:0:
192,192,87735,1,0,0:0:0:0:
320,192,87762,1,0,0:0:0:0:
448,192,87790,1,0,0:0:0:0:
64,192,87818,1,0,0:0:0:0:
192,192,87846,1,0,0:0:0:0:
320,192,87874,1,0,0:0:0:0:
448,192,87901,1,0,0:0:0:0:
64,192,87929,1,0,0:0:0:0:
192,192,87957,1,0,0:0:0:0:
320,192,87985,1,0,0:0:0:0:
448,192,88012,128,0,88179:0:0:0:0:
64,192,88235,128,0,88401:0:0:0:0:
192,192,88457,128,0,88790:0:0:0:0:
448,192,88901,1,0,0:0:0:0:
320,192,88901,1,4,0:0:0:0:
64,192,88901,1,8,0:0:0:0:
192,192,89012,1,0,0:0:0:0:
64,192,89012,1,8,0:0:0:0:
448,192,89012,1,0,0:0:0:0:
448,192,89124,1,0,0:0:0:0:
320,192,89124,1,0,0:0:0:0:
64,192,89124,1,8,0:0:0:0:
192,192,89235,1,0,0:0:0:0:
64,192,89346,1,8,0:0:0:0:
320,192,89346,1,0,0:0:0:0:
448,192,89457,1,0,0:0:0:0:
192,192,89568,1,0,0:0:0:0:
64,192,89568,1,8,0:0:0:0:
320,192,89679,1,0,0:0:0:0:
64,192,89790,1,8,0:0:0:0:
448,192,89790,1,0,0:0:0:0:
320,192,89901,1,0,0:0:0:0:
192,192,90012,1,0,0:0:0:0:
64,192,90012,1,8,0:0:0:0:
448,192,90124,1,0,0:0:0:0:
320,192,90235,1,0,0:0:0:0:
64,192,90235,1,8,0:0:0:0:
192,192,90346,1,0,0:0:0:0:
320,192,90457,1,8,0:0:0:0:
448,192,90457,1,0,0:0:0:0:
320,192,90568,1,0,0:0:0:0:
192,192,90568,1,8,0:0:0:0:
64,192,90679,1,8,0:0:0:0:
448,192,90679,1,0,0:0:0:0:
320,192,90790,1,0,0:0:0:0:
64,192,90901,1,0,0:0:0:0:
192,192,90901,1,8,0:0:0:0:
448,192,91012,1,0,0:0:0:0:
64,192,91124,1,8,0:0:0:0:
320,192,91124,1,0,0:0:0:0:
192,192,91235,1,0,0:0:0:0:
448,192,91346,1,0,0:0:0:0:
64,192,91346,1,8,0:0:0:0:
320,192,91457,1,0,0:0:0:0:
192,192,91568,1,0,0:0:0:0:
64,192,91568,1,8,0:0:0:0:
320,192,91679,1,0,0:0:0:0:
64,192,91790,1,8,0:0:0:0:
448,192,91790,1,0,0:0:0:0:
320,192,91901,1,0,0:0:0:0:
192,192,92012,1,0,0:0:0:0:
64,192,92012,1,8,0:0:0:0:
320,192,92124,1,8,0:0:0:0:
448,192,92124,1,0,0:0:0:0:
192,192,92235,1,8,0:0:0:0:
64,192,92235,1,0,0:0:0:0:
320,192,92290,1,8,0:0:0:0:
448,192,92290,1,0,0:0:0:0:
192,192,92346,1,8,0:0:0:0:
64,192,92346,1,0,0:0:0:0:
448,192,92401,1,0,0:0:0:0:
320,192,92401,1,8,0:0:0:0:
64,192,92457,1,0,0:0:0:0:
192,192,92457,1,8,0:0:0:0:
448,192,92568,1,0,0:0:0:0:
320,192,92679,1,0,0:0:0:0:
64,192,92679,1,8,0:0:0:0:
192,192,92790,1,0,0:0:0:0:
320,192,92901,1,8,0:0:0:0:
448,192,92901,1,0,0:0:0:0:
64,192,93012,1,0,0:0:0:0:
448,192,93124,1,0,0:0:0:0:
192,192,93124,1,8,0:0:0:0:
320,192,93235,1,0,0:0:0:0:
64,192,93346,1,8,0:0:0:0:
192,192,93346,1,0,0:0:0:0:
320,192,93457,1,0,0:0:0:0:
448,192,93568,1,0,0:0:0:0:
64,192,93568,1,8,0:0:0:0:
192,192,93679,1,0,0:0:0:0:
320,192,93790,1,0,0:0:0:0:
64,192,93790,1,8,0:0:0:0:
448,192,93901,1,0,0:0:0:0:
192,192,94012,1,0,0:0:0:0:
64,192,94012,1,8,0:0:0:0:
192,192,94124,1,0,0:0:0:0:
64,192,94124,1,8,0:0:0:0:
320,192,94235,1,8,0:0:0:0:
448,192,94235,1,0,0:0:0:0:
192,192,94346,1,0,0:0:0:0:
448,192,94457,1,0,0:0:0:0:
64,192,94457,1,8,0:0:0:0:
320,192,94568,1,0,0:0:0:0:
64,192,94679,1,8,0:0:0:0:
192,192,94679,1,0,0:0:0:0:
320,192,94790,1,0,0:0:0:0:
64,192,94901,1,8,0:0:0:0:
448,192,94901,1,0,0:0:0:0:
320,192,95012,1,0,0:0:0:0:
64,192,95124,1,8,0:0:0:0:
192,192,95124,1,0,0:0:0:0:
448,192,95235,1,0,0:0:0:0:
64,192,95235,1,8,0:0:0:0:
192,192,95346,1,8,0:0:0:0:
320,192,95346,1,0,0:0:0:0:
448,192,95457,1,0,0:0:0:0:
320,192,95457,1,8,0:0:0:0:
64,192,95568,128,0,95790:0:0:0:0:
192,192,95568,1,0,0:0:0:0:
448,192,95790,128,0,96012:0:0:0:0:
320,192,95790,1,0,0:0:0:0:
320,192,96012,1,0,0:0:0:0:
192,192,96012,1,8,0:0:0:0:
64,192,96012,1,4,0:0:0:0:
448,192,96124,1,0,0:0:0:0:
192,192,96235,1,0,0:0:0:0:
64,192,96235,1,8,0:0:0:0:
320,192,96346,1,0,0:0:0:0:
448,192,96457,1,0,0:0:0:0:
64,192,96457,1,8,0:0:0:0:
192,192,96568,1,0,0:0:0:0:
320,192,96679,1,8,0:0:0:0:
448,192,96679,1,0,0:0:0:0:
192,192,96790,1,0,0:0:0:0:
320,192,96901,1,0,0:0:0:0:
64,192,96901,1,8,0:0:0:0:
448,192,97012,1,0,0:0:0:0:
320,192,97124,1,0,0:0:0:0:
192,192,97124,1,8,0:0:0:0:
64,192,97235,1,0,0:0:0:0:
192,192,97346,1,8,0:0:0:0:
448,192,97346,1,0,0:0:0:0:
320,192,97457,1,0,0:0:0:0:
64,192,97568,1,8,0:0:0:0:
192,192,97568,1,0,0:0:0:0:
192,192,97679,1,0,0:0:0:0:
64,192,97679,1,8,0:0:0:0:
320,192,97790,1,8,0:0:0:0:
448,192,97790,1,0,0:0:0:0:
192,192,97901,1,0,0:0:0:0:
64,192,98012,1,8,0:0:0:0:
448,192,98012,1,0,0:0:0:0:
192,192,98124,1,0,0:0:0:0:
320,192,98235,1,8,0:0:0:0:
448,192,98235,1,0,0:0:0:0:
192,192,98346,1,0,0:0:0:0:
64,192,98457,1,8,0:0:0:0:
448,192,98457,1,0,0:0:0:0:
320,192,98568,1,0,0:0:0:0:
192,192,98679,1,0,0:0:0:0:
64,192,98679,1,8,0:0:0:0:
320,192,98790,1,0,0:0:0:0:
448,192,98901,1,0,0:0:0:0:
64,192,98901,1,8,0:0:0:0:
192,192,99012,1,0,0:0:0:0:
64,192,99124,1,8,0:0:0:0:
448,192,99124,1,0,0:0:0:0:
192,192,99235,1,0,0:0:0:0:
320,192,99235,1,8,0:0:0:0:
448,192,99346,1,0,0:0:0:0:
64,192,99346,1,8,0:0:0:0:
320,192,99401,1,0,0:0:0:0:
192,192,99401,1,8,0:0:0:0:
64,192,99457,1,8,0:0:0:0:
448,192,99457,1,0,0:0:0:0:
320,192,99512,1,0,0:0:0:0:
192,192,99512,1,8,0:0:0:0:
64,192,99568,1,8,0:0:0:0:
448,192,99568,1,0,0:0:0:0:
192,192,99679,1,0,0:0:0:0:
320,192,99790,1,8,0:0:0:0:
448,192,99790,1,0,0:0:0:0:
192,192,99901,1,0,0:0:0:0:
448,192,100012,1,0,0:0:0:0:
64,192,100012,1,8,0:0:0:0:
320,192,100124,1,0,0:0:0:0:
64,192,100235,1,8,0:0:0:0:
448,192,100235,1,0,0:0:0:0:
192,192,100346,1,0,0:0:0:0:
64,192,100346,1,8,0:0:0:0:
320,192,100457,1,8,0:0:0:0:
448,192,100457,1,0,0:0:0:0:
64,192,100568,1,0,0:0:0:0:
192,192,100679,1,0,0:0:0:0:
448,192,100679,1,8,0:0:0:0:
320,192,100790,1,0,0:0:0:0:
192,192,100901,1,0,0:0:0:0:
64,192,100901,1,8,0:0:0:0:
64,192,101012,1,8,0:0:0:0:
192,192,101012,1,0,0:0:0:0:
448,192,101124,1,0,0:0:0:0:
320,192,101124,1,8,0:0:0:0:
320,192,101235,1,8,0:0:0:0:
448,192,101235,1,0,0:0:0:0:
192,192,101346,1,0,0:0:0:0:
64,192,101346,1,8,0:0:0:0:
320,192,101457,1,0,0:0:0:0:
448,192,101568,1,8,0:0:0:0:
64,192,101568,1,0,0:0:0:0:
192,192,101679,1,0,0:0:0:0:
320,192,101790,1,8,0:0:0:0:
448,192,101790,1,0,0:0:0:0:
64,192,101901,1,0,0:0:0:0:
192,192,102012,1,8,0:0:0:0:
448,192,102012,1,0,0:0:0:0:
320,192,102124,1,0,0:0:0:0:
448,192,102124,1,8,0:0:0:0:
64,192,102235,1,0,0:0:0:0:
192,192,102235,1,8,0:0:0:0:
448,192,102346,1,0,0:0:0:0:
64,192,102346,1,8,0:0:0:0:
320,192,102457,1,8,0:0:0:0:
448,192,102457,1,0,0:0:0:0:
64,192,102568,1,0,0:0:0:0:
192,192,102568,1,8,0:0:0:0:
448,192,102679,1,0,0:0:0:0:
320,192,102707,1,0,0:0:0:0:
192,192,102735,1,0,0:0:0:0:
64,192,102762,1,0,0:0:0:0:
448,192,102790,1,0,0:0:0:0:
320,192,102818,1,0,0:0:0:0:
192,192,102846,1,0,0:0:0:0:
64,192,102874,1,0,0:0:0:0:
448,192,102901,1,0,0:0:0:0:
320,192,102957,1,0,0:0:0:0:
64,192,103012,1,0,0:0:0:0:
192,192,103068,1,0,0:0:0:0:
448,192,103124,1,4,0:0:0:0:
320,192,103124,1,8,0:0:0:0:
448,192,103235,1,0,0:0:0:0:
320,192,103235,1,8,0:0:0:0:
64,192,103346,1,8,0:0:0:0:
192,192,103346,1,0,0:0:0:0:
192,192,103457,1,8,0:0:0:0:
448,192,103457,1,0,0:0:0:0:
448,192,103568,1,0,0:0:0:0:
320,192,103568,1,8,0:0:0:0:
192,192,103679,1,8,0:0:0:0:
64,192,103679,1,0,0:0:0:0:
320,192,103790,1,8,0:0:0:0:
448,192,103790,1,0,0:0:0:0:
192,192,103846,1,8,0:0:0:0:
64,192,103846,1,0,0:0:0:0:
448,192,103901,1,0,0:0:0:0:
320,192,103901,1,8,0:0:0:0:
192,192,103957,1,8,0:0:0:0:
64,192,103957,1,0,0:0:0:0:
320,192,104012,1,8,0:0:0:0:
448,192,104012,1,0,0:0:0:0:
192,192,104124,1,0,0:0:0:0:
448,192,104235,1,0,0:0:0:0:
64,192,104235,1,8,0:0:0:0:
320,192,104346,1,0,0:0:0:0:
64,192,104457,1,8,0:0:0:0:
448,192,104457,1,0,0:0:0:0:
192,192,104568,1,0,0:0:0:0:
320,192,104679,1,8,0:0:0:0:
448,192,104679,1,0,0:0:0:0:
64,192,104790,1,0,0:0:0:0:
320,192,104790,1,8,0:0:0:0:
192,192,104901,1,8,0:0:0:0:
448,192,104901,1,0,0:0:0:0:
64,192,105012,1,0,0:0:0:0:
320,192,105124,1,0,0:0:0:0:
192,192,105124,1,8,0:0:0:0:
448,192,105235,1,0,0:0:0:0:
320,192,105346,1,0,0:0:0:0:
64,192,105346,1,8,0:0:0:0:
192,192,105457,1,0,0:0:0:0:
320,192,105568,1,8,0:0:0:0:
448,192,105568,1,0,0:0:0:0:
192,192,105679,1,0,0:0:0:0:
64,192,105679,1,8,0:0:0:0:
192,192,105790,1,0,0:0:0:0:
448,192,105790,1,8,0:0:0:0:
320,192,105901,1,8,0:0:0:0:
448,192,105901,1,0,0:0:0:0:
64,192,106012,1,8,0:0:0:0:
192,192,106012,1,0,0:0:0:0:
64,192,106179,1,8,0:0:0:0:
448,192,106179,1,0,0:0:0:0:
192,192,106235,1,8,0:0:0:0:
320,192,106235,1,0,0:0:0:0:
320,192,106346,1,8,0:0:0:0:
192,192,106346,1,0,0:0:0:0:
448,192,106457,1,8,0:0:0:0:
64,192,106457,1,0,0:0:0:0:
448,192,106568,1,0,0:0:0:0:
320,192,106568,1,8,0:0:0:0:
64,192,106679,1,8,0:0:0:0:
192,192,106679,1,0,0:0:0:0:
320,192,106790,1,0,0:0:0:0:
448,192,106901,1,0,0:0:0:0:
64,192,106901,1,8,0:0:0:0:
192,192,107012,1,0,0:0:0:0:
448,192,107124,1,0,0:0:0:0:
64,192,107124,1,8,0:0:0:0:
320,192,107235,1,0,0:0:0:0:
192,192,107346,1,0,0:0:0:0:
64,192,107346,1,8,0:0:0:0:
320,192,107457,1,0,0:0:0:0:
448,192,107568,1,0,0:0:0:0:
192,192,107568,1,8,0:0:0:0:
64,192,107679,1,0,0:0:0:0:
320,192,107790,1,8,0:0:0:0:
448,192,107790,1,0,0:0:0:0:
64,192,107901,1,0,0:0:0:0:
448,192,108012,1,0,0:0:0:0:
192,192,108012,1,8,0:0:0:0:
320,192,108124,1,0,0:0:0:0:
192,192,108235,1,8,0:0:0:0:
64,192,108235,1,0,0:0:0:0:
64,192,108346,1,8,0:0:0:0:
448,192,108346,1,0,0:0:0:0:
192,192,108457,1,8,0:0:0:0:
448,192,108457,1,0,0:0:0:0:
320,192,108568,1,0,0:0:0:0:
448,192,108679,5,0,0:0:0:0:
64,192,108679,1,8,0:0:0:0:
192,192,108790,1,0,0:0:0:0:
448,192,108901,1,0,0:0:0:0:
64,192,108901,1,8,0:0:0:0:
320,192,109012,1,0,0:0:0:0:
64,192,109124,1,0,0:0:0:0:
192,192,109124,1,8,0:0:0:0:
64,192,109235,1,0,0:0:0:0:
192,192,109235,1,8,0:0:0:0:
448,192,109346,1,8,0:0:0:0:
320,192,109346,1,0,0:0:0:0:
448,192,109457,1,0,0:0:0:0:
192,192,109457,1,8,0:0:0:0:
192,192,109568,1,0,0:0:0:0:
320,192,109568,1,8,0:0:0:0:
320,192,109679,1,0,0:0:0:0:
448,192,109679,1,8,0:0:0:0:
192,192,109790,128,0,110012:0:0:0:0:
64,192,109790,1,0,0:0:0:0:
448,192,110012,128,0,110235:0:0:0:0:
320,192,110012,1,0,0:0:0:0:
320,192,110235,1,0,0:0:0:0:
192,192,110235,1,8,0:0:0:0:
64,192,110235,1,4,0:0:0:0:
448,192,110346,1,0,0:0:0:0:
320,192,110346,1,8,0:0:0:0:
192,192,110457,1,0,0:0:0:0:
64,192,110457,1,8,0:0:0:0:
448,192,110568,1,0,0:0:0:0:
64,192,110568,1,8,0:0:0:0:
448,192,110679,1,0,0:0:0:0:
320,192,110679,1,8,0:0:0:0:
320,192,110790,1,0,0:0:0:0:
64,192,110790,1,8,0:0:0:0:
64,192,110901,1,8,0:0:0:0:
192,192,110901,1,0,0:0:0:0:
320,192,111012,1,8,0:0:0:0:
448,192,111012,1,0,0:0:0:0:
64,192,111068,1,0,0:0:0:0:
192,192,111068,1,8,0:0:0:0:
448,192,111124,1,0,0:0:0:0:
320,192,111124,1,8,0:0:0:0:
448,192,111235,1,0,0:0:0:0:
64,192,111235,1,8,0:0:0:0:
192,192,111346,1,8,0:0:0:0:
320,192,111346,1,0,0:0:0:0:
64,192,111457,1,8,0:0:0:0:
192,192,111457,1,0,0:0:0:0:
448,192,111568,1,0,0:0:0:0:
320,192,111568,1,8,0:0:0:0:
192,192,111624,1,8,0:0:0:0:
64,192,111624,1,0,0:0:0:0:
320,192,111679,1,8,0:0:0:0:
448,192,111679,1,0,0:0:0:0:
64,192,111790,1,8,0:0:0:0:
448,192,111790,1,0,0:0:0:0:
192,192,111846,1,8,0:0:0:0:
320,192,111846,1,0,0:0:0:0:
64,192,111901,1,8,0:0:0:0:
448,192,111901,1,0,0:0:0:0:
320,192,111957,1,0,0:0:0:0:
192,192,111957,1,8,0:0:0:0:
64,192,112012,1,8,0:0:0:0:
448,192,112012,1,0,0:0:0:0:
192,192,112124,1,0,0:0:0:0:
64,192,112124,1,8,0:0:0:0:
192,192,112235,1,8,0:0:0:0:
448,192,112235,1,0,0:0:0:0:
320,192,112346,1,8,0:0:0:0:
448,192,112346,1,0,0:0:0:0:
192,192,112457,1,0,0:0:0:0:
64,192,112457,1,8,0:0:0:0:
192,192,112568,1,8,0:0:0:0:
320,192,112568,1,0,0:0:0:0:
320,192,112679,1,8,0:0:0:0:
448,192,112679,1,0,0:0:0:0:
64,192,112790,1,0,0:0:0:0:
192,192,112790,1,8,0:0:0:0:
320,192,112846,1,8,0:0:0:0:
448,192,112846,1,0,0:0:0:0:
192,192,112901,1,8,0:0:0:0:
64,192,112901,1,0,0:0:0:0:
192,192,113012,1,8,0:0:0:0:
448,192,113012,1,0,0:0:0:0:
448,192,113124,1,0,0:0:0:0:
320,192,113124,1,8,0:0:0:0:
64,192,113235,1,0,0:0:0:0:
192,192,113235,1,8,0:0:0:0:
448,192,113346,1,0,0:0:0:0:
320,192,113346,1,8,0:0:0:0:
192,192,113401,1,8,0:0:0:0:
64,192,113401,1,0,0:0:0:0:
320,192,113457,1,8,0:0:0:0:
448,192,113457,1,0,0:0:0:0:
64,192,113512,1,0,0:0:0:0:
192,192,113512,1,8,0:0:0:0:
448,192,113568,1,0,0:0:0:0:
320,192,113568,1,8,0:0:0:0:
64,192,113624,1,0,0:0:0:0:
192,192,113624,1,8,0:0:0:0:
448,192,113679,1,0,0:0:0:0:
320,192,113679,1,8,0:0:0:0:
192,192,113735,1,8,0:0:0:0:
64,192,113735,1,0,0:0:0:0:
448,192,113790,1,0,0:0:0:0:
320,192,113790,1,8,0:0:0:0:
320,192,113901,1,0,0:0:0:0:
64,192,113901,1,8,0:0:0:0:
64,192,114012,1,8,0:0:0:0:
448,192,114012,1,0,0:0:0:0:
448,192,114124,1,0,0:0:0:0:
192,192,114124,1,8,0:0:0:0:
192,192,114235,1,0,0:0:0:0:
64,192,114235,1,8,0:0:0:0:
448,192,114346,1,0,0:0:0:0:
320,192,114346,1,8,0:0:0:0:
64,192,114457,1,0,0:0:0:0:
192,192,114512,1,0,0:0:0:0:
448,192,114568,1,0,0:0:0:0:
320,192,114624,1,0,0:0:0:0:
64,192,114679,1,8,0:0:0:0:
192,192,114679,1,0,0:0:0:0:
320,192,114790,1,0,0:0:0:0:
192,192,114790,1,8,0:0:0:0:
448,192,114901,1,0,0:0:0:0:
320,192,114901,1,8,0:0:0:0:
64,192,115012,1,8,0:0:0:0:
448,192,115012,1,0,0:0:0:0:
64,192,115124,1,8,0:0:0:0:
320,192,115124,1,0,0:0:0:0:
320,192,115235,1,8,0:0:0:0:
448,192,115235,1,0,0:0:0:0:
64,192,115346,1,0,0:0:0:0:
192,192,115374,1,0,0:0:0:0:
320,192,115401,1,0,0:0:0:0:
448,192,115429,1,0,0:0:0:0:
64,192,115457,1,0,0:0:0:0:
192,192,115485,1,0,0:0:0:0:
320,192,115512,1,0,0:0:0:0:
448,192,115540,1,0,0:0:0:0:
192,192,115568,1,0,0:0:0:0:
64,192,115568,1,8,0:0:0:0:
192,192,115679,1,8,0:0:0:0:
64,192,115679,1,0,0:0:0:0:
320,192,115790,1,0,0:0:0:0:
192,192,115846,1,0,0:0:0:0:
448,192,115901,1,0,0:0:0:0:
320,192,115957,1,0,0:0:0:0:
192,192,116012,1,0,0:0:0:0:
64,192,116012,1,8,0:0:0:0:
448,192,116124,1,0,0:0:0:0:
320,192,116124,1,8,0:0:0:0:
64,192,116235,1,0,0:0:0:0:
192,192,116262,1,0,0:0:0:0:
448,192,116290,1,0,0:0:0:0:
320,192,116318,1,0,0:0:0:0:
64,192,116346,1,0,0:0:0:0:
192,192,116374,1,0,0:0:0:0:
448,192,116401,1,0,0:0:0:0:
320,192,116429,1,0,0:0:0:0:
64,192,116457,1,0,0:0:0:0:
192,192,116512,1,0,0:0:0:0:
448,192,116568,1,0,0:0:0:0:
320,192,116624,1,0,0:0:0:0:
192,192,116679,1,0,0:0:0:0:
64,192,116679,1,0,0:0:0:0:
448,192,116735,1,0,0:0:0:0:
320,192,116790,1,0,0:0:0:0:
64,192,116790,1,0,0:0:0:0:
192,192,116846,1,0,0:0:0:0:
448,192,116901,1,0,0:0:0:0:
320,192,116929,1,0,0:0:0:0:
192,192,116957,1,0,0:0:0:0:
64,192,116985,1,0,0:0:0:0:
448,192,117012,1,0,0:0:0:0:
320,192,117040,1,0,0:0:0:0:
192,192,117068,1,0,0:0:0:0:
64,192,117096,1,0,0:0:0:0:
448,192,117124,1,0,0:0:0:0:
320,192,117151,1,0,0:0:0:0:
192,192,117179,1,0,0:0:0:0:
64,192,117207,1,0,0:0:0:0:
448,192,117235,1,0,0:0:0:0:
320,192,117262,1,0,0:0:0:0:
64,192,117290,1,0,0:0:0:0:
192,192,117318,1,0,0:0:0:0:
448,192,117346,128,0,117568:0:0:0:0:
320,192,117346,128,0,117568:0:0:0:0:
192,192,117790,1,0,0:0:0:0:
64,192,117790,1,0,0:0:0:0:
448,192,118190,1,0,0:0:0:0:
192,192,118190,1,0,0:0:0:0:
64,192,118590,1,0,0:0:0:0:
448,192,118990,1,0,0:0:0:0:
320,192,118990,1,0,0:0:0:0:
64,192,119390,1,0,0:0:0:0:
64,192,119790,128,0,119990:0:0:0:0:
192,192,119790,1,0,0:0:0:0:
448,192,119990,128,0,120190:0:0:0:0:
320,192,120190,128,0,120390:0:0:0:0:
64,192,120190,1,0,0:0:0:0:
192,192,120190,1,0,0:0:0:0:
64,192,120390,128,0,120590:0:0:0:0:
192,192,120590,128,0,120790:0:0:0:0:
320,192,120790,128,0,120990:0:0:0:0:
64,192,120990,128,0,121190:0:0:0:0:
192,192,121190,128,0,121390:0:0:0:0:
320,192,121390,128,0,121590:0:0:0:0:
64,192,121590,128,0,121790:0:0:0:0:
448,192,121790,128,0,122190:0:0:0:0:
320,192,121790,1,0,0:0:0:0:
64,192,122190,128,0,122590:0:0:0:0:
192,192,122590,128,0,122990:0:0:0:0:
448,192,122590,1,0,0:0:0:0:
320,192,122990,128,0,123390:0:0:0:0:
448,192,123390,128,0,124190:0:0:0:0:
64,192,123390,1,0,0:0:0:0:
320,192,124190,128,0,124390:0:0:0:0:
192,192,124390,128,0,124590:0:0:0:0:
64,192,124590,128,0,124790:0:0:0:0:
320,192,124790,128,0,125390:0:0:0:0:
192,192,124990,128,0,125390:0:0:0:0:
448,192,125390,128,0,125523:0:0:0:0:
64,192,125523,128,0,125656:0:0:0:0:
448,192,125656,128,0,125790:0:0:0:0:
192,192,125790,128,0,126190:0:0:0:0:
64,192,126190,128,0,126390:0:0:0:0:
448,192,126390,128,0,126590:0:0:0:0:
192,192,126590,128,0,126990:0:0:0:0:
320,192,126590,128,0,127190:0:0:0:0:
448,192,127190,128,0,127790:0:0:0:0:
192,192,127790,128,0,127990:0:0:0:0:
320,192,127990,128,0,128190:0:0:0:0:
64,192,128190,128,0,128590:0:0:0:0:
448,192,128190,128,0,128590:0:0:0:0:
320,192,128590,128,0,128990:0:0:0:0:
192,192,128990,128,0,129790:0:0:0:0:
448,192,129790,128,0,130190:0:0:0:0:
64,192,129790,1,4,0:0:0:0:
320,192,129790,1,8,0:0:0:0:
192,192,129990,1,0,0:0:0:0:
320,192,130190,128,0,130590:0:0:0:0:
64,192,130190,1,8,0:0:0:0:
448,192,130390,1,0,0:0:0:0:
64,192,130590,1,8,0:0:0:0:
192,192,130590,1,0,0:0:0:0:
192,192,130790,1,0,0:0:0:0:
64,192,130890,1,0,0:0:0:0:
320,192,130990,128,0,131390:0:0:0:0:
448,192,130990,1,8,0:0:0:0:
64,192,131190,1,0,0:0:0:0:
192,192,131390,1,8,0:0:0:0:
448,192,131490,1,0,0:0:0:0:
320,192,131590,1,0,0:0:0:0:
448,192,131790,128,0,132190:0:0:0:0:
64,192,131790,1,8,0:0:0:0:
192,192,131990,1,8,0:0:0:0:
320,192,132190,1,0,0:0:0:0:
64,192,132190,1,8,0:0:0:0:
192,192,132290,1,0,0:0:0:0:
64,192,132390,1,0,0:0:0:0:
320,192,132490,1,0,0:0:0:0:
448,192,132590,128,0,132790:0:0:0:0:
192,192,132590,1,8,0:0:0:0:
64,192,132690,1,0,0:0:0:0:
320,192,132790,128,0,133190:0:0:0:0:
192,192,132790,1,0,0:0:0:0:
64,192,132890,1,0,0:0:0:0:
448,192,132990,1,8,0:0:0:0:
64,192,133190,128,0,133390:0:0:0:0:
192,192,133190,1,0,0:0:0:0:
192,192,133390,128,0,133590:0:0:0:0:
448,192,133390,1,8,0:0:0:0:
320,192,133590,128,0,133790:0:0:0:0:
64,192,133590,1,0,0:0:0:0:
64,192,133790,128,0,133990:0:0:0:0:
448,192,133790,1,0,0:0:0:0:
192,192,133790,1,8,0:0:0:0:
192,192,133990,128,0,134190:0:0:0:0:
320,192,133990,1,0,0:0:0:0:
320,192,134190,128,0,134390:0:0:0:0:
64,192,134190,1,8,0:0:0:0:
192,192,134390,128,0,134590:0:0:0:0:
448,192,134390,1,0,0:0:0:0:
320,192,134590,128,0,134990:0:0:0:0:
64,192,134590,1,8,0:0:0:0:
192,192,134790,1,0,0:0:0:0:
448,192,134990,128,0,135390:0:0:0:0:
64,192,134990,1,8,0:0:0:0:
192,192,135190,1,8,0:0:0:0:
64,192,135390,128,0,135790:0:0:0:0:
320,192,135390,1,0,0:0:0:0:
192,192,135390,1,8,0:0:0:0:
448,192,135590,1,8,0:0:0:0:
192,192,135790,128,0,136190:0:0:0:0:
320,192,135790,1,8,0:0:0:0:
448,192,135790,1,0,0:0:0:0:
64,192,135990,1,0,0:0:0:0:
320,192,135990,1,8,0:0:0:0:
448,192,136190,128,0,136990:0:0:0:0:
320,192,136190,1,8,0:0:0:0:
64,192,136390,1,0,0:0:0:0:
192,192,136490,1,0,0:0:0:0:
320,192,136590,1,8,0:0:0:0:
192,192,136790,1,0,0:0:0:0:
320,192,136990,128,0,137190:0:0:0:0:
64,192,136990,1,8,0:0:0:0:
192,192,136990,1,0,0:0:0:0:
192,192,137190,128,0,137390:0:0:0:0:
448,192,137190,1,0,0:0:0:0:
64,192,137390,128,0,137590:0:0:0:0:
320,192,137390,1,8,0:0:0:0:
320,192,137590,128,0,138190:0:0:0:0:
448,192,137590,1,0,0:0:0:0:
64,192,137790,128,0,138190:0:0:0:0:
192,192,137790,1,8,0:0:0:0:
448,192,137990,1,0,0:0:0:0:
448,192,138190,128,0,138323:0:0:0:0:
192,192,138190,1,8,0:0:0:0:
320,192,138323,128,0,138456:0:0:0:0:
64,192,138390,1,8,0:0:0:0:
448,192,138456,128,0,138590:0:0:0:0:
192,192,138590,128,0,138990:0:0:0:0:
320,192,138590,1,0,0:0:0:0:
64,192,138590,1,8,0:0:0:0:
448,192,138790,1,0,0:0:0:0:
448,192,138990,128,0,139190:0:0:0:0:
64,192,138990,1,8,0:0:0:0:
192,192,139190,128,0,139390:0:0:0:0:
320,192,139190,1,0,0:0:0:0:
448,192,139390,1,8,0:0:0:0:
64,192,139390,128,0,139790:0:0:0:0:
320,192,139390,128,0,139990:0:0:0:0:
192,192,139590,1,0,0:0:0:0:
448,192,139790,1,8,0:0:0:0:
448,192,139990,128,0,140590:0:0:0:0:
64,192,139990,1,0,0:0:0:0:
320,192,140190,1,0,0:0:0:0:
192,192,140190,1,8,0:0:0:0:
64,192,140390,1,0,0:0:0:0:
192,192,140590,128,0,140790:0:0:0:0:
320,192,140590,1,8,0:0:0:0:
320,192,140790,128,0,140990:0:0:0:0:
448,192,140790,1,0,0:0:0:0:
448,192,140990,128,0,141390:0:0:0:0:
64,192,140990,128,0,141390:0:0:0:0:
192,192,140990,1,8,0:0:0:0:
320,192,141190,1,0,0:0:0:0:
320,192,141390,128,0,141790:0:0:0:0:
192,192,141390,1,8,0:0:0:0:
64,192,141590,1,8,0:0:0:0:
192,192,141790,128,0,142590:0:0:0:0:
448,192,141790,1,0,0:0:0:0:
64,192,141790,1,8,0:0:0:0:
320,192,141990,1,8,0:0:0:0:
320,192,142190,1,8,0:0:0:0:
448,192,142190,1,0,0:0:0:0:
320,192,142290,1,8,0:0:0:0:
448,192,142290,1,0,0:0:0:0:
448,192,142390,1,0,0:0:0:0:
320,192,142390,1,8,0:0:0:0:
320,192,142490,1,8,0:0:0:0:
448,192,142490,1,0,0:0:0:0:
320,192,142590,1,8,0:0:0:0:
448,192,142590,1,4,0:0:0:0:
64,192,142590,128,0,142990:0:0:0:0:
448,192,142790,1,0,0:0:0:0:
192,192,142990,128,0,143390:0:0:0:0:
320,192,142990,1,8,0:0:0:0:
64,192,143190,1,0,0:0:0:0:
320,192,143390,1,0,0:0:0:0:
448,192,143390,1,8,0:0:0:0:
448,192,143590,1,0,0:0:0:0:
320,192,143690,1,0,0:0:0:0:
192,192,143790,128,0,144190:0:0:0:0:
64,192,143790,1,8,0:0:0:0:
320,192,143890,1,0,0:0:0:0:
448,192,143990,1,0,0:0:0:0:
320,192,144190,1,8,0:0:0:0:
448,192,144290,1,0,0:0:0:0:
64,192,144390,1,0,0:0:0:0:
448,192,144590,128,0,144990:0:0:0:0:
64,192,144590,1,8,0:0:0:0:
320,192,144790,1,8,0:0:0:0:
192,192,144990,1,0,0:0:0:0:
64,192,144990,1,8,0:0:0:0:
320,192,145090,1,0,0:0:0:0:
64,192,145190,1,0,0:0:0:0:
192,192,145290,1,0,0:0:0:0:
448,192,145390,128,0,145590:0:0:0:0:
320,192,145390,1,8,0:0:0:0:
192,192,145490,1,0,0:0:0:0:
64,192,145590,128,0,145990:0:0:0:0:
320,192,145590,1,0,0:0:0:0:
192,192,145690,1,0,0:0:0:0:
448,192,145790,1,8,0:0:0:0:
320,192,145890,1,0,0:0:0:0:
192,192,145990,128,0,146190:0:0:0:0:
448,192,145990,1,0,0:0:0:0:
320,192,146190,128,0,146390:0:0:0:0:
64,192,146190,1,8,0:0:0:0:
448,192,146390,128,0,146590:0:0:0:0:
192,192,146390,1,0,0:0:0:0:
192,192,146590,128,0,146790:0:0:0:0:
64,192,146590,1,8,0:0:0:0:
320,192,146590,1,0,0:0:0:0:
320,192,146790,128,0,146990:0:0:0:0:
448,192,146790,1,0,0:0:0:0:
448,192,146990,128,0,147190:0:0:0:0:
192,192,146990,1,8,0:0:0:0:
64,192,147190,128,0,147390:0:0:0:0:
320,192,147190,1,0,0:0:0:0:
192,192,147390,128,0,147790:0:0:0:0:
448,192,147390,1,8,0:0:0:0:
64,192,147590,1,0,0:0:0:0:
320,192,147790,128,0,148190:0:0:0:0:
448,192,147790,1,8,0:0:0:0:
192,192,147990,1,8,0:0:0:0:
448,192,148190,128,0,148590:0:0:0:0:
64,192,148190,1,8,0:0:0:0:
192,192,148190,1,0,0:0:0:0:
64,192,148390,1,8,0:0:0:0:
192,192,148590,128,0,148990:0:0:0:0:
64,192,148590,1,8,0:0:0:0:
320,192,148590,1,0,0:0:0:0:
448,192,148790,1,0,0:0:0:0:
320,192,148790,1,8,0:0:0:0:
64,192,148990,128,0,149790:0:0:0:0:
320,192,148990,1,8,0:0:0:0:
192,192,149190,1,0,0:0:0:0:
320,192,149390,1,8,0:0:0:0:
448,192,149590,1,0,0:0:0:0:
320,192,149790,128,0,149990:0:0:0:0:
192,192,149790,1,8,0:0:0:0:
448,192,149790,1,0,0:0:0:0:
192,192,149990,128,0,150190:0:0:0:0:
64,192,149990,1,0,0:0:0:0:
64,192,150190,128,0,150390:0:0:0:0:
448,192,150190,1,8,0:0:0:0:
320,192,150390,128,0,150990:0:0:0:0:
192,192,150390,1,0,0:0:0:0:
64,192,150590,128,0,150990:0:0:0:0:
448,192,150590,1,8,0:0:0:0:
192,192,150790,1,0,0:0:0:0:
448,192,150990,128,0,151123:0:0:0:0:
192,192,150990,1,8,0:0:0:0:
320,192,151123,128,0,151256:0:0:0:0:
64,192,151190,1,8,0:0:0:0:
448,192,151256,128,0,151390:0:0:0:0:
192,192,151390,128,0,151790:0:0:0:0:
320,192,151390,1,0,0:0:0:0:
64,192,151390,1,8,0:0:0:0:
448,192,151590,1,0,0:0:0:0:
448,192,151790,128,0,151990:0:0:0:0:
64,192,151790,1,8,0:0:0:0:
192,192,151990,128,0,152190:0:0:0:0:
64,192,151990,1,0,0:0:0:0:
64,192,152190,128,0,152590:0:0:0:0:
320,192,152190,128,0,152790:0:0:0:0:
448,192,152190,1,8,0:0:0:0:
448,192,152390,1,0,0:0:0:0:
192,192,152590,1,8,0:0:0:0:
448,192,152790,128,0,153390:0:0:0:0:
192,192,152790,1,0,0:0:0:0:
64,192,152990,1,8,0:0:0:0:
192,192,152990,1,0,0:0:0:0:
320,192,153190,1,0,0:0:0:0:
192,192,153390,128,0,153590:0:0:0:0:
64,192,153390,1,8,0:0:0:0:
320,192,153590,128,0,153790:0:0:0:0:
448,192,153590,1,0,0:0:0:0:
64,192,153790,128,0,154190:0:0:0:0:
448,192,153790,128,0,154190:0:0:0:0:
192,192,153790,1,8,0:0:0:0:
320,192,153990,1,0,0:0:0:0:
320,192,154190,1,8,0:0:0:0:
192,192,154190,128,0,154590:0:0:0:0:
448,192,154390,5,8,0:0:0:0:
320,192,154590,128,0,155390:0:0:0:0:
64,192,154590,1,0,0:0:0:0:
448,192,154590,1,8,0:0:0:0:
64,192,154790,1,8,0:0:0:0:
64,192,154990,1,0,0:0:0:0:
192,192,154990,1,8,0:0:0:0:
192,192,155090,1,8,0:0:0:0:
64,192,155090,1,0,0:0:0:0:
192,192,155190,1,8,0:0:0:0:
64,192,155190,1,0,0:0:0:0:
192,192,155290,1,8,0:0:0:0:
64,192,155290,1,0,0:0:0:0:
448,192,155390,5,0,0:0:0:0:
192,192,155390,1,8,0:0:0:0:
64,192,155390,1,4,0:0:0:0:
320,192,155753,1,8,0:0:0:0:
448,192,155753,1,0,0:0:0:0:
320,192,156117,1,0,0:0:0:0:
192,192,156117,1,8,0:0:0:0:
64,192,156480,1,8,0:0:0:0:
192,192,156480,1,0,0:0:0:0:
320,192,156844,1,4,0:0:0:0:
448,192,156844,1,8,0:0:0:0:
64,192,156844,1,0,0:0:0:0:
192,192,157177,1,8,0:0:0:0:
448,192,157177,1,0,0:0:0:0:
64,192,157510,1,8,0:0:0:0:
192,192,157510,1,0,0:0:0:0:
448,192,157844,1,0,0:0:0:0:
320,192,157844,1,8,0:0:0:0:
64,192,158177,1,8,0:0:0:0:
192,192,158177,1,4,0:0:0:0:
320,192,158177,1,0,0:0:0:0:
448,192,158484,1,0,0:0:0:0:
320,192,158484,1,8,0:0:0:0:
64,192,158792,1,8,0:0:0:0:
320,192,158792,1,0,0:0:0:0:
64,192,159100,1,8,0:0:0:0:
448,192,159100,1,0,0:0:0:0:
448,192,159407,1,4,0:0:0:0:
320,192,159407,1,8,0:0:0:0:
192,192,159407,1,0,0:0:0:0:
64,192,159692,1,8,0:0:0:0:
320,192,159692,1,0,0:0:0:0:
448,192,159978,1,0,0:0:0:0:
192,192,159978,1,8,0:0:0:0:
320,192,160264,1,8,0:0:0:0:
448,192,160264,1,0,0:0:0:0:
64,192,160549,1,8,0:0:0:0:
192,192,160549,1,4,0:0:0:0:
448,192,160549,1,0,0:0:0:0:
448,192,160815,1,0,0:0:0:0:
320,192,160815,1,8,0:0:0:0:
64,192,161082,1,8,0:0:0:0:
320,192,161082,1,0,0:0:0:0:
192,192,161349,1,0,0:0:0:0:
64,192,161349,1,8,0:0:0:0:
448,192,161615,1,0,0:0:0:0:
320,192,161615,1,4,0:0:0:0:
192,192,161615,1,8,0:0:0:0:
64,192,161865,1,8,0:0:0:0:
448,192,161865,1,0,0:0:0:0:
64,192,162115,1,8,0:0:0:0:
192,192,162115,1,0,0:0:0:0:
192,192,162365,1,8,0:0:0:0:
448,192,162365,1,0,0:0:0:0:
64,192,162615,1,0,0:0:0:0:
320,192,162615,1,8,0:0:0:0:
448,192,162615,1,4,0:0:0:0:
192,192,162850,1,0,0:0:0:0:
64,192,162850,1,8,0:0:0:0:
448,192,163085,1,0,0:0:0:0:
320,192,163085,1,8,0:0:0:0:
64,192,163320,1,8,0:0:0:0:
448,192,163320,1,0,0:0:0:0:
448,192,163556,1,0,0:0:0:0:
192,192,163556,1,4,0:0:0:0:
64,192,163556,1,8,0:0:0:0:
320,192,163778,1,0,0:0:0:0:
192,192,163778,1,8,0:0:0:0:
64,192,164000,1,8,0:0:0:0:
320,192,164000,1,0,0:0:0:0:
448,192,164222,1,0,0:0:0:0:
64,192,164222,1,8,0:0:0:0:
448,192,164444,1,4,0:0:0:0:
192,192,164444,1,0,0:0:0:0:
320,192,164444,1,8,0:0:0:0:
448,192,164654,1,0,0:0:0:0:
64,192,164654,1,8,0:0:0:0:
448,192,164865,1,0,0:0:0:0:
192,192,164865,1,8,0:0:0:0:
192,192,165075,1,0,0:0:0:0:
64,192,165075,1,8,0:0:0:0:
320,192,165286,1,8,0:0:0:0:
448,192,165286,1,4,0:0:0:0:
64,192,165286,1,0,0:0:0:0:
448,192,165486,1,0,0:0:0:0:
192,192,165486,1,8,0:0:0:0:
320,192,165686,1,0,0:0:0:0:
192,192,165686,1,8,0:0:0:0:
192,192,165886,1,0,0:0:0:0:
64,192,165886,1,8,0:0:0:0:
64,192,166086,1,0,0:0:0:0:
320,192,166086,1,8,0:0:0:0:
448,192,166086,1,4,0:0:0:0:
320,192,166276,1,8,0:0:0:0:
448,192,166276,1,0,0:0:0:0:
192,192,166466,1,8,0:0:0:0:
64,192,166466,1,0,0:0:0:0:
192,192,166657,1,8,0:0:0:0:
320,192,166657,1,0,0:0:0:0:
448,192,166847,1,4,0:0:0:0:
320,192,166847,1,8,0:0:0:0:
64,192,166847,1,0,0:0:0:0:
448,192,167028,1,0,0:0:0:0:
192,192,167028,1,8,0:0:0:0:
64,192,167210,1,8,0:0:0:0:
192,192,167210,1,0,0:0:0:0:
320,192,167392,1,8,0:0:0:0:
448,192,167392,1,0,0:0:0:0:
64,192,167574,1,8,0:0:0:0:
192,192,167574,1,4,0:0:0:0:
320,192,167574,1,0,0:0:0:0:
448,192,167747,1,0,0:0:0:0:
64,192,167747,1,8,0:0:0:0:
192,192,167921,1,8,0:0:0:0:
320,192,167921,1,0,0:0:0:0:
64,192,168095,1,0,0:0:0:0:
192,192,168095,1,8,0:0:0:0:
448,192,168269,1,4,0:0:0:0:
320,192,168269,1,8,0:0:0:0:
64,192,168269,1,0,0:0:0:0:
192,192,168435,1,8,0:0:0:0:
448,192,168435,1,0,0:0:0:0:
320,192,168602,1,0,0:0:0:0:
192,192,168602,1,8,0:0:0:0:
64,192,168769,1,8,0:0:0:0:
448,192,168769,1,0,0:0:0:0:
64,192,168935,1,8,0:0:0:0:
192,192,168935,1,4,0:0:0:0:
320,192,168935,1,0,0:0:0:0:
320,192,169095,1,8,0:0:0:0:
448,192,169095,1,0,0:0:0:0:
64,192,169255,1,8,0:0:0:0:
448,192,169255,1,0,0:0:0:0:
192,192,169415,1,0,0:0:0:0:
64,192,169415,1,8,0:0:0:0:
448,192,169575,1,4,0:0:0:0:
320,192,169575,1,8,0:0:0:0:
192,192,169575,1,0,0:0:0:0:
64,192,169728,1,8,0:0:0:0:
192,192,169728,1,0,0:0:0:0:
320,192,169882,1,0,0:0:0:0:
64,192,169882,1,8,0:0:0:0:
320,192,170036,1,8,0:0:0:0:
448,192,170036,1,0,0:0:0:0:
64,192,170190,1,8,0:0:0:0:
448,192,170190,1,0,0:0:0:0:
192,192,170190,1,4,0:0:0:0:
64,192,170338,1,8,0:0:0:0:
192,192,170338,1,0,0:0:0:0:
448,192,170486,1,0,0:0:0:0:
320,192,170486,1,8,0:0:0:0:
192,192,170634,1,0,0:0:0:0:
64,192,170634,1,8,0:0:0:0:
448,192,170782,1,4,0:0:0:0:
320,192,170782,1,8,0:0:0:0:
64,192,170782,1,0,0:0:0:0:
320,192,170924,1,8,0:0:0:0:
448,192,170924,1,0,0:0:0:0:
192,192,171067,1,0,0:0:0:0:
64,192,171067,1,8,0:0:0:0:
448,192,171210,1,0,0:0:0:0:
320,192,171210,1,8,0:0:0:0:
64,192,171353,1,8,0:0:0:0:
192,192,171353,1,4,0:0:0:0:
320,192,171353,1,0,0:0:0:0:
448,192,171490,1,0,0:0:0:0:
192,192,171490,1,8,0:0:0:0:
64,192,171628,1,8,0:0:0:0:
320,192,171628,1,0,0:0:0:0:
448,192,171766,1,0,0:0:0:0:
64,192,171766,1,8,0:0:0:0:
448,192,171904,1,4,0:0:0:0:
320,192,171904,1,8,0:0:0:0:
192,192,171904,1,0,0:0:0:0:
64,192,172037,1,8,0:0:0:0:
192,192,172037,1,0,0:0:0:0:
448,192,172170,1,0,0:0:0:0:
64,192,172170,1,8,0:0:0:0:
192,192,172304,1,8,0:0:0:0:
320,192,172304,1,0,0:0:0:0:
64,192,172437,1,0,0:0:0:0:
320,192,172437,1,8,0:0:0:0:
448,192,172437,1,4,0:0:0:0:
64,192,172566,1,8,0:0:0:0:
192,192,172566,1,0,0:0:0:0:
448,192,172695,1,0,0:0:0:0:
192,192,172695,1,8,0:0:0:0:
448,192,172824,1,0,0:0:0:0:
320,192,172824,1,8,0:0:0:0:
320,192,172953,1,0,0:0:0:0:
64,192,172953,1,8,0:0:0:0:
192,192,172953,1,4,0:0:0:0:
448,192,173078,1,0,0:0:0:0:
64,192,173078,1,8,0:0:0:0:
448,192,173203,1,0,0:0:0:0:
320,192,173203,1,8,0:0:0:0:
64,192,173328,1,0,0:0:0:0:
192,192,173328,1,8,0:0:0:0:
320,192,173453,1,8,0:0:0:0:
64,192,173453,1,0,0:0:0:0:
448,192,173453,1,4,0:0:0:0:
320,192,173574,1,0,0:0:0:0:
192,192,173574,1,8,0:0:0:0:
448,192,173695,1,0,0:0:0:0:
64,192,173695,1,8,0:0:0:0:
64,192,173816,1,8,0:0:0:0:
192,192,173816,1,0,0:0:0:0:
448,192,173937,1,4,0:0:0:0:
320,192,173937,1,8,0:0:0:0:
192,192,173937,1,0,0:0:0:0:
320,192,174054,1,8,0:0:0:0:
448,192,174054,1,0,0:0:0:0:
192,192,174172,1,8,0:0:0:0:
64,192,174172,1,0,0:0:0:0:
320,192,174289,1,8,0:0:0:0:
448,192,174289,1,0,0:0:0:0:
64,192,174407,1,4,0:0:0:0:
192,192,174407,1,8,0:0:0:0:
448,192,174407,1,0,0:0:0:0:
320,192,174522,1,0,0:0:0:0:
192,192,174522,1,8,0:0:0:0:
320,192,174637,1,8,0:0:0:0:
448,192,174637,1,0,0:0:0:0:
192,192,174753,1,0,0:0:0:0:
64,192,174753,1,8,0:0:0:0:
192,192,174868,1,4,0:0:0:0:
64,192,174868,1,8,0:0:0:0:
448,192,174868,1,0,0:0:0:0:
448,192,174983,1,0,0:0:0:0:
320,192,174983,1,8,0:0:0:0:
64,192,175099,1,0,0:0:0:0:
320,192,175099,1,8,0:0:0:0:
448,192,175099,1,4,0:0:0:0:
64,192,175214,1,0,0:0:0:0:
192,192,175214,1,8,0:0:0:0:
64,192,175330,1,8,0:0:0:0:
192,192,175330,1,4,0:0:0:0:
448,192,175330,1,0,0:0:0:0:
320,192,175387,1,0,0:0:0:0:
64,192,175445,1,0,0:0:0:0:
192,192,175503,1,0,0:0:0:0:
448,192,175560,1,0,0:0:0:0:
320,192,175618,1,0,0:0:0:0:
64,192,175676,1,0,0:0:0:0:
192,192,175733,1,0,0:0:0:0:
448,192,175791,1,0,0:0:0:0:
320,192,175820,1,0,0:0:0:0:
64,192,175849,1,0,0:0:0:0:
192,192,175878,1,0,0:0:0:0:
448,192,175907,1,0,0:0:0:0:
320,192,175935,1,0,0:0:0:0:
64,192,175964,1,0,0:0:0:0:
192,192,175993,1,0,0:0:0:0:
448,192,176022,1,0,0:0:0:0:
320,192,176051,1,0,0:0:0:0:
64,192,176080,1,0,0:0:0:0:
192,192,176108,1,0,0:0:0:0:
448,192,176137,1,0,0:0:0:0:
320,192,176166,1,0,0:0:0:0:
64,192,176195,1,0,0:0:0:0:
192,192,176224,1,0,0:0:0:0:
448,192,176253,128,4,179253:0:0:0:0:
320,192,176253,128,0,179253:0:0:0:0:
448,192,179453,1,0,0:0:0:0:
192,192,179453,1,4,0:0:0:0:
64,192,179453,1,8,0:0:0:0:
64,192,179553,1,0,0:0:0:0:
192,192,179653,1,8,0:0:0:0:
320,192,179653,1,0,0:0:0:0:
448,192,179653,1,0,0:0:0:0:
448,192,179753,1,0,0:0:0:0:
64,192,179853,1,8,0:0:0:0:
192,192,179853,1,0,0:0:0:0:
320,192,179853,1,0,0:0:0:0:
192,192,179953,1,0,0:0:0:0:
448,192,180053,1,0,0:0:0:0:
64,192,180053,1,0,0:0:0:0:
320,192,180053,1,8,0:0:0:0:
448,192,180153,1,0,0:0:0:0:
64,192,180253,1,8,0:0:0:0:
192,192,180253,1,0,0:0:0:0:
320,192,180253,1,0,0:0:0:0:
64,192,180353,1,0,0:0:0:0:
448,192,180453,1,0,0:0:0:0:
192,192,180453,1,8,0:0:0:0:
320,192,180453,1,0,0:0:0:0:
448,192,180553,1,0,0:0:0:0:
320,192,180653,1,8,0:0:0:0:
64,192,180653,1,0,0:0:0:0:
192,192,180653,1,0,0:0:0:0:
64,192,180753,1,0,0:0:0:0:
320,192,180853,1,8,0:0:0:0:
448,192,180853,1,0,0:0:0:0:
192,192,180953,1,0,0:0:0:0:
448,192,180953,1,8,0:0:0:0:
192,192,181053,1,0,0:0:0:0:
64,192,181053,1,8,0:0:0:0:
320,192,181153,1,0,0:0:0:0:
64,192,181253,1,8,0:0:0:0:
448,192,181253,1,0,0:0:0:0:
192,192,181253,1,0,0:0:0:0:
64,192,181353,1,0,0:0:0:0:
448,192,181453,1,8,0:0:0:0:
192,192,181453,1,0,0:0:0:0:
320,192,181453,1,0,0:0:0:0:
320,192,181553,1,0,0:0:0:0:
448,192,181653,1,0,0:0:0:0:
192,192,181653,1,8,0:0:0:0:
64,192,181653,1,0,0:0:0:0:
64,192,181753,1,0,0:0:0:0:
448,192,181853,1,8,0:0:0:0:
192,192,181853,1,0,0:0:0:0:
320,192,181853,1,0,0:0:0:0:
448,192,181953,1,0,0:0:0:0:
320,192,182053,1,0,0:0:0:0:
192,192,182053,1,8,0:0:0:0:
64,192,182053,1,0,0:0:0:0:
192,192,182153,1,0,0:0:0:0:
448,192,182253,1,0,0:0:0:0:
320,192,182253,1,8,0:0:0:0:
64,192,182253,1,0,0:0:0:0:
320,192,182353,1,0,0:0:0:0:
192,192,182453,1,8,0:0:0:0:
64,192,182453,1,0,0:0:0:0:
320,192,182553,1,8,0:0:0:0:
192,192,182553,1,0,0:0:0:0:
448,192,182653,1,8,0:0:0:0:
320,192,182653,1,0,0:0:0:0:
192,192,182753,1,0,0:0:0:0:
448,192,182853,1,0,0:0:0:0:
64,192,182853,1,8,0:0:0:0:
320,192,182853,1,0,0:0:0:0:
320,192,182953,1,0,0:0:0:0:
448,192,183053,1,0,0:0:0:0:
192,192,183053,1,8,0:0:0:0:
64,192,183053,1,0,0:0:0:0:
64,192,183153,1,0,0:0:0:0:
192,192,183253,1,0,0:0:0:0:
320,192,183253,1,8,0:0:0:0:
448,192,183253,1,0,0:0:0:0:
320,192,183353,1,0,0:0:0:0:
64,192,183453,1,8,0:0:0:0:
448,192,183453,1,0,0:0:0:0:
192,192,183453,1,0,0:0:0:0:
192,192,183553,1,0,0:0:0:0:
320,192,183653,1,8,0:0:0:0:
448,192,183653,1,0,0:0:0:0:
64,192,183653,1,0,0:0:0:0:
448,192,183753,1,0,0:0:0:0:
192,192,183853,1,8,0:0:0:0:
320,192,183853,1,0,0:0:0:0:
64,192,183853,1,0,0:0:0:0:
64,192,183953,1,0,0:0:0:0:
320,192,184053,1,8,0:0:0:0:
448,192,184053,1,0,0:0:0:0:
192,192,184153,1,8,0:0:0:0:
320,192,184153,1,0,0:0:0:0:
64,192,184253,1,8,0:0:0:0:
192,192,184253,1,0,0:0:0:0:
448,192,184353,1,0,0:0:0:0:
192,192,184453,1,8,0:0:0:0:
64,192,184453,1,0,0:0:0:0:
64,192,184553,1,8,0:0:0:0:
320,192,184553,1,0,0:0:0:0:
448,192,184653,1,0,0:0:0:0:
64,192,184753,1,8,0:0:0:0:
192,192,184753,1,0,0:0:0:0:
192,192,184853,1,0,0:0:0:0:
64,192,184853,1,8,0:0:0:0:
320,192,184953,1,8,0:0:0:0:
448,192,184953,1,0,0:0:0:0:
64,192,185053,1,0,0:0:0:0:
320,192,185053,1,8,0:0:0:0:
448,192,185053,1,0,0:0:0:0:
64,192,185153,1,8,0:0:0:0:
192,192,185153,1,0,0:0:0:0:
64,192,185253,1,8,0:0:0:0:
448,192,185253,1,0,0:0:0:0:
320,192,185253,1,0,0:0:0:0:
320,192,185353,1,8,0:0:0:0:
448,192,185353,1,0,0:0:0:0:
448,192,185453,1,0,0:0:0:0:
64,192,185453,1,0,0:0:0:0:
192,192,185453,1,8,0:0:0:0:
320,192,185503,1,8,0:0:0:0:
192,192,185553,1,8,0:0:0:0:
64,192,185553,1,0,0:0:0:0:
448,192,185653,1,0,0:0:0:0:
320,192,185653,1,8,0:0:0:0:
64,192,185653,1,0,0:0:0:0:
320,192,185753,1,8,0:0:0:0:
448,192,185753,1,0,0:0:0:0:
64,192,185853,1,0,0:0:0:0:
192,192,185853,1,8,0:0:0:0:
320,192,185853,1,0,0:0:0:0:
448,192,185953,1,0,0:0:0:0:
320,192,186053,1,8,0:0:0:0:
64,192,186053,1,0,0:0:0:0:
192,192,186053,1,0,0:0:0:0:
64,192,186153,1,0,0:0:0:0:
320,192,186253,1,0,0:0:0:0:
448,192,186253,1,8,0:0:0:0:
192,192,186253,1,0,0:0:0:0:
320,192,186353,1,0,0:0:0:0:
64,192,186453,1,0,0:0:0:0:
192,192,186453,1,8,0:0:0:0:
448,192,186453,1,0,0:0:0:0:
64,192,186553,1,0,0:0:0:0:
320,192,186653,1,0,0:0:0:0:
192,192,186653,1,0,0:0:0:0:
448,192,186653,1,8,0:0:0:0:
448,192,186753,1,0,0:0:0:0:
192,192,186853,1,0,0:0:0:0:
64,192,186853,1,0,0:0:0:0:
320,192,186853,1,8,0:0:0:0:
64,192,186953,1,0,0:0:0:0:
320,192,187053,1,0,0:0:0:0:
192,192,187053,1,8,0:0:0:0:
448,192,187053,1,0,0:0:0:0:
448,192,187153,1,0,0:0:0:0:
192,192,187253,1,0,0:0:0:0:
64,192,187253,1,8,0:0:0:0:
192,192,187353,1,8,0:0:0:0:
320,192,187353,1,0,0:0:0:0:
64,192,187453,1,0,0:0:0:0:
448,192,187453,1,8,0:0:0:0:
192,192,187553,1,0,0:0:0:0:
320,192,187653,1,0,0:0:0:0:
448,192,187653,1,8,0:0:0:0:
64,192,187653,1,0,0:0:0:0:
320,192,187753,1,0,0:0:0:0:
192,192,187853,1,0,0:0:0:0:
448,192,187853,1,0,0:0:0:0:
64,192,187853,1,8,0:0:0:0:
192,192,187953,1,0,0:0:0:0:
448,192,188053,1,0,0:0:0:0:
320,192,188053,1,8,0:0:0:0:
64,192,188053,1,0,0:0:0:0:
448,192,188153,1,0,0:0:0:0:
64,192,188253,1,8,0:0:0:0:
192,192,188253,1,0,0:0:0:0:
320,192,188253,1,0,0:0:0:0:
64,192,188353,1,0,0:0:0:0:
320,192,188453,1,8,0:0:0:0:
192,192,188453,1,0,0:0:0:0:
448,192,188453,1,0,0:0:0:0:
320,192,188553,1,0,0:0:0:0:
448,192,188653,1,0,0:0:0:0:
192,192,188653,1,8,0:0:0:0:
64,192,188653,1,0,0:0:0:0:
192,192,188753,1,0,0:0:0:0:
448,192,188853,1,0,0:0:0:0:
320,192,188853,1,8,0:0:0:0:
320,192,188953,1,8,0:0:0:0:
64,192,188953,1,0,0:0:0:0:
64,192,189053,1,0,0:0:0:0:
192,192,189053,1,8,0:0:0:0:
448,192,189153,1,0,0:0:0:0:
64,192,189253,1,0,0:0:0:0:
320,192,189253,1,8,0:0:0:0:
192,192,189253,1,0,0:0:0:0:
192,192,189353,1,0,0:0:0:0:
320,192,189453,1,8,0:0:0:0:
448,192,189453,1,0,0:0:0:0:
64,192,189453,1,0,0:0:0:0:
448,192,189553,1,0,0:0:0:0:
320,192,189653,1,0,0:0:0:0:
192,192,189653,1,8,0:0:0:0:
64,192,189653,1,0,0:0:0:0:
192,192,189753,1,0,0:0:0:0:
448,192,189853,1,8,0:0:0:0:
64,192,189853,1,0,0:0:0:0:
320,192,189853,1,0,0:0:0:0:
320,192,189953,1,0,0:0:0:0:
192,192,190053,1,8,0:0:0:0:
64,192,190053,1,0,0:0:0:0:
448,192,190053,1,0,0:0:0:0:
64,192,190153,1,0,0:0:0:0:
448,192,190253,1,0,0:0:0:0:
320,192,190253,1,8,0:0:0:0:
192,192,190253,1,0,0:0:0:0:
448,192,190353,1,0,0:0:0:0:
192,192,190453,1,8,0:0:0:0:
64,192,190453,1,0,0:0:0:0:
192,192,190553,1,8,0:0:0:0:
448,192,190553,1,0,0:0:0:0:
448,192,190653,1,8,0:0:0:0:
320,192,190653,1,0,0:0:0:0:
64,192,190753,1,0,0:0:0:0:
320,192,190853,1,0,0:0:0:0:
448,192,190853,1,8,0:0:0:0:
64,192,190953,1,0,0:0:0:0:
448,192,190953,1,8,0:0:0:0:
192,192,191053,1,0,0:0:0:0:
64,192,191153,1,0,0:0:0:0:
448,192,191153,1,8,0:0:0:0:
448,192,191253,1,8,0:0:0:0:
320,192,191253,1,0,0:0:0:0:
192,192,191353,1,8,0:0:0:0:
64,192,191353,1,0,0:0:0:0:
64,192,191453,1,8,0:0:0:0:
448,192,191453,1,0,0:0:0:0:
192,192,191453,1,0,0:0:0:0:
448,192,191553,1,8,0:0:0:0:
320,192,191553,1,0,0:0:0:0:
192,192,191653,1,8,0:0:0:0:
64,192,191653,1,0,0:0:0:0:
448,192,191753,1,0,0:0:0:0:
192,192,191753,1,8,0:0:0:0:
64,192,191853,1,0,0:0:0:0:
448,192,191853,1,8,0:0:0:0:
320,192,191903,1,8,0:0:0:0:
192,192,191953,1,0,0:0:0:0:
64,192,191953,1,8,0:0:0:0:
192,192,192053,1,0,0:0:0:0:
64,192,192053,1,8,0:0:0:0:
320,192,192153,1,8,0:0:0:0:
448,192,192153,1,0,0:0:0:0:
448,192,192253,1,8,0:0:0:0:
320,192,192253,1,4,0:0:0:0:
64,192,192253,1,0,0:0:0:0:
192,192,192353,1,0,0:0:0:0:
64,192,192453,1,8,0:0:0:0:
320,192,192453,1,0,0:0:0:0:
448,192,192453,1,0,0:0:0:0:
448,192,192553,1,0,0:0:0:0:
192,192,192653,1,0,0:0:0:0:
64,192,192653,1,8,0:0:0:0:
320,192,192653,1,0,0:0:0:0:
192,192,192753,1,0,0:0:0:0:
64,192,192853,1,8,0:0:0:0:
320,192,192853,1,0,0:0:0:0:
448,192,192853,1,0,0:0:0:0:
448,192,192953,1,0,0:0:0:0:
320,192,193053,1,0,0:0:0:0:
192,192,193053,1,8,0:0:0:0:
64,192,193053,1,0,0:0:0:0:
64,192,193153,1,0,0:0:0:0:
448,192,193253,1,0,0:0:0:0:
320,192,193253,1,0,0:0:0:0:
192,192,193253,1,8,0:0:0:0:
320,192,193353,1,0,0:0:0:0:
64,192,193453,1,8,0:0:0:0:
192,192,193453,1,0,0:0:0:0:
448,192,193453,1,0,0:0:0:0:
64,192,193553,1,0,0:0:0:0:
448,192,193653,1,0,0:0:0:0:
320,192,193653,1,8,0:0:0:0:
192,192,193753,1,8,0:0:0:0:
448,192,193753,1,0,0:0:0:0:
64,192,193853,1,8,0:0:0:0:
192,192,193853,1,0,0:0:0:0:
448,192,193953,1,0,0:0:0:0:
192,192,194053,1,8,0:0:0:0:
64,192,194053,1,0,0:0:0:0:
320,192,194053,1,0,0:0:0:0:
64,192,194153,1,0,0:0:0:0:
320,192,194253,1,8,0:0:0:0:
192,192,194253,1,0,0:0:0:0:
448,192,194253,1,0,0:0:0:0:
448,192,194353,1,0,0:0:0:0:
320,192,194453,1,0,0:0:0:0:
64,192,194453,1,0,0:0:0:0:
192,192,194453,1,8,0:0:0:0:
192,192,194553,1,0,0:0:0:0:
448,192,194653,1,8,0:0:0:0:
64,192,194653,1,0,0:0:0:0:
320,192,194653,1,0,0:0:0:0:
448,192,194753,1,0,0:0:0:0:
64,192,194853,1,0,0:0:0:0:
192,192,194853,1,8,0:0:0:0:
320,192,194853,1,0,0:0:0:0:
64,192,194953,1,0,0:0:0:0:
448,192,195053,1,0,0:0:0:0:
320,192,195053,1,0,0:0:0:0:
192,192,195053,1,8,0:0:0:0:
320,192,195153,1,0,0:0:0:0:
192,192,195253,1,8,0:0:0:0:
64,192,195253,1,0,0:0:0:0:
448,192,195353,1,0,0:0:0:0:
64,192,195353,1,8,0:0:0:0:
448,192,195453,1,0,0:0:0:0:
320,192,195453,1,8,0:0:0:0:
64,192,195553,1,0,0:0:0:0:
448,192,195653,1,0,0:0:0:0:
320,192,195653,1,8,0:0:0:0:
192,192,195653,1,0,0:0:0:0:
448,192,195753,1,0,0:0:0:0:
320,192,195853,1,0,0:0:0:0:
192,192,195853,1,8,0:0:0:0:
64,192,195853,1,0,0:0:0:0:
64,192,195953,1,0,0:0:0:0:
320,192,196053,1,0,0:0:0:0:
192,192,196053,1,8,0:0:0:0:
448,192,196053,1,0,0:0:0:0:
320,192,196153,1,0,0:0:0:0:
64,192,196253,1,0,0:0:0:0:
192,192,196253,1,0,0:0:0:0:
448,192,196253,1,8,0:0:0:0:
64,192,196353,1,0,0:0:0:0:
320,192,196453,1,0,0:0:0:0:
192,192,196453,1,8,0:0:0:0:
448,192,196453,1,0,0:0:0:0:
448,192,196553,1,0,0:0:0:0:
320,192,196653,1,0,0:0:0:0:
192,192,196653,1,0,0:0:0:0:
64,192,196653,1,8,0:0:0:0:
64,192,196753,1,0,0:0:0:0:
448,192,196853,1,0,0:0:0:0:
320,192,196853,1,8,0:0:0:0:
320,192,196953,1,0,0:0:0:0:
192,192,196953,1,8,0:0:0:0:
64,192,197053,1,8,0:0:0:0:
192,192,197053,1,0,0:0:0:0:
320,192,197153,1,0,0:0:0:0:
448,192,197253,1,8,0:0:0:0:
64,192,197253,1,0,0:0:0:0:
448,192,197353,1,0,0:0:0:0:
192,192,197353,1,8,0:0:0:0:
64,192,197453,1,0,0:0:0:0:
320,192,197553,1,8,0:0:0:0:
448,192,197553,1,0,0:0:0:0:
64,192,197653,1,0,0:0:0:0:
192,192,197653,1,8,0:0:0:0:
320,192,197653,1,0,0:0:0:0:
64,192,197753,1,0,0:0:0:0:
192,192,197753,1,8,0:0:0:0:
448,192,197853,1,0,0:0:0:0:
320,192,197853,1,8,0:0:0:0:
192,192,197853,1,0,0:0:0:0:
320,192,197953,1,8,0:0:0:0:
448,192,197953,1,0,0:0:0:0:
64,192,198053,1,0,0:0:0:0:
192,192,198053,1,8,0:0:0:0:
320,192,198053,1,0,0:0:0:0:
192,192,198153,1,8,0:0:0:0:
64,192,198153,1,0,0:0:0:0:
448,192,198253,1,0,0:0:0:0:
320,192,198253,1,8,0:0:0:0:
64,192,198303,1,0,0:0:0:0:
192,192,198303,1,8,0:0:0:0:
448,192,198353,1,0,0:0:0:0:
320,192,198353,1,8,0:0:0:0:
320,192,198453,1,8,0:0:0:0:
448,192,198453,1,0,0:0:0:0:
64,192,198553,1,0,0:0:0:0:
192,192,198553,1,8,0:0:0:0:
64,192,198653,1,0,0:0:0:0:
448,192,198653,1,0,0:0:0:0:
320,192,198653,1,8,0:0:0:0:
448,192,198753,1,0,0:0:0:0:
320,192,198853,1,0,0:0:0:0:
192,192,198853,1,8,0:0:0:0:
64,192,198853,1,0,0:0:0:0:
192,192,198953,1,0,0:0:0:0:
448,192,199053,1,0,0:0:0:0:
64,192,199053,1,0,0:0:0:0:
320,192,199053,1,8,0:0:0:0:
320,192,199153,1,0,0:0:0:0:
64,192,199253,1,0,0:0:0:0:
448,192,199253,1,0,0:0:0:0:
192,192,199253,1,8,0:0:0:0:
64,192,199353,1,0,0:0:0:0:
320,192,199453,1,8,0:0:0:0:
192,192,199453,1,0,0:0:0:0:
448,192,199453,1,0,0:0:0:0:
320,192,199553,1,0,0:0:0:0:
192,192,199653,1,8,0:0:0:0:
448,192,199653,1,0,0:0:0:0:
64,192,199653,1,0,0:0:0:0:
192,192,199753,1,0,0:0:0:0:
320,192,199853,1,8,0:0:0:0:
448,192,199853,1,0,0:0:0:0:
64,192,199853,1,0,0:0:0:0:
448,192,199953,1,0,0:0:0:0:
192,192,200053,1,8,0:0:0:0:
64,192,200053,1,0,0:0:0:0:
448,192,200153,1,0,0:0:0:0:
192,192,200153,1,8,0:0:0:0:
64,192,200253,1,0,0:0:0:0:
320,192,200253,1,8,0:0:0:0:
448,192,200353,1,0,0:0:0:0:
320,192,200453,1,0,0:0:0:0:
192,192,200453,1,8,0:0:0:0:
64,192,200453,1,0,0:0:0:0:
64,192,200553,1,0,0:0:0:0:
320,192,200653,1,0,0:0:0:0:
448,192,200653,1,0,0:0:0:0:
192,192,200653,1,8,0:0:0:0:
320,192,200753,1,0,0:0:0:0:
448,192,200853,1,0,0:0:0:0:
192,192,200853,1,8,0:0:0:0:
64,192,200853,1,0,0:0:0:0:
64,192,200953,1,0,0:0:0:0:
448,192,201053,1,0,0:0:0:0:
192,192,201053,1,8,0:0:0:0:
320,192,201053,1,0,0:0:0:0:
448,192,201153,1,0,0:0:0:0:
320,192,201253,1,0,0:0:0:0:
64,192,201253,1,0,0:0:0:0:
192,192,201253,1,8,0:0:0:0:
192,192,201353,1,0,0:0:0:0:
448,192,201453,1,0,0:0:0:0:
320,192,201453,1,0,0:0:0:0:
64,192,201453,1,8,0:0:0:0:
448,192,201553,1,0,0:0:0:0:
192,192,201653,1,8,0:0:0:0:
64,192,201653,1,0,0:0:0:0:
448,192,201753,1,0,0:0:0:0:
192,192,201753,1,8,0:0:0:0:
64,192,201853,1,0,0:0:0:0:
448,192,201853,1,8,0:0:0:0:
320,192,201953,1,0,0:0:0:0:
448,192,202053,1,0,0:0:0:0:
64,192,202053,1,0,0:0:0:0:
192,192,202053,1,8,0:0:0:0:
64,192,202153,1,0,0:0:0:0:
448,192,202253,1,0,0:0:0:0:
320,192,202253,1,0,0:0:0:0:
192,192,202253,1,8,0:0:0:0:
320,192,202353,1,0,0:0:0:0:
448,192,202453,1,8,0:0:0:0:
192,192,202453,1,0,0:0:0:0:
64,192,202453,1,0,0:0:0:0:
192,192,202553,1,0,0:0:0:0:
448,192,202653,1,0,0:0:0:0:
320,192,202653,1,8,0:0:0:0:
64,192,202653,1,0,0:0:0:0:
448,192,202753,1,0,0:0:0:0:
320,192,202853,1,0,0:0:0:0:
64,192,202853,1,0,0:0:0:0:
192,192,202853,1,8,0:0:0:0:
192,192,202953,1,0,0:0:0:0:
448,192,203053,1,0,0:0:0:0:
320,192,203053,1,0,0:0:0:0:
64,192,203053,1,8,0:0:0:0:
448,192,203153,1,0,0:0:0:0:
64,192,203253,1,0,0:0:0:0:
192,192,203253,1,8,0:0:0:0:
320,192,203353,1,0,0:0:0:0:
192,192,203353,1,8,0:0:0:0:
64,192,203453,1,0,0:0:0:0:
448,192,203453,1,8,0:0:0:0:
320,192,203553,1,0,0:0:0:0:
64,192,203653,1,0,0:0:0:0:
192,192,203653,1,8,0:0:0:0:
448,192,203653,1,0,0:0:0:0:
320,192,203753,1,8,0:0:0:0:
192,192,203753,1,0,0:0:0:0:
448,192,203853,1,0,0:0:0:0:
320,192,203853,1,8,0:0:0:0:
448,192,203953,1,0,0:0:0:0:
64,192,203953,1,8,0:0:0:0:
64,192,204053,1,0,0:0:0:0:
192,192,204053,1,8,0:0:0:0:
320,192,204153,1,8,0:0:0:0:
448,192,204153,1,0,0:0:0:0:
192,192,204203,1,8,0:0:0:0:
64,192,204203,1,0,0:0:0:0:
448,192,204253,1,0,0:0:0:0:
320,192,204253,1,8,0:0:0:0:
64,192,204353,1,0,0:0:0:0:
192,192,204353,1,8,0:0:0:0:
448,192,204453,1,0,0:0:0:0:
192,192,204453,1,8,0:0:0:0:
448,192,204553,1,0,0:0:0:0:
320,192,204553,1,8,0:0:0:0:
64,192,204653,1,0,0:0:0:0:
192,192,204653,1,8,0:0:0:0:
320,192,204703,1,8,0:0:0:0:
448,192,204703,1,0,0:0:0:0:
192,192,204753,1,8,0:0:0:0:
64,192,204753,1,0,0:0:0:0:
320,192,204803,1,8,0:0:0:0:
448,192,204803,1,0,0:0:0:0:
64,192,204853,1,0,0:0:0:0:
192,192,204878,1,0,0:0:0:0:
320,192,204903,1,0,0:0:0:0:
448,192,204928,1,0,0:0:0:0:
64,192,204953,1,0,0:0:0:0:
192,192,204978,1,0,0:0:0:0:
320,192,205003,1,0,0:0:0:0:
448,192,205028,1,0,0:0:0:0:
192,192,205053,1,4,0:0:0:0:
64,192,205053,1,8,0:0:0:0:
320,192,205153,1,8,0:0:0:0:
448,192,205153,1,0,0:0:0:0:
448,192,205253,1,0,0:0:0:0:
192,192,205253,1,8,0:0:0:0:
64,192,205353,1,8,0:0:0:0:
192,192,205353,1,0,0:0:0:0:
448,192,205453,1,0,0:0:0:0:
64,192,205453,1,8,0:0:0:0:
448,192,205553,1,0,0:0:0:0:
320,192,205553,1,8,0:0:0:0:
64,192,205653,1,0,0:0:0:0:
192,192,205653,1,8,0:0:0:0:
64,192,205753,1,0,0:0:0:0:
320,192,205753,1,8,0:0:0:0:
320,192,205853,1,8,0:0:0:0:
448,192,205853,1,0,0:0:0:0:
64,192,205953,1,8,0:0:0:0:
448,192,205953,1,0,0:0:0:0:
64,192,206053,1,8,0:0:0:0:
192,192,206053,1,0,0:0:0:0:
320,192,206153,1,0,0:0:0:0:
448,192,206153,1,8,0:0:0:0:
320,192,206253,1,8,0:0:0:0:
64,192,206253,1,0,0:0:0:0:
192,192,206353,1,0,0:0:0:0:
448,192,206353,1,8,0:0:0:0:
64,192,206453,1,8,0:0:0:0:
192,192,206453,1,0,0:0:0:0:
320,192,206553,1,8,0:0:0:0:
448,192,206553,1,0,0:0:0:0:
192,192,206603,1,8,0:0:0:0:
64,192,206603,1,0,0:0:0:0:
320,192,206653,1,8,0:0:0:0:
448,192,206653,1,0,0:0:0:0:
64,192,206753,1,0,0:0:0:0:
192,192,206753,1,8,0:0:0:0:
448,192,206853,1,0,0:0:0:0:
192,192,206853,1,8,0:0:0:0:
320,192,206953,1,8,0:0:0:0:
64,192,206953,1,0,0:0:0:0:
448,192,207053,1,0,0:0:0:0:
320,192,207053,1,8,0:0:0:0:
64,192,207153,1,8,0:0:0:0:
192,192,207153,1,0,0:0:0:0:
320,192,207253,1,0,0:0:0:0:
64,192,207253,1,8,0:0:0:0:
320,192,207353,1,8,0:0:0:0:
448,192,207353,1,0,0:0:0:0:
192,192,207453,1,8,0:0:0:0:
64,192,207453,1,0,0:0:0:0:
64,192,207553,1,8,0:0:0:0:
448,192,207553,1,0,0:0:0:0:
320,192,207653,1,8,0:0:0:0:
448,192,207653,1,0,0:0:0:0:
64,192,207753,1,0,0:0:0:0:
192,192,207753,1,8,0:0:0:0:
448,192,207853,1,0,0:0:0:0:
320,192,207853,1,8,0:0:0:0:
192,192,207903,1,8,0:0:0:0:
64,192,207903,1,0,0:0:0:0:
448,192,207953,1,0,0:0:0:0:
320,192,207953,1,8,0:0:0:0:
64,192,208003,1,0,0:0:0:0:
192,192,208003,1,8,0:0:0:0:
320,192,208053,1,8,0:0:0:0:
448,192,208053,1,0,0:0:0:0:
64,192,208153,1,8,0:0:0:0:
320,192,208153,1,0,0:0:0:0:
448,192,208253,1,0,0:0:0:0:
192,192,208253,1,8,0:0:0:0:
192,192,208353,1,8,0:0:0:0:
64,192,208353,1,0,0:0:0:0:
448,192,208453,1,8,0:0:0:0:
64,192,208453,1,0,0:0:0:0:
320,192,208553,1,0,0:0:0:0:
448,192,208553,1,8,0:0:0:0:
64,192,208653,1,8,0:0:0:0:
320,192,208653,1,0,0:0:0:0:
192,192,208753,1,8,0:0:0:0:
448,192,208753,1,0,0:0:0:0:
64,192,208853,1,0,0:0:0:0:
192,192,208853,1,8,0:0:0:0:
448,192,208953,1,0,0:0:0:0:
320,192,208953,1,8,0:0:0:0:
64,192,209053,1,0,0:0:0:0:
448,192,209053,1,8,0:0:0:0:
320,192,209153,1,8,0:0:0:0:
192,192,209153,1,0,0:0:0:0:
320,192,209253,1,8,0:0:0:0:
64,192,209253,1,0,0:0:0:0:
448,192,209353,1,0,0:0:0:0:
64,192,209353,1,8,0:0:0:0:
192,192,209453,1,8,0:0:0:0:
448,192,209453,1,0,0:0:0:0:
64,192,209553,1,0,0:0:0:0:
320,192,209553,1,8,0:0:0:0:
64,192,209653,1,8,0:0:0:0:
192,192,209653,1,0,0:0:0:0:
448,192,209753,1,0,0:0:0:0:
320,192,209753,1,8,0:0:0:0:
192,192,209803,1,8,0:0:0:0:
64,192,209803,1,0,0:0:0:0:
448,192,209853,1,0,0:0:0:0:
320,192,209853,1,8,0:0:0:0:
320,192,209953,1,8,0:0:0:0:
448,192,209953,1,0,0:0:0:0:
192,192,210003,1,8,0:0:0:0:
64,192,210003,1,0,0:0:0:0:
448,192,210053,1,0,0:0:0:0:
320,192,210053,1,8,0:0:0:0:
64,192,210153,1,0,0:0:0:0:
192,192,210153,1,8,0:0:0:0:
192,192,210253,1,8,0:0:0:0:
64,192,210253,1,0,0:0:0:0:
320,192,210303,1,8,0:0:0:0:
448,192,210303,1,0,0:0:0:0:
64,192,210353,1,0,0:0:0:0:
192,192,210353,1,8,0:0:0:0:
448,192,210453,1,0,0:0:0:0:
320,192,210453,1,8,0:0:0:0:
64,192,210553,1,8,0:0:0:0:
192,192,210553,1,0,0:0:0:0:
320,192,210653,1,8,0:0:0:0:
448,192,210653,1,0,0:0:0:0:
192,192,210703,1,8,0:0:0:0:
64,192,210703,1,0,0:0:0:0:
320,192,210753,1,8,0:0:0:0:
448,192,210753,1,0,0:0:0:0:
192,192,210803,1,8,0:0:0:0:
64,192,210803,1,0,0:0:0:0:
320,192,210853,1,8,0:0:0:0:
448,192,210853,1,0,0:0:0:0:
64,192,210953,1,8,0:0:0:0:
192,192,210953,1,0,0:0:0:0:
448,192,211053,1,0,0:0:0:0:
320,192,211078,1,0,0:0:0:0:
192,192,211103,1,0,0:0:0:0:
64,192,211128,1,0,0:0:0:0:
448,192,211153,1,0,0:0:0:0:
320,192,211178,1,0,0:0:0:0:
192,192,211203,1,0,0:0:0:0:
64,192,211228,1,0,0:0:0:0:
448,192,211253,1,0,0:0:0:0:
320,192,211303,1,0,0:0:0:0:
64,192,211353,1,0,0:0:0:0:
192,192,211403,1,0,0:0:0:0:
320,192,211453,1,0,0:0:0:0:
448,192,211453,1,8,0:0:0:0:
448,192,211553,1,8,0:0:0:0:
64,192,211553,1,0,0:0:0:0:
192,192,211653,1,8,0:0:0:0:
64,192,211653,1,0,0:0:0:0:
320,192,211753,1,8,0:0:0:0:
448,192,211753,1,0,0:0:0:0:
320,192,211853,1,0,0:0:0:0:
64,192,211853,1,8,0:0:0:0:
64,192,211953,1,8,0:0:0:0:
192,192,211953,1,0,0:0:0:0:
448,192,212053,1,0,0:0:0:0:
320,192,212053,1,8,0:0:0:0:
448,192,212153,1,0,0:0:0:0:
64,192,212153,1,8,0:0:0:0:
64,192,212253,1,8,0:0:0:0:
192,192,212253,1,0,0:0:0:0:
448,192,212353,1,0,0:0:0:0:
192,192,212353,1,8,0:0:0:0:
448,192,212453,1,0,0:0:0:0:
320,192,212453,1,8,0:0:0:0:
64,192,212553,1,0,0:0:0:0:
192,192,212553,1,8,0:0:0:0:
448,192,212653,1,0,0:0:0:0:
64,192,212653,1,8,0:0:0:0:
192,192,212753,1,0,0:0:0:0:
320,192,212753,1,8,0:0:0:0:
320,192,212853,1,8,0:0:0:0:
448,192,212853,1,0,0:0:0:0:
192,192,212953,1,8,0:0:0:0:
64,192,212953,1,0,0:0:0:0:
448,192,213003,1,0,0:0:0:0:
320,192,213003,1,8,0:0:0:0:
64,192,213053,1,0,0:0:0:0:
192,192,213053,1,8,0:0:0:0:
320,192,213153,1,8,0:0:0:0:
448,192,213153,1,0,0:0:0:0:
320,192,213253,1,8,0:0:0:0:
64,192,213253,1,0,0:0:0:0:
192,192,213353,1,8,0:0:0:0:
64,192,213353,1,0,0:0:0:0:
448,192,213453,1,0,0:0:0:0:
320,192,213453,1,8,0:0:0:0:
448,192,213553,1,0,0:0:0:0:
64,192,213553,1,8,0:0:0:0:
192,192,213653,1,8,0:0:0:0:
64,192,213653,1,0,0:0:0:0:
192,192,213753,1,0,0:0:0:0:
320,192,213753,1,8,0:0:0:0:
448,192,213853,1,0,0:0:0:0:
64,192,213853,1,8,0:0:0:0:
448,192,213953,1,8,0:0:0:0:
192,192,213953,1,0,0:0:0:0:
64,192,214053,1,8,0:0:0:0:
320,192,214053,1,0,0:0:0:0:
64,192,214153,1,0,0:0:0:0:
192,192,214153,1,8,0:0:0:0:
320,192,214253,1,8,0:0:0:0:
448,192,214253,1,0,0:0:0:0:
192,192,214303,1,8,0:0:0:0:
64,192,214303,1,0,0:0:0:0:
320,192,214353,1,8,0:0:0:0:
448,192,214353,1,0,0:0:0:0:
64,192,214453,1,0,0:0:0:0:
192,192,214453,1,8,0:0:0:0:
448,192,214553,1,0,0:0:0:0:
192,192,214553,1,8,0:0:0:0:
64,192,214653,1,8,0:0:0:0:
448,192,214653,1,0,0:0:0:0:
192,192,214753,1,0,0:0:0:0:
320,192,214753,1,8,0:0:0:0:
448,192,214853,1,0,0:0:0:0:
320,192,214853,1,8,0:0:0:0:
192,192,214953,1,8,0:0:0:0:
64,192,214953,1,0,0:0:0:0:
320,192,215053,1,0,0:0:0:0:
192,192,215053,1,8,0:0:0:0:
448,192,215153,1,0,0:0:0:0:
64,192,215153,1,8,0:0:0:0:
320,192,215253,1,8,0:0:0:0:
448,192,215253,1,0,0:0:0:0:
192,192,215353,1,8,0:0:0:0:
64,192,215353,1,0,0:0:0:0:
320,192,215453,1,0,0:0:0:0:
192,192,215453,1,8,0:0:0:0:
448,192,215553,1,8,0:0:0:0:
64,192,215553,1,0,0:0:0:0:
448,192,215653,1,8,0:0:0:0:
320,192,215653,1,0,0:0:0:0:
192,192,215753,1,8,0:0:0:0:
64,192,215753,1,0,0:0:0:0:
192,192,215853,1,0,0:0:0:0:
320,192,215853,1,8,0:0:0:0:
448,192,215953,1,8,0:0:0:0:
64,192,215953,1,0,0:0:0:0:
320,192,216053,1,0,0:0:0:0:
448,192,216053,1,8,0:0:0:0:
64,192,216153,1,0,0:0:0:0:
192,192,216153,1,8,0:0:0:0:
448,192,216203,1,0,0:0:0:0:
320,192,216203,1,8,0:0:0:0:
192,192,216253,1,8,0:0:0:0:
64,192,216253,1,0,0:0:0:0:
192,192,216353,1,8,0:0:0:0:
64,192,216353,1,0,0:0:0:0:
448,192,216403,1,8,0:0:0:0:
320,192,216403,1,0,0:0:0:0:
64,192,216453,1,0,0:0:0:0:
192,192,216453,1,8,0:0:0:0:
448,192,216553,1,8,0:0:0:0:
320,192,216553,1,0,0:0:0:0:
192,192,216653,1,0,0:0:0:0:
64,192,216653,1,8,0:0:0:0:
448,192,216703,1,8,0:0:0:0:
320,192,216703,1,0,0:0:0:0:
192,192,216753,1,0,0:0:0:0:
64,192,216753,1,8,0:0:0:0:
448,192,216853,1,8,0:0:0:0:
320,192,216853,1,0,0:0:0:0:
64,192,216903,1,8,0:0:0:0:
192,192,216903,1,0,0:0:0:0:
448,192,216953,1,8,0:0:0:0:
320,192,216953,1,0,0:0:0:0:
64,192,217053,1,0,0:0:0:0:
192,192,217103,1,0,0:0:0:0:
448,192,217153,1,0,0:0:0:0:
320,192,217203,1,0,0:0:0:0:
64,192,217253,1,0,0:0:0:0:
192,192,217253,1,0,0:0:0:0:
448,192,217303,1,0,0:0:0:0:
64,192,217353,1,0,0:0:0:0:
320,192,217353,1,0,0:0:0:0:
192,192,217403,1,0,0:0:0:0:
448,192,217453,1,0,0:0:0:0:
320,192,217478,1,0,0:0:0:0:
192,192,217503,1,0,0:0:0:0:
64,192,217528,1,0,0:0:0:0:
448,192,217553,1,0,0:0:0:0:
320,192,217578,1,0,0:0:0:0:
192,192,217603,1,0,0:0:0:0:
64,192,217628,1,0,0:0:0:0:
448,192,217653,1,0,0:0:0:0:
320,192,217678,1,0,0:0:0:0:
192,192,217703,1,0,0:0:0:0:
64,192,217728,1,0,0:0:0:0:
448,192,217753,1,0,0:0:0:0:
320,192,217778,1,0,0:0:0:0:
192,192,217803,1,0,0:0:0:0:
64,192,217828,1,0,0:0:0:0:
448,192,217853,1,4,0:0:0:0:
320,192,217853,1,8,0:0:0:0:
64,192,217953,1,0,0:0:0:0:
192,192,217953,1,8,0:0:0:0:
320,192,218053,1,0,0:0:0:0:
192,192,218053,1,8,0:0:0:0:
448,192,218153,1,0,0:0:0:0:
64,192,218153,1,8,0:0:0:0:
320,192,218253,1,8,0:0:0:0:
448,192,218253,1,0,0:0:0:0:
64,192,218353,1,0,0:0:0:0:
192,192,218353,1,8,0:0:0:0:
320,192,218453,1,0,0:0:0:0:
192,192,218453,1,8,0:0:0:0:
448,192,218553,1,8,0:0:0:0:
320,192,218553,1,0,0:0:0:0:
64,192,218653,1,0,0:0:0:0:
192,192,218653,1,8,0:0:0:0:
448,192,218753,1,8,0:0:0:0:
64,192,218753,1,0,0:0:0:0:
448,192,218853,1,0,0:0:0:0:
320,192,218853,1,8,0:0:0:0:
64,192,218953,1,8,0:0:0:0:
192,192,218953,1,0,0:0:0:0:
448,192,219053,1,0,0:0:0:0:
64,192,219053,1,8,0:0:0:0:
320,192,219153,1,8,0:0:0:0:
448,192,219153,1,0,0:0:0:0:
64,192,219253,1,0,0:0:0:0:
192,192,219253,1,8,0:0:0:0:
320,192,219353,1,8,0:0:0:0:
448,192,219353,1,0,0:0:0:0:
192,192,219403,1,8,0:0:0:0:
64,192,219403,1,0,0:0:0:0:
448,192,219453,1,0,0:0:0:0:
320,192,219453,1,8,0:0:0:0:
64,192,219553,1,0,0:0:0:0:
192,192,219553,1,8,0:0:0:0:
64,192,219653,1,0,0:0:0:0:
448,192,219653,1,8,0:0:0:0:
448,192,219753,1,8,0:0:0:0:
320,192,219753,1,0,0:0:0:0:
64,192,219853,1,0,0:0:0:0:
192,192,219853,1,8,0:0:0:0:
192,192,219953,1,8,0:0:0:0:
448,192,219953,1,0,0:0:0:0:
448,192,220053,1,8,0:0:0:0:
64,192,220053,1,0,0:0:0:0:
192,192,220153,1,8,0:0:0:0:
320,192,220153,1,0,0:0:0:0:
64,192,220253,1,0,0:0:0:0:
192,192,220253,1,8,0:0:0:0:
320,192,220353,1,0,0:0:0:0:
448,192,220353,1,8,0:0:0:0:
448,192,220453,1,8,0:0:0:0:
64,192,220453,1,0,0:0:0:0:
64,192,220553,1,0,0:0:0:0:
192,192,220553,1,8,0:0:0:0:
448,192,220653,1,0,0:0:0:0:
320,192,220653,1,8,0:0:0:0:
64,192,220703,1,0,0:0:0:0:
192,192,220703,1,8,0:0:0:0:
448,192,220753,1,0,0:0:0:0:
320,192,220753,1,8,0:0:0:0:
192,192,220853,1,8,0:0:0:0:
64,192,220853,1,0,0:0:0:0:
192,192,220953,1,8,0:0:0:0:
448,192,220953,1,0,0:0:0:0:
448,192,221053,1,0,0:0:0:0:
320,192,221053,1,8,0:0:0:0:
192,192,221153,1,8,0:0:0:0:
64,192,221153,1,0,0:0:0:0:
320,192,221253,1,8,0:0:0:0:
64,192,221253,1,0,0:0:0:0:
448,192,221353,1,0,0:0:0:0:
192,192,221353,1,8,0:0:0:0:
64,192,221453,1,0,0:0:0:0:
448,192,221453,1,8,0:0:0:0:
320,192,221553,1,8,0:0:0:0:
64,192,221553,1,0,0:0:0:0:
320,192,221653,1,8,0:0:0:0:
448,192,221653,1,0,0:0:0:0:
64,192,221753,1,0,0:0:0:0:
192,192,221753,1,8,0:0:0:0:
192,192,221853,1,8,0:0:0:0:
448,192,221853,1,0,0:0:0:0:
64,192,221953,1,0,0:0:0:0:
448,192,221953,1,8,0:0:0:0:
192,192,222053,1,8,0:0:0:0:
320,192,222053,1,0,0:0:0:0:
64,192,222153,1,8,0:0:0:0:
320,192,222153,1,0,0:0:0:0:
448,192,222253,1,8,0:0:0:0:
64,192,222253,1,0,0:0:0:0:
448,192,222353,1,8,0:0:0:0:
320,192,222353,1,0,0:0:0:0:
64,192,222453,1,0,0:0:0:0:
192,192,222453,1,8,0:0:0:0:
448,192,222553,1,0,0:0:0:0:
320,192,222553,1,8,0:0:0:0:
192,192,222603,1,8,0:0:0:0:
64,192,222603,1,0,0:0:0:0:
448,192,222653,1,0,0:0:0:0:
320,192,222653,1,8,0:0:0:0:
448,192,222753,1,8,0:0:0:0:
320,192,222753,1,0,0:0:0:0:
192,192,222803,1,0,0:0:0:0:
64,192,222803,1,8,0:0:0:0:
320,192,222853,1,0,0:0:0:0:
448,192,222853,1,8,0:0:0:0:
64,192,222953,1,8,0:0:0:0:
192,192,222953,1,0,0:0:0:0:
320,192,223053,1,8,0:0:0:0:
448,192,223053,1,0,0:0:0:0:
64,192,223153,1,8,0:0:0:0:
448,192,223153,1,0,0:0:0:0:
320,192,223203,1,0,0:0:0:0:
192,192,223203,1,8,0:0:0:0:
64,192,223253,1,8,0:0:0:0:
448,192,223253,1,0,0:0:0:0:
192,192,223353,1,8,0:0:0:0:
64,192,223353,1,0,0:0:0:0:
320,192,223453,1,8,0:0:0:0:
448,192,223453,1,0,0:0:0:0:
192,192,223503,1,8,0:0:0:0:
64,192,223503,1,0,0:0:0:0:
448,192,223553,1,0,0:0:0:0:
320,192,223553,1,8,0:0:0:0:
64,192,223603,1,0,0:0:0:0:
192,192,223603,1,8,0:0:0:0:
448,192,223653,1,0,0:0:0:0:
320,192,223653,1,8,0:0:0:0:
192,192,223753,1,8,0:0:0:0:
64,192,223753,1,0,0:0:0:0:
448,192,223853,128,0,224053:0:0:0:0:
320,192,223853,128,0,224053:0:0:0:0:
192,192,224053,1,8,0:0:0:0:
64,192,224053,1,0,0:0:0:0:
448,192,224253,1,0,0:0:0:0:
320,192,224253,1,8,0:0:0:0:
320,192,224353,1,0,0:0:0:0:
64,192,224353,1,8,0:0:0:0:
64,192,224453,1,8,0:0:0:0:
192,192,224453,1,0,0:0:0:0:
448,192,224553,1,0,0:0:0:0:
320,192,224553,1,8,0:0:0:0:
448,192,224653,1,0,0:0:0:0:
192,192,224653,1,8,0:0:0:0:
64,192,224753,1,0,0:0:0:0:
192,192,224753,1,8,0:0:0:0:
448,192,224853,1,8,0:0:0:0:
64,192,224853,1,0,0:0:0:0:
448,192,224953,1,8,0:0:0:0:
320,192,224953,1,0,0:0:0:0:
64,192,225053,1,8,0:0:0:0:
192,192,225053,1,0,0:0:0:0:
448,192,225153,1,0,0:0:0:0:
64,192,225153,1,8,0:0:0:0:
320,192,225253,1,0,0:0:0:0:
192,192,225253,1,8,0:0:0:0:
64,192,225353,1,0,0:0:0:0:
320,192,225353,1,8,0:0:0:0:
448,192,225453,1,8,0:0:0:0:
192,192,225453,1,0,0:0:0:0:
448,192,225553,1,8,0:0:0:0:
64,192,225553,1,0,0:0:0:0:
192,192,225653,1,8,0:0:0:0:
64,192,225653,1,0,0:0:0:0:
320,192,225753,1,8,0:0:0:0:
448,192,225753,1,0,0:0:0:0:
64,192,225803,1,0,0:0:0:0:
192,192,225803,1,8,0:0:0:0:
448,192,225853,1,0,0:0:0:0:
320,192,225853,1,8,0:0:0:0:
192,192,225953,1,0,0:0:0:0:
64,192,225953,1,8,0:0:0:0:
448,192,226053,1,0,0:0:0:0:
64,192,226053,1,8,0:0:0:0:
448,192,226153,1,0,0:0:0:0:
320,192,226153,1,8,0:0:0:0:
192,192,226253,1,8,0:0:0:0:
64,192,226253,1,0,0:0:0:0:
192,192,226353,1,0,0:0:0:0:
448,192,226353,1,8,0:0:0:0:
448,192,226453,1,8,0:0:0:0:
64,192,226453,1,0,0:0:0:0:
320,192,226553,1,8,0:0:0:0:
192,192,226553,1,0,0:0:0:0:
320,192,226653,1,8,0:0:0:0:
448,192,226653,1,0,0:0:0:0:
64,192,226753,1,8,0:0:0:0:
192,192,226753,1,0,0:0:0:0:
448,192,226853,1,0,0:0:0:0:
64,192,226853,1,8,0:0:0:0:
448,192,226953,1,0,0:0:0:0:
320,192,226953,1,8,0:0:0:0:
64,192,227053,1,0,0:0:0:0:
192,192,227053,1,8,0:0:0:0:
320,192,227103,1,8,0:0:0:0:
448,192,227103,1,0,0:0:0:0:
64,192,227153,1,0,0:0:0:0:
192,192,227153,1,8,0:0:0:0:
320,192,227203,1,8,0:0:0:0:
448,192,227203,1,0,0:0:0:0:
192,192,227253,1,8,0:0:0:0:
64,192,227253,1,0,0:0:0:0:
448,192,227353,1,0,0:0:0:0:
320,192,227353,1,8,0:0:0:0:
64,192,227453,5,0,0:0:0:0:
192,192,227503,1,0,0:0:0:0:
320,192,227553,1,0,0:0:0:0:
64,192,227603,1,0,0:0:0:0:
448,192,227653,1,0,0:0:0:0:
320,192,227703,1,0,0:0:0:0:
64,192,227753,1,0,0:0:0:0:
192,192,227803,1,0,0:0:0:0:
448,192,227853,1,0,0:0:0:0:
320,192,227903,1,0,0:0:0:0:
192,192,227953,1,0,0:0:0:0:
448,192,228003,1,0,0:0:0:0:
64,192,228053,1,0,0:0:0:0:
192,192,228103,1,0,0:0:0:0:
320,192,228153,1,0,0:0:0:0:
64,192,228203,1,0,0:0:0:0:
192,192,228253,1,0,0:0:0:0:
448,192,228303,1,0,0:0:0:0:
320,192,228353,1,0,0:0:0:0:
192,192,228403,1,0,0:0:0:0:
64,192,228453,1,0,0:0:0:0:
320,192,228503,1,0,0:0:0:0:
192,192,228553,1,0,0:0:0:0:
448,192,228603,1,0,0:0:0:0:
320,192,228653,1,0,0:0:0:0:
64,192,228703,1,0,0:0:0:0:
448,192,228753,1,0,0:0:0:0:
320,192,228803,1,0,0:0:0:0:
64,192,228853,1,0,0:0:0:0:
192,192,228903,1,0,0:0:0:0:
448,192,228953,1,0,0:0:0:0:
320,192,229003,1,0,0:0:0:0:
192,192,229053,1,0,0:0:0:0:
64,192,229053,1,0,0:0:0:0:
448,192,229103,1,0,0:0:0:0:
320,192,229153,1,0,0:0:0:0:
64,192,229153,1,0,0:0:0:0:
192,192,229203,1,0,0:0:0:0:
448,192,229253,1,0,0:0:0:0:
320,192,229253,1,0,0:0:0:0:
64,192,229303,1,0,0:0:0:0:
192,192,229353,1,0,0:0:0:0:
320,192,229353,1,0,0:0:0:0:
448,192,229403,1,0,0:0:0:0:
64,192,229453,1,0,0:0:0:0:
192,192,229453,1,0,0:0:0:0:
320,192,229503,1,0,0:0:0:0:
448,192,229553,1,0,0:0:0:0:
64,192,229553,1,0,0:0:0:0:
192,192,229603,1,0,0:0:0:0:
320,192,229653,1,0,0:0:0:0:
448,192,229653,1,0,0:0:0:0:
64,192,229703,1,0,0:0:0:0:
192,192,229753,1,0,0:0:0:0:
448,192,229753,1,0,0:0:0:0:
320,192,229803,1,0,0:0:0:0:
64,192,229853,1,0,0:0:0:0:
192,192,229878,1,0,0:0:0:0:
448,192,229903,1,0,0:0:0:0:
320,192,229928,1,0,0:0:0:0:
64,192,229953,1,0,0:0:0:0:
192,192,229978,1,0,0:0:0:0:
448,192,230003,1,0,0:0:0:0:
320,192,230028,1,0,0:0:0:0:
64,192,230053,1,0,0:0:0:0:
192,192,230078,1,0,0:0:0:0:
448,192,230103,1,0,0:0:0:0:
320,192,230128,1,0,0:0:0:0:
64,192,230153,1,0,0:0:0:0:
192,192,230178,1,0,0:0:0:0:
448,192,230203,1,0,0:0:0:0:
320,192,230228,1,0,0:0:0:0:
64,192,230253,1,0,0:0:0:0:
192,192,230278,1,0,0:0:0:0:
448,192,230303,1,0,0:0:0:0:
320,192,230328,1,0,0:0:0:0:
64,192,230353,1,0,0:0:0:0:
192,192,230378,1,0,0:0:0:0:
448,192,230403,1,0,0:0:0:0:
320,192,230428,1,0,0:0:0:0:
64,192,230453,1,0,0:0:0:0:
192,192,230478,1,0,0:0:0:0:
448,192,230503,1,0,0:0:0:0:
320,192,230528,1,0,0:0:0:0:
64,192,230553,1,0,0:0:0:0:
192,192,230578,1,0,0:0:0:0:
448,192,230603,1,0,0:0:0:0:
320,192,230628,1,0,0:0:0:0:
192,192,230653,1,8,0:0:0:0:
64,192,230653,1,4,0:0:0:0:
448,192,230756,1,0,0:0:0:0:
64,192,230859,1,0,0:0:0:0:
192,192,230859,1,0,0:0:0:0:
320,192,230963,1,0,0:0:0:0:
448,192,231066,1,0,0:0:0:0:
64,192,231066,1,0,0:0:0:0:
192,192,231170,1,0,0:0:0:0:
64,192,231273,1,0,0:0:0:0:
448,192,231273,1,0,0:0:0:0:
320,192,231377,1,0,0:0:0:0:
448,192,231480,1,0,0:0:0:0:
192,192,231480,1,0,0:0:0:0:
64,192,231584,1,0,0:0:0:0:
448,192,231687,1,0,0:0:0:0:
320,192,231687,1,0,0:0:0:0:
64,192,231790,1,0,0:0:0:0:
192,192,231894,1,0,0:0:0:0:
320,192,231894,1,0,0:0:0:0:
320,192,231997,1,8,0:0:0:0:
448,192,231997,1,4,0:0:0:0:
64,192,231997,1,0,0:0:0:0:
448,192,232101,1,0,0:0:0:0:
320,192,232204,1,0,0:0:0:0:
64,192,232204,1,4,0:0:0:0:
192,192,232204,1,8,0:0:0:0:
192,192,232308,1,8,0:0:0:0:
64,192,232308,1,4,0:0:0:0:
448,192,232308,1,0,0:0:0:0:
320,192,232411,1,0,0:0:0:0:
64,192,232515,1,0,0:0:0:0:
192,192,232515,1,0,0:0:0:0:
320,192,232618,1,0,0:0:0:0:
448,192,232721,1,0,0:0:0:0:
192,192,232721,1,0,0:0:0:0:
64,192,232825,1,0,0:0:0:0:
192,192,232928,1,0,0:0:0:0:
320,192,232928,1,0,0:0:0:0:
448,192,233032,1,0,0:0:0:0:
320,192,233135,1,0,0:0:0:0:
64,192,233135,1,0,0:0:0:0:
192,192,233239,1,0,0:0:0:0:
448,192,233342,1,0,0:0:0:0:
320,192,233342,1,0,0:0:0:0:
64,192,233446,1,0,0:0:0:0:
320,192,233549,1,0,0:0:0:0:
192,192,233549,1,0,0:0:0:0:
64,192,233653,1,0,0:0:0:0:
320,192,233756,1,0,0:0:0:0:
448,192,233756,1,0,0:0:0:0:
192,192,233859,1,0,0:0:0:0:
320,192,233963,1,8,0:0:0:0:
64,192,233963,1,0,0:0:0:0:
448,192,233963,1,4,0:0:0:0:
320,192,234066,1,0,0:0:0:0:
64,192,234170,1,0,0:0:0:0:
448,192,234170,1,0,0:0:0:0:
320,192,234273,1,0,0:0:0:0:
64,192,234377,1,0,0:0:0:0:
192,192,234377,1,0,0:0:0:0:
448,192,234480,1,0,0:0:0:0:
192,192,234584,1,0,0:0:0:0:
320,192,234584,1,0,0:0:0:0:
448,192,234687,1,0,0:0:0:0:
192,192,234790,1,0,0:0:0:0:
64,192,234790,1,0,0:0:0:0:
320,192,234894,1,0,0:0:0:0:
64,192,234997,1,0,0:0:0:0:
192,192,234997,1,0,0:0:0:0:
448,192,235101,1,0,0:0:0:0:
320,192,235204,1,0,0:0:0:0:
64,192,235204,1,0,0:0:0:0:
448,192,235308,1,0,0:0:0:0:
192,192,235308,1,8,0:0:0:0:
64,192,235308,1,4,0:0:0:0:
448,192,235411,1,0,0:0:0:0:
64,192,235515,1,0,0:0:0:0:
192,192,235515,1,8,0:0:0:0:
320,192,235515,1,4,0:0:0:0:
64,192,235618,1,0,0:0:0:0:
320,192,235618,1,8,0:0:0:0:
448,192,235618,1,4,0:0:0:0:
192,192,235721,1,0,0:0:0:0:
320,192,235825,1,0,0:0:0:0:
448,192,235825,1,0,0:0:0:0:
64,192,235928,1,0,0:0:0:0:
448,192,236032,1,0,0:0:0:0:
192,192,236032,1,0,0:0:0:0:
320,192,236135,1,0,0:0:0:0:
64,192,236239,1,0,0:0:0:0:
192,192,236239,1,0,0:0:0:0:
320,192,236342,1,0,0:0:0:0:
192,192,236446,1,8,0:0:0:0:
64,192,236446,1,4,0:0:0:0:
448,192,236446,1,0,0:0:0:0:
320,192,236549,1,8,0:0:0:0:
448,192,236549,1,4,0:0:0:0:
64,192,236549,1,0,0:0:0:0:
192,192,236653,1,8,0:0:0:0:
448,192,236653,1,0,0:0:0:0:
320,192,236653,1,4,0:0:0:0:
320,192,236756,1,0,0:0:0:0:
192,192,236756,1,8,0:0:0:0:
64,192,236756,1,4,0:0:0:0:
64,192,236859,1,4,0:0:0:0:
192,192,236885,1,0,0:0:0:0:
448,192,236911,1,0,0:0:0:0:
320,192,236937,1,0,0:0:0:0:
64,192,236963,1,0,0:0:0:0:
192,192,236989,1,0,0:0:0:0:
320,192,237015,1,0,0:0:0:0:
448,192,237040,1,0,0:0:0:0:
64,192,237066,1,4,0:0:0:0:
192,192,237118,1,0,0:0:0:0:
320,192,237170,1,0,0:0:0:0:
448,192,237221,1,0,0:0:0:0:
192,192,237273,1,4,0:0:0:0:
320,192,237273,1,8,0:0:0:0:
64,192,237273,1,0,0:0:0:0:
448,192,237380,1,0,0:0:0:0:
64,192,237487,1,0,0:0:0:0:
320,192,237487,1,0,0:0:0:0:
448,192,237594,1,0,0:0:0:0:
192,192,237701,1,0,0:0:0:0:
64,192,237701,1,0,0:0:0:0:
320,192,237808,1,0,0:0:0:0:
448,192,237915,1,0,0:0:0:0:
192,192,237915,1,0,0:0:0:0:
64,192,238023,1,0,0:0:0:0:
448,192,238130,1,0,0:0:0:0:
320,192,238130,1,0,0:0:0:0:
192,192,238237,1,0,0:0:0:0:
320,192,238344,1,0,0:0:0:0:
64,192,238344,1,0,0:0:0:0:
448,192,238451,1,0,0:0:0:0:
320,192,238558,1,0,0:0:0:0:
64,192,238558,1,0,0:0:0:0:
64,192,238665,1,8,0:0:0:0:
192,192,238665,1,4,0:0:0:0:
448,192,238665,1,0,0:0:0:0:
192,192,238773,1,0,0:0:0:0:
320,192,238880,1,8,0:0:0:0:
448,192,238880,1,4,0:0:0:0:
64,192,238880,1,0,0:0:0:0:
448,192,238987,1,4,0:0:0:0:
192,192,238987,1,0,0:0:0:0:
320,192,238987,1,8,0:0:0:0:
64,192,239094,1,0,0:0:0:0:
192,192,239201,1,0,0:0:0:0:
448,192,239201,1,0,0:0:0:0:
320,192,239308,1,0,0:0:0:0:
192,192,239415,1,0,0:0:0:0:
64,192,239415,1,0,0:0:0:0:
320,192,239523,1,0,0:0:0:0:
448,192,239630,1,0,0:0:0:0:
192,192,239630,1,0,0:0:0:0:
64,192,239737,1,0,0:0:0:0:
192,192,239844,1,0,0:0:0:0:
320,192,239844,1,0,0:0:0:0:
448,192,239951,1,0,0:0:0:0:
64,192,240058,1,0,0:0:0:0:
320,192,240058,1,0,0:0:0:0:
192,192,240165,1,0,0:0:0:0:
448,192,240273,1,0,0:0:0:0:
64,192,240273,1,0,0:0:0:0:
320,192,240380,1,0,0:0:0:0:
448,192,240487,1,0,0:0:0:0:
192,192,240487,1,0,0:0:0:0:
64,192,240594,1,0,0:0:0:0:
320,192,240701,1,8,0:0:0:0:
192,192,240701,1,0,0:0:0:0:
448,192,240701,1,4,0:0:0:0:
64,192,240808,1,0,0:0:0:0:
192,192,240915,1,0,0:0:0:0:
320,192,240915,1,0,0:0:0:0:
448,192,241023,1,0,0:0:0:0:
320,192,241130,1,0,0:0:0:0:
64,192,241130,1,0,0:0:0:0:
448,192,241237,1,0,0:0:0:0:
64,192,241344,1,0,0:0:0:0:
192,192,241344,1,0,0:0:0:0:
320,192,241451,1,0,0:0:0:0:
448,192,241558,1,0,0:0:0:0:
64,192,241558,1,0,0:0:0:0:
192,192,241665,1,0,0:0:0:0:
320,192,241773,1,0,0:0:0:0:
448,192,241773,1,0,0:0:0:0:
192,192,241880,1,0,0:0:0:0:
64,192,241987,1,0,0:0:0:0:
448,192,241987,1,0,0:0:0:0:
320,192,242094,1,0,0:0:0:0:
192,192,242094,1,4,0:0:0:0:
64,192,242094,1,8,0:0:0:0:
448,192,242201,1,0,0:0:0:0:
64,192,242308,1,8,0:0:0:0:
192,192,242308,1,4,0:0:0:0:
320,192,242308,1,0,0:0:0:0:
448,192,242415,1,4,0:0:0:0:
320,192,242415,1,8,0:0:0:0:
64,192,242415,1,0,0:0:0:0:
192,192,242523,1,0,0:0:0:0:
448,192,242630,1,0,0:0:0:0:
320,192,242630,1,0,0:0:0:0:
448,192,242737,1,0,0:0:0:0:
192,192,242844,1,0,0:0:0:0:
64,192,242844,1,0,0:0:0:0:
320,192,242951,1,0,0:0:0:0:
64,192,243058,1,0,0:0:0:0:
192,192,243058,1,0,0:0:0:0:
448,192,243165,1,0,0:0:0:0:
64,192,243273,1,0,0:0:0:0:
192,192,243273,1,8,0:0:0:0:
320,192,243273,1,4,0:0:0:0:
320,192,243380,1,4,0:0:0:0:
448,192,243380,1,0,0:0:0:0:
192,192,243380,1,8,0:0:0:0:
320,192,243487,1,8,0:0:0:0:
64,192,243487,1,0,0:0:0:0:
448,192,243487,1,4,0:0:0:0:
320,192,243594,1,8,0:0:0:0:
192,192,243594,1,4,0:0:0:0:
64,192,243594,1,0,0:0:0:0:
448,192,243701,1,4,0:0:0:0:
320,192,243755,1,0,0:0:0:0:
64,192,243808,1,0,0:0:0:0:
192,192,243862,1,0,0:0:0:0:
448,192,243915,1,4,0:0:0:0:
320,192,243942,1,0,0:0:0:0:
192,192,243969,1,0,0:0:0:0:
64,192,243996,1,0,0:0:0:0:
448,192,244023,1,0,0:0:0:0:
320,192,244049,1,0,0:0:0:0:
192,192,244076,1,0,0:0:0:0:
64,192,244103,1,0,0:0:0:0:
448,192,244130,1,4,0:0:0:0:
320,192,244130,1,8,0:0:0:0:
192,192,244352,1,0,0:0:0:0:
448,192,244352,1,0,0:0:0:0:
64,192,244352,1,8,0:0:0:0:
64,192,244574,1,0,0:0:0:0:
192,192,244574,1,8,0:0:0:0:
448,192,244574,1,0,0:0:0:0:
448,192,244796,1,0,0:0:0:0:
320,192,244796,1,0,0:0:0:0:
192,192,244796,1,8,0:0:0:0:
320,192,245018,1,0,0:0:0:0:
64,192,245018,1,8,0:0:0:0:
448,192,245018,1,0,0:0:0:0:
320,192,245241,1,0,0:0:0:0:
448,192,245241,1,0,0:0:0:0:
192,192,245241,1,8,0:0:0:0:
192,192,245463,1,8,0:0:0:0:
64,192,245463,1,0,0:0:0:0:
448,192,245463,1,0,0:0:0:0:
320,192,245685,1,0,0:0:0:0:
448,192,245685,1,0,0:0:0:0:
192,192,245685,1,8,0:0:0:0:
320,192,245796,1,0,0:0:0:0:
448,192,245907,1,0,0:0:0:0:
192,192,245907,1,8,0:0:0:0:
64,192,245907,1,0,0:0:0:0:
320,192,246130,1,0,0:0:0:0:
64,192,246130,1,0,0:0:0:0:
192,192,246130,1,8,0:0:0:0:
320,192,246352,1,8,0:0:0:0:
448,192,246352,1,0,0:0:0:0:
64,192,246352,1,0,0:0:0:0:
192,192,246574,1,8,0:0:0:0:
64,192,246574,1,0,0:0:0:0:
320,192,246574,1,0,0:0:0:0:
64,192,246796,1,0,0:0:0:0:
192,192,246796,1,8,0:0:0:0:
448,192,246796,1,0,0:0:0:0:
448,192,247018,1,0,0:0:0:0:
320,192,247018,1,8,0:0:0:0:
64,192,247018,1,0,0:0:0:0:
192,192,247241,1,8,0:0:0:0:
320,192,247241,1,0,0:0:0:0:
64,192,247241,1,0,0:0:0:0:
448,192,247352,1,0,0:0:0:0:
192,192,247463,1,0,0:0:0:0:
64,192,247463,1,8,0:0:0:0:
448,192,247518,1,0,0:0:0:0:
320,192,247518,1,8,0:0:0:0:
64,192,247574,1,8,0:0:0:0:
192,192,247574,1,0,0:0:0:0:
320,192,247630,1,8,0:0:0:0:
448,192,247630,1,0,0:0:0:0:
192,192,247685,1,0,0:0:0:0:
64,192,247685,1,8,0:0:0:0:
320,192,247907,1,8,0:0:0:0:
64,192,247907,1,0,0:0:0:0:
448,192,247907,1,0,0:0:0:0:
192,192,248130,1,8,0:0:0:0:
64,192,248130,1,0,0:0:0:0:
320,192,248130,1,0,0:0:0:0:
320,192,248352,1,0,0:0:0:0:
448,192,248352,1,0,0:0:0:0:
192,192,248352,1,8,0:0:0:0:
448,192,248574,1,0,0:0:0:0:
64,192,248574,1,0,0:0:0:0:
320,192,248574,1,8,0:0:0:0:
64,192,248796,1,0,0:0:0:0:
192,192,248796,1,8,0:0:0:0:
448,192,248796,1,0,0:0:0:0:
320,192,249018,1,8,0:0:0:0:
64,192,249018,1,0,0:0:0:0:
448,192,249018,1,0,0:0:0:0:
64,192,249241,1,0,0:0:0:0:
320,192,249241,1,0,0:0:0:0:
192,192,249241,1,8,0:0:0:0:
192,192,249352,1,0,0:0:0:0:
64,192,249463,1,0,0:0:0:0:
320,192,249463,1,8,0:0:0:0:
448,192,249463,1,0,0:0:0:0:
320,192,249685,1,0,0:0:0:0:
192,192,249685,1,8,0:0:0:0:
64,192,249685,1,0,0:0:0:0:
448,192,249907,1,0,0:0:0:0:
192,192,249907,1,8,0:0:0:0:
64,192,249907,1,0,0:0:0:0:
320,192,250130,1,0,0:0:0:0:
448,192,250130,1,0,0:0:0:0:
192,192,250130,1,8,0:0:0:0:
64,192,250352,1,0,0:0:0:0:
320,192,250352,1,0,0:0:0:0:
192,192,250352,1,8,0:0:0:0:
192,192,250574,1,8,0:0:0:0:
448,192,250574,1,0,0:0:0:0:
64,192,250574,1,0,0:0:0:0:
320,192,250796,1,8,0:0:0:0:
64,192,250796,1,0,0:0:0:0:
448,192,250796,1,0,0:0:0:0:
192,192,250907,1,0,0:0:0:0:
320,192,251018,1,8,0:0:0:0:
448,192,251018,1,0,0:0:0:0:
64,192,251074,1,0,0:0:0:0:
192,192,251074,1,8,0:0:0:0:
320,192,251130,1,8,0:0:0:0:
448,192,251130,1,0,0:0:0:0:
192,192,251185,1,8,0:0:0:0:
448,192,251241,1,0,0:0:0:0:
320,192,251241,1,8,0:0:0:0:
64,192,251241,1,4,0:0:0:0:
64,192,251463,1,0,0:0:0:0:
192,192,251463,1,0,0:0:0:0:
320,192,251463,1,8,0:0:0:0:
64,192,251685,1,0,0:0:0:0:
192,192,251685,1,8,0:0:0:0:
448,192,251685,1,0,0:0:0:0:
192,192,251907,1,8,0:0:0:0:
320,192,251907,1,0,0:0:0:0:
448,192,251907,1,0,0:0:0:0:
192,192,252130,1,8,0:0:0:0:
64,192,252130,1,0,0:0:0:0:
448,192,252130,1,0,0:0:0:0:
64,192,252352,1,0,0:0:0:0:
320,192,252352,1,8,0:0:0:0:
192,192,252352,1,0,0:0:0:0:
320,192,252574,1,8,0:0:0:0:
448,192,252574,1,0,0:0:0:0:
64,192,252574,1,0,0:0:0:0:
64,192,252796,1,0,0:0:0:0:
192,192,252796,1,8,0:0:0:0:
320,192,252796,1,0,0:0:0:0:
192,192,252907,1,0,0:0:0:0:
448,192,253018,1,0,0:0:0:0:
64,192,253018,1,0,0:0:0:0:
320,192,253018,1,8,0:0:0:0:
192,192,253241,1,8,0:0:0:0:
320,192,253241,1,0,0:0:0:0:
448,192,253241,1,0,0:0:0:0:
64,192,253463,1,0,0:0:0:0:
192,192,253463,1,8,0:0:0:0:
448,192,253463,1,0,0:0:0:0:
192,192,253685,1,8,0:0:0:0:
448,192,253685,1,0,0:0:0:0:
320,192,253685,1,0,0:0:0:0:
448,192,253907,1,0,0:0:0:0:
192,192,253907,1,8,0:0:0:0:
64,192,253907,1,0,0:0:0:0:
448,192,254130,1,0,0:0:0:0:
64,192,254130,1,0,0:0:0:0:
320,192,254130,1,8,0:0:0:0:
64,192,254352,1,0,0:0:0:0:
192,192,254352,1,8,0:0:0:0:
448,192,254352,1,0,0:0:0:0:
320,192,254463,1,0,0:0:0:0:
64,192,254574,1,0,0:0:0:0:
192,192,254574,1,8,0:0:0:0:
448,192,254630,1,0,0:0:0:0:
320,192,254630,1,8,0:0:0:0:
64,192,254685,1,0,0:0:0:0:
192,192,254685,1,8,0:0:0:0:
320,192,254741,1,8,0:0:0:0:
448,192,254741,1,0,0:0:0:0:
192,192,254796,1,8,0:0:0:0:
64,192,254796,1,0,0:0:0:0:
320,192,255018,1,8,0:0:0:0:
448,192,255018,1,0,0:0:0:0:
64,192,255018,1,0,0:0:0:0:
64,192,255241,1,0,0:0:0:0:
192,192,255241,1,8,0:0:0:0:
320,192,255241,1,0,0:0:0:0:
448,192,255463,1,0,0:0:0:0:
320,192,255463,1,0,0:0:0:0:
192,192,255463,1,8,0:0:0:0:
448,192,255685,1,0,0:0:0:0:
320,192,255685,1,0,0:0:0:0:
64,192,255685,1,8,0:0:0:0:
448,192,255907,1,0,0:0:0:0:
64,192,255907,1,0,0:0:0:0:
320,192,255907,1,8,0:0:0:0:
448,192,256130,1,0,0:0:0:0:
64,192,256130,1,0,0:0:0:0:
192,192,256130,1,8,0:0:0:0:
192,192,256352,1,8,0:0:0:0:
320,192,256352,1,0,0:0:0:0:
448,192,256352,1,0,0:0:0:0:
320,192,256463,1,0,0:0:0:0:
64,192,256574,1,0,0:0:0:0:
448,192,256574,1,0,0:0:0:0:
192,192,256574,1,8,0:0:0:0:
320,192,256796,1,8,0:0:0:0:
64,192,256796,1,0,0:0:0:0:
192,192,256796,1,0,0:0:0:0:
192,192,257018,1,8,0:0:0:0:
448,192,257018,1,0,0:0:0:0:
64,192,257018,1,0,0:0:0:0:
320,192,257241,1,0,0:0:0:0:
64,192,257241,1,8,0:0:0:0:
192,192,257241,1,0,0:0:0:0:
448,192,257463,1,0,0:0:0:0:
192,192,257463,1,8,0:0:0:0:
320,192,257463,1,0,0:0:0:0:
320,192,257685,1,8,0:0:0:0:
448,192,257685,1,0,0:0:0:0:
64,192,257685,1,0,0:0:0:0:
448,192,257907,1,0,0:0:0:0:
192,192,257907,1,8,0:0:0:0:
64,192,257907,1,0,0:0:0:0:
320,192,258018,1,0,0:0:0:0:
192,192,258130,1,8,0:0:0:0:
64,192,258130,1,0,0:0:0:0:
320,192,258185,1,8,0:0:0:0:
448,192,258185,1,0,0:0:0:0:
192,192,258241,1,8,0:0:0:0:
64,192,258241,1,0,0:0:0:0:
320,192,258296,1,8,0:0:0:0:
448,192,258352,1,4,0:0:0:0:
192,192,258352,1,8,0:0:0:0:
64,192,258352,128,0,258574:0:0:0:0:
320,192,258574,1,8,0:0:0:0:
192,192,258574,1,0,0:0:0:0:
448,192,258574,128,0,258796:0:0:0:0:
64,192,258796,1,0,0:0:0:0:
320,192,258796,1,8,0:0:0:0:
192,192,258796,128,0,259018:0:0:0:0:
64,192,259018,1,8,0:0:0:0:
448,192,259018,1,0,0:0:0:0:
320,192,259018,128,0,259241:0:0:0:0:
192,192,259241,1,8,0:0:0:0:
64,192,259241,128,0,259463:0:0:0:0:
448,192,259241,1,0,0:0:0:0:
192,192,259463,128,0,259685:0:0:0:0:
320,192,259463,1,8,0:0:0:0:
448,192,259463,1,0,0:0:0:0:
320,192,259685,128,0,259907:0:0:0:0:
448,192,259685,1,0,0:0:0:0:
64,192,259685,1,8,0:0:0:0:
448,192,259907,128,0,260130:0:0:0:0:
64,192,259907,1,0,0:0:0:0:
192,192,259907,1,8,0:0:0:0:
64,192,260018,1,0,0:0:0:0:
192,192,260130,1,8,0:0:0:0:
64,192,260130,1,0,0:0:0:0:
320,192,260130,128,0,260352:0:0:0:0:
64,192,260352,1,8,0:0:0:0:
192,192,260352,128,0,260574:0:0:0:0:
448,192,260352,1,0,0:0:0:0:
320,192,260574,1,8,0:0:0:0:
448,192,260574,128,0,260796:0:0:0:0:
64,192,260574,1,0,0:0:0:0:
320,192,260796,1,0,0:0:0:0:
192,192,260796,1,8,0:0:0:0:
64,192,260796,128,0,261018:0:0:0:0:
192,192,261018,1,8,0:0:0:0:
320,192,261018,128,0,261241:0:0:0:0:
448,192,261018,1,0,0:0:0:0:
192,192,261241,128,0,261463:0:0:0:0:
64,192,261241,1,8,0:0:0:0:
448,192,261241,1,0,0:0:0:0:
64,192,261463,1,8,0:0:0:0:
448,192,261463,128,0,261685:0:0:0:0:
320,192,261463,1,0,0:0:0:0:
320,192,261574,1,0,0:0:0:0:
192,192,261685,1,8,0:0:0:0:
64,192,261685,1,0,0:0:0:0:
320,192,261741,1,8,0:0:0:0:
448,192,261741,1,0,0:0:0:0:
64,192,261796,1,0,0:0:0:0:
192,192,261796,1,8,0:0:0:0:
448,192,261852,1,0,0:0:0:0:
320,192,261852,1,8,0:0:0:0:
64,192,261907,1,8,0:0:0:0:
192,192,261907,128,0,262129:0:0:0:0:
64,192,262129,128,0,262352:0:0:0:0:
448,192,262129,1,0,0:0:0:0:
320,192,262129,1,8,0:0:0:0:
192,192,262352,1,8,0:0:0:0:
448,192,262352,1,0,0:0:0:0:
320,192,262352,128,0,262574:0:0:0:0:
448,192,262574,1,0,0:0:0:0:
64,192,262574,1,8,0:0:0:0:
192,192,262574,128,0,262796:0:0:0:0:
64,192,262796,1,8,0:0:0:0:
320,192,262796,1,0,0:0:0:0:
448,192,262796,128,0,263018:0:0:0:0:
64,192,263018,1,8,0:0:0:0:
192,192,263018,1,0,0:0:0:0:
320,192,263018,128,0,263241:0:0:0:0:
64,192,263241,1,8,0:0:0:0:
192,192,263241,128,0,263463:0:0:0:0:
448,192,263241,1,0,0:0:0:0:
320,192,263463,1,8,0:0:0:0:
448,192,263463,1,0,0:0:0:0:
64,192,263463,128,0,263685:0:0:0:0:
448,192,263574,1,0,0:0:0:0:
320,192,263685,1,8,0:0:0:0:
192,192,263685,128,0,263907:0:0:0:0:
448,192,263685,1,0,0:0:0:0:
64,192,263907,1,8,0:0:0:0:
448,192,263907,1,0,0:0:0:0:
320,192,263907,128,0,264130:0:0:0:0:
448,192,264130,1,0,0:0:0:0:
192,192,264130,1,8,0:0:0:0:
64,192,264130,128,0,264352:0:0:0:0:
320,192,264352,1,8,0:0:0:0:
192,192,264352,1,0,0:0:0:0:
448,192,264352,128,0,264574:0:0:0:0:
64,192,264574,1,8,0:0:0:0:
192,192,264574,128,0,264796:0:0:0:0:
320,192,264574,1,0,0:0:0:0:
448,192,264796,1,0,0:0:0:0:
320,192,264796,128,0,265018:0:0:0:0:
64,192,264796,1,8,0:0:0:0:
448,192,265018,1,0,0:0:0:0:
64,192,265018,128,0,265241:0:0:0:0:
192,192,265018,1,8,0:0:0:0:
192,192,265130,1,0,0:0:0:0:
320,192,265241,1,8,0:0:0:0:
448,192,265241,1,0,0:0:0:0:
192,192,265296,1,8,0:0:0:0:
64,192,265296,1,0,0:0:0:0:
320,192,265352,1,8,0:0:0:0:
448,192,265352,1,0,0:0:0:0:
192,192,265407,1,8,0:0:0:0:
64,192,265463,1,4,0:0:0:0:
320,192,265463,1,8,0:0:0:0:
448,192,265463,128,0,265685:0:0:0:0:
64,192,265685,128,0,265907:0:0:0:0:
192,192,265685,1,8,0:0:0:0:
320,192,265685,1,0,0:0:0:0:
320,192,265907,128,0,266130:0:0:0:0:
192,192,265907,1,8,0:0:0:0:
448,192,265907,1,0,0:0:0:0:
448,192,266130,1,0,0:0:0:0:
64,192,266130,1,8,0:0:0:0:
192,192,266130,128,0,266352:0:0:0:0:
320,192,266352,1,0,0:0:0:0:
64,192,266352,1,8,0:0:0:0:
448,192,266352,128,0,266574:0:0:0:0:
320,192,266574,128,0,266796:0:0:0:0:
64,192,266574,1,8,0:0:0:0:
192,192,266574,1,0,0:0:0:0:
64,192,266796,1,8,0:0:0:0:
192,192,266796,128,0,267018:0:0:0:0:
448,192,266796,1,0,0:0:0:0:
320,192,267018,1,8,0:0:0:0:
64,192,267018,128,0,267241:0:0:0:0:
448,192,267018,1,0,0:0:0:0:
320,192,267130,1,0,0:0:0:0:
320,192,267241,1,8,0:0:0:0:
192,192,267241,128,0,267463:0:0:0:0:
448,192,267241,1,0,0:0:0:0:
320,192,267463,128,0,267685:0:0:0:0:
64,192,267463,1,8,0:0:0:0:
448,192,267463,1,0,0:0:0:0:
64,192,267685,128,0,267907:0:0:0:0:
448,192,267685,1,0,0:0:0:0:
192,192,267685,1,8,0:0:0:0:
192,192,267907,1,0,0:0:0:0:
320,192,267907,1,8,0:0:0:0:
448,192,267907,128,0,268130:0:0:0:0:
192,192,268130,128,0,268352:0:0:0:0:
320,192,268130,1,0,0:0:0:0:
64,192,268130,1,8,0:0:0:0:
320,192,268352,128,0,268574:0:0:0:0:
64,192,268352,1,8,0:0:0:0:
448,192,268352,1,0,0:0:0:0:
448,192,268574,128,0,268796:0:0:0:0:
64,192,268574,1,0,0:0:0:0:
192,192,268574,1,8,0:0:0:0:
320,192,268685,1,0,0:0:0:0:
64,192,268796,1,0,0:0:0:0:
192,192,268796,1,8,0:0:0:0:
448,192,268852,1,0,0:0:0:0:
320,192,268852,1,8,0:0:0:0:
64,192,268907,1,0,0:0:0:0:
192,192,268907,1,8,0:0:0:0:
320,192,268963,1,8,0:0:0:0:
64,192,269018,5,0,0:0:0:0:
192,192,269018,1,8,0:0:0:0:
448,192,269018,1,4,0:0:0:0:
448,192,269130,1,0,0:0:0:0:
192,192,269130,1,8,0:0:0:0:
448,192,269241,1,0,0:0:0:0:
320,192,269241,1,8,0:0:0:0:
192,192,269352,1,8,0:0:0:0:
64,192,269352,1,0,0:0:0:0:
448,192,269463,1,0,0:0:0:0:
192,192,269463,1,8,0:0:0:0:
64,192,269463,1,0,0:0:0:0:
448,192,269574,1,0,0:0:0:0:
320,192,269574,1,8,0:0:0:0:
192,192,269685,1,8,0:0:0:0:
64,192,269685,1,0,0:0:0:0:
448,192,269796,1,0,0:0:0:0:
320,192,269796,1,8,0:0:0:0:
192,192,269852,1,8,0:0:0:0:
448,192,269907,1,0,0:0:0:0:
320,192,269907,1,8,0:0:0:0:
64,192,269907,1,4,0:0:0:0:
192,192,270018,1,8,0:0:0:0:
320,192,270018,1,0,0:0:0:0:
448,192,270130,1,0,0:0:0:0:
64,192,270130,1,8,0:0:0:0:
320,192,270241,1,8,0:0:0:0:
448,192,270241,1,0,0:0:0:0:
64,192,270352,1,0,0:0:0:0:
320,192,270352,1,8,0:0:0:0:
64,192,270463,1,0,0:0:0:0:
192,192,270463,1,8,0:0:0:0:
320,192,270574,1,8,0:0:0:0:
448,192,270574,1,0,0:0:0:0:
64,192,270685,1,0,0:0:0:0:
192,192,270685,1,8,0:0:0:0:
320,192,270741,1,8,0:0:0:0:
448,192,270796,1,4,0:0:0:0:
64,192,270796,1,0,0:0:0:0:
192,192,270796,1,8,0:0:0:0:
448,192,270907,1,0,0:0:0:0:
320,192,270907,1,8,0:0:0:0:
192,192,271018,1,8,0:0:0:0:
64,192,271018,1,0,0:0:0:0:
448,192,271130,1,0,0:0:0:0:
320,192,271130,1,8,0:0:0:0:
64,192,271241,1,0,0:0:0:0:
192,192,271241,1,8,0:0:0:0:
448,192,271241,1,4,0:0:0:0:
320,192,271296,1,8,0:0:0:0:
192,192,271352,1,8,0:0:0:0:
64,192,271352,1,0,0:0:0:0:
320,192,271463,1,8,0:0:0:0:
448,192,271463,1,0,0:0:0:0:
192,192,271518,1,8,0:0:0:0:
64,192,271518,1,0,0:0:0:0:
448,192,271574,1,0,0:0:0:0:
320,192,271574,1,8,0:0:0:0:
64,192,271630,1,0,0:0:0:0:
192,192,271630,1,8,0:0:0:0:
448,192,271685,1,8,0:0:0:0:
320,192,271685,128,4,272574:0:0:0:0:
192,192,271907,1,4,0:0:0:0:
64,192,271907,1,0,0:0:0:0:
448,192,272018,1,4,0:0:0:0:
192,192,272130,1,4,0:0:0:0:
64,192,272130,1,0,0:0:0:0:
448,192,272241,1,4,0:0:0:0:
192,192,272352,1,4,0:0:0:0:
64,192,272352,1,0,0:0:0:0:
64,192,272463,1,4,0:0:0:0:
192,192,272463,1,0,0:0:0:0:
64,192,272574,1,4,0:0:0:0:
448,192,272574,1,0,0:0:0:0:
192,192,272574,1,0,0:0:0:0:
192,192,273018,1,0,0:0:0:0:
320,192,273018,1,0,0:0:0:0:
192,192,273907,1,0,0:0:0:0:
320,192,273907,1,0,0:0:0:0:
64,192,274351,1,0,0:0:0:0:
448,192,274796,1,0,0:0:0:0:
192,192,274796,1,0,0:0:0:0:
192,192,275685,1,0,0:0:0:0:
448,192,275685,1,0,0:0:0:0:
320,192,275907,1,0,0:0:0:0:
64,192,276129,1,0,0:0:0:0:
448,192,276129,1,0,0:0:0:0:
192,192,276129,1,0,0:0:0:0:
192,192,276351,1,0,0:0:0:0:
320,192,276574,1,0,0:0:0:0:
448,192,276796,1,0,0:0:0:0:
192,192,277018,1,0,0:0:0:0:
320,192,277240,1,0,0:0:0:0:
448,192,277462,1,0,0:0:0:0:
192,192,277685,1,0,0:0:0:0:
64,192,277907,1,0,0:0:0:0:
448,192,277907,1,0,0:0:0:0:
320,192,278351,1,0,0:0:0:0:
192,192,278796,1,0,0:0:0:0:
448,192,278796,1,0,0:0:0:0:
448,192,279240,1,0,0:0:0:0:
448,192,279685,1,0,0:0:0:0:
320,192,279685,1,0,0:0:0:0:
448,192,280574,1,0,0:0:0:0:
320,192,280796,1,0,0:0:0:0:
192,192,281018,1,0,0:0:0:0:
64,192,281240,1,0,0:0:0:0:
64,192,281462,1,0,0:0:0:0:
192,192,281462,1,0,0:0:0:0:
448,192,281907,1,0,0:0:0:0:
192,192,282055,1,0,0:0:0:0:
448,192,282203,1,0,0:0:0:0:
192,192,282351,1,0,0:0:0:0:
320,192,282796,1,0,0:0:0:0:
192,192,283018,1,0,0:0:0:0:
64,192,283240,1,0,0:0:0:0:
448,192,283240,1,0,0:0:0:0:
320,192,283907,1,0,0:0:0:0:
64,192,284574,1,0,0:0:0:0:
448,192,284796,1,0,0:0:0:0:
320,192,285018,1,0,0:0:0:0:
192,192,285462,1,0,0:0:0:0:
64,192,285907,1,0,0:0:0:0:
64,192,286796,1,8,0:0:0:0:
448,192,286796,1,0,0:0:0:0:
320,192,286796,1,0,0:0:0:0:
192,192,286796,1,4,0:0:0:0:
320,192,286907,1,0,0:0:0:0:
320,192,287018,1,0,0:0:0:0:
192,192,287240,1,0,0:0:0:0:
64,192,287240,1,8,0:0:0:0:
448,192,287240,1,0,0:0:0:0:
320,192,287462,1,0,0:0:0:0:
64,192,287685,1,8,0:0:0:0:
192,192,287685,1,0,0:0:0:0:
320,192,287685,1,0,0:0:0:0:
448,192,287907,1,0,0:0:0:0:
448,192,288018,1,0,0:0:0:0:
192,192,288129,1,0,0:0:0:0:
64,192,288129,1,8,0:0:0:0:
448,192,288129,1,0,0:0:0:0:
192,192,288351,1,0,0:0:0:0:
192,192,288462,1,0,0:0:0:0:
64,192,288574,1,0,0:0:0:0:
448,192,288574,1,0,0:0:0:0:
320,192,288574,1,8,0:0:0:0:
320,192,288685,1,0,0:0:0:0:
320,192,288796,1,0,0:0:0:0:
192,192,289018,1,8,0:0:0:0:
320,192,289018,1,0,0:0:0:0:
448,192,289018,1,0,0:0:0:0:
64,192,289240,1,0,0:0:0:0:
192,192,289462,1,0,0:0:0:0:
448,192,289462,1,0,0:0:0:0:
64,192,289462,1,8,0:0:0:0:
320,192,289685,1,0,0:0:0:0:
320,192,289796,1,0,0:0:0:0:
192,192,289907,1,8,0:0:0:0:
64,192,289907,1,0,0:0:0:0:
320,192,289907,1,0,0:0:0:0:
64,192,290129,1,0,0:0:0:0:
64,192,290240,1,0,0:0:0:0:
192,192,290351,1,8,0:0:0:0:
448,192,290351,1,0,0:0:0:0:
320,192,290351,1,0,0:0:0:0:
320,192,290462,1,0,0:0:0:0:
320,192,290574,1,0,0:0:0:0:
192,192,290796,1,8,0:0:0:0:
64,192,290796,1,0,0:0:0:0:
448,192,290796,1,0,0:0:0:0:
320,192,291018,1,0,0:0:0:0:
64,192,291240,1,0,0:0:0:0:
320,192,291240,1,0,0:0:0:0:
192,192,291240,1,8,0:0:0:0:
448,192,291462,1,0,0:0:0:0:
448,192,291574,1,0,0:0:0:0:
64,192,291685,1,0,0:0:0:0:
448,192,291685,1,0,0:0:0:0:
320,192,291685,1,8,0:0:0:0:
192,192,291907,1,0,0:0:0:0:
192,192,292018,1,0,0:0:0:0:
448,192,292129,1,8,0:0:0:0:
64,192,292129,1,0,0:0:0:0:
320,192,292129,1,0,0:0:0:0:
448,192,292240,1,0,0:0:0:0:
448,192,292351,1,0,0:0:0:0:
64,192,292574,1,0,0:0:0:0:
320,192,292574,1,8,0:0:0:0:
192,192,292574,1,0,0:0:0:0:
448,192,292796,1,0,0:0:0:0:
64,192,293018,1,0,0:0:0:0:
192,192,293018,1,8,0:0:0:0:
320,192,293018,1,0,0:0:0:0:
64,192,293129,1,0,0:0:0:0:
64,192,293240,1,0,0:0:0:0:
320,192,293462,1,0,0:0:0:0:
448,192,293462,1,0,0:0:0:0:
192,192,293462,1,8,0:0:0:0:
320,192,293685,1,0,0:0:0:0:
64,192,293907,1,0,0:0:0:0:
192,192,293907,1,8,0:0:0:0:
448,192,293907,1,0,0:0:0:0:
64,192,294018,1,0,0:0:0:0:
64,192,294129,1,0,0:0:0:0:
320,192,294129,1,8,0:0:0:0:
448,192,294129,1,0,0:0:0:0:
448,192,294351,1,0,0:0:0:0:
320,192,294351,1,0,0:0:0:0:
192,192,294351,1,8,0:0:0:0:
192,192,294574,1,8,0:0:0:0:
64,192,294574,1,0,0:0:0:0:
448,192,294574,1,0,0:0:0:0:
448,192,294796,1,0,0:0:0:0:
320,192,294796,1,8,0:0:0:0:
64,192,294796,1,0,0:0:0:0:
64,192,295018,1,0,0:0:0:0:
192,192,295018,1,8,0:0:0:0:
64,192,295129,1,0,0:0:0:0:
448,192,295240,1,0,0:0:0:0:
192,192,295240,1,0,0:0:0:0:
320,192,295240,1,8,0:0:0:0:
320,192,295462,1,8,0:0:0:0:
448,192,295462,1,0,0:0:0:0:
64,192,295462,1,0,0:0:0:0:
448,192,295574,1,0,0:0:0:0:
320,192,295685,1,0,0:0:0:0:
192,192,295685,1,8,0:0:0:0:
64,192,295685,1,0,0:0:0:0:
64,192,295796,1,0,0:0:0:0:
320,192,295907,1,8,0:0:0:0:
64,192,295907,1,0,0:0:0:0:
448,192,295907,1,0,0:0:0:0:
320,192,296129,1,8,0:0:0:0:
448,192,296129,1,0,0:0:0:0:
64,192,296129,1,0,0:0:0:0:
192,192,296351,1,8,0:0:0:0:
64,192,296351,1,0,0:0:0:0:
448,192,296351,1,0,0:0:0:0:
320,192,296574,1,8,0:0:0:0:
448,192,296574,1,0,0:0:0:0:
64,192,296574,1,0,0:0:0:0:
64,192,296796,1,0,0:0:0:0:
448,192,296796,1,0,0:0:0:0:
320,192,296796,1,8,0:0:0:0:
320,192,296907,1,0,0:0:0:0:
448,192,297018,1,0,0:0:0:0:
192,192,297018,1,8,0:0:0:0:
64,192,297018,1,0,0:0:0:0:
192,192,297240,1,8,0:0:0:0:
64,192,297240,1,0,0:0:0:0:
448,192,297240,1,0,0:0:0:0:
64,192,297351,1,0,0:0:0:0:
448,192,297462,1,0,0:0:0:0:
320,192,297462,1,8,0:0:0:0:
192,192,297574,1,8,0:0:0:0:
448,192,297574,1,0,0:0:0:0:
64,192,297685,1,0,0:0:0:0:
192,192,297685,1,8,0:0:0:0:
64,192,297796,1,0,0:0:0:0:
320,192,297796,1,8,0:0:0:0:
320,192,297907,1,8,0:0:0:0:
448,192,297907,1,0,0:0:0:0:
192,192,298018,1,8,0:0:0:0:
64,192,298018,1,0,0:0:0:0:
448,192,298129,1,0,0:0:0:0:
192,192,298129,1,8,0:0:0:0:
64,192,298240,1,0,0:0:0:0:
448,192,298240,1,8,0:0:0:0:
320,192,298351,1,8,0:0:0:0:
192,192,298351,1,0,0:0:0:0:
64,192,298462,1,0,0:0:0:0:
320,192,298462,1,8,0:0:0:0:
448,192,298574,1,0,0:0:0:0:
64,192,298574,1,8,0:0:0:0:
320,192,298685,1,8,0:0:0:0:
448,192,298685,1,0,0:0:0:0:
64,192,298796,1,0,0:0:0:0:
192,192,298796,1,8,0:0:0:0:
192,192,298907,1,8,0:0:0:0:
448,192,298907,1,0,0:0:0:0:
448,192,299018,1,0,0:0:0:0:
320,192,299018,1,8,0:0:0:0:
64,192,299129,1,0,0:0:0:0:
320,192,299129,1,8,0:0:0:0:
448,192,299240,1,0,0:0:0:0:
64,192,299240,1,8,0:0:0:0:
192,192,299240,1,4,0:0:0:0:
448,192,299574,1,0,0:0:0:0:
192,192,299574,1,4,0:0:0:0:
64,192,299574,1,8,0:0:0:0:
448,192,299907,1,8,0:0:0:0:
320,192,299907,1,4,0:0:0:0:
64,192,299907,1,0,0:0:0:0:
64,192,300240,1,8,0:0:0:0:
192,192,300240,1,4,0:0:0:0:
448,192,300240,1,0,0:0:0:0:
448,192,300574,1,0,0:0:0:0:
320,192,300574,1,4,0:0:0:0:
64,192,300574,1,0,0:0:0:0:
192,192,300574,1,8,0:0:0:0:
192,192,301018,1,4,0:0:0:0:
320,192,301018,1,0,0:0:0:0:
448,192,301018,128,0,304018:0:0:0:0:
64,192,301018,128,0,304018:0:0:0:0:
448,192,304218,1,8,0:0:0:0:
320,192,304218,1,4,0:0:0:0:
64,192,304218,1,0,0:0:0:0:
448,192,304318,1,0,0:0:0:0:
320,192,304418,1,8,0:0:0:0:
64,192,304418,1,0,0:0:0:0:
192,192,304418,1,0,0:0:0:0:
64,192,304518,1,0,0:0:0:0:
320,192,304618,1,0,0:0:0:0:
448,192,304618,1,8,0:0:0:0:
192,192,304618,1,0,0:0:0:0:
320,192,304718,1,0,0:0:0:0:
448,192,304818,1,0,0:0:0:0:
192,192,304818,1,8,0:0:0:0:
64,192,304818,1,0,0:0:0:0:
64,192,304918,1,0,0:0:0:0:
192,192,305018,1,0,0:0:0:0:
448,192,305018,1,8,0:0:0:0:
320,192,305018,1,0,0:0:0:0:
448,192,305118,1,0,0:0:0:0:
320,192,305218,1,8,0:0:0:0:
192,192,305218,1,0,0:0:0:0:
64,192,305218,1,0,0:0:0:0:
64,192,305318,1,0,0:0:0:0:
192,192,305418,1,8,0:0:0:0:
448,192,305418,1,0,0:0:0:0:
320,192,305418,1,0,0:0:0:0:
448,192,305518,1,0,0:0:0:0:
192,192,305618,1,8,0:0:0:0:
64,192,305618,1,0,0:0:0:0:
320,192,305718,1,0,0:0:0:0:
64,192,305718,1,8,0:0:0:0:
320,192,305818,1,0,0:0:0:0:
448,192,305818,1,8,0:0:0:0:
192,192,305918,1,0,0:0:0:0:
448,192,306018,1,8,0:0:0:0:
320,192,306018,1,0,0:0:0:0:
64,192,306018,1,0,0:0:0:0:
448,192,306118,1,0,0:0:0:0:
64,192,306218,1,8,0:0:0:0:
320,192,306218,1,0,0:0:0:0:
192,192,306218,1,0,0:0:0:0:
192,192,306318,1,0,0:0:0:0:
64,192,306418,1,0,0:0:0:0:
320,192,306418,1,8,0:0:0:0:
448,192,306418,1,0,0:0:0:0:
448,192,306518,1,0,0:0:0:0:
320,192,306618,1,0,0:0:0:0:
64,192,306618,1,8,0:0:0:0:
192,192,306618,1,0,0:0:0:0:
64,192,306718,1,0,0:0:0:0:
448,192,306818,1,0,0:0:0:0:
192,192,306818,1,0,0:0:0:0:
320,192,306818,1,8,0:0:0:0:
320,192,306918,1,0,0:0:0:0:
448,192,307018,1,0,0:0:0:0:
192,192,307018,1,8,0:0:0:0:
64,192,307018,1,0,0:0:0:0:
192,192,307118,1,0,0:0:0:0:
320,192,307218,1,8,0:0:0:0:
448,192,307218,1,0,0:0:0:0:
192,192,307318,1,8,0:0:0:0:
320,192,307318,1,0,0:0:0:0:
192,192,307418,1,0,0:0:0:0:
64,192,307418,1,8,0:0:0:0:
320,192,307518,1,0,0:0:0:0:
64,192,307618,1,0,0:0:0:0:
192,192,307618,1,0,0:0:0:0:
448,192,307618,1,8,0:0:0:0:
192,192,307718,1,0,0:0:0:0:
64,192,307818,1,0,0:0:0:0:
320,192,307818,1,8,0:0:0:0:
448,192,307818,1,0,0:0:0:0:
448,192,307918,1,0,0:0:0:0:
64,192,308018,1,0,0:0:0:0:
192,192,308018,1,8,0:0:0:0:
320,192,308018,1,0,0:0:0:0:
192,192,308118,1,0,0:0:0:0:
448,192,308218,1,8,0:0:0:0:
64,192,308218,1,0,0:0:0:0:
320,192,308218,1,0,0:0:0:0:
320,192,308318,1,0,0:0:0:0:
448,192,308418,1,0,0:0:0:0:
192,192,308418,1,8,0:0:0:0:
64,192,308418,1,0,0:0:0:0:
64,192,308518,1,0,0:0:0:0:
320,192,308618,1,8,0:0:0:0:
448,192,308618,1,0,0:0:0:0:
192,192,308618,1,0,0:0:0:0:
448,192,308718,1,0,0:0:0:0:
192,192,308818,1,8,0:0:0:0:
64,192,308818,1,0,0:0:0:0:
192,192,308918,1,8,0:0:0:0:
320,192,308918,1,0,0:0:0:0:
448,192,309018,1,0,0:0:0:0:
64,192,309018,1,8,0:0:0:0:
320,192,309118,1,0,0:0:0:0:
192,192,309218,1,8,0:0:0:0:
64,192,309218,1,0,0:0:0:0:
64,192,309318,1,0,0:0:0:0:
448,192,309318,1,8,0:0:0:0:
192,192,309418,1,0,0:0:0:0:
448,192,309518,1,8,0:0:0:0:
320,192,309518,1,0,0:0:0:0:
320,192,309618,1,0,0:0:0:0:
448,192,309618,1,8,0:0:0:0:
192,192,309718,1,8,0:0:0:0:
64,192,309718,1,0,0:0:0:0:
320,192,309818,1,8,0:0:0:0:
64,192,309818,1,0,0:0:0:0:
448,192,309818,1,0,0:0:0:0:
192,192,309918,1,0,0:0:0:0:
64,192,309918,1,8,0:0:0:0:
64,192,310018,1,8,0:0:0:0:
320,192,310018,1,0,0:0:0:0:
448,192,310018,1,0,0:0:0:0:
320,192,310118,1,8,0:0:0:0:
448,192,310118,1,0,0:0:0:0:
192,192,310218,1,8,0:0:0:0:
448,192,310218,1,0,0:0:0:0:
64,192,310218,1,0,0:0:0:0:
320,192,310268,1,8,0:0:0:0:
64,192,310318,1,0,0:0:0:0:
192,192,310318,1,8,0:0:0:0:
320,192,310418,1,8,0:0:0:0:
448,192,310418,1,0,0:0:0:0:
64,192,310418,1,0,0:0:0:0:
448,192,310518,1,0,0:0:0:0:
320,192,310518,1,8,0:0:0:0:
192,192,310618,1,8,0:0:0:0:
320,192,310618,1,0,0:0:0:0:
64,192,310618,1,0,0:0:0:0:
64,192,310718,1,0,0:0:0:0:
448,192,310818,1,0,0:0:0:0:
320,192,310818,1,0,0:0:0:0:
192,192,310818,1,8,0:0:0:0:
448,192,310918,1,0,0:0:0:0:
192,192,311018,1,0,0:0:0:0:
64,192,311018,1,8,0:0:0:0:
320,192,311018,1,0,0:0:0:0:
192,192,311118,1,0,0:0:0:0:
448,192,311218,1,0,0:0:0:0:
320,192,311218,1,8,0:0:0:0:
64,192,311218,1,0,0:0:0:0:
448,192,311318,1,0,0:0:0:0:
320,192,311418,1,0,0:0:0:0:
192,192,311418,1,0,0:0:0:0:
64,192,311418,1,8,0:0:0:0:
64,192,311518,1,0,0:0:0:0:
448,192,311618,1,0,0:0:0:0:
192,192,311618,1,8,0:0:0:0:
320,192,311618,1,0,0:0:0:0:
448,192,311718,1,0,0:0:0:0:
192,192,311818,1,0,0:0:0:0:
64,192,311818,1,0,0:0:0:0:
320,192,311818,1,8,0:0:0:0:
64,192,311918,1,0,0:0:0:0:
320,192,312018,1,0,0:0:0:0:
448,192,312018,1,8,0:0:0:0:
320,192,312118,1,8,0:0:0:0:
192,192,312118,1,0,0:0:0:0:
448,192,312218,1,0,0:0:0:0:
64,192,312218,1,8,0:0:0:0:
320,192,312318,1,0,0:0:0:0:
448,192,312418,1,0,0:0:0:0:
64,192,312418,1,8,0:0:0:0:
192,192,312418,1,0,0:0:0:0:
448,192,312518,1,0,0:0:0:0:
192,192,312618,1,0,0:0:0:0:
320,192,312618,1,0,0:0:0:0:
64,192,312618,1,8,0:0:0:0:
192,192,312718,1,0,0:0:0:0:
320,192,312818,1,8,0:0:0:0:
64,192,312818,1,0,0:0:0:0:
448,192,312818,1,0,0:0:0:0:
448,192,312918,1,0,0:0:0:0:
64,192,313018,1,8,0:0:0:0:
192,192,313018,1,0,0:0:0:0:
320,192,313018,1,0,0:0:0:0:
64,192,313118,1,0,0:0:0:0:
192,192,313218,1,0,0:0:0:0:
448,192,313218,1,0,0:0:0:0:
320,192,313218,1,8,0:0:0:0:
320,192,313318,1,0,0:0:0:0:
192,192,313418,1,8,0:0:0:0:
64,192,313418,1,0,0:0:0:0:
448,192,313418,1,0,0:0:0:0:
192,192,313518,1,0,0:0:0:0:
448,192,313618,1,0,0:0:0:0:
320,192,313618,1,8,0:0:0:0:
64,192,313718,1,0,0:0:0:0:
448,192,313718,1,8,0:0:0:0:
192,192,313818,1,8,0:0:0:0:
320,192,313818,1,0,0:0:0:0:
448,192,313918,1,0,0:0:0:0:
64,192,314018,1,0,0:0:0:0:
320,192,314018,1,8,0:0:0:0:
192,192,314018,1,0,0:0:0:0:
192,192,314118,1,0,0:0:0:0:
64,192,314218,1,0,0:0:0:0:
448,192,314218,1,0,0:0:0:0:
320,192,314218,1,8,0:0:0:0:
448,192,314318,1,0,0:0:0:0:
64,192,314418,1,0,0:0:0:0:
192,192,314418,1,8,0:0:0:0:
320,192,314418,1,0,0:0:0:0:
192,192,314518,1,0,0:0:0:0:
448,192,314618,1,8,0:0:0:0:
64,192,314618,1,0,0:0:0:0:
320,192,314618,1,0,0:0:0:0:
320,192,314718,1,0,0:0:0:0:
192,192,314818,1,8,0:0:0:0:
64,192,314818,1,0,0:0:0:0:
448,192,314818,1,0,0:0:0:0:
64,192,314918,1,0,0:0:0:0:
320,192,315018,1,8,0:0:0:0:
448,192,315018,1,0,0:0:0:0:
192,192,315018,1,0,0:0:0:0:
448,192,315118,1,0,0:0:0:0:
192,192,315218,1,8,0:0:0:0:
64,192,315218,1,0,0:0:0:0:
320,192,315318,1,8,0:0:0:0:
448,192,315318,1,0,0:0:0:0:
448,192,315418,1,8,0:0:0:0:
192,192,315418,1,0,0:0:0:0:
64,192,315518,1,0,0:0:0:0:
448,192,315618,1,8,0:0:0:0:
320,192,315618,1,0,0:0:0:0:
64,192,315718,1,0,0:0:0:0:
448,192,315718,1,8,0:0:0:0:
192,192,315818,1,0,0:0:0:0:
64,192,315918,1,0,0:0:0:0:
448,192,315918,1,8,0:0:0:0:
320,192,316018,1,0,0:0:0:0:
448,192,316018,1,8,0:0:0:0:
192,192,316118,1,8,0:0:0:0:
64,192,316118,1,0,0:0:0:0:
448,192,316218,1,0,0:0:0:0:
64,192,316218,1,8,0:0:0:0:
192,192,316218,1,0,0:0:0:0:
320,192,316318,1,0,0:0:0:0:
448,192,316318,1,8,0:0:0:0:
192,192,316418,1,8,0:0:0:0:
64,192,316418,1,0,0:0:0:0:
64,192,316518,1,8,0:0:0:0:
320,192,316518,1,0,0:0:0:0:
320,192,316618,1,0,0:0:0:0:
448,192,316618,1,8,0:0:0:0:
192,192,316668,1,8,0:0:0:0:
64,192,316718,1,0,0:0:0:0:
448,192,316718,1,8,0:0:0:0:
64,192,316818,1,8,0:0:0:0:
192,192,316818,1,0,0:0:0:0:
448,192,316918,1,0,0:0:0:0:
320,192,316918,1,8,0:0:0:0:
448,192,317018,1,0,0:0:0:0:
64,192,317018,1,8,0:0:0:0:
192,192,317018,1,4,0:0:0:0:
320,192,317118,1,0,0:0:0:0:
64,192,317218,1,0,0:0:0:0:
448,192,317218,1,8,0:0:0:0:
192,192,317218,1,0,0:0:0:0:
64,192,317318,1,0,0:0:0:0:
448,192,317418,1,8,0:0:0:0:
192,192,317418,1,0,0:0:0:0:
320,192,317418,1,0,0:0:0:0:
320,192,317518,1,0,0:0:0:0:
64,192,317618,1,0,0:0:0:0:
448,192,317618,1,8,0:0:0:0:
192,192,317618,1,0,0:0:0:0:
64,192,317718,1,0,0:0:0:0:
448,192,317818,1,0,0:0:0:0:
320,192,317818,1,8,0:0:0:0:
192,192,317818,1,0,0:0:0:0:
448,192,317918,1,0,0:0:0:0:
192,192,318018,1,0,0:0:0:0:
320,192,318018,1,8,0:0:0:0:
64,192,318018,1,0,0:0:0:0:
192,192,318118,1,0,0:0:0:0:
64,192,318218,1,0,0:0:0:0:
448,192,318218,1,8,0:0:0:0:
320,192,318218,1,0,0:0:0:0:
448,192,318318,1,0,0:0:0:0:
320,192,318418,1,0,0:0:0:0:
192,192,318418,1,8,0:0:0:0:
64,192,318518,1,8,0:0:0:0:
448,192,318518,1,0,0:0:0:0:
192,192,318618,1,0,0:0:0:0:
64,192,318618,1,8,0:0:0:0:
448,192,318718,1,0,0:0:0:0:
192,192,318818,1,8,0:0:0:0:
320,192,318818,1,0,0:0:0:0:
64,192,318818,1,0,0:0:0:0:
64,192,318918,1,0,0:0:0:0:
320,192,319018,1,8,0:0:0:0:
192,192,319018,1,0,0:0:0:0:
448,192,319018,1,0,0:0:0:0:
448,192,319118,1,0,0:0:0:0:
320,192,319218,1,0,0:0:0:0:
192,192,319218,1,8,0:0:0:0:
64,192,319218,1,0,0:0:0:0:
192,192,319318,1,0,0:0:0:0:
320,192,319418,1,0,0:0:0:0:
64,192,319418,1,0,0:0:0:0:
448,192,319418,1,8,0:0:0:0:
448,192,319518,1,0,0:0:0:0:
192,192,319618,1,8,0:0:0:0:
64,192,319618,1,0,0:0:0:0:
320,192,319618,1,0,0:0:0:0:
64,192,319718,1,0,0:0:0:0:
448,192,319818,1,0,0:0:0:0:
320,192,319818,1,0,0:0:0:0:
192,192,319818,1,8,0:0:0:0:
320,192,319918,1,0,0:0:0:0:
192,192,320018,1,8,0:0:0:0:
64,192,320018,1,0,0:0:0:0:
64,192,320118,1,8,0:0:0:0:
448,192,320118,1,0,0:0:0:0:
448,192,320218,1,0,0:0:0:0:
320,192,320218,1,8,0:0:0:0:
64,192,320318,1,0,0:0:0:0:
448,192,320418,1,0,0:0:0:0:
192,192,320418,1,0,0:0:0:0:
320,192,320418,1,8,0:0:0:0:
448,192,320518,1,0,0:0:0:0:
320,192,320618,1,0,0:0:0:0:
64,192,320618,1,0,0:0:0:0:
192,192,320618,1,8,0:0:0:0:
64,192,320718,1,0,0:0:0:0:
448,192,320818,1,0,0:0:0:0:
320,192,320818,1,0,0:0:0:0:
192,192,320818,1,8,0:0:0:0:
320,192,320918,1,0,0:0:0:0:
64,192,321018,1,0,0:0:0:0:
192,192,321018,1,0,0:0:0:0:
448,192,321018,1,8,0:0:0:0:
64,192,321118,1,0,0:0:0:0:
448,192,321218,1,0,0:0:0:0:
320,192,321218,1,0,0:0:0:0:
192,192,321218,1,8,0:0:0:0:
448,192,321318,1,0,0:0:0:0:
320,192,321418,1,0,0:0:0:0:
64,192,321418,1,8,0:0:0:0:
192,192,321418,1,0,0:0:0:0:
64,192,321518,1,0,0:0:0:0:
448,192,321618,1,0,0:0:0:0:
320,192,321618,1,8,0:0:0:0:
192,192,321718,1,8,0:0:0:0:
448,192,321718,1,0,0:0:0:0:
64,192,321818,1,8,0:0:0:0:
192,192,321818,1,0,0:0:0:0:
320,192,321918,1,0,0:0:0:0:
448,192,322018,1,8,0:0:0:0:
192,192,322018,1,0,0:0:0:0:
64,192,322118,1,8,0:0:0:0:
448,192,322118,1,0,0:0:0:0:
192,192,322218,1,0,0:0:0:0:
448,192,322318,1,0,0:0:0:0:
320,192,322318,1,8,0:0:0:0:
192,192,322418,1,8,0:0:0:0:
64,192,322418,1,0,0:0:0:0:
320,192,322418,1,0,0:0:0:0:
64,192,322518,1,0,0:0:0:0:
192,192,322518,1,8,0:0:0:0:
448,192,322618,1,0,0:0:0:0:
192,192,322618,1,0,0:0:0:0:
320,192,322618,1,8,0:0:0:0:
448,192,322718,1,0,0:0:0:0:
320,192,322718,1,8,0:0:0:0:
320,192,322818,1,0,0:0:0:0:
192,192,322818,1,8,0:0:0:0:
64,192,322818,1,0,0:0:0:0:
192,192,322918,1,8,0:0:0:0:
64,192,322918,1,0,0:0:0:0:
448,192,323018,1,0,0:0:0:0:
320,192,323018,1,8,0:0:0:0:
192,192,323068,1,8,0:0:0:0:
64,192,323068,1,0,0:0:0:0:
448,192,323118,1,0,0:0:0:0:
320,192,323118,1,8,0:0:0:0:
320,192,323218,1,8,0:0:0:0:
448,192,323218,1,0,0:0:0:0:
64,192,323318,1,0,0:0:0:0:
192,192,323318,1,8,0:0:0:0:
320,192,323418,1,8,0:0:0:0:
448,192,323418,1,0,0:0:0:0:
64,192,323418,1,0,0:0:0:0:
448,192,323518,1,0,0:0:0:0:
320,192,323618,1,0,0:0:0:0:
64,192,323618,1,0,0:0:0:0:
192,192,323618,1,8,0:0:0:0:
192,192,323718,1,0,0:0:0:0:
448,192,323818,1,0,0:0:0:0:
320,192,323818,1,8,0:0:0:0:
64,192,323818,1,0,0:0:0:0:
320,192,323918,1,0,0:0:0:0:
448,192,324018,1,0,0:0:0:0:
192,192,324018,1,8,0:0:0:0:
64,192,324018,1,0,0:0:0:0:
64,192,324118,1,0,0:0:0:0:
320,192,324218,1,8,0:0:0:0:
448,192,324218,1,0,0:0:0:0:
192,192,324218,1,0,0:0:0:0:
320,192,324318,1,0,0:0:0:0:
448,192,324418,1,0,0:0:0:0:
64,192,324418,1,0,0:0:0:0:
192,192,324418,1,8,0:0:0:0:
192,192,324518,1,0,0:0:0:0:
64,192,324618,1,0,0:0:0:0:
320,192,324618,1,8,0:0:0:0:
448,192,324618,1,0,0:0:0:0:
448,192,324718,1,0,0:0:0:0:
192,192,324818,1,8,0:0:0:0:
64,192,324818,1,0,0:0:0:0:
448,192,324918,1,0,0:0:0:0:
192,192,324918,1,8,0:0:0:0:
64,192,325018,1,0,0:0:0:0:
320,192,325018,1,8,0:0:0:0:
448,192,325118,1,0,0:0:0:0:
64,192,325218,1,0,0:0:0:0:
192,192,325218,1,8,0:0:0:0:
320,192,325218,1,0,0:0:0:0:
64,192,325318,1,0,0:0:0:0:
320,192,325418,1,0,0:0:0:0:
448,192,325418,1,0,0:0:0:0:
192,192,325418,1,8,0:0:0:0:
320,192,325518,1,0,0:0:0:0:
448,192,325618,1,0,0:0:0:0:
64,192,325618,1,0,0:0:0:0:
192,192,325618,1,8,0:0:0:0:
64,192,325718,1,0,0:0:0:0:
448,192,325818,1,0,0:0:0:0:
320,192,325818,1,0,0:0:0:0:
192,192,325818,1,8,0:0:0:0:
448,192,325918,1,0,0:0:0:0:
320,192,326018,1,0,0:0:0:0:
192,192,326018,1,8,0:0:0:0:
64,192,326018,1,0,0:0:0:0:
192,192,326118,1,0,0:0:0:0:
448,192,326218,1,0,0:0:0:0:
320,192,326218,1,0,0:0:0:0:
64,192,326218,1,8,0:0:0:0:
448,192,326318,1,0,0:0:0:0:
192,192,326418,1,8,0:0:0:0:
64,192,326418,1,0,0:0:0:0:
448,192,326518,1,0,0:0:0:0:
64,192,326518,1,8,0:0:0:0:
192,192,326618,1,0,0:0:0:0:
448,192,326618,1,8,0:0:0:0:
320,192,326718,1,0,0:0:0:0:
448,192,326818,1,0,0:0:0:0:
64,192,326818,1,0,0:0:0:0:
192,192,326818,1,8,0:0:0:0:
64,192,326918,1,0,0:0:0:0:
320,192,327018,1,0,0:0:0:0:
448,192,327018,1,0,0:0:0:0:
192,192,327018,1,8,0:0:0:0:
320,192,327118,1,0,0:0:0:0:
192,192,327218,1,0,0:0:0:0:
448,192,327218,1,8,0:0:0:0:
64,192,327218,1,0,0:0:0:0:
192,192,327318,1,0,0:0:0:0:
448,192,327418,1,0,0:0:0:0:
320,192,327418,1,8,0:0:0:0:
64,192,327418,1,0,0:0:0:0:
448,192,327518,1,0,0:0:0:0:
320,192,327618,1,0,0:0:0:0:
192,192,327618,1,8,0:0:0:0:
64,192,327618,1,0,0:0:0:0:
192,192,327718,1,0,0:0:0:0:
320,192,327818,1,0,0:0:0:0:
448,192,327818,1,0,0:0:0:0:
64,192,327818,1,8,0:0:0:0:
448,192,327918,1,0,0:0:0:0:
192,192,328018,1,8,0:0:0:0:
64,192,328018,1,0,0:0:0:0:
320,192,328118,1,0,0:0:0:0:
192,192,328118,1,8,0:0:0:0:
64,192,328218,1,0,0:0:0:0:
448,192,328218,1,8,0:0:0:0:
320,192,328318,1,0,0:0:0:0:
192,192,328418,1,8,0:0:0:0:
448,192,328418,1,0,0:0:0:0:
64,192,328418,1,0,0:0:0:0:
320,192,328518,1,8,0:0:0:0:
64,192,328518,1,0,0:0:0:0:
448,192,328618,1,0,0:0:0:0:
320,192,328618,1,8,0:0:0:0:
448,192,328718,1,0,0:0:0:0:
192,192,328718,1,8,0:0:0:0:
192,192,328818,1,8,0:0:0:0:
64,192,328818,1,0,0:0:0:0:
320,192,328918,1,8,0:0:0:0:
448,192,328918,1,0,0:0:0:0:
192,192,328968,1,8,0:0:0:0:
64,192,328968,1,0,0:0:0:0:
448,192,329018,1,0,0:0:0:0:
320,192,329018,1,8,0:0:0:0:
448,192,329118,1,8,0:0:0:0:
64,192,329118,1,0,0:0:0:0:
320,192,329218,1,8,0:0:0:0:
192,192,329218,1,0,0:0:0:0:
64,192,329318,1,8,0:0:0:0:
192,192,329318,1,0,0:0:0:0:
320,192,329418,1,8,0:0:0:0:
448,192,329418,1,0,0:0:0:0:
192,192,329468,1,8,0:0:0:0:
64,192,329468,1,0,0:0:0:0:
320,192,329518,1,8,0:0:0:0:
448,192,329518,1,0,0:0:0:0:
192,192,329568,1,8,0:0:0:0:
64,192,329568,1,0,0:0:0:0:
448,192,329618,1,0,0:0:0:0:
320,192,329643,1,0,0:0:0:0:
192,192,329668,1,0,0:0:0:0:
64,192,329693,1,0,0:0:0:0:
448,192,329718,1,0,0:0:0:0:
320,192,329743,1,0,0:0:0:0:
192,192,329768,1,0,0:0:0:0:
64,192,329793,1,0,0:0:0:0:
448,192,329818,1,4,0:0:0:0:
320,192,329818,1,8,0:0:0:0:
64,192,329911,1,0,0:0:0:0:
192,192,329911,1,8,0:0:0:0:
320,192,330005,1,8,0:0:0:0:
448,192,330005,1,0,0:0:0:0:
320,192,330099,1,8,0:0:0:0:
64,192,330099,1,0,0:0:0:0:
64,192,330193,1,0,0:0:0:0:
192,192,330193,1,8,0:0:0:0:
448,192,330286,1,0,0:0:0:0:
320,192,330286,1,8,0:0:0:0:
64,192,330380,1,8,0:0:0:0:
448,192,330380,1,0,0:0:0:0:
64,192,330474,1,8,0:0:0:0:
192,192,330474,1,0,0:0:0:0:
448,192,330568,1,0,0:0:0:0:
320,192,330568,1,8,0:0:0:0:
320,192,330661,1,8,0:0:0:0:
64,192,330661,1,0,0:0:0:0:
448,192,330755,1,0,0:0:0:0:
64,192,330755,1,8,0:0:0:0:
448,192,330849,1,0,0:0:0:0:
192,192,330849,1,8,0:0:0:0:
320,192,330943,1,0,0:0:0:0:
192,192,330943,1,8,0:0:0:0:
64,192,331036,1,8,0:0:0:0:
448,192,331036,1,0,0:0:0:0:
192,192,331130,1,0,0:0:0:0:
64,192,331130,1,8,0:0:0:0:
448,192,331224,1,0,0:0:0:0:
320,192,331224,1,8,0:0:0:0:
192,192,331271,1,8,0:0:0:0:
64,192,331271,1,0,0:0:0:0:
320,192,331318,1,8,0:0:0:0:
448,192,331318,1,0,0:0:0:0:
192,192,331411,1,0,0:0:0:0:
64,192,331411,1,8,0:0:0:0:
64,192,331505,1,8,0:0:0:0:
448,192,331505,1,0,0:0:0:0:
448,192,331599,1,0,0:0:0:0:
320,192,331599,1,8,0:0:0:0:
192,192,331693,1,0,0:0:0:0:
320,192,331693,1,8,0:0:0:0:
64,192,331786,1,8,0:0:0:0:
448,192,331786,1,0,0:0:0:0:
320,192,331880,1,0,0:0:0:0:
64,192,331880,1,8,0:0:0:0:
192,192,331974,1,8,0:0:0:0:
448,192,331974,1,0,0:0:0:0:
64,192,332068,1,8,0:0:0:0:
448,192,332068,1,0,0:0:0:0:
64,192,332161,1,0,0:0:0:0:
320,192,332161,1,8,0:0:0:0:
448,192,332255,1,0,0:0:0:0:
320,192,332255,1,8,0:0:0:0:
192,192,332349,1,8,0:0:0:0:
64,192,332349,1,0,0:0:0:0:
320,192,332443,1,8,0:0:0:0:
448,192,332443,1,0,0:0:0:0:
192,192,332489,1,8,0:0:0:0:
64,192,332489,1,0,0:0:0:0:
448,192,332536,1,0,0:0:0:0:
320,192,332536,1,8,0:0:0:0:
192,192,332583,1,8,0:0:0:0:
64,192,332583,1,0,0:0:0:0:
448,192,332630,1,0,0:0:0:0:
320,192,332630,1,8,0:0:0:0:
192,192,332724,1,0,0:0:0:0:
64,192,332724,1,8,0:0:0:0:
64,192,332818,1,8,0:0:0:0:
448,192,332818,1,0,0:0:0:0:
448,192,332911,1,0,0:0:0:0:
320,192,332911,1,8,0:0:0:0:
192,192,333005,1,8,0:0:0:0:
64,192,333005,1,0,0:0:0:0:
448,192,333099,1,8,0:0:0:0:
64,192,333099,1,0,0:0:0:0:
192,192,333193,1,0,0:0:0:0:
448,192,333193,1,8,0:0:0:0:
320,192,333286,1,8,0:0:0:0:
64,192,333286,1,0,0:0:0:0:
192,192,333380,1,0,0:0:0:0:
320,192,333380,1,8,0:0:0:0:
448,192,333474,1,8,0:0:0:0:
64,192,333474,1,0,0:0:0:0:
448,192,333568,1,8,0:0:0:0:
192,192,333568,1,0,0:0:0:0:
320,192,333661,1,0,0:0:0:0:
192,192,333661,1,8,0:0:0:0:
64,192,333755,1,8,0:0:0:0:
448,192,333755,1,0,0:0:0:0:
192,192,333849,1,0,0:0:0:0:
64,192,333849,1,8,0:0:0:0:
320,192,333943,1,8,0:0:0:0:
448,192,333943,1,0,0:0:0:0:
64,192,334036,1,8,0:0:0:0:
448,192,334036,1,0,0:0:0:0:
192,192,334130,1,8,0:0:0:0:
64,192,334130,1,0,0:0:0:0:
320,192,334224,1,8,0:0:0:0:
448,192,334224,1,0,0:0:0:0:
192,192,334271,1,8,0:0:0:0:
64,192,334271,1,0,0:0:0:0:
320,192,334318,1,8,0:0:0:0:
448,192,334318,1,0,0:0:0:0:
64,192,334411,1,8,0:0:0:0:
192,192,334411,1,0,0:0:0:0:
448,192,334458,1,0,0:0:0:0:
320,192,334458,1,8,0:0:0:0:
64,192,334505,1,8,0:0:0:0:
192,192,334505,1,0,0:0:0:0:
448,192,334599,1,8,0:0:0:0:
320,192,334599,1,0,0:0:0:0:
192,192,334693,1,8,0:0:0:0:
64,192,334693,1,0,0:0:0:0:
320,192,334739,1,8,0:0:0:0:
448,192,334739,1,0,0:0:0:0:
64,192,334786,1,0,0:0:0:0:
192,192,334786,1,8,0:0:0:0:
448,192,334880,1,8,0:0:0:0:
320,192,334880,1,0,0:0:0:0:
192,192,334974,1,8,0:0:0:0:
64,192,334974,1,0,0:0:0:0:
320,192,335068,1,8,0:0:0:0:
448,192,335068,1,0,0:0:0:0:
192,192,335114,1,8,0:0:0:0:
64,192,335114,1,0,0:0:0:0:
448,192,335161,1,0,0:0:0:0:
320,192,335161,1,8,0:0:0:0:
192,192,335208,1,8,0:0:0:0:
64,192,335208,1,0,0:0:0:0:
320,192,335255,1,8,0:0:0:0:
448,192,335255,1,0,0:0:0:0:
192,192,335349,1,8,0:0:0:0:
64,192,335349,1,0,0:0:0:0:
448,192,335443,1,0,0:0:0:0:
320,192,335466,1,0,0:0:0:0:
64,192,335489,1,0,0:0:0:0:
192,192,335513,1,0,0:0:0:0:
448,192,335536,1,0,0:0:0:0:
320,192,335560,1,0,0:0:0:0:
64,192,335583,1,0,0:0:0:0:
192,192,335607,1,0,0:0:0:0:
448,192,335630,1,0,0:0:0:0:
320,192,335677,1,0,0:0:0:0:
64,192,335724,1,0,0:0:0:0:
192,192,335771,1,0,0:0:0:0:
448,192,335818,1,8,0:0:0:0:
320,192,335818,1,0,0:0:0:0:
192,192,335911,1,0,0:0:0:0:
64,192,335911,1,8,0:0:0:0:
448,192,336005,1,0,0:0:0:0:
64,192,336005,1,8,0:0:0:0:
192,192,336099,1,0,0:0:0:0:
320,192,336099,1,8,0:0:0:0:
192,192,336193,1,8,0:0:0:0:
448,192,336193,1,0,0:0:0:0:
448,192,336286,1,8,0:0:0:0:
64,192,336286,1,0,0:0:0:0:
320,192,336380,1,8,0:0:0:0:
192,192,336380,1,0,0:0:0:0:
64,192,336474,1,0,0:0:0:0:
192,192,336474,1,8,0:0:0:0:
320,192,336568,1,8,0:0:0:0:
448,192,336568,1,0,0:0:0:0:
64,192,336661,1,0,0:0:0:0:
320,192,336661,1,8,0:0:0:0:
192,192,336755,1,0,0:0:0:0:
64,192,336755,1,8,0:0:0:0:
320,192,336849,1,8,0:0:0:0:
448,192,336849,1,0,0:0:0:0:
64,192,336943,1,0,0:0:0:0:
320,192,336943,1,8,0:0:0:0:
64,192,337036,1,0,0:0:0:0:
448,192,337036,1,8,0:0:0:0:
448,192,337130,1,8,0:0:0:0:
320,192,337130,1,0,0:0:0:0:
192,192,337224,1,8,0:0:0:0:
64,192,337224,1,0,0:0:0:0:
448,192,337271,1,0,0:0:0:0:
320,192,337271,1,8,0:0:0:0:
192,192,337318,1,8,0:0:0:0:
64,192,337318,1,0,0:0:0:0:
320,192,337411,1,0,0:0:0:0:
448,192,337411,1,8,0:0:0:0:
64,192,337505,1,8,0:0:0:0:
448,192,337505,1,0,0:0:0:0:
64,192,337599,1,0,0:0:0:0:
320,192,337599,1,8,0:0:0:0:
320,192,337693,1,8,0:0:0:0:
192,192,337693,1,0,0:0:0:0:
64,192,337786,1,0,0:0:0:0:
448,192,337786,1,8,0:0:0:0:
448,192,337880,1,8,0:0:0:0:
192,192,337880,1,0,0:0:0:0:
192,192,337974,1,0,0:0:0:0:
64,192,337974,1,8,0:0:0:0:
320,192,338068,1,8,0:0:0:0:
448,192,338068,1,0,0:0:0:0:
448,192,338161,1,0,0:0:0:0:
192,192,338161,1,8,0:0:0:0:
64,192,338255,1,0,0:0:0:0:
320,192,338255,1,8,0:0:0:0:
64,192,338349,1,0,0:0:0:0:
192,192,338349,1,8,0:0:0:0:
320,192,338443,1,8,0:0:0:0:
448,192,338443,1,0,0:0:0:0:
192,192,338489,1,8,0:0:0:0:
64,192,338489,1,0,0:0:0:0:
448,192,338536,1,0,0:0:0:0:
320,192,338536,1,8,0:0:0:0:
64,192,338583,1,0,0:0:0:0:
192,192,338583,1,8,0:0:0:0:
320,192,338630,1,8,0:0:0:0:
448,192,338630,1,0,0:0:0:0:
192,192,338724,1,0,0:0:0:0:
64,192,338724,1,8,0:0:0:0:
448,192,338818,1,0,0:0:0:0:
64,192,338818,1,8,0:0:0:0:
448,192,338911,1,0,0:0:0:0:
320,192,338911,1,8,0:0:0:0:
192,192,339005,1,8,0:0:0:0:
64,192,339005,1,0,0:0:0:0:
448,192,339099,1,8,0:0:0:0:
192,192,339099,1,0,0:0:0:0:
64,192,339193,1,0,0:0:0:0:
448,192,339193,1,8,0:0:0:0:
320,192,339286,1,8,0:0:0:0:
192,192,339286,1,0,0:0:0:0:
192,192,339380,1,0,0:0:0:0:
64,192,339380,1,8,0:0:0:0:
320,192,339474,1,0,0:0:0:0:
448,192,339474,1,8,0:0:0:0:
320,192,339568,1,0,0:0:0:0:
64,192,339568,1,8,0:0:0:0:
192,192,339661,1,8,0:0:0:0:
448,192,339661,1,0,0:0:0:0:
64,192,339755,1,8,0:0:0:0:
448,192,339755,1,0,0:0:0:0:
64,192,339849,1,8,0:0:0:0:
320,192,339849,1,0,0:0:0:0:
320,192,339943,1,0,0:0:0:0:
448,192,339943,1,8,0:0:0:0:
192,192,340036,1,8,0:0:0:0:
64,192,340036,1,0,0:0:0:0:
320,192,340130,1,8,0:0:0:0:
448,192,340130,1,0,0:0:0:0:
64,192,340224,1,0,0:0:0:0:
192,192,340224,1,8,0:0:0:0:
448,192,340271,1,0,0:0:0:0:
320,192,340271,1,8,0:0:0:0:
64,192,340318,1,0,0:0:0:0:
192,192,340318,1,8,0:0:0:0:
448,192,340411,1,0,0:0:0:0:
320,192,340411,1,8,0:0:0:0:
64,192,340458,1,0,0:0:0:0:
192,192,340458,1,8,0:0:0:0:
320,192,340505,1,8,0:0:0:0:
448,192,340505,1,0,0:0:0:0:
64,192,340599,1,8,0:0:0:0:
192,192,340599,1,0,0:0:0:0:
448,192,340693,1,0,0:0:0:0:
320,192,340693,1,8,0:0:0:0:
192,192,340739,1,8,0:0:0:0:
64,192,340739,1,0,0:0:0:0:
320,192,340786,1,8,0:0:0:0:
448,192,340786,1,0,0:0:0:0:
64,192,340880,1,0,0:0:0:0:
192,192,340880,1,8,0:0:0:0:
320,192,340974,1,8,0:0:0:0:
448,192,340974,1,0,0:0:0:0:
64,192,341068,1,0,0:0:0:0:
192,192,341114,1,0,0:0:0:0:
448,192,341161,1,0,0:0:0:0:
320,192,341208,1,0,0:0:0:0:
192,192,341255,1,0,0:0:0:0:
64,192,341255,1,0,0:0:0:0:
448,192,341302,1,0,0:0:0:0:
64,192,341349,1,0,0:0:0:0:
320,192,341349,1,0,0:0:0:0:
192,192,341396,1,0,0:0:0:0:
448,192,341443,1,0,0:0:0:0:
320,192,341466,1,0,0:0:0:0:
64,192,341489,1,0,0:0:0:0:
192,192,341513,1,0,0:0:0:0:
448,192,341536,1,0,0:0:0:0:
320,192,341560,1,0,0:0:0:0:
64,192,341583,1,0,0:0:0:0:
192,192,341607,1,0,0:0:0:0:
448,192,341630,1,0,0:0:0:0:
320,192,341653,1,0,0:0:0:0:
64,192,341677,1,0,0:0:0:0:
192,192,341700,1,0,0:0:0:0:
448,192,341724,1,0,0:0:0:0:
320,192,341747,1,0,0:0:0:0:
64,192,341771,1,0,0:0:0:0:
192,192,341794,1,0,0:0:0:0:
320,192,341818,1,8,0:0:0:0:
448,192,341818,1,4,0:0:0:0:
192,192,341911,1,8,0:0:0:0:
64,192,341911,1,0,0:0:0:0:
320,192,342005,1,8,0:0:0:0:
448,192,342005,1,0,0:0:0:0:
320,192,342099,1,0,0:0:0:0:
64,192,342099,1,8,0:0:0:0:
64,192,342193,1,8,0:0:0:0:
192,192,342193,1,0,0:0:0:0:
448,192,342286,1,8,0:0:0:0:
320,192,342286,1,0,0:0:0:0:
64,192,342380,1,0,0:0:0:0:
448,192,342380,1,8,0:0:0:0:
192,192,342474,1,8,0:0:0:0:
64,192,342474,1,0,0:0:0:0:
192,192,342568,1,8,0:0:0:0:
448,192,342568,1,0,0:0:0:0:
320,192,342661,1,0,0:0:0:0:
448,192,342661,1,8,0:0:0:0:
64,192,342755,1,0,0:0:0:0:
192,192,342755,1,8,0:0:0:0:
64,192,342849,1,8,0:0:0:0:
448,192,342849,1,0,0:0:0:0:
192,192,342943,1,0,0:0:0:0:
320,192,342943,1,8,0:0:0:0:
448,192,343036,1,8,0:0:0:0:
320,192,343036,1,0,0:0:0:0:
64,192,343130,1,0,0:0:0:0:
192,192,343130,1,8,0:0:0:0:
320,192,343224,1,8,0:0:0:0:
448,192,343224,1,0,0:0:0:0:
192,192,343271,1,8,0:0:0:0:
64,192,343271,1,0,0:0:0:0:
320,192,343318,1,8,0:0:0:0:
448,192,343318,1,0,0:0:0:0:
64,192,343411,1,0,0:0:0:0:
192,192,343411,1,8,0:0:0:0:
192,192,343505,1,8,0:0:0:0:
448,192,343505,1,0,0:0:0:0:
320,192,343599,1,8,0:0:0:0:
448,192,343599,1,0,0:0:0:0:
64,192,343693,1,0,0:0:0:0:
192,192,343693,1,8,0:0:0:0:
64,192,343786,1,8,0:0:0:0:
448,192,343786,1,0,0:0:0:0:
320,192,343880,1,8,0:0:0:0:
448,192,343880,1,0,0:0:0:0:
64,192,343974,1,0,0:0:0:0:
192,192,343974,1,8,0:0:0:0:
192,192,344068,1,0,0:0:0:0:
448,192,344068,1,8,0:0:0:0:
448,192,344161,1,8,0:0:0:0:
64,192,344161,1,0,0:0:0:0:
192,192,344255,1,8,0:0:0:0:
320,192,344255,1,0,0:0:0:0:
192,192,344349,1,8,0:0:0:0:
64,192,344349,1,0,0:0:0:0:
320,192,344443,1,8,0:0:0:0:
448,192,344443,1,0,0:0:0:0:
192,192,344536,1,8,0:0:0:0:
64,192,344536,1,0,0:0:0:0:
320,192,344583,1,8,0:0:0:0:
448,192,344583,1,0,0:0:0:0:
192,192,344630,1,8,0:0:0:0:
64,192,344630,1,0,0:0:0:0:
448,192,344724,1,0,0:0:0:0:
320,192,344724,1,8,0:0:0:0:
448,192,344818,1,0,0:0:0:0:
64,192,344818,1,8,0:0:0:0:
192,192,344911,1,0,0:0:0:0:
320,192,344911,1,8,0:0:0:0:
64,192,345005,1,8,0:0:0:0:
320,192,345005,1,0,0:0:0:0:
64,192,345099,1,0,0:0:0:0:
448,192,345099,1,8,0:0:0:0:
448,192,345193,1,0,0:0:0:0:
320,192,345193,1,8,0:0:0:0:
64,192,345286,1,0,0:0:0:0:
192,192,345286,1,8,0:0:0:0:
64,192,345380,1,0,0:0:0:0:
320,192,345380,1,8,0:0:0:0:
192,192,345474,1,0,0:0:0:0:
320,192,345474,1,8,0:0:0:0:
448,192,345568,1,8,0:0:0:0:
64,192,345568,1,0,0:0:0:0:
448,192,345661,1,0,0:0:0:0:
192,192,345661,1,8,0:0:0:0:
192,192,345755,1,8,0:0:0:0:
320,192,345755,1,0,0:0:0:0:
320,192,345849,1,0,0:0:0:0:
448,192,345849,1,8,0:0:0:0:
64,192,345943,1,0,0:0:0:0:
192,192,345943,1,8,0:0:0:0:
320,192,346036,1,8,0:0:0:0:
64,192,346036,1,0,0:0:0:0:
448,192,346130,1,8,0:0:0:0:
320,192,346130,1,0,0:0:0:0:
192,192,346224,1,8,0:0:0:0:
64,192,346224,1,0,0:0:0:0:
320,192,346271,1,8,0:0:0:0:
448,192,346271,1,0,0:0:0:0:
64,192,346318,1,0,0:0:0:0:
192,192,346318,1,8,0:0:0:0:
448,192,346411,1,8,0:0:0:0:
320,192,346411,1,0,0:0:0:0:
192,192,346458,1,0,0:0:0:0:
64,192,346458,1,8,0:0:0:0:
320,192,346505,1,0,0:0:0:0:
448,192,346505,1,8,0:0:0:0:
64,192,346599,1,0,0:0:0:0:
192,192,346599,1,8,0:0:0:0:
448,192,346693,1,8,0:0:0:0:
320,192,346693,1,0,0:0:0:0:
192,192,346739,1,8,0:0:0:0:
64,192,346739,1,0,0:0:0:0:
320,192,346786,1,0,0:0:0:0:
448,192,346786,1,8,0:0:0:0:
64,192,346880,1,0,0:0:0:0:
192,192,346880,1,8,0:0:0:0:
448,192,346974,1,8,0:0:0:0:
320,192,346974,1,0,0:0:0:0:
64,192,347068,1,0,0:0:0:0:
192,192,347068,1,8,0:0:0:0:
448,192,347114,1,0,0:0:0:0:
320,192,347114,1,8,0:0:0:0:
64,192,347161,1,0,0:0:0:0:
192,192,347161,1,8,0:0:0:0:
448,192,347208,1,0,0:0:0:0:
320,192,347208,1,8,0:0:0:0:
192,192,347255,1,8,0:0:0:0:
64,192,347255,1,0,0:0:0:0:
448,192,347349,1,8,0:0:0:0:
320,192,347349,1,0,0:0:0:0:
192,192,347443,1,0,0:0:0:0:
64,192,347443,1,8,0:0:0:0:
64,192,347630,1,0,0:0:0:0:
320,192,347630,1,8,0:0:0:0:
448,192,347818,1,0,0:0:0:0:
192,192,347818,1,8,0:0:0:0:
448,192,347911,1,0,0:0:0:0:
320,192,347911,1,8,0:0:0:0:
192,192,348005,1,8,0:0:0:0:
64,192,348005,1,0,0:0:0:0:
448,192,348099,1,0,0:0:0:0:
192,192,348099,1,8,0:0:0:0:
448,192,348193,1,0,0:0:0:0:
320,192,348193,1,8,0:0:0:0:
192,192,348286,1,8,0:0:0:0:
64,192,348286,1,0,0:0:0:0:
448,192,348380,1,8,0:0:0:0:
64,192,348380,1,0,0:0:0:0:
192,192,348474,1,8,0:0:0:0:
448,192,348474,1,0,0:0:0:0:
192,192,348568,1,8,0:0:0:0:
64,192,348568,1,0,0:0:0:0:
320,192,348661,1,8,0:0:0:0:
448,192,348661,1,0,0:0:0:0:
64,192,348755,1,8,0:0:0:0:
448,192,348755,1,0,0:0:0:0:
192,192,348849,1,0,0:0:0:0:
64,192,348849,1,8,0:0:0:0:
448,192,348943,1,0,0:0:0:0:
320,192,348943,1,8,0:0:0:0:
64,192,349036,1,8,0:0:0:0:
320,192,349036,1,0,0:0:0:0:
192,192,349130,1,8,0:0:0:0:
64,192,349130,1,0,0:0:0:0:
320,192,349224,1,8,0:0:0:0:
448,192,349224,1,0,0:0:0:0:
64,192,349271,1,0,0:0:0:0:
192,192,349271,1,8,0:0:0:0:
448,192,349318,1,0,0:0:0:0:
320,192,349318,1,8,0:0:0:0:
64,192,349411,1,0,0:0:0:0:
192,192,349411,1,8,0:0:0:0:
448,192,349505,1,0,0:0:0:0:
320,192,349505,1,8,0:0:0:0:
448,192,349599,1,0,0:0:0:0:
192,192,349599,1,8,0:0:0:0:
64,192,349693,1,0,0:0:0:0:
192,192,349693,1,8,0:0:0:0:
320,192,349786,1,0,0:0:0:0:
448,192,349786,1,8,0:0:0:0:
320,192,349880,1,0,0:0:0:0:
64,192,349880,1,8,0:0:0:0:
64,192,349974,1,8,0:0:0:0:
448,192,349974,1,0,0:0:0:0:
448,192,350068,1,0,0:0:0:0:
192,192,350068,1,8,0:0:0:0:
320,192,350161,1,0,0:0:0:0:
64,192,350161,1,8,0:0:0:0:
64,192,350255,1,8,0:0:0:0:
192,192,350255,1,0,0:0:0:0:
320,192,350349,1,8,0:0:0:0:
448,192,350349,1,0,0:0:0:0:
64,192,350443,1,0,0:0:0:0:
192,192,350443,1,8,0:0:0:0:
320,192,350489,1,8,0:0:0:0:
448,192,350489,1,0,0:0:0:0:
192,192,350536,1,8,0:0:0:0:
64,192,350536,1,0,0:0:0:0:
320,192,350583,1,8,0:0:0:0:
448,192,350583,1,0,0:0:0:0:
64,192,350630,1,0,0:0:0:0:
192,192,350630,1,8,0:0:0:0:
448,192,350724,1,0,0:0:0:0:
320,192,350724,1,8,0:0:0:0:
64,192,350818,5,0,0:0:0:0:
192,192,350864,1,0,0:0:0:0:
320,192,350911,1,0,0:0:0:0:
64,192,350958,1,0,0:0:0:0:
192,192,351005,1,0,0:0:0:0:
448,192,351052,1,0,0:0:0:0:
320,192,351099,1,0,0:0:0:0:
192,192,351146,5,0,0:0:0:0:
64,192,351193,1,0,0:0:0:0:
448,192,351239,1,0,0:0:0:0:
192,192,351286,1,0,0:0:0:0:
320,192,351333,1,0,0:0:0:0:
64,192,351380,1,0,0:0:0:0:
192,192,351427,1,0,0:0:0:0:
448,192,351474,1,0,0:0:0:0:
320,192,351521,1,0,0:0:0:0:
192,192,351568,5,0,0:0:0:0:
448,192,351614,1,0,0:0:0:0:
320,192,351661,1,0,0:0:0:0:
64,192,351708,1,0,0:0:0:0:
448,192,351755,1,0,0:0:0:0:
320,192,351802,1,0,0:0:0:0:
64,192,351849,1,0,0:0:0:0:
192,192,351896,1,0,0:0:0:0:
320,192,351943,5,0,0:0:0:0:
64,192,351989,1,0,0:0:0:0:
448,192,352036,1,0,0:0:0:0:
320,192,352083,1,0,0:0:0:0:
64,192,352130,1,0,0:0:0:0:
192,192,352177,1,0,0:0:0:0:
448,192,352224,1,0,0:0:0:0:
320,192,352271,1,0,0:0:0:0:
64,192,352318,1,0,0:0:0:0:
192,192,352318,1,0,0:0:0:0:
448,192,352364,1,0,0:0:0:0:
320,192,352411,1,0,0:0:0:0:
64,192,352411,1,0,0:0:0:0:
192,192,352458,1,0,0:0:0:0:
320,192,352505,1,0,0:0:0:0:
448,192,352505,1,0,0:0:0:0:
64,192,352552,1,0,0:0:0:0:
192,192,352599,1,0,0:0:0:0:
320,192,352599,1,0,0:0:0:0:
448,192,352646,1,0,0:0:0:0:
192,192,352693,1,0,0:0:0:0:
64,192,352693,1,0,0:0:0:0:
320,192,352739,1,0,0:0:0:0:
448,192,352786,1,0,0:0:0:0:
64,192,352786,1,0,0:0:0:0:
192,192,352833,1,0,0:0:0:0:
320,192,352880,1,0,0:0:0:0:
448,192,352880,1,0,0:0:0:0:
64,192,352927,1,0,0:0:0:0:
448,192,352974,1,0,0:0:0:0:
192,192,352974,1,0,0:0:0:0:
320,192,353021,1,0,0:0:0:0:
64,192,353068,1,0,0:0:0:0:
192,192,353091,1,0,0:0:0:0:
448,192,353114,1,0,0:0:0:0:
320,192,353138,1,0,0:0:0:0:
64,192,353161,1,0,0:0:0:0:
192,192,353185,1,0,0:0:0:0:
448,192,353208,1,0,0:0:0:0:
320,192,353232,1,0,0:0:0:0:
64,192,353255,1,0,0:0:0:0:
192,192,353278,1,0,0:0:0:0:
448,192,353302,1,0,0:0:0:0:
320,192,353325,1,0,0:0:0:0:
64,192,353349,1,0,0:0:0:0:
192,192,353372,1,0,0:0:0:0:
448,192,353396,1,0,0:0:0:0:
320,192,353419,1,0,0:0:0:0:
64,192,353443,1,0,0:0:0:0:
192,192,353466,1,0,0:0:0:0:
448,192,353489,1,0,0:0:0:0:
320,192,353513,1,0,0:0:0:0:
64,192,353536,1,0,0:0:0:0:
192,192,353560,1,0,0:0:0:0:
448,192,353583,1,0,0:0:0:0:
320,192,353607,1,0,0:0:0:0:
64,192,353630,1,0,0:0:0:0:
192,192,353653,1,0,0:0:0:0:
448,192,353677,1,0,0:0:0:0:
320,192,353700,1,0,0:0:0:0:
64,192,353724,1,0,0:0:0:0:
192,192,353747,1,0,0:0:0:0:
448,192,353771,1,0,0:0:0:0:
320,192,353794,1,0,0:0:0:0:
64,192,353818,128,4,354849:0:0:0:0:
192,192,353818,128,8,354193:0:0:0:0:
320,192,354286,1,0,0:0:0:0:
448,192,354380,1,0,0:0:0:0:
192,192,354474,1,0,0:0:0:0:
320,192,354568,1,0,0:0:0:0:
448,192,354661,1,0,0:0:0:0:
320,192,354755,1,0,0:0:0:0:
448,192,354849,128,0,355130:0:0:0:0:
192,192,354849,1,0,0:0:0:0:
320,192,354943,1,0,0:0:0:0:
64,192,355036,1,0,0:0:0:0:
192,192,355130,128,0,355318:0:0:0:0:
320,192,355130,1,0,0:0:0:0:
448,192,355224,1,0,0:0:0:0:
320,192,355318,128,0,356349:0:0:0:0:
64,192,355318,1,0,0:0:0:0:
448,192,355411,1,0,0:0:0:0:
64,192,355505,1,0,0:0:0:0:
192,192,355599,1,0,0:0:0:0:
448,192,355693,1,0,0:0:0:0:
192,192,355786,1,0,0:0:0:0:
64,192,355880,1,0,0:0:0:0:
448,192,355974,1,0,0:0:0:0:
192,192,356068,1,0,0:0:0:0:
64,192,356161,1,0,0:0:0:0:
192,192,356255,1,0,0:0:0:0:
64,192,356349,128,0,356630:0:0:0:0:
448,192,356349,1,0,0:0:0:0:
320,192,356443,1,0,0:0:0:0:
192,192,356536,1,0,0:0:0:0:
448,192,356630,128,0,356818:0:0:0:0:
320,192,356630,1,0,0:0:0:0:
64,192,356724,1,0,0:0:0:0:
192,192,356818,128,0,357849:0:0:0:0:
320,192,356818,1,0,0:0:0:0:
64,192,356911,1,0,0:0:0:0:
320,192,357005,1,0,0:0:0:0:
448,192,357099,1,0,0:0:0:0:
320,192,357193,1,0,0:0:0:0:
64,192,357286,1,0,0:0:0:0:
320,192,357380,1,0,0:0:0:0:
448,192,357474,1,0,0:0:0:0:
320,192,357568,1,0,0:0:0:0:
64,192,357661,1,0,0:0:0:0:
320,192,357755,1,0,0:0:0:0:
64,192,357849,128,0,358130:0:0:0:0:
448,192,357849,1,0,0:0:0:0:
320,192,357943,1,0,0:0:0:0:
192,192,358036,1,0,0:0:0:0:
448,192,358130,128,0,358318:0:0:0:0:
320,192,358130,1,0,0:0:0:0:
64,192,358224,1,0,0:0:0:0:
320,192,358318,128,0,358599:0:0:0:0:
192,192,358318,1,0,0:0:0:0:
64,192,358411,1,0,0:0:0:0:
192,192,358505,1,0,0:0:0:0:
64,192,358599,128,0,358880:0:0:0:0:
448,192,358599,1,0,0:0:0:0:
192,192,358693,1,0,0:0:0:0:
448,192,358786,1,0,0:0:0:0:
320,192,358880,128,0,359068:0:0:0:0:
192,192,358880,1,0,0:0:0:0:
64,192,358974,1,0,0:0:0:0:
448,192,359068,128,0,359255:0:0:0:0:
192,192,359068,1,0,0:0:0:0:
64,192,359161,1,0,0:0:0:0:
192,192,359255,128,0,359443:0:0:0:0:
320,192,359255,1,0,0:0:0:0:
64,192,359349,1,0,0:0:0:0:
448,192,359443,128,0,359630:0:0:0:0:
320,192,359443,1,0,0:0:0:0:
192,192,359536,1,0,0:0:0:0:
320,192,359630,128,0,359818:0:0:0:0:
64,192,359630,1,0,0:0:0:0:
448,192,359724,1,0,0:0:0:0:
192,192,359818,128,0,360849:0:0:0:0:
64,192,359818,1,0,0:0:0:0:
448,192,359911,1,0,0:0:0:0:
320,192,360005,1,0,0:0:0:0:
448,192,360099,1,0,0:0:0:0:
64,192,360193,1,0,0:0:0:0:
320,192,360286,1,0,0:0:0:0:
64,192,360380,1,0,0:0:0:0:
448,192,360474,1,0,0:0:0:0:
320,192,360568,1,0,0:0:0:0:
64,192,360661,1,0,0:0:0:0:
320,192,360755,1,0,0:0:0:0:
64,192,360849,128,0,361130:0:0:0:0:
448,192,360849,1,0,0:0:0:0:
320,192,360943,1,0,0:0:0:0:
192,192,361036,1,0,0:0:0:0:
320,192,361130,128,0,361318:0:0:0:0:
448,192,361130,1,0,0:0:0:0:
64,192,361224,1,0,0:0:0:0:
192,192,361318,128,0,362349:0:0:0:0:
448,192,361318,1,0,0:0:0:0:
64,192,361411,1,0,0:0:0:0:
320,192,361505,1,0,0:0:0:0:
448,192,361599,1,0,0:0:0:0:
64,192,361693,1,0,0:0:0:0:
320,192,361786,1,0,0:0:0:0:
448,192,361880,1,0,0:0:0:0:
320,192,361974,1,0,0:0:0:0:
64,192,362068,1,0,0:0:0:0:
320,192,362161,1,0,0:0:0:0:
448,192,362255,1,0,0:0:0:0:
64,192,362349,128,0,362630:0:0:0:0:
320,192,362349,1,0,0:0:0:0:
448,192,362443,1,0,0:0:0:0:
192,192,362536,1,0,0:0:0:0:
448,192,362630,128,0,362818:0:0:0:0:
320,192,362630,1,0,0:0:0:0:
192,192,362724,1,0,0:0:0:0:
320,192,362818,128,0,363005:0:0:0:0:
64,192,362818,1,0,0:0:0:0:
192,192,362911,1,0,0:0:0:0:
448,192,363005,128,0,363193:0:0:0:0:
64,192,363005,1,0,0:0:0:0:
320,192,363099,1,0,0:0:0:0:
192,192,363193,1,0,0:0:0:0:
64,192,363286,1,0,0:0:0:0:
448,192,363380,128,0,363568:0:0:0:0:
192,192,363380,1,0,0:0:0:0:
320,192,363474,1,0,0:0:0:0:
64,192,363568,128,0,363755:0:0:0:0:
192,192,363568,1,0,0:0:0:0:
320,192,363661,1,0,0:0:0:0:
448,192,363755,128,0,363849:0:0:0:0:
192,192,363755,1,0,0:0:0:0:
320,192,363849,128,0,363943:0:0:0:0:
64,192,363849,1,0,0:0:0:0:
192,192,363943,128,0,364130:0:0:0:0:
448,192,363943,1,0,0:0:0:0:
320,192,364036,1,0,0:0:0:0:
64,192,364130,128,0,364318:0:0:0:0:
448,192,364130,1,0,0:0:0:0:
320,192,364224,1,0,0:0:0:0:
192,192,364318,128,0,365068:0:0:0:0:
448,192,364318,1,0,0:0:0:0:
320,192,364411,1,0,0:0:0:0:
64,192,364505,1,0,0:0:0:0:
320,192,364599,1,0,0:0:0:0:
448,192,364693,1,0,0:0:0:0:
320,192,364786,1,0,0:0:0:0:
64,192,364880,1,0,0:0:0:0:
320,192,364974,1,0,0:0:0:0:
448,192,365068,128,0,365818:0:0:0:0:
64,192,365068,1,0,0:0:0:0:
192,192,365161,1,0,0:0:0:0:
320,192,365255,1,0,0:0:0:0:
64,192,365349,1,0,0:0:0:0:
192,192,365443,1,0,0:0:0:0:
320,192,365536,1,0,0:0:0:0:
192,192,365630,1,0,0:0:0:0:
64,192,365724,1,0,0:0:0:0:
192,192,365818,128,0,366849:0:0:0:0:
320,192,365818,1,4,0:0:0:0:
64,192,365818,1,0,0:0:0:0:
448,192,365911,1,0,0:0:0:0:
320,192,366005,1,0,0:0:0:0:
448,192,366099,1,0,0:0:0:0:
64,192,366193,1,0,0:0:0:0:
320,192,366286,1,0,0:0:0:0:
448,192,366380,1,0,0:0:0:0:
64,192,366474,1,0,0:0:0:0:
448,192,366568,1,0,0:0:0:0:
320,192,366661,1,0,0:0:0:0:
448,192,366755,1,0,0:0:0:0:
64,192,366849,128,0,367130:0:0:0:0:
320,192,366849,1,0,0:0:0:0:
192,192,366943,1,0,0:0:0:0:
320,192,367036,1,0,0:0:0:0:
448,192,367130,128,0,367318:0:0:0:0:
192,192,367130,1,0,0:0:0:0:
64,192,367224,1,0,0:0:0:0:
320,192,367318,128,0,368349:0:0:0:0:
192,192,367318,1,0,0:0:0:0:
64,192,367411,1,0,0:0:0:0:
448,192,367505,1,0,0:0:0:0:
64,192,367599,1,0,0:0:0:0:
192,192,367693,1,0,0:0:0:0:
448,192,367786,1,0,0:0:0:0:
192,192,367880,1,0,0:0:0:0:
64,192,367974,1,0,0:0:0:0:
192,192,368068,1,0,0:0:0:0:
448,192,368161,1,0,0:0:0:0:
64,192,368255,1,0,0:0:0:0:
192,192,368349,128,0,368630:0:0:0:0:
448,192,368349,1,0,0:0:0:0:
64,192,368443,1,0,0:0:0:0:
320,192,368536,1,0,0:0:0:0:
448,192,368630,128,0,368818:0:0:0:0:
64,192,368630,1,0,0:0:0:0:
320,192,368724,1,0,0:0:0:0:
192,192,368818,128,0,369849:0:0:0:0:
64,192,368818,1,0,0:0:0:0:
448,192,368911,1,0,0:0:0:0:
320,192,369005,1,0,0:0:0:0:
448,192,369099,1,0,0:0:0:0:
320,192,369193,1,0,0:0:0:0:
64,192,369286,1,0,0:0:0:0:
320,192,369380,1,0,0:0:0:0:
448,192,369474,1,0,0:0:0:0:
320,192,369568,1,0,0:0:0:0:
64,192,369661,1,0,0:0:0:0:
320,192,369755,1,0,0:0:0:0:
64,192,369849,128,0,370130:0:0:0:0:
448,192,369849,1,0,0:0:0:0:
320,192,369943,1,0,0:0:0:0:
192,192,370036,1,0,0:0:0:0:
448,192,370130,128,0,370318:0:0:0:0:
320,192,370130,1,0,0:0:0:0:
192,192,370224,1,0,0:0:0:0:
320,192,370318,128,0,370599:0:0:0:0:
64,192,370318,1,0,0:0:0:0:
192,192,370411,1,0,0:0:0:0:
448,192,370505,1,0,0:0:0:0:
64,192,370599,128,0,370880:0:0:0:0:
192,192,370599,1,0,0:0:0:0:
448,192,370693,1,0,0:0:0:0:
192,192,370786,1,0,0:0:0:0:
320,192,370880,128,0,371068:0:0:0:0:
448,192,370880,1,0,0:0:0:0:
192,192,370974,1,0,0:0:0:0:
64,192,371068,1,0,0:0:0:0:
448,192,371068,128,0,371255:0:0:0:0:
192,192,371161,1,0,0:0:0:0:
64,192,371255,128,0,371443:0:0:0:0:
320,192,371255,1,0,0:0:0:0:
192,192,371349,1,0,0:0:0:0:
448,192,371443,128,0,371630:0:0:0:0:
320,192,371443,1,0,0:0:0:0:
192,192,371536,1,0,0:0:0:0:
64,192,371630,128,0,371818:0:0:0:0:
320,192,371630,1,0,0:0:0:0:
448,192,371724,1,0,0:0:0:0:
192,192,371818,128,0,372849:0:0:0:0:
320,192,371818,1,0,0:0:0:0:
64,192,371911,1,0,0:0:0:0:
448,192,372005,1,0,0:0:0:0:
320,192,372099,1,0,0:0:0:0:
64,192,372193,1,0,0:0:0:0:
448,192,372286,1,0,0:0:0:0:
320,192,372380,1,0,0:0:0:0:
64,192,372474,1,0,0:0:0:0:
448,192,372568,1,0,0:0:0:0:
320,192,372661,1,0,0:0:0:0:
448,192,372755,1,0,0:0:0:0:
64,192,372849,128,0,373130:0:0:0:0:
320,192,372849,1,0,0:0:0:0:
192,192,372943,1,0,0:0:0:0:
448,192,373036,1,0,0:0:0:0:
320,192,373130,128,0,373318:0:0:0:0:
192,192,373130,1,0,0:0:0:0:
448,192,373224,1,0,0:0:0:0:
192,192,373318,128,0,374349:0:0:0:0:
64,192,373318,1,0,0:0:0:0:
320,192,373411,1,0,0:0:0:0:
448,192,373505,1,0,0:0:0:0:
320,192,373599,1,0,0:0:0:0:
64,192,373693,1,0,0:0:0:0:
448,192,373786,1,0,0:0:0:0:
320,192,373880,1,0,0:0:0:0:
448,192,373974,1,0,0:0:0:0:
64,192,374068,1,0,0:0:0:0:
448,192,374161,1,0,0:0:0:0:
320,192,374255,1,0,0:0:0:0:
64,192,374349,128,0,374630:0:0:0:0:
448,192,374349,1,0,0:0:0:0:
320,192,374443,1,0,0:0:0:0:
192,192,374536,1,0,0:0:0:0:
448,192,374630,128,0,374818:0:0:0:0:
320,192,374630,1,0,0:0:0:0:
192,192,374724,1,0,0:0:0:0:
320,192,374818,128,0,376130:0:0:0:0:
64,192,374818,1,0,0:0:0:0:
448,192,374911,1,0,0:0:0:0:
192,192,375005,1,0,0:0:0:0:
64,192,375099,1,0,0:0:0:0:
448,192,375193,1,0,0:0:0:0:
64,192,375286,1,0,0:0:0:0:
192,192,375380,1,0,0:0:0:0:
448,192,375474,1,0,0:0:0:0:
192,192,375568,1,0,0:0:0:0:
64,192,375661,1,0,0:0:0:0:
448,192,375755,1,0,0:0:0:0:
64,192,375849,1,0,0:0:0:0:
192,192,375943,1,0,0:0:0:0:
448,192,376036,1,0,0:0:0:0:
192,192,376130,128,0,376318:0:0:0:0:
64,192,376130,1,0,0:0:0:0:
320,192,376224,1,0,0:0:0:0:
64,192,376318,128,0,376505:0:0:0:0:
448,192,376318,1,0,0:0:0:0:
320,192,376411,1,0,0:0:0:0:
192,192,376505,128,0,376693:0:0:0:0:
448,192,376505,1,0,0:0:0:0:
64,192,376599,1,0,0:0:0:0:
320,192,376693,128,0,376880:0:0:0:0:
448,192,376693,1,0,0:0:0:0:
192,192,376786,1,0,0:0:0:0:
448,192,376880,128,0,377068:0:0:0:0:
64,192,376880,1,0,0:0:0:0:
320,192,376974,1,0,0:0:0:0:
192,192,377068,128,0,377255:0:0:0:0:
64,192,377068,1,0,0:0:0:0:
320,192,377161,1,0,0:0:0:0:
64,192,377255,128,0,377443:0:0:0:0:
448,192,377255,1,0,0:0:0:0:
192,192,377349,1,0,0:0:0:0:
320,192,377443,128,0,377630:0:0:0:0:
448,192,377443,1,0,0:0:0:0:
192,192,377536,1,0,0:0:0:0:
448,192,377630,128,0,377818:0:0:0:0:
64,192,377630,1,0,0:0:0:0:
320,192,377724,1,0,0:0:0:0:
192,192,377818,128,0,378849:0:0:0:0:
64,192,377818,1,0,0:0:0:0:
320,192,377818,1,4,0:0:0:0:
320,192,378568,1,0,0:0:0:0:
448,192,378568,1,0,0:0:0:0:
64,192,378849,128,0,379130:0:0:0:0:
448,192,379130,128,0,379318:0:0:0:0:
320,192,379318,128,0,380349:0:0:0:0:
192,192,379318,1,0,0:0:0:0:
64,192,379318,1,0,0:0:0:0:
64,192,380068,1,0,0:0:0:0:
448,192,380068,1,0,0:0:0:0:
64,192,380349,128,0,380630:0:0:0:0:
448,192,380630,128,0,380818:0:0:0:0:
192,192,380818,128,0,381849:0:0:0:0:
64,192,380818,1,0,0:0:0:0:
320,192,380818,1,0,0:0:0:0:
448,192,381568,1,0,0:0:0:0:
320,192,381568,1,0,0:0:0:0:
64,192,381849,128,0,382130:0:0:0:0:
448,192,382130,128,0,382318:0:0:0:0:
320,192,382318,128,0,382599:0:0:0:0:
192,192,382318,1,0,0:0:0:0:
64,192,382318,1,0,0:0:0:0:
64,192,382599,128,0,382880:0:0:0:0:
192,192,382880,128,0,383068:0:0:0:0:
448,192,383068,128,0,383255:0:0:0:0:
320,192,383068,1,0,0:0:0:0:
64,192,383068,1,0,0:0:0:0:
320,192,383255,128,0,383443:0:0:0:0:
448,192,383443,128,0,383630:0:0:0:0:
320,192,383630,128,0,383818:0:0:0:0:
192,192,383818,128,0,384849:0:0:0:0:
448,192,383818,1,0,0:0:0:0:
64,192,383818,1,0,0:0:0:0:
320,192,384568,1,0,0:0:0:0:
448,192,384568,1,0,0:0:0:0:
64,192,384849,128,0,385130:0:0:0:0:
320,192,385130,128,0,385318:0:0:0:0:
192,192,385318,128,0,386349:0:0:0:0:
64,192,385318,1,0,0:0:0:0:
448,192,385318,1,0,0:0:0:0:
448,192,386068,1,0,0:0:0:0:
64,192,386068,1,0,0:0:0:0:
64,192,386349,128,0,386630:0:0:0:0:
448,192,386630,128,0,386818:0:0:0:0:
320,192,386818,128,0,387005:0:0:0:0:
192,192,386818,1,0,0:0:0:0:
64,192,386818,1,0,0:0:0:0:
448,192,387005,128,0,387193:0:0:0:0:
448,192,387380,128,0,387568:0:0:0:0:
64,192,387568,128,0,387755:0:0:0:0:
192,192,387568,1,0,0:0:0:0:
320,192,387568,1,0,0:0:0:0:
448,192,387755,128,0,387849:0:0:0:0:
320,192,387849,128,0,387943:0:0:0:0:
192,192,387943,128,0,388130:0:0:0:0:
64,192,388130,128,0,388318:0:0:0:0:
192,192,388318,128,0,389068:0:0:0:0:
448,192,388318,1,0,0:0:0:0:
320,192,388318,1,0,0:0:0:0:
448,192,389068,128,0,389818:0:0:0:0:
64,192,389068,1,0,0:0:0:0:
320,192,389068,1,0,0:0:0:0:
192,192,389818,128,0,390849:0:0:0:0:
320,192,389818,1,0,0:0:0:0:
64,192,389818,1,4,0:0:0:0:
320,192,390568,1,0,0:0:0:0:
448,192,390568,1,0,0:0:0:0:
64,192,390849,128,0,391130:0:0:0:0:
448,192,391130,128,0,391318:0:0:0:0:
320,192,391318,128,0,392349:0:0:0:0:
192,192,391318,1,0,0:0:0:0:
64,192,391318,1,0,0:0:0:0:
192,192,392068,1,0,0:0:0:0:
448,192,392068,1,0,0:0:0:0:
192,192,392349,128,0,392630:0:0:0:0:
448,192,392630,128,0,392818:0:0:0:0:
192,192,392818,128,0,393849:0:0:0:0:
64,192,392818,1,0,0:0:0:0:
320,192,392818,1,0,0:0:0:0:
320,192,393568,1,0,0:0:0:0:
448,192,393568,1,0,0:0:0:0:
64,192,393849,128,0,394130:0:0:0:0:
448,192,394130,128,0,394318:0:0:0:0:
320,192,394318,128,0,394599:0:0:0:0:
64,192,394318,1,0,0:0:0:0:
192,192,394318,1,0,0:0:0:0:
64,192,394599,128,0,394880:0:0:0:0:
320,192,394880,128,0,395068:0:0:0:0:
448,192,395068,128,0,395255:0:0:0:0:
64,192,395068,1,0,0:0:0:0:
192,192,395068,1,0,0:0:0:0:
64,192,395255,128,0,395443:0:0:0:0:
448,192,395443,128,0,395630:0:0:0:0:
64,192,395630,128,0,395818:0:0:0:0:
192,192,395818,128,0,396849:0:0:0:0:
320,192,395818,1,0,0:0:0:0:
448,192,395818,1,0,0:0:0:0:
64,192,396568,1,0,0:0:0:0:
320,192,396568,1,0,0:0:0:0:
64,192,396849,128,0,397130:0:0:0:0:
320,192,397130,128,0,397318:0:0:0:0:
192,192,397318,128,0,398349:0:0:0:0:
448,192,397318,1,0,0:0:0:0:
64,192,397318,1,0,0:0:0:0:
320,192,398068,1,0,0:0:0:0:
448,192,398068,1,0,0:0:0:0:
64,192,398349,128,0,398630:0:0:0:0:
448,192,398630,128,0,398818:0:0:0:0:
320,192,398818,128,0,400130:0:0:0:0:
192,192,398818,1,0,0:0:0:0:
64,192,398818,1,0,0:0:0:0:
192,192,399568,5,0,0:0:0:0:
64,192,399568,1,0,0:0:0:0:
448,192,400130,1,0,0:0:0:0:
320,192,400318,1,0,0:0:0:0:
64,192,400318,1,0,0:0:0:0:
192,192,400505,1,0,0:0:0:0:
320,192,400693,1,0,0:0:0:0:
448,192,400880,1,0,0:0:0:0:
320,192,401068,1,0,0:0:0:0:
192,192,401068,1,0,0:0:0:0:
64,192,401255,1,0,0:0:0:0:
320,192,401443,1,0,0:0:0:0:
448,192,401630,128,0,405005:0:0:0:0:
