osu file format v14

[General]
AudioFilename: audio.mp3
AudioLeadIn: 0
PreviewTime: 303151
Countdown: 1
SampleSet: Normal
StackLeniency: 0.7
Mode: 2
LetterboxInBreaks: 0
WidescreenStoryboard: 0

[Editor]
DistanceSpacing: 1.1
BeatDivisor: 4
GridSize: 8
TimelineZoom: 3.399999

[Metadata]
Title:Galaxy Collapse
TitleUnicode:Galaxy Collapse
Artist:Kurokotei
ArtistUnicode:黒皇帝
Creator:Lucas Valentino
Version:Hypernova
Source:
Tags:
BeatmapID:1138013
BeatmapSetID:536945

[Difficulty]
HPDrainRate:8
CircleSize:4.5
OverallDifficulty:8
ApproachRate:9
SliderMultiplier:1.4
SliderTickRate:2

[Events]
//Background and Video events
//Break Periods
2,28545,31248
2,174372,178703
2,286996,303468
2,359643,365068
//Storyboard Layer 0 (Background)
//Storyboard Layer 1 (Fail)
//Storyboard Layer 2 (Pass)
//Storyboard Layer 3 (Foreground)
//Storyboard Sound Samples

[TimingPoints]
13,444.444444444444,4,2,0,75,1,0
28457,3529.41176470588,4,2,0,75,1,0
31998,222.222222222222,4,1,0,75,1,0
117331,458.015267175573,4,1,0,75,1,0
117790,400,4,2,0,75,1,8
155390,363.636363636364,4,1,1,75,1,0
156844,333.333333333333,4,1,1,75,1,0
158177,307.692307692308,4,1,1,75,1,0
159407,285.714285714286,4,1,1,75,1,0
160549,266.666666666667,4,1,1,75,1,0
161615,250,4,1,1,75,1,0
162615,235.294117647059,4,1,1,75,1,0
163556,222.222222222222,4,1,1,75,1,0
164444,210.526315789474,4,1,1,75,1,0
165286,200,4,1,1,75,1,0
166086,190.47619047619,4,1,1,75,1,0
166847,181.818181818182,4,1,1,75,1,0
167574,173.913043478261,4,1,1,75,1,0
168269,166.666666666667,4,1,1,75,1,0
168935,160,4,1,1,75,1,0
169575,153.846153846154,4,1,1,75,1,0
170190,148.148148148148,4,1,1,75,1,0
170782,142.857142857143,4,1,1,75,1,0
171353,137.931034482759,4,1,1,75,1,0
171904,133.333333333333,4,1,1,75,1,0
172437,129.032258064516,4,1,1,75,1,0
172953,125,4,1,1,75,1,0
173453,121.212121212121,4,1,1,75,1,0
173937,117.647058823529,4,1,1,75,1,0
174407,115.384615384615,4,1,1,75,1,0
176253,3200,4,2,2,100,1,0
179453,200,4,2,1,75,1,1
205053,200,4,2,1,75,1,1
230653,206.896551724138,4,1,0,75,1,0
237273,214.285714285714,4,1,0,75,1,0
244130,222.222222222222,4,1,0,75,1,0
287962,-200,4,2,0,75,0,0
301018,3200,4,2,0,75,1,0
304218,200,4,1,0,75,1,1
329818,187.5,4,1,0,75,1,1
353818,375,4,1,0,75,1,0

[Colours]
Combo1 : 245,10,10
Combo2 : 255,255,255
Combo3 : 255,255,255
Combo4 : 238,18,6

[HitObjects]
256,267,13,5,0,2:2:0:0:
180,192,457,1,0,2:2:0:0:
256,116,901,1,0,2:2:0:0:
331,192,1346,1,0,2:2:0:0:
176,271,1790,5,0,2:2:0:0:
176,112,2235,1,0,2:2:0:0:
335,112,2679,1,0,2:2:0:0:
335,271,3124,1,0,2:2:0:0:
87,191,3568,37,0,2:2:0:0:
256,21,4013,1,0,2:2:0:0:
425,190,4457,1,0,2:2:0:0:
256,361,4902,1,0,2:2:0:0:
77,12,5346,5,0,2:2:0:0:
436,12,5791,1,0,2:2:0:0:
435,371,6235,1,0,0:0:0:0:
77,371,6680,1,0,2:2:0:0:
256,192,7124,38,0,L|296:152,3,35
288,288,7568,2,0,L|256:312,3,35
352,216,8012,2,0,L|382:193,3,35
192,256,8457,2,0,L|152:288,3,35
192,160,8901,2,0,L|192:112,3,35
256,224,9346,2,0,L|256:264,3,35
344,221,9790,2,0,L|344:256,3,35
408,160,10235,2,0,L|408:114,3,35
400,32,10679,6,0,L|360:32,3,35
296,96,11124,2,0,L|256:96,3,35
192,160,11568,2,0,L|152:160,3,35
96,224,12012,2,0,L|56:224,3,35
174,302,12457,2,0,L|200:328,3,35
336,304,12901,2,0,L|307:332,3,35
328,208,13346,2,0,L|305:177,3,35
176,208,13790,2,0,L|202:177,3,35
256,192,14235,38,0,L|296:152,3,35
288,288,14679,2,0,L|256:312,3,35
352,216,15123,2,0,L|382:193,3,35
192,256,15568,2,0,L|152:288,3,35
192,160,16012,2,0,L|192:112,3,35
256,224,16457,2,0,L|256:264,3,35
344,221,16901,2,0,L|344:256,3,35
408,160,17346,2,0,L|408:114,3,35
400,32,17790,6,0,L|360:32,3,35
296,96,18235,2,0,L|256:96,3,35
192,160,18679,2,0,L|152:160,3,35
96,224,19123,2,0,L|56:224,3,35
174,302,19568,2,0,L|200:328,3,35
336,304,20012,2,0,L|307:332,3,35
328,208,20457,2,0,L|305:177,3,35
176,208,20901,2,0,L|202:177,3,35
256,192,21346,38,0,L|296:152,3,35
288,288,21790,2,0,L|256:312,3,35
352,216,22234,6,0,L|382:193,3,35
192,256,22679,2,0,L|152:288,3,35
192,160,23123,2,0,L|192:112,3,35
256,224,23568,2,0,L|256:264,3,35
344,221,24012,2,0,L|344:256,3,35
408,160,24457,2,0,L|408:114,3,35
400,32,24901,6,0,L|360:32,3,35
296,96,25346,2,0,L|256:96,3,35
192,160,25790,2,0,L|152:160,3,35
96,224,26234,2,0,L|56:224,3,35
174,302,26679,2,0,L|200:328,3,35
336,304,27123,2,0,L|307:332,3,35
328,208,27568,2,0,L|305:177,3,35
176,208,28012,2,0,L|202:177,3,35
32,32,31998,6,0,P|88:32|120:64,1,70
176,120,32220,2,0,P|208:152|240:160,1,70
32,120,32442,2,0,P|80:120|96:160,1,70
176,32,32664,2,0,P|224:32|264:64,1,70
176,120,32886,5,0,0:0:0:0:
104,184,32998,1,0,0:0:0:0:
104,280,33109,1,0,0:0:0:0:
176,344,33220,1,0,0:0:0:0:
272,344,33331,1,0,0:0:0:0:
344,280,33442,1,0,0:0:0:0:
344,184,33553,1,0,0:0:0:0:
416,120,33665,1,0,0:0:0:0:
344,56,33775,6,0,B|288:56|288:56|256:88,1,70
259,184,33998,2,0,L|336:184,1,70
267,76,34220,2,0,B|235:44|235:44|208:72,1,70
144,136,34442,2,0,B|112:168|112:168|112:200,1,70
112,304,34664,5,0,0:0:0:0:
160,384,34775,1,0,0:0:0:0:
208,304,34886,1,0,0:0:0:0:
256,224,34998,1,0,0:0:0:0:
304,144,35109,1,0,0:0:0:0:
352,224,35220,1,0,0:0:0:0:
400,304,35331,1,0,0:0:0:0:
496,304,35442,1,0,0:0:0:0:
400,304,35553,6,0,L|320:304,1,70
223,301,35775,2,0,P|247:237|264:208,1,70
304,152,35997,2,0,P|319:183|344:217,1,70
224,144,36220,2,0,B|192:176|192:176|152:176,1,70
56,176,36442,5,0,0:0:0:0:
24,176,36553,1,0,0:0:0:0:
224,144,36664,1,0,0:0:0:0:
256,144,36775,1,0,0:0:0:0:
56,272,36886,1,0,0:0:0:0:
40,296,36997,1,0,0:0:0:0:
224,48,37109,1,0,0:0:0:0:
240,32,37220,1,0,0:0:0:0:
128,144,37331,6,0,P|128:192|160:232,1,70
232,224,37553,2,0,P|232:176|200:136,1,70
64,224,37775,2,0,P|104:280|128:296,1,70
304,144,37997,2,0,P|264:88|240:80,1,70
116,287,38220,5,0,0:0:0:0:
200,328,38331,1,0,0:0:0:0:
296,328,38442,1,0,0:0:0:0:
376,280,38553,1,0,0:0:0:0:
424,200,38664,6,0,B|424:112|424:112|392:144|352:136,1,140
256,128,39109,5,0,0:0:0:0:
256,128,39220,1,0,0:0:0:0:
448,192,39331,1,0,0:0:0:0:
448,192,39442,1,0,0:0:0:0:
256,272,39553,1,0,0:0:0:0:
256,272,39664,1,0,0:0:0:0:
448,336,39775,1,0,0:0:0:0:
448,336,39886,1,0,0:0:0:0:
64,64,39997,5,0,0:0:0:0:
64,64,40108,1,0,0:0:0:0:
256,128,40219,1,0,0:0:0:0:
256,128,40330,1,0,0:0:0:0:
64,208,40441,1,0,0:0:0:0:
64,208,40552,1,0,0:0:0:0:
256,272,40663,1,0,0:0:0:0:
256,272,40774,1,0,0:0:0:0:
152,40,40886,5,0,0:0:0:0:
152,40,40997,1,0,0:0:0:0:
344,104,41108,1,0,0:0:0:0:
344,104,41219,1,0,0:0:0:0:
152,184,41330,1,0,0:0:0:0:
152,184,41441,1,0,0:0:0:0:
344,248,41552,1,0,0:0:0:0:
344,248,41663,1,0,0:0:0:0:
256,136,41774,5,0,0:0:0:0:
256,136,41885,1,0,0:0:0:0:
448,200,41996,1,0,0:0:0:0:
448,200,42107,1,0,0:0:0:0:
256,280,42218,1,0,0:0:0:0:
256,280,42329,1,0,0:0:0:0:
448,344,42440,1,0,0:0:0:0:
448,344,42551,1,0,0:0:0:0:
264,32,42664,6,0,P|312:32|344:64,1,70
400,120,42886,2,0,P|432:152|464:152,1,70
256,120,43108,2,0,P|304:120|304:184,1,85
400,32,43330,2,0,P|448:32|488:64,1,70
392,120,43552,5,0,0:0:0:0:
320,184,43664,1,0,0:0:0:0:
320,280,43775,1,0,0:0:0:0:
392,344,43886,1,0,0:0:0:0:
72,336,43997,1,0,0:0:0:0:
144,272,44108,1,0,0:0:0:0:
144,176,44219,1,0,0:0:0:0:
64,104,44331,1,0,0:0:0:0:
272,40,44442,6,0,B|216:40|216:40|192:64,1,70
187,168,44665,2,0,L|264:168,1,70
192,56,44887,2,0,B|160:24|160:24|128:48,1,70
72,120,45109,2,0,B|40:152|40:152|40:192,1,70
40,208,45331,5,0,0:0:0:0:
88,288,45442,1,0,0:0:0:0:
136,208,45553,1,0,0:0:0:0:
184,128,45665,1,0,0:0:0:0:
232,48,45776,1,0,0:0:0:0:
280,128,45887,1,0,0:0:0:0:
328,208,45998,1,0,0:0:0:0:
424,208,46109,1,0,0:0:0:0:
32,32,46220,6,0,P|88:32|120:64,1,70
176,120,46442,2,0,P|208:152|240:160,1,70
32,120,46664,2,0,P|80:120|96:160,1,70
176,32,46886,2,0,P|224:32|264:64,1,70
176,120,47108,5,0,0:0:0:0:
104,184,47220,1,0,0:0:0:0:
104,280,47331,1,0,0:0:0:0:
176,344,47442,1,0,0:0:0:0:
272,344,47553,1,0,0:0:0:0:
344,280,47664,1,0,0:0:0:0:
344,184,47775,1,0,0:0:0:0:
416,120,47887,1,0,0:0:0:0:
344,56,47997,6,0,B|288:56|288:56|256:88,1,70
259,184,48220,2,0,L|336:184,1,70
267,76,48442,2,0,B|235:44|235:44|208:72,1,70
144,136,48664,2,0,B|112:168|112:168|112:200,1,70
112,304,48886,5,0,0:0:0:0:
160,384,48997,1,0,0:0:0:0:
208,304,49108,1,0,0:0:0:0:
256,224,49220,1,0,0:0:0:0:
304,144,49331,1,0,0:0:0:0:
352,224,49442,1,0,0:0:0:0:
400,304,49553,1,0,0:0:0:0:
496,304,49664,1,0,0:0:0:0:
400,304,49775,6,0,L|320:304,1,70
223,301,49997,2,0,P|247:237|264:208,1,70
304,152,50219,2,0,P|319:183|344:217,1,70
224,144,50442,2,0,B|192:176|192:176|152:176,1,70
56,176,50664,5,0,0:0:0:0:
24,176,50775,1,0,0:0:0:0:
224,144,50886,1,0,0:0:0:0:
256,144,50997,1,0,0:0:0:0:
56,272,51108,1,0,0:0:0:0:
40,296,51219,1,0,0:0:0:0:
224,48,51331,1,0,0:0:0:0:
240,32,51442,1,0,0:0:0:0:
128,144,51553,6,0,P|128:192|160:232,1,70
232,224,51775,2,0,P|232:176|200:136,1,70
64,224,51997,2,0,P|104:280|128:296,1,70
304,144,52219,6,0,P|264:88|240:80,1,70
116,287,52442,5,0,0:0:0:0:
200,328,52553,1,0,0:0:0:0:
296,328,52664,1,0,0:0:0:0:
376,280,52775,1,0,0:0:0:0:
424,200,52886,6,0,B|424:112|424:112|392:144|352:136,1,140
256,128,53331,5,0,0:0:0:0:
256,128,53442,1,0,0:0:0:0:
448,192,53553,1,0,0:0:0:0:
448,192,53664,1,0,0:0:0:0:
256,272,53775,1,0,0:0:0:0:
256,272,53886,1,0,0:0:0:0:
448,336,53997,1,0,0:0:0:0:
448,336,54108,1,0,0:0:0:0:
64,64,54219,5,0,0:0:0:0:
64,64,54330,1,0,0:0:0:0:
256,128,54441,1,0,0:0:0:0:
256,128,54552,1,0,0:0:0:0:
64,208,54663,1,0,0:0:0:0:
64,208,54774,1,0,0:0:0:0:
256,272,54885,1,0,0:0:0:0:
256,272,54996,1,0,0:0:0:0:
152,40,55108,5,0,0:0:0:0:
152,40,55219,1,0,0:0:0:0:
344,104,55330,1,0,0:0:0:0:
344,104,55441,1,0,0:0:0:0:
152,184,55552,1,0,0:0:0:0:
152,184,55663,1,0,0:0:0:0:
344,248,55774,1,0,0:0:0:0:
344,248,55885,1,0,0:0:0:0:
256,136,55996,5,0,0:0:0:0:
256,136,56107,1,0,0:0:0:0:
448,200,56218,1,0,0:0:0:0:
448,200,56329,1,0,0:0:0:0:
256,280,56440,1,0,0:0:0:0:
256,280,56551,1,0,0:0:0:0:
448,344,56662,1,0,0:0:0:0:
448,344,56773,1,0,0:0:0:0:
264,32,56886,6,0,P|312:32|344:64,1,70
400,120,57108,2,0,P|432:152|464:152,1,70
256,120,57330,2,0,P|304:120|304:184,1,85
400,32,57552,2,0,P|448:32|488:64,1,70
392,120,57774,5,0,0:0:0:0:
320,184,57886,1,0,0:0:0:0:
320,280,57997,1,0,0:0:0:0:
392,344,58108,1,0,0:0:0:0:
72,336,58219,1,0,0:0:0:0:
144,272,58330,1,0,0:0:0:0:
144,176,58441,1,0,0:0:0:0:
64,104,58553,1,0,0:0:0:0:
272,40,58664,6,0,B|216:40|216:40|192:64,1,70
187,168,58887,2,0,L|264:168,1,70
192,56,59109,2,0,B|160:24|160:24|128:48,1,70
72,120,59331,2,0,B|40:152|40:152|40:192,1,70
40,208,59553,5,0,0:0:0:0:
88,288,59664,1,0,0:0:0:0:
136,208,59775,5,0,0:0:0:0:
184,128,59887,1,0,0:0:0:0:
232,48,59998,1,0,0:0:0:0:
280,128,60109,1,0,0:0:0:0:
328,208,60220,1,0,0:0:0:0:
424,208,60331,1,0,0:0:0:0:
328,208,60442,5,0,0:0:0:0:
232,136,60664,5,0,0:0:0:0:
40,136,60886,5,0,0:0:0:0:
136,208,61109,5,0,0:0:0:0:
256,272,61331,2,0,P|320:304|408:328,1,140
56,272,61775,2,0,P|120:304|208:320,1,140
328,208,62220,5,0,0:0:0:0:
232,136,62442,5,0,0:0:0:0:
40,136,62664,5,0,0:0:0:0:
136,208,62887,5,0,0:0:0:0:
152,288,63109,5,0,0:0:0:0:
448,288,63331,5,0,0:0:0:0:
312,352,63553,2,0,P|256:280|280:224,1,140
368,216,63997,5,0,0:0:0:0:
232,136,64219,5,0,0:0:0:0:
40,136,64441,5,0,0:0:0:0:
136,208,64664,5,0,0:0:0:0:
152,288,64886,5,0,0:0:0:0:
320,320,65109,2,0,P|424:272|440:224,1,140
48,224,65553,2,0,P|96:312|160:320,1,140
232,136,65997,5,0,0:0:0:0:
40,136,66219,5,0,0:0:0:0:
136,208,66442,5,0,0:0:0:0:
152,288,66664,5,0,0:0:0:0:
448,288,66886,5,0,0:0:0:0:
288,208,67108,5,0,0:0:0:0:
232,136,67553,5,0,0:0:0:0:
40,136,67775,5,0,0:0:0:0:
136,208,67998,5,0,0:0:0:0:
256,272,68220,2,0,P|320:304|408:328,1,140
56,272,68664,2,0,P|120:304|208:320,1,140
328,208,69109,5,0,0:0:0:0:
232,136,69331,5,0,0:0:0:0:
40,136,69553,5,0,0:0:0:0:
136,208,69776,5,0,0:0:0:0:
152,288,69998,5,0,0:0:0:0:
448,288,70220,5,0,0:0:0:0:
312,352,70442,2,0,P|256:280|280:224,1,140
368,216,70886,5,0,0:0:0:0:
232,136,71108,5,0,0:0:0:0:
40,136,71330,5,0,0:0:0:0:
136,208,71553,5,0,0:0:0:0:
152,288,71775,5,0,0:0:0:0:
320,320,71998,2,0,P|424:272|440:224,1,140
48,224,72442,2,0,P|96:312|160:320,1,140
232,136,72886,5,0,0:0:0:0:
40,136,73108,5,0,0:0:0:0:
136,208,73331,5,0,0:0:0:0:
152,288,73553,5,0,0:0:0:0:
448,288,73775,5,0,0:0:0:0:
288,208,73997,5,0,0:0:0:0:
400,88,74220,2,0,P|312:136|264:120,1,140
232,136,74664,5,0,0:0:0:0:
40,136,74886,5,0,0:0:0:0:
136,208,75109,5,0,0:0:0:0:
256,272,75331,2,0,P|320:304|408:328,1,140
56,272,75775,2,0,P|120:304|208:320,1,140
328,208,76220,5,0,0:0:0:0:
232,136,76442,5,0,0:0:0:0:
40,136,76664,5,0,0:0:0:0:
136,208,76887,5,0,0:0:0:0:
152,288,77109,5,0,0:0:0:0:
448,288,77331,5,0,0:0:0:0:
312,352,77553,2,0,P|256:280|280:224,1,140
368,216,77997,5,0,0:0:0:0:
232,136,78219,5,0,0:0:0:0:
40,136,78441,5,0,0:0:0:0:
136,208,78664,5,0,0:0:0:0:
152,288,78886,5,0,0:0:0:0:
320,320,79109,2,0,P|424:272|440:224,1,140
48,224,79553,2,0,P|96:312|160:320,1,140
232,136,79997,5,0,0:0:0:0:
40,136,80219,5,0,0:0:0:0:
136,208,80442,5,0,0:0:0:0:
152,288,80664,5,0,0:0:0:0:
448,288,80886,5,0,0:0:0:0:
288,208,81108,5,0,0:0:0:0:
80,200,81331,2,0,P|152:248|224:272,1,140
232,136,81775,5,0,0:0:0:0:
40,136,81997,5,0,0:0:0:0:
136,208,82220,5,0,0:0:0:0:
256,272,82442,2,0,P|320:304|408:328,1,140
56,272,82886,2,0,P|120:304|208:320,1,140
328,208,83331,5,0,0:0:0:0:
232,136,83553,5,0,0:0:0:0:
40,136,83775,5,0,0:0:0:0:
136,208,83998,5,0,0:0:0:0:
152,288,84220,5,0,0:0:0:0:
448,288,84442,5,0,0:0:0:0:
312,352,84664,2,0,P|256:280|280:224,1,140
368,216,85108,5,0,0:0:0:0:
232,136,85330,5,0,0:0:0:0:
40,136,85552,5,0,0:0:0:0:
136,208,85775,5,0,0:0:0:0:
152,288,85997,5,0,0:0:0:0:
320,320,86220,2,0,P|424:272|440:224,1,140
48,224,86664,2,0,P|96:312|160:320,1,140
232,136,87108,5,0,0:0:0:0:
40,136,87330,1,0,0:0:0:0:
136,208,87553,5,0,0:0:0:0:
152,288,87775,1,0,0:0:0:0:
448,288,87997,5,0,0:0:0:0:
288,208,88219,1,0,0:0:0:0:
152,120,88442,1,0,0:0:0:0:
32,32,88886,6,0,P|88:32|120:64,1,70
176,120,89108,2,0,P|208:152|240:160,1,70
32,120,89330,2,0,P|80:120|96:160,1,70
176,32,89552,2,0,P|224:32|264:64,1,70
176,120,89774,5,0,0:0:0:0:
104,184,89886,1,0,0:0:0:0:
104,280,89997,1,0,0:0:0:0:
176,344,90108,1,0,0:0:0:0:
272,344,90219,1,0,0:0:0:0:
344,280,90330,1,0,0:0:0:0:
344,184,90441,1,0,0:0:0:0:
416,120,90553,1,0,0:0:0:0:
344,56,90663,6,0,B|288:56|288:56|256:88,1,70
259,184,90886,2,0,L|336:184,1,70
267,76,91108,2,0,B|235:44|235:44|208:72,1,70
144,136,91330,2,0,B|112:168|112:168|112:200,1,70
112,304,91552,5,0,0:0:0:0:
160,384,91663,1,0,0:0:0:0:
208,304,91774,1,0,0:0:0:0:
256,224,91886,1,0,0:0:0:0:
304,144,91997,1,0,0:0:0:0:
352,224,92108,1,0,0:0:0:0:
400,304,92219,1,0,0:0:0:0:
496,304,92330,1,0,0:0:0:0:
400,304,92441,6,0,L|320:304,1,70
223,301,92663,2,0,P|247:237|264:208,1,70
304,152,92885,2,0,P|319:183|344:217,1,70
224,144,93108,2,0,B|192:176|192:176|152:176,1,70
56,176,93330,5,0,0:0:0:0:
24,176,93441,1,0,0:0:0:0:
224,144,93552,1,0,0:0:0:0:
256,144,93663,1,0,0:0:0:0:
56,272,93774,1,0,0:0:0:0:
40,296,93885,1,0,0:0:0:0:
224,48,93997,1,0,0:0:0:0:
240,32,94108,1,0,0:0:0:0:
128,144,94219,6,0,P|128:192|160:232,1,70
232,224,94441,2,0,P|232:176|200:136,1,70
64,224,94663,2,0,P|104:280|128:296,1,70
304,144,94885,2,0,P|264:88|240:80,1,70
116,287,95108,5,0,0:0:0:0:
200,328,95219,1,0,0:0:0:0:
296,328,95330,1,0,0:0:0:0:
376,280,95441,1,0,0:0:0:0:
424,200,95552,6,0,B|424:112|424:112|392:144|352:136,1,140
256,128,95997,5,0,0:0:0:0:
256,128,96108,1,0,0:0:0:0:
448,192,96219,1,0,0:0:0:0:
448,192,96330,1,0,0:0:0:0:
256,272,96441,1,0,0:0:0:0:
256,272,96552,1,0,0:0:0:0:
448,336,96663,1,0,0:0:0:0:
448,336,96774,1,0,0:0:0:0:
64,64,96885,5,0,0:0:0:0:
64,64,96996,1,0,0:0:0:0:
256,128,97107,1,0,0:0:0:0:
256,128,97218,1,0,0:0:0:0:
64,208,97329,1,0,0:0:0:0:
64,208,97440,1,0,0:0:0:0:
256,272,97551,1,0,0:0:0:0:
256,272,97662,1,0,0:0:0:0:
152,40,97774,5,0,0:0:0:0:
152,40,97885,1,0,0:0:0:0:
344,104,97996,1,0,0:0:0:0:
344,104,98107,1,0,0:0:0:0:
152,184,98218,1,0,0:0:0:0:
152,184,98329,1,0,0:0:0:0:
344,248,98440,1,0,0:0:0:0:
344,248,98551,1,0,0:0:0:0:
256,136,98662,5,0,0:0:0:0:
256,136,98773,1,0,0:0:0:0:
448,200,98884,1,0,0:0:0:0:
448,200,98995,1,0,0:0:0:0:
256,280,99106,1,0,0:0:0:0:
256,280,99217,1,0,0:0:0:0:
448,344,99328,1,0,0:0:0:0:
448,344,99439,1,0,0:0:0:0:
264,32,99552,6,0,P|312:32|344:64,1,70
400,120,99774,2,0,P|432:152|464:152,1,70
256,120,99996,2,0,P|304:120|304:184,1,85
400,32,100218,2,0,P|448:32|488:64,1,70
392,120,100440,5,0,0:0:0:0:
320,184,100552,1,0,0:0:0:0:
320,280,100663,1,0,0:0:0:0:
392,344,100774,1,0,0:0:0:0:
72,336,100885,1,0,0:0:0:0:
144,272,100996,1,0,0:0:0:0:
144,176,101107,1,0,0:0:0:0:
64,104,101219,1,0,0:0:0:0:
272,40,101330,6,0,B|216:40|216:40|192:64,1,70
187,168,101553,2,0,L|264:168,1,70
192,56,101775,2,0,B|160:24|160:24|128:48,1,70
72,120,101997,2,0,B|40:152|40:152|40:192,1,70
40,208,102219,5,0,0:0:0:0:
88,288,102330,1,0,0:0:0:0:
136,208,102441,1,0,0:0:0:0:
184,128,102553,1,0,0:0:0:0:
232,48,102664,1,0,0:0:0:0:
280,128,102775,1,0,0:0:0:0:
328,208,102886,1,0,0:0:0:0:
424,208,102997,1,0,0:0:0:0:
32,32,103108,6,0,P|88:32|120:64,1,70
176,120,103330,2,0,P|208:152|240:160,1,70
32,120,103552,2,0,P|80:120|96:160,1,70
176,32,103774,2,0,P|224:32|264:64,1,70
176,120,103996,5,0,0:0:0:0:
104,184,104108,1,0,0:0:0:0:
104,280,104219,1,0,0:0:0:0:
176,344,104330,1,0,0:0:0:0:
272,344,104441,1,0,0:0:0:0:
344,280,104552,1,0,0:0:0:0:
344,184,104663,1,0,0:0:0:0:
416,120,104775,1,0,0:0:0:0:
344,56,104885,6,0,B|288:56|288:56|256:88,1,70
259,184,105108,2,0,L|336:184,1,70
267,76,105330,2,0,B|235:44|235:44|208:72,1,70
144,136,105552,2,0,B|112:168|112:168|112:200,1,70
112,304,105774,5,0,0:0:0:0:
160,384,105885,1,0,0:0:0:0:
208,304,105996,1,0,0:0:0:0:
256,224,106108,1,0,0:0:0:0:
304,144,106219,1,0,0:0:0:0:
352,224,106330,1,0,0:0:0:0:
400,304,106441,1,0,0:0:0:0:
496,304,106552,1,0,0:0:0:0:
400,304,106663,6,0,L|320:304,1,70
223,301,106885,2,0,P|247:237|264:208,1,70
304,152,107107,2,0,P|319:183|344:217,1,70
224,144,107330,2,0,B|192:176|192:176|152:176,1,70
56,176,107552,5,0,0:0:0:0:
24,176,107663,1,0,0:0:0:0:
224,144,107774,1,0,0:0:0:0:
256,144,107885,1,0,0:0:0:0:
56,272,107996,1,0,0:0:0:0:
40,296,108107,1,0,0:0:0:0:
224,48,108219,1,0,0:0:0:0:
240,32,108330,1,0,0:0:0:0:
128,144,108441,6,0,P|128:192|160:232,1,70
232,224,108663,2,0,P|232:176|200:136,1,70
64,224,108885,2,0,P|104:280|128:296,1,70
304,144,109107,6,0,P|264:88|240:80,1,70
116,287,109330,5,0,0:0:0:0:
200,328,109441,1,0,0:0:0:0:
296,328,109552,1,0,0:0:0:0:
376,280,109663,1,0,0:0:0:0:
424,200,109774,6,0,B|424:112|424:112|392:144|352:136,1,140
32,32,110220,6,0,P|88:32|120:64,1,70
176,120,110442,2,0,P|208:152|240:160,1,70
32,120,110664,2,0,P|80:120|96:160,1,70
176,32,110886,2,0,P|224:32|264:64,1,70
176,120,111108,5,0,0:0:0:0:
104,184,111220,1,0,0:0:0:0:
104,280,111331,1,0,0:0:0:0:
176,344,111442,1,0,0:0:0:0:
272,344,111553,1,0,0:0:0:0:
344,280,111664,1,0,0:0:0:0:
344,184,111775,1,0,0:0:0:0:
416,120,111887,1,0,0:0:0:0:
344,56,111997,6,0,B|288:56|288:56|256:88,1,70
259,184,112220,2,0,L|336:184,1,70
267,76,112442,2,0,B|235:44|235:44|208:72,1,70
144,136,112664,2,0,B|112:168|112:168|112:200,1,70
112,304,112886,5,0,0:0:0:0:
160,384,112997,1,0,0:0:0:0:
208,304,113108,1,0,0:0:0:0:
256,224,113220,1,0,0:0:0:0:
304,144,113331,1,0,0:0:0:0:
352,224,113442,1,0,0:0:0:0:
400,304,113553,1,0,0:0:0:0:
496,304,113664,1,0,0:0:0:0:
400,304,113775,6,0,L|320:304,1,70
223,301,113997,2,0,P|247:237|264:208,1,70
304,152,114219,2,0,P|319:183|344:217,1,70
224,144,114442,2,0,B|192:176|192:176|152:176,1,70
56,176,114664,5,0,0:0:0:0:
24,176,114775,1,0,0:0:0:0:
224,144,114886,1,0,0:0:0:0:
256,144,114997,1,0,0:0:0:0:
56,272,115108,1,0,0:0:0:0:
40,296,115219,1,0,0:0:0:0:
224,48,115331,1,0,0:0:0:0:
240,32,115442,1,0,0:0:0:0:
128,144,115553,6,0,P|128:192|160:232,1,70
232,224,115775,2,0,P|232:176|200:136,1,70
64,224,115997,2,0,P|104:280|128:296,1,70
304,144,116219,2,0,P|264:88|240:80,1,70
116,287,116442,5,0,0:0:0:0:
200,328,116553,5,0,0:0:0:0:
296,328,116664,1,0,0:0:0:0:
376,280,116775,1,0,0:0:0:0:
424,200,116886,6,0,B|424:112|424:112|392:144|352:136,1,140
88,192,117275,5,0,0:0:0:0:
192,176,117445,5,0,0:0:0:0:
312,192,117560,1,0,0:0:0:0:
368,80,117790,2,0,P|416:144|416:216,1,140
72,224,118390,1,0,0:0:0:0:
368,80,118590,2,0,P|416:192|408:232,1,140
72,224,119190,1,0,0:0:0:0:
368,80,119390,2,0,P|416:192|408:224,1,140
240,288,119990,5,0,0:0:0:0:
472,288,120190,1,0,0:0:0:0:
352,176,120390,1,0,0:0:0:0:
104,192,120590,1,0,0:0:0:0:
232,96,120790,1,0,0:0:0:0:
336,296,120990,1,0,0:0:0:0:
80,96,121190,5,0,0:0:0:0:
432,304,121390,1,0,0:0:0:0:
424,104,121590,1,0,0:0:0:0:
344,176,121790,2,0,P|280:224|208:232,1,140
72,224,122390,5,0,0:0:0:0:
176,304,122590,1,0,0:0:0:0:
256,168,122790,1,0,0:0:0:0:
384,296,122990,1,0,0:0:0:0:
472,176,123190,1,0,0:0:0:0:
128,160,123390,6,0,B|232:88|328:104|328:104|368:184|368:184|288:248|176:280,1,490
248,136,124990,2,0,B|248:64|288:40|288:40|408:304|408:304|304:256,1,490
152,176,126590,2,0,B|112:104|168:64|168:64|272:128|272:128|168:264|352:280,1,490
48,112,128190,2,0,B|248:72|248:72|192:208|192:208|72:344,1,525
376,296,129790,5,0,0:0:0:0:
256,72,129990,1,0,0:0:0:0:
136,72,130190,1,0,0:0:0:0:
256,192,130390,1,0,0:0:0:0:
376,64,130590,5,0,0:0:0:0:
256,304,130790,1,0,0:0:0:0:
136,296,130990,1,0,0:0:0:0:
256,192,131190,1,0,0:0:0:0:
376,72,131390,5,0,0:0:0:0:
384,304,131590,1,0,0:0:0:0:
136,192,131790,1,0,0:0:0:0:
256,192,131990,1,0,0:0:0:0:
136,72,132190,5,0,0:0:0:0:
128,304,132390,1,0,0:0:0:0:
384,192,132590,1,0,0:0:0:0:
256,192,132790,1,0,0:0:0:0:
376,296,132990,5,0,0:0:0:0:
256,72,133190,1,0,0:0:0:0:
136,72,133390,1,0,0:0:0:0:
256,192,133590,1,0,0:0:0:0:
376,64,133790,5,0,0:0:0:0:
256,304,133990,1,0,0:0:0:0:
136,296,134190,1,0,0:0:0:0:
256,192,134390,1,0,0:0:0:0:
376,72,134590,5,0,0:0:0:0:
384,304,134790,1,0,0:0:0:0:
136,192,134990,1,0,0:0:0:0:
256,192,135190,1,0,0:0:0:0:
136,72,135390,5,0,0:0:0:0:
128,304,135590,1,0,0:0:0:0:
384,192,135790,1,0,0:0:0:0:
256,192,135990,1,0,0:0:0:0:
376,296,136190,5,0,0:0:0:0:
256,72,136390,1,0,0:0:0:0:
136,72,136590,1,0,0:0:0:0:
256,192,136790,1,0,0:0:0:0:
376,64,136990,5,0,0:0:0:0:
256,304,137190,1,0,0:0:0:0:
136,296,137390,1,0,0:0:0:0:
256,192,137590,1,0,0:0:0:0:
376,72,137790,5,0,0:0:0:0:
384,304,137990,1,0,0:0:0:0:
136,192,138190,1,0,0:0:0:0:
256,192,138390,1,0,0:0:0:0:
136,72,138590,5,0,0:0:0:0:
128,304,138790,1,0,0:0:0:0:
384,192,138990,1,0,0:0:0:0:
256,192,139190,1,0,0:0:0:0:
376,296,139390,5,0,0:0:0:0:
256,72,139590,1,0,0:0:0:0:
136,72,139790,1,0,0:0:0:0:
256,192,139990,1,0,0:0:0:0:
376,64,140190,5,0,0:0:0:0:
256,304,140390,1,0,0:0:0:0:
136,296,140590,1,0,0:0:0:0:
256,192,140790,1,0,0:0:0:0:
376,72,140990,5,0,0:0:0:0:
384,304,141190,1,0,0:0:0:0:
136,192,141390,1,0,0:0:0:0:
256,192,141590,1,0,0:0:0:0:
136,72,141790,5,0,0:0:0:0:
128,304,141990,1,0,0:0:0:0:
384,192,142190,1,0,0:0:0:0:
256,192,142390,1,0,0:0:0:0:
376,296,142590,5,0,0:0:0:0:
256,72,142790,1,0,0:0:0:0:
136,72,142990,1,0,0:0:0:0:
256,192,143190,1,0,0:0:0:0:
376,64,143390,5,0,0:0:0:0:
256,304,143590,1,0,0:0:0:0:
136,296,143790,1,0,0:0:0:0:
256,192,143990,1,0,0:0:0:0:
376,72,144190,5,0,0:0:0:0:
384,304,144390,1,0,0:0:0:0:
136,192,144590,1,0,0:0:0:0:
256,192,144790,1,0,0:0:0:0:
136,72,144990,5,0,0:0:0:0:
128,304,145190,1,0,0:0:0:0:
384,192,145390,1,0,0:0:0:0:
256,192,145590,1,0,0:0:0:0:
376,296,145790,5,0,0:0:0:0:
256,72,145990,1,0,0:0:0:0:
136,72,146190,1,0,0:0:0:0:
256,192,146390,1,0,0:0:0:0:
376,64,146590,5,0,0:0:0:0:
256,304,146790,1,0,0:0:0:0:
136,296,146990,1,0,0:0:0:0:
256,192,147190,1,0,0:0:0:0:
376,72,147390,5,0,0:0:0:0:
384,304,147590,1,0,0:0:0:0:
136,192,147790,1,0,0:0:0:0:
256,192,147990,1,0,0:0:0:0:
136,72,148190,5,0,0:0:0:0:
128,304,148390,1,0,0:0:0:0:
384,192,148590,1,0,0:0:0:0:
256,192,148790,1,0,0:0:0:0:
376,296,148990,5,0,0:0:0:0:
256,72,149190,1,0,0:0:0:0:
136,72,149390,1,0,0:0:0:0:
256,192,149590,1,0,0:0:0:0:
376,64,149790,5,0,0:0:0:0:
256,304,149990,1,0,0:0:0:0:
136,296,150190,1,0,0:0:0:0:
256,192,150390,1,0,0:0:0:0:
376,72,150590,5,0,0:0:0:0:
384,304,150790,1,0,0:0:0:0:
136,192,150990,1,0,0:0:0:0:
256,192,151190,1,0,0:0:0:0:
136,72,151390,5,0,0:0:0:0:
128,304,151590,1,0,0:0:0:0:
384,192,151790,1,0,0:0:0:0:
256,192,151990,1,0,0:0:0:0:
376,296,152190,5,0,0:0:0:0:
256,72,152390,1,0,0:0:0:0:
136,72,152590,1,0,0:0:0:0:
256,192,152790,1,0,0:0:0:0:
376,64,152990,5,0,0:0:0:0:
256,304,153190,1,0,0:0:0:0:
136,296,153390,1,0,0:0:0:0:
256,192,153590,1,0,0:0:0:0:
376,72,153790,5,0,0:0:0:0:
384,304,153990,1,0,0:0:0:0:
136,192,154190,1,0,0:0:0:0:
256,192,154390,1,0,0:0:0:0:
136,72,154590,5,0,0:0:0:0:
128,304,154790,1,0,0:0:0:0:
384,192,154990,1,0,0:0:0:0:
256,192,155190,1,0,0:0:0:0:
80,176,155390,6,0,P|144:112|200:80,1,140
384,88,156117,1,0,0:0:0:0:
80,176,156844,6,0,P|144:112|200:80,1,140
384,88,157510,1,0,0:0:0:0:
80,176,158177,6,0,P|144:112|200:80,1,140
384,88,158792,1,0,0:0:0:0:
80,176,159407,6,0,P|144:112|200:80,1,140
384,88,159978,1,0,0:0:0:0:
80,176,160549,6,0,P|144:112|200:80,1,140
384,88,161082,1,0,0:0:0:0:
80,176,161615,6,0,P|144:112|200:80,1,140
384,88,162115,1,0,0:0:0:0:
80,176,162615,6,0,P|144:112|200:80,1,140
384,88,163085,1,0,0:0:0:0:
80,176,163556,6,0,P|144:112|200:80,1,140
384,88,164000,1,0,0:0:0:0:
80,176,164444,6,0,P|144:112|200:80,1,140
384,88,164865,1,0,0:0:0:0:
80,176,165286,6,0,P|144:112|200:80,1,140
384,88,165686,1,0,0:0:0:0:
80,176,166086,6,0,P|144:112|200:80,1,140
384,88,166466,1,0,0:0:0:0:
80,176,166847,6,0,P|144:112|200:80,1,140
384,88,167210,1,0,0:0:0:0:
80,176,167574,6,0,P|144:112|200:80,1,140
384,88,167921,1,0,0:0:0:0:
80,176,168269,6,0,P|144:112|200:80,1,140
384,88,168602,1,0,0:0:0:0:
80,176,168935,6,0,P|144:112|200:80,1,140
384,88,169255,1,0,0:0:0:0:
80,176,169575,6,0,P|144:112|200:80,1,140
384,88,169882,1,0,0:0:0:0:
80,176,170190,6,0,P|144:112|200:80,1,140
384,88,170486,1,0,0:0:0:0:
80,176,170782,6,0,P|144:112|200:80,1,140
384,88,171067,1,0,0:0:0:0:
80,176,171353,6,0,P|144:112|200:80,1,140
384,88,171628,1,0,0:0:0:0:
80,176,171904,6,0,P|144:112|200:80,1,140
384,88,172170,1,0,0:0:0:0:
80,176,172404,6,0,P|144:112|200:80,1,140
384,88,172695,1,0,0:0:0:0:
80,176,172953,6,0,P|144:112|200:80,1,140
384,88,173203,1,0,0:0:0:0:
80,176,173453,6,0,P|144:112|200:80,1,140
384,88,173695,1,0,0:0:0:0:
80,176,173937,6,0,P|144:112|200:80,1,140
384,88,174172,1,0,0:0:0:0:
32,32,179453,6,0,P|88:32|120:64,1,70
176,120,179653,2,0,P|208:152|240:160,1,70
32,120,179853,2,0,P|80:120|96:160,1,70
176,32,180053,2,0,P|224:32|264:64,1,70
176,120,180253,5,0,0:0:0:0:
104,184,180353,1,0,0:0:0:0:
104,280,180453,1,0,0:0:0:0:
176,344,180553,1,0,0:0:0:0:
272,344,180653,1,0,0:0:0:0:
344,280,180753,1,0,0:0:0:0:
344,184,180853,1,0,0:0:0:0:
416,120,180953,1,0,0:0:0:0:
344,56,181053,6,0,B|288:56|288:56|256:88,1,70
259,184,181253,2,0,L|336:184,1,70
267,76,181453,2,0,B|235:44|235:44|208:72,1,70
144,136,181653,2,0,B|112:168|112:168|112:200,1,70
112,304,181853,5,0,0:0:0:0:
160,384,181953,1,0,0:0:0:0:
208,304,182053,1,0,0:0:0:0:
256,224,182153,1,0,0:0:0:0:
304,144,182253,1,0,0:0:0:0:
352,224,182353,1,0,0:0:0:0:
400,304,182453,1,0,0:0:0:0:
496,304,182553,1,0,0:0:0:0:
400,304,182653,6,0,L|320:304,1,70
223,301,182853,2,0,P|247:237|264:208,1,70
304,152,183053,2,0,P|319:183|344:217,1,70
224,144,183253,2,0,B|192:176|192:176|152:176,1,70
56,176,183453,5,0,0:0:0:0:
24,176,183553,1,0,0:0:0:0:
224,144,183653,1,0,0:0:0:0:
256,144,183753,1,0,0:0:0:0:
56,272,183853,1,0,0:0:0:0:
40,296,183953,1,0,0:0:0:0:
224,48,184053,1,0,0:0:0:0:
240,32,184153,1,0,0:0:0:0:
128,144,184253,6,0,P|128:192|160:232,1,70
232,224,184453,2,0,P|232:176|200:136,1,70
64,224,184653,2,0,P|104:280|128:296,1,70
304,144,184853,2,0,P|264:88|240:80,1,70
116,287,185053,5,0,0:0:0:0:
200,328,185153,1,0,0:0:0:0:
296,328,185253,1,0,0:0:0:0:
376,280,185353,1,0,0:0:0:0:
424,200,185453,6,0,B|424:112|424:112|392:144|352:136,1,140
256,128,185753,5,0,0:0:0:0:
256,128,185853,1,0,0:0:0:0:
448,192,185953,1,0,0:0:0:0:
448,192,186053,1,0,0:0:0:0:
256,272,186153,1,0,0:0:0:0:
256,272,186253,1,0,0:0:0:0:
448,336,186353,1,0,0:0:0:0:
448,336,186453,1,0,0:0:0:0:
64,64,186553,5,0,0:0:0:0:
64,64,186653,1,0,0:0:0:0:
256,128,186753,1,0,0:0:0:0:
256,128,186853,1,0,0:0:0:0:
64,208,186953,1,0,0:0:0:0:
64,208,187053,1,0,0:0:0:0:
256,272,187153,1,0,0:0:0:0:
256,272,187253,1,0,0:0:0:0:
152,40,187353,5,0,0:0:0:0:
152,40,187453,1,0,0:0:0:0:
344,104,187553,1,0,0:0:0:0:
344,104,187653,1,0,0:0:0:0:
152,184,187753,1,0,0:0:0:0:
152,184,187853,1,0,0:0:0:0:
344,248,187953,1,0,0:0:0:0:
344,248,188053,1,0,0:0:0:0:
256,136,188153,5,0,0:0:0:0:
256,136,188253,1,0,0:0:0:0:
448,200,188353,1,0,0:0:0:0:
448,200,188453,1,0,0:0:0:0:
256,280,188553,1,0,0:0:0:0:
256,280,188653,1,0,0:0:0:0:
448,344,188753,1,0,0:0:0:0:
448,344,188853,1,0,0:0:0:0:
264,32,188953,6,0,P|312:32|344:64,1,70
400,120,189153,2,0,P|432:152|464:152,1,70
256,120,189353,2,0,P|304:120|328:152,1,70
400,32,189553,2,0,P|448:32|488:64,1,70
392,120,189753,5,0,0:0:0:0:
320,184,189853,1,0,0:0:0:0:
320,280,189953,1,0,0:0:0:0:
392,344,190053,1,0,0:0:0:0:
72,336,190153,1,0,0:0:0:0:
144,272,190253,1,0,0:0:0:0:
144,176,190353,1,0,0:0:0:0:
64,104,190453,1,0,0:0:0:0:
272,40,190553,6,0,B|216:40|216:40|192:64,1,70
187,168,190753,2,0,L|264:168,1,70
192,56,190953,2,0,B|160:24|160:24|128:48,1,70
72,120,191153,2,0,B|40:152|40:152|40:192,1,70
40,208,191353,5,0,0:0:0:0:
88,288,191453,1,0,0:0:0:0:
136,208,191553,1,0,0:0:0:0:
184,128,191653,1,0,0:0:0:0:
232,48,191753,1,0,0:0:0:0:
280,128,191853,1,0,0:0:0:0:
328,208,191953,1,0,0:0:0:0:
424,208,192053,1,0,0:0:0:0:
32,32,192253,6,0,P|88:32|120:64,1,70
176,120,192453,2,0,P|208:152|240:160,1,70
32,120,192653,2,0,P|80:120|96:160,1,70
176,32,192853,2,0,P|224:32|264:64,1,70
176,120,193053,5,0,0:0:0:0:
104,184,193153,1,0,0:0:0:0:
104,280,193253,1,0,0:0:0:0:
176,344,193353,1,0,0:0:0:0:
272,344,193453,1,0,0:0:0:0:
344,280,193553,1,0,0:0:0:0:
344,184,193653,1,0,0:0:0:0:
416,120,193753,1,0,0:0:0:0:
344,56,193853,6,0,B|288:56|288:56|256:88,1,70
259,184,194053,2,0,L|336:184,1,70
267,76,194253,2,0,B|235:44|235:44|208:72,1,70
144,136,194453,2,0,B|112:168|112:168|112:200,1,70
112,304,194653,5,0,0:0:0:0:
160,384,194753,1,0,0:0:0:0:
208,304,194853,1,0,0:0:0:0:
256,224,194953,1,0,0:0:0:0:
304,144,195053,1,0,0:0:0:0:
352,224,195153,1,0,0:0:0:0:
400,304,195253,1,0,0:0:0:0:
496,304,195353,1,0,0:0:0:0:
400,304,195453,6,0,L|320:304,1,70
223,301,195653,2,0,P|247:237|264:208,1,70
304,152,195853,2,0,P|319:183|344:217,1,70
224,144,196053,2,0,B|192:176|192:176|152:176,1,70
56,176,196253,5,0,0:0:0:0:
24,176,196353,1,0,0:0:0:0:
224,144,196453,1,0,0:0:0:0:
256,144,196553,1,0,0:0:0:0:
56,272,196653,1,0,0:0:0:0:
40,296,196753,1,0,0:0:0:0:
224,48,196853,1,0,0:0:0:0:
240,32,196953,1,0,0:0:0:0:
128,144,197053,6,0,P|128:192|160:232,1,70
232,224,197253,2,0,P|232:176|200:136,1,70
64,224,197453,2,0,P|104:280|128:296,1,70
304,144,197653,2,0,P|264:88|240:80,1,70
116,287,197853,5,0,0:0:0:0:
200,328,197953,1,0,0:0:0:0:
296,328,198053,1,0,0:0:0:0:
376,280,198153,1,0,0:0:0:0:
424,200,198253,6,0,B|424:112|424:112|392:144|352:136,1,140
256,128,198553,5,0,0:0:0:0:
256,128,198653,1,0,0:0:0:0:
448,192,198753,1,0,0:0:0:0:
448,192,198853,1,0,0:0:0:0:
256,272,198953,1,0,0:0:0:0:
256,272,199053,1,0,0:0:0:0:
448,336,199153,1,0,0:0:0:0:
448,336,199253,1,0,0:0:0:0:
64,64,199353,5,0,0:0:0:0:
64,64,199453,1,0,0:0:0:0:
256,128,199553,1,0,0:0:0:0:
256,128,199653,1,0,0:0:0:0:
64,208,199753,1,0,0:0:0:0:
64,208,199853,1,0,0:0:0:0:
256,272,199953,1,0,0:0:0:0:
256,272,200053,1,0,0:0:0:0:
152,40,200153,5,0,0:0:0:0:
152,40,200253,1,0,0:0:0:0:
344,104,200353,1,0,0:0:0:0:
344,104,200453,1,0,0:0:0:0:
152,184,200553,1,0,0:0:0:0:
152,184,200653,1,0,0:0:0:0:
344,248,200753,1,0,0:0:0:0:
344,248,200853,1,0,0:0:0:0:
256,136,200953,5,0,0:0:0:0:
256,136,201053,1,0,0:0:0:0:
448,200,201153,1,0,0:0:0:0:
448,200,201253,1,0,0:0:0:0:
256,280,201353,1,0,0:0:0:0:
256,280,201453,1,0,0:0:0:0:
448,344,201553,1,0,0:0:0:0:
448,344,201653,1,0,0:0:0:0:
264,32,201753,6,0,P|312:32|344:64,1,70
400,120,201953,2,0,P|432:152|464:152,1,70
256,120,202153,2,0,P|304:120|328:152,1,70
400,32,202353,2,0,P|448:32|488:64,1,70
392,120,202553,5,0,0:0:0:0:
320,184,202653,1,0,0:0:0:0:
320,280,202753,1,0,0:0:0:0:
392,344,202853,1,0,0:0:0:0:
72,336,202953,1,0,0:0:0:0:
144,272,203053,1,0,0:0:0:0:
144,176,203153,1,0,0:0:0:0:
64,104,203253,1,0,0:0:0:0:
272,40,203353,6,0,B|216:40|216:40|192:64,1,70
187,168,203553,2,0,L|264:168,1,70
192,56,203753,2,0,B|160:24|160:24|128:48,1,70
72,120,203953,2,0,B|40:152|40:152|40:192,1,70
40,208,204153,5,0,0:0:0:0:
88,288,204253,1,0,0:0:0:0:
136,208,204353,1,0,0:0:0:0:
184,128,204453,1,0,0:0:0:0:
232,48,204553,1,0,0:0:0:0:
280,128,204653,1,0,0:0:0:0:
328,208,204753,1,0,0:0:0:0:
424,208,204853,1,0,0:0:0:0:
32,32,205053,6,0,P|88:32|120:64,1,70
176,120,205253,2,0,P|208:152|240:160,1,70
32,120,205453,2,0,P|80:120|96:160,1,70
176,32,205653,2,0,P|224:32|264:64,1,70
176,120,205853,5,0,0:0:0:0:
104,184,205953,1,0,0:0:0:0:
104,280,206053,1,0,0:0:0:0:
176,344,206153,1,0,0:0:0:0:
272,344,206253,1,0,0:0:0:0:
344,280,206353,1,0,0:0:0:0:
344,184,206453,1,0,0:0:0:0:
416,120,206553,1,0,0:0:0:0:
344,56,206653,6,0,B|288:56|288:56|256:88,1,70
259,184,206853,2,0,L|336:184,1,70
267,76,207053,2,0,B|235:44|235:44|208:72,1,70
144,136,207253,2,0,B|112:168|112:168|112:200,1,70
112,304,207453,5,0,0:0:0:0:
160,384,207553,1,0,0:0:0:0:
208,304,207653,1,0,0:0:0:0:
256,224,207753,1,0,0:0:0:0:
304,144,207853,1,0,0:0:0:0:
352,224,207953,1,0,0:0:0:0:
400,304,208053,1,0,0:0:0:0:
496,304,208153,1,0,0:0:0:0:
400,304,208253,6,0,L|320:304,1,70
223,301,208453,2,0,P|247:237|264:208,1,70
304,152,208653,2,0,P|319:183|344:217,1,70
224,144,208853,2,0,B|192:176|192:176|152:176,1,70
56,176,209053,5,0,0:0:0:0:
24,176,209153,1,0,0:0:0:0:
224,144,209253,1,0,0:0:0:0:
256,144,209353,1,0,0:0:0:0:
56,272,209453,1,0,0:0:0:0:
40,296,209553,1,0,0:0:0:0:
224,48,209653,1,0,0:0:0:0:
240,32,209753,1,0,0:0:0:0:
128,144,209853,6,0,P|128:192|160:232,1,70
232,224,210053,2,0,P|232:176|200:136,1,70
64,224,210253,2,0,P|104:280|128:296,1,70
304,144,210453,2,0,P|264:88|240:80,1,70
116,287,210653,5,0,0:0:0:0:
200,328,210753,1,0,0:0:0:0:
296,328,210853,1,0,0:0:0:0:
376,280,210953,1,0,0:0:0:0:
424,200,211053,6,0,B|424:112|424:112|392:144|352:136,1,140
256,128,211353,5,0,0:0:0:0:
256,128,211453,1,0,0:0:0:0:
448,192,211553,1,0,0:0:0:0:
448,192,211653,1,0,0:0:0:0:
256,272,211753,1,0,0:0:0:0:
256,272,211853,1,0,0:0:0:0:
448,336,211953,1,0,0:0:0:0:
448,336,212053,1,0,0:0:0:0:
64,64,212153,5,0,0:0:0:0:
64,64,212253,1,0,0:0:0:0:
256,128,212353,1,0,0:0:0:0:
256,128,212453,1,0,0:0:0:0:
64,208,212553,1,0,0:0:0:0:
64,208,212653,1,0,0:0:0:0:
256,272,212753,1,0,0:0:0:0:
256,272,212853,1,0,0:0:0:0:
152,40,212953,5,0,0:0:0:0:
152,40,213053,1,0,0:0:0:0:
344,104,213153,1,0,0:0:0:0:
344,104,213253,1,0,0:0:0:0:
152,184,213353,1,0,0:0:0:0:
152,184,213453,1,0,0:0:0:0:
344,248,213553,1,0,0:0:0:0:
344,248,213653,1,0,0:0:0:0:
256,136,213753,5,0,0:0:0:0:
256,136,213853,1,0,0:0:0:0:
448,200,213953,1,0,0:0:0:0:
448,200,214053,1,0,0:0:0:0:
256,280,214153,1,0,0:0:0:0:
256,280,214253,1,0,0:0:0:0:
448,344,214353,1,0,0:0:0:0:
448,344,214453,1,0,0:0:0:0:
264,32,214553,6,0,P|312:32|344:64,1,70
400,120,214753,2,0,P|432:152|464:152,1,70
256,120,214953,2,0,P|304:120|328:152,1,70
400,32,215153,2,0,P|448:32|488:64,1,70
392,120,215353,5,0,0:0:0:0:
320,184,215453,1,0,0:0:0:0:
320,280,215553,1,0,0:0:0:0:
392,344,215653,1,0,0:0:0:0:
72,336,215753,1,0,0:0:0:0:
144,272,215853,1,0,0:0:0:0:
144,176,215953,1,0,0:0:0:0:
64,104,216053,1,0,0:0:0:0:
272,40,216153,6,0,B|216:40|216:40|192:64,1,70
187,168,216353,2,0,L|264:168,1,70
192,56,216553,2,0,B|160:24|160:24|128:48,1,70
72,120,216753,2,0,B|40:152|40:152|40:192,1,70
40,208,216953,5,0,0:0:0:0:
88,288,217053,1,0,0:0:0:0:
136,208,217153,1,0,0:0:0:0:
184,128,217253,1,0,0:0:0:0:
232,48,217353,1,0,0:0:0:0:
280,128,217453,1,0,0:0:0:0:
328,208,217553,1,0,0:0:0:0:
424,208,217653,1,0,0:0:0:0:
32,32,217853,6,0,P|88:32|120:64,1,70
176,120,218053,2,0,P|208:152|240:160,1,70
32,120,218253,2,0,P|80:120|96:160,1,70
176,32,218453,2,0,P|224:32|264:64,1,70
176,120,218653,5,0,0:0:0:0:
104,184,218753,1,0,0:0:0:0:
104,280,218853,1,0,0:0:0:0:
176,344,218953,1,0,0:0:0:0:
272,344,219053,1,0,0:0:0:0:
344,280,219153,1,0,0:0:0:0:
344,184,219253,1,0,0:0:0:0:
416,120,219353,1,0,0:0:0:0:
344,56,219453,6,0,B|288:56|288:56|256:88,1,70
259,184,219653,2,0,L|336:184,1,70
267,76,219853,2,0,B|235:44|235:44|208:72,1,70
144,136,220053,2,0,B|112:168|112:168|112:200,1,70
112,304,220253,5,0,0:0:0:0:
160,384,220353,1,0,0:0:0:0:
208,304,220453,1,0,0:0:0:0:
256,224,220553,1,0,0:0:0:0:
304,144,220653,1,0,0:0:0:0:
352,224,220753,1,0,0:0:0:0:
400,304,220853,1,0,0:0:0:0:
496,304,220953,1,0,0:0:0:0:
400,304,221053,6,0,L|320:304,1,70
223,301,221253,2,0,P|247:237|264:208,1,70
304,152,221453,2,0,P|319:183|344:217,1,70
224,144,221653,2,0,B|192:176|192:176|152:176,1,70
56,176,221853,5,0,0:0:0:0:
24,176,221953,1,0,0:0:0:0:
224,144,222053,1,0,0:0:0:0:
256,144,222153,1,0,0:0:0:0:
56,272,222253,1,0,0:0:0:0:
40,296,222353,1,0,0:0:0:0:
224,48,222453,1,0,0:0:0:0:
240,32,222553,1,0,0:0:0:0:
128,144,222653,6,0,P|128:192|160:232,1,70
232,224,222853,2,0,P|232:176|200:136,1,70
64,224,223053,2,0,P|104:280|128:296,1,70
304,144,223253,2,0,P|264:88|240:80,1,70
116,287,223453,5,0,0:0:0:0:
200,328,223553,1,0,0:0:0:0:
296,328,223653,1,0,0:0:0:0:
376,280,223753,1,0,0:0:0:0:
424,200,223853,6,0,B|424:112|424:112|392:144|352:136,1,140
256,128,224153,5,0,0:0:0:0:
256,128,224253,1,0,0:0:0:0:
448,192,224353,1,0,0:0:0:0:
448,192,224453,1,0,0:0:0:0:
256,272,224553,1,0,0:0:0:0:
256,272,224653,1,0,0:0:0:0:
448,336,224753,1,0,0:0:0:0:
448,336,224853,1,0,0:0:0:0:
64,64,224953,5,0,0:0:0:0:
64,64,225053,1,0,0:0:0:0:
256,128,225153,1,0,0:0:0:0:
256,128,225253,1,0,0:0:0:0:
64,208,225353,1,0,0:0:0:0:
64,208,225453,1,0,0:0:0:0:
256,272,225553,1,0,0:0:0:0:
256,272,225653,1,0,0:0:0:0:
152,40,225753,5,0,0:0:0:0:
152,40,225853,1,0,0:0:0:0:
344,104,225953,1,0,0:0:0:0:
344,104,226053,1,0,0:0:0:0:
152,184,226153,1,0,0:0:0:0:
152,184,226253,1,0,0:0:0:0:
344,248,226353,1,0,0:0:0:0:
344,248,226453,1,0,0:0:0:0:
256,136,226553,5,0,0:0:0:0:
256,136,226653,1,0,0:0:0:0:
448,200,226753,1,0,0:0:0:0:
448,200,226853,1,0,0:0:0:0:
256,280,226953,1,0,0:0:0:0:
256,280,227053,1,0,0:0:0:0:
448,344,227153,1,0,0:0:0:0:
448,344,227253,1,0,0:0:0:0:
264,32,227353,6,0,P|312:32|344:64,1,70
400,120,227553,2,0,P|432:152|464:152,1,70
256,120,227753,2,0,P|304:120|328:152,1,70
400,32,227953,2,0,P|448:32|488:64,1,70
392,120,228153,5,0,0:0:0:0:
320,184,228253,1,0,0:0:0:0:
320,280,228353,1,0,0:0:0:0:
392,344,228453,1,0,0:0:0:0:
72,336,228553,1,0,0:0:0:0:
144,272,228653,1,0,0:0:0:0:
144,176,228753,1,0,0:0:0:0:
64,104,228853,1,0,0:0:0:0:
272,40,228953,6,0,B|216:40|216:40|192:64,1,70
187,168,229153,2,0,L|264:168,1,70
192,56,229353,2,0,B|160:24|160:24|128:48,1,70
72,120,229553,2,0,B|40:152|40:152|40:192,1,70
40,208,229753,5,0,0:0:0:0:
88,288,229853,1,0,0:0:0:0:
136,208,229953,1,0,0:0:0:0:
184,128,230053,1,0,0:0:0:0:
232,48,230153,1,0,0:0:0:0:
280,128,230253,1,0,0:0:0:0:
328,208,230353,1,0,0:0:0:0:
424,208,230453,1,0,0:0:0:0:
328,208,230553,1,0,0:0:0:0:
256,192,230653,38,0,L|312:136,3,70
312,264,231066,2,0,L|256:312,3,70
352,216,231480,2,0,L|408:160,3,70
224,224,231894,2,0,L|152:288,3,70
192,160,232308,2,0,L|192:88,3,70
256,224,232721,2,0,L|256:304,3,70
344,221,233135,2,0,L|344:296,3,70
408,160,233549,2,0,L|408:88,3,70
400,32,233963,6,0,L|328:32,3,70
296,96,234377,2,0,L|224:96,3,70
192,160,234790,2,0,L|112:160,3,70
104,224,235204,2,0,L|32:224,3,70
160,288,235618,2,0,L|210:346,3,70
344,288,236032,2,0,L|288:344,3,70
328,208,236446,2,0,L|280:144,3,70
176,208,236859,2,0,L|232:152,3,70
256,192,237273,38,0,L|312:136,3,70
312,264,237686,2,0,L|256:312,3,70
352,216,238100,2,0,L|408:160,3,70
224,224,238514,2,0,L|152:288,3,70
192,160,238928,2,0,L|192:88,3,70
256,224,239341,2,0,L|256:304,3,70
344,221,239755,2,0,L|344:296,3,70
408,160,240169,2,0,L|408:88,3,70
400,32,240583,6,0,L|328:32,3,70
296,96,240997,2,0,L|224:96,3,70
192,160,241410,2,0,L|112:160,3,70
104,224,241824,2,0,L|32:224,3,70
160,288,242238,2,0,L|210:346,3,70
344,288,242652,2,0,L|288:344,3,70
328,208,243066,2,0,L|280:144,3,70
176,208,243479,2,0,L|232:152,3,70
232,136,244130,5,0,0:0:0:0:
40,136,244352,5,0,0:0:0:0:
136,208,244575,5,0,0:0:0:0:
256,272,244797,2,0,P|320:304|408:328,1,140
56,272,245241,2,0,P|120:304|208:320,1,140
328,208,245686,5,0,0:0:0:0:
232,136,245908,5,0,0:0:0:0:
40,136,246130,5,0,0:0:0:0:
136,208,246353,5,0,0:0:0:0:
152,288,246575,5,0,0:0:0:0:
448,288,246797,5,0,0:0:0:0:
312,352,247019,2,0,P|256:280|280:224,1,140
368,216,247463,5,0,0:0:0:0:
232,136,247685,5,0,0:0:0:0:
40,136,247907,5,0,0:0:0:0:
136,208,248130,5,0,0:0:0:0:
152,288,248352,5,0,0:0:0:0:
320,320,248575,2,0,P|424:272|440:224,1,140
48,224,249019,2,0,P|96:312|160:320,1,140
232,136,249463,5,0,0:0:0:0:
40,136,249685,5,0,0:0:0:0:
136,208,249908,5,0,0:0:0:0:
152,288,250130,5,0,0:0:0:0:
448,288,250352,5,0,0:0:0:0:
288,208,250574,5,0,0:0:0:0:
352,96,250796,2,0,P|424:136|440:192,1,140
232,136,251241,5,0,0:0:0:0:
40,136,251463,5,0,0:0:0:0:
136,208,251686,5,0,0:0:0:0:
256,272,251908,2,0,P|320:304|408:328,1,140
56,272,252352,2,0,P|120:304|208:320,1,140
328,208,252797,5,0,0:0:0:0:
232,136,253019,5,0,0:0:0:0:
40,136,253241,5,0,0:0:0:0:
136,208,253464,5,0,0:0:0:0:
152,288,253686,5,0,0:0:0:0:
448,288,253908,5,0,0:0:0:0:
312,352,254130,2,0,P|256:280|280:224,1,140
368,216,254574,5,0,0:0:0:0:
232,136,254796,5,0,0:0:0:0:
40,136,255018,5,0,0:0:0:0:
136,208,255241,5,0,0:0:0:0:
152,288,255463,5,0,0:0:0:0:
320,320,255686,2,0,P|424:272|440:224,1,140
48,224,256130,2,0,P|96:312|160:320,1,140
232,136,256574,5,0,0:0:0:0:
40,136,256796,5,0,0:0:0:0:
136,208,257019,5,0,0:0:0:0:
152,288,257241,5,0,0:0:0:0:
448,288,257463,5,0,0:0:0:0:
288,208,257685,5,0,0:0:0:0:
216,184,257907,2,0,P|232:264|304:280,1,140
232,136,258352,5,0,0:0:0:0:
40,136,258574,5,0,0:0:0:0:
136,208,258797,5,0,0:0:0:0:
256,272,259019,2,0,P|320:304|408:328,1,140
56,272,259463,2,0,P|120:304|208:320,1,140
328,208,259908,5,0,0:0:0:0:
232,136,260130,5,0,0:0:0:0:
40,136,260352,5,0,0:0:0:0:
136,208,260575,5,0,0:0:0:0:
152,288,260797,5,0,0:0:0:0:
448,288,261019,5,0,0:0:0:0:
312,352,261241,2,0,P|256:280|280:224,1,140
368,216,261685,5,0,0:0:0:0:
232,136,261907,5,0,0:0:0:0:
40,136,262129,5,0,0:0:0:0:
136,208,262352,5,0,0:0:0:0:
152,288,262574,5,0,0:0:0:0:
320,320,262797,2,0,P|424:272|440:224,1,140
48,224,263241,2,0,P|96:312|160:320,1,140
232,136,263685,5,0,0:0:0:0:
40,136,263907,5,0,0:0:0:0:
136,208,264130,5,0,0:0:0:0:
152,288,264352,5,0,0:0:0:0:
448,288,264574,5,0,0:0:0:0:
288,208,264796,5,0,0:0:0:0:
352,96,265018,2,0,P|424:136|440:192,1,140
232,136,265463,5,0,0:0:0:0:
40,136,265685,5,0,0:0:0:0:
136,208,265908,5,0,0:0:0:0:
256,272,266130,2,0,P|320:304|408:328,1,140
56,272,266574,2,0,P|120:304|208:320,1,140
328,208,267019,5,0,0:0:0:0:
232,136,267241,5,0,0:0:0:0:
40,136,267463,5,0,0:0:0:0:
136,208,267686,5,0,0:0:0:0:
152,288,267908,5,0,0:0:0:0:
448,288,268130,5,0,0:0:0:0:
312,352,268352,2,0,P|256:280|280:224,1,140
368,216,268796,5,0,0:0:0:0:
232,136,268907,5,0,0:0:0:0:
232,136,269018,5,0,0:0:0:0:
40,136,269129,5,0,0:0:0:0:
40,136,269240,5,0,0:0:0:0:
136,208,269352,5,0,0:0:0:0:
136,208,269463,5,0,0:0:0:0:
152,288,269574,5,0,0:0:0:0:
152,288,269685,5,0,0:0:0:0:
448,288,269796,5,0,0:0:0:0:
320,320,269907,2,0,P|424:272|440:224,1,140
48,224,270352,2,0,P|96:312|160:320,1,140
232,136,270796,5,0,0:0:0:0:
40,136,271018,5,0,0:0:0:0:
136,208,271241,5,0,0:0:0:0:
152,288,271463,5,0,0:0:0:0:
448,288,271685,5,0,0:0:0:0:
288,208,271907,5,0,0:0:0:0:
216,184,272129,2,0,P|232:264|304:280,1,140
368,80,272574,6,0,P|416:144|416:216,1,140
72,224,273240,5,0,0:0:0:0:
368,80,273462,6,0,P|416:192|408:232,1,140
72,224,274129,5,0,0:0:0:0:
368,80,274351,6,0,P|416:192|408:224,1,140
72,224,275018,5,0,0:0:0:0:
368,80,275240,6,0,P|416:192|408:224,1,140
72,224,275907,5,0,0:0:0:0:
176,304,276129,5,0,0:0:0:0:
256,168,276351,5,0,0:0:0:0:
384,296,276574,5,0,0:0:0:0:
344,176,276796,6,0,P|280:224|208:232,1,140
472,176,277462,5,0,0:0:0:0:
104,80,277685,2,0,P|64:152|104:208,1,140
240,144,278574,2,0,P|264:200|208:272,1,140
136,304,279240,1,0,0:0:0:0:
144,136,279685,6,0,B|219:86|315:102|315:102|355:182|355:182|275:246|211:270,2,420
248,136,281462,6,0,B|248:64|288:40|288:40|408:304|408:304|304:256,2,490
152,176,283240,6,0,B|112:104|168:64|168:64|272:128|272:128|168:264|352:280,2,490
48,112,285018,6,0,B|248:72|248:72|192:208|192:208|88:336,2,490
304,240,286796,1,0,0:0:0:0:
32,32,304218,6,0,P|88:32|120:64,1,70
176,120,304418,2,0,P|208:152|240:160,1,70
32,120,304618,2,0,P|80:120|96:160,1,70
176,32,304818,2,0,P|224:32|264:64,1,70
176,120,305018,5,0,0:0:0:0:
104,184,305118,1,0,0:0:0:0:
104,280,305218,1,0,0:0:0:0:
176,344,305318,1,0,0:0:0:0:
272,344,305418,1,0,0:0:0:0:
344,280,305518,1,0,0:0:0:0:
344,184,305618,1,0,0:0:0:0:
416,120,305718,1,0,0:0:0:0:
344,56,305818,6,0,B|288:56|288:56|256:88,1,70
259,184,306018,2,0,L|336:184,1,70
267,76,306218,2,0,B|235:44|235:44|208:72,1,70
144,136,306418,2,0,B|112:168|112:168|112:200,1,70
112,304,306618,5,0,0:0:0:0:
160,384,306718,1,0,0:0:0:0:
208,304,306818,1,0,0:0:0:0:
256,224,306918,1,0,0:0:0:0:
304,144,307018,1,0,0:0:0:0:
352,224,307118,1,0,0:0:0:0:
400,304,307218,1,0,0:0:0:0:
496,304,307318,1,0,0:0:0:0:
400,304,307418,6,0,L|320:304,1,70
223,301,307618,2,0,P|247:237|264:208,1,70
304,152,307818,2,0,P|319:183|344:217,1,70
224,144,308018,2,0,B|192:176|192:176|152:176,1,70
56,176,308218,5,0,0:0:0:0:
24,176,308318,1,0,0:0:0:0:
224,144,308418,1,0,0:0:0:0:
256,144,308518,1,0,0:0:0:0:
56,272,308618,1,0,0:0:0:0:
40,296,308718,1,0,0:0:0:0:
224,48,308818,1,0,0:0:0:0:
240,32,308918,1,0,0:0:0:0:
128,144,309018,6,0,P|128:192|160:232,1,70
232,224,309218,2,0,P|232:176|200:136,1,70
64,224,309418,2,0,P|104:280|128:296,1,70
304,144,309618,2,0,P|264:88|240:80,1,70
116,287,309818,5,0,0:0:0:0:
200,328,309918,1,0,0:0:0:0:
296,328,310018,1,0,0:0:0:0:
376,280,310118,1,0,0:0:0:0:
424,200,310218,6,0,B|424:112|424:112|392:144|352:136,1,140
256,128,310518,5,0,0:0:0:0:
256,128,310618,1,0,0:0:0:0:
448,192,310718,1,0,0:0:0:0:
448,192,310818,1,0,0:0:0:0:
256,272,310918,1,0,0:0:0:0:
256,272,311018,1,0,0:0:0:0:
448,336,311118,1,0,0:0:0:0:
448,336,311218,1,0,0:0:0:0:
64,64,311318,5,0,0:0:0:0:
64,64,311418,1,0,0:0:0:0:
256,128,311518,1,0,0:0:0:0:
256,128,311618,1,0,0:0:0:0:
64,208,311718,1,0,0:0:0:0:
64,208,311818,1,0,0:0:0:0:
256,272,311918,1,0,0:0:0:0:
256,272,312018,1,0,0:0:0:0:
152,40,312118,5,0,0:0:0:0:
152,40,312218,1,0,0:0:0:0:
344,104,312318,1,0,0:0:0:0:
344,104,312418,1,0,0:0:0:0:
152,184,312518,1,0,0:0:0:0:
152,184,312618,1,0,0:0:0:0:
344,248,312718,1,0,0:0:0:0:
344,248,312818,1,0,0:0:0:0:
256,136,312918,5,0,0:0:0:0:
256,136,313018,1,0,0:0:0:0:
448,200,313118,1,0,0:0:0:0:
448,200,313218,1,0,0:0:0:0:
256,280,313318,1,0,0:0:0:0:
256,280,313418,1,0,0:0:0:0:
448,344,313518,1,0,0:0:0:0:
448,344,313618,1,0,0:0:0:0:
264,32,313718,6,0,P|312:32|344:64,1,70
400,120,313918,2,0,P|432:152|464:152,1,70
256,120,314118,2,0,P|304:120|328:152,1,70
400,32,314318,2,0,P|448:32|488:64,1,70
392,120,314518,5,0,0:0:0:0:
320,184,314618,1,0,0:0:0:0:
320,280,314718,1,0,0:0:0:0:
392,344,314818,1,0,0:0:0:0:
72,336,314918,1,0,0:0:0:0:
144,272,315018,1,0,0:0:0:0:
144,176,315118,1,0,0:0:0:0:
64,104,315218,1,0,0:0:0:0:
272,40,315318,6,0,B|216:40|216:40|192:64,1,70
187,168,315518,2,0,L|264:168,1,70
192,56,315718,2,0,B|160:24|160:24|128:48,1,70
72,120,315918,2,0,B|40:152|40:152|40:192,1,70
40,208,316118,5,0,0:0:0:0:
88,288,316218,1,0,0:0:0:0:
136,208,316318,1,0,0:0:0:0:
184,128,316418,1,0,0:0:0:0:
232,48,316518,1,0,0:0:0:0:
280,128,316618,1,0,0:0:0:0:
328,208,316718,1,0,0:0:0:0:
424,208,316818,1,0,0:0:0:0:
248,208,316918,1,0,0:0:0:0:
32,32,317018,6,0,P|88:32|120:64,1,70
176,120,317218,2,0,P|208:152|240:160,1,70
32,120,317418,2,0,P|80:120|96:160,1,70
176,32,317618,2,0,P|224:32|264:64,1,70
176,120,317818,5,0,0:0:0:0:
104,184,317918,1,0,0:0:0:0:
104,280,318018,1,0,0:0:0:0:
176,344,318118,1,0,0:0:0:0:
272,344,318218,1,0,0:0:0:0:
344,280,318318,1,0,0:0:0:0:
344,184,318418,1,0,0:0:0:0:
416,120,318518,1,0,0:0:0:0:
344,56,318618,6,0,B|288:56|288:56|256:88,1,70
259,184,318818,2,0,L|336:184,1,70
267,76,319018,2,0,B|235:44|235:44|208:72,1,70
144,136,319218,2,0,B|112:168|112:168|112:200,1,70
112,304,319418,5,0,0:0:0:0:
160,384,319518,1,0,0:0:0:0:
208,304,319618,1,0,0:0:0:0:
256,224,319718,1,0,0:0:0:0:
304,144,319818,1,0,0:0:0:0:
352,224,319918,1,0,0:0:0:0:
400,304,320018,1,0,0:0:0:0:
496,304,320118,1,0,0:0:0:0:
400,304,320218,6,0,L|320:304,1,70
223,301,320418,2,0,P|247:237|264:208,1,70
304,152,320618,2,0,P|319:183|344:217,1,70
224,144,320818,2,0,B|192:176|192:176|152:176,1,70
56,176,321018,5,0,0:0:0:0:
24,176,321118,1,0,0:0:0:0:
224,144,321218,1,0,0:0:0:0:
256,144,321318,1,0,0:0:0:0:
56,272,321418,1,0,0:0:0:0:
40,296,321518,1,0,0:0:0:0:
224,48,321618,1,0,0:0:0:0:
240,32,321718,1,0,0:0:0:0:
128,144,321818,6,0,P|128:192|160:232,1,70
232,224,322018,2,0,P|232:176|200:136,1,70
64,224,322218,2,0,P|104:280|128:296,1,70
304,144,322418,2,0,P|264:88|240:80,1,70
116,287,322618,5,0,0:0:0:0:
200,328,322718,1,0,0:0:0:0:
296,328,322818,1,0,0:0:0:0:
376,280,322918,1,0,0:0:0:0:
424,200,323018,6,0,B|424:112|424:112|392:144|352:136,1,140
256,128,323318,5,0,0:0:0:0:
256,128,323418,1,0,0:0:0:0:
448,192,323518,1,0,0:0:0:0:
448,192,323618,1,0,0:0:0:0:
256,272,323718,1,0,0:0:0:0:
256,272,323818,1,0,0:0:0:0:
448,336,323918,1,0,0:0:0:0:
448,336,324018,1,0,0:0:0:0:
64,64,324118,5,0,0:0:0:0:
64,64,324218,1,0,0:0:0:0:
256,128,324318,1,0,0:0:0:0:
256,128,324418,1,0,0:0:0:0:
64,208,324518,1,0,0:0:0:0:
64,208,324618,1,0,0:0:0:0:
256,272,324718,1,0,0:0:0:0:
256,272,324818,1,0,0:0:0:0:
152,40,324918,5,0,0:0:0:0:
152,40,325018,1,0,0:0:0:0:
344,104,325118,1,0,0:0:0:0:
344,104,325218,1,0,0:0:0:0:
152,184,325318,1,0,0:0:0:0:
152,184,325418,1,0,0:0:0:0:
344,248,325518,1,0,0:0:0:0:
344,248,325618,1,0,0:0:0:0:
256,136,325718,5,0,0:0:0:0:
256,136,325818,1,0,0:0:0:0:
448,200,325918,1,0,0:0:0:0:
448,200,326018,1,0,0:0:0:0:
256,280,326118,1,0,0:0:0:0:
256,280,326218,1,0,0:0:0:0:
448,344,326318,1,0,0:0:0:0:
448,344,326418,1,0,0:0:0:0:
264,32,326518,6,0,P|312:32|344:64,1,70
400,120,326718,2,0,P|432:152|464:152,1,70
256,120,326918,2,0,P|304:120|328:152,1,70
400,32,327118,2,0,P|448:32|488:64,1,70
392,120,327318,5,0,0:0:0:0:
320,184,327418,1,0,0:0:0:0:
320,280,327518,1,0,0:0:0:0:
392,344,327618,1,0,0:0:0:0:
72,336,327718,1,0,0:0:0:0:
144,272,327818,1,0,0:0:0:0:
144,176,327918,1,0,0:0:0:0:
64,104,328018,1,0,0:0:0:0:
272,40,328118,6,0,B|216:40|216:40|192:64,1,70
187,168,328318,2,0,L|264:168,1,70
192,56,328518,2,0,B|160:24|160:24|128:48,1,70
72,120,328718,2,0,B|40:152|40:152|40:192,1,70
40,208,328918,5,0,0:0:0:0:
88,288,329018,1,0,0:0:0:0:
136,208,329118,1,0,0:0:0:0:
184,128,329218,1,0,0:0:0:0:
232,48,329318,1,0,0:0:0:0:
280,128,329418,1,0,0:0:0:0:
328,208,329518,1,0,0:0:0:0:
424,208,329618,1,0,0:0:0:0:
248,208,329718,1,0,0:0:0:0:
32,32,329818,6,0,P|88:32|112:64,1,70
176,120,330005,2,0,P|208:152|256:152,1,70
32,120,330193,2,0,P|80:120|96:160,1,70
176,32,330380,2,0,P|224:32|256:64,1,70
176,120,330568,5,0,0:0:0:0:
104,184,330661,1,0,0:0:0:0:
104,280,330755,1,0,0:0:0:0:
176,344,330849,1,0,0:0:0:0:
272,344,330943,1,0,0:0:0:0:
344,280,331036,1,0,0:0:0:0:
344,184,331130,1,0,0:0:0:0:
416,120,331224,1,0,0:0:0:0:
344,56,331318,6,0,B|288:56|288:56|256:88,1,70
259,184,331505,2,0,L|336:184,1,70
267,76,331693,2,0,B|235:44|235:44|208:72,1,70
144,136,331880,2,0,B|112:168|112:168|112:200,1,70
112,304,332068,5,0,0:0:0:0:
160,384,332161,1,0,0:0:0:0:
208,304,332255,1,0,0:0:0:0:
256,224,332349,1,0,0:0:0:0:
304,144,332443,1,0,0:0:0:0:
352,224,332536,1,0,0:0:0:0:
400,304,332630,1,0,0:0:0:0:
496,304,332724,1,0,0:0:0:0:
400,304,332818,6,0,L|320:304,1,70
223,301,333005,2,0,P|247:237|264:208,1,70
304,152,333193,2,0,P|319:183|344:217,1,70
224,144,333380,2,0,B|192:176|192:176|152:176,1,70
56,176,333568,5,0,0:0:0:0:
24,176,333661,1,0,0:0:0:0:
224,144,333755,1,0,0:0:0:0:
256,144,333849,1,0,0:0:0:0:
56,272,333943,1,0,0:0:0:0:
40,296,334036,1,0,0:0:0:0:
224,48,334130,1,0,0:0:0:0:
240,32,334224,1,0,0:0:0:0:
128,144,334318,6,0,P|128:192|160:232,1,70
232,224,334505,2,0,P|232:176|200:136,1,70
64,224,334693,2,0,P|104:280|128:296,1,70
304,144,334880,2,0,P|264:88|240:80,1,70
116,287,335068,5,0,0:0:0:0:
200,328,335161,1,0,0:0:0:0:
296,328,335255,1,0,0:0:0:0:
376,280,335349,1,0,0:0:0:0:
424,200,335443,6,0,B|424:112|424:112|392:144|352:136,1,140
256,128,335724,5,0,0:0:0:0:
256,128,335818,1,0,0:0:0:0:
448,192,335911,1,0,0:0:0:0:
448,192,336005,1,0,0:0:0:0:
256,272,336099,1,0,0:0:0:0:
256,272,336193,1,0,0:0:0:0:
448,336,336286,1,0,0:0:0:0:
448,336,336380,1,0,0:0:0:0:
64,64,336474,5,0,0:0:0:0:
64,64,336568,1,0,0:0:0:0:
256,128,336661,1,0,0:0:0:0:
256,128,336755,1,0,0:0:0:0:
64,208,336849,1,0,0:0:0:0:
64,208,336943,1,0,0:0:0:0:
256,272,337036,1,0,0:0:0:0:
256,272,337130,1,0,0:0:0:0:
152,40,337224,5,0,0:0:0:0:
152,40,337318,1,0,0:0:0:0:
344,104,337411,1,0,0:0:0:0:
344,104,337505,1,0,0:0:0:0:
152,184,337599,1,0,0:0:0:0:
152,184,337693,1,0,0:0:0:0:
344,248,337786,1,0,0:0:0:0:
344,248,337880,1,0,0:0:0:0:
256,136,337974,5,0,0:0:0:0:
256,136,338068,1,0,0:0:0:0:
448,200,338161,1,0,0:0:0:0:
448,200,338255,1,0,0:0:0:0:
256,280,338349,1,0,0:0:0:0:
256,280,338443,1,0,0:0:0:0:
448,344,338536,1,0,0:0:0:0:
448,344,338630,1,0,0:0:0:0:
264,32,338724,6,0,P|312:32|344:64,1,70
400,120,338911,2,0,P|432:152|464:152,1,70
256,120,339099,2,0,P|304:120|328:152,1,70
400,32,339286,2,0,P|448:32|488:64,1,70
392,120,339474,5,0,0:0:0:0:
320,184,339568,1,0,0:0:0:0:
320,280,339661,1,0,0:0:0:0:
392,344,339755,1,0,0:0:0:0:
72,336,339849,1,0,0:0:0:0:
144,272,339943,1,0,0:0:0:0:
144,176,340036,1,0,0:0:0:0:
64,104,340130,1,0,0:0:0:0:
272,40,340224,6,0,B|216:40|216:40|192:64,1,70
187,168,340411,2,0,L|264:168,1,70
192,56,340599,2,0,B|160:24|160:24|128:48,1,70
72,120,340786,2,0,B|40:152|40:152|40:192,1,70
40,208,340974,5,0,0:0:0:0:
88,288,341068,1,0,0:0:0:0:
136,208,341161,1,0,0:0:0:0:
184,128,341255,1,0,0:0:0:0:
232,48,341349,1,0,0:0:0:0:
280,128,341443,1,0,0:0:0:0:
328,208,341536,1,0,0:0:0:0:
424,208,341630,1,0,0:0:0:0:
328,208,341724,1,0,0:0:0:0:
32,32,341818,6,0,P|88:32|112:64,1,70
176,120,342005,2,0,P|208:152|256:152,1,70
32,120,342193,2,0,P|80:120|96:160,1,70
176,32,342380,2,0,P|224:32|256:64,1,70
176,120,342568,5,0,0:0:0:0:
104,184,342661,1,0,0:0:0:0:
104,280,342755,1,0,0:0:0:0:
176,344,342849,1,0,0:0:0:0:
272,344,342943,1,0,0:0:0:0:
344,280,343036,1,0,0:0:0:0:
344,184,343130,1,0,0:0:0:0:
416,120,343224,1,0,0:0:0:0:
344,56,343318,6,0,B|288:56|288:56|256:88,1,70
259,184,343505,2,0,L|336:184,1,70
267,76,343693,2,0,B|235:44|235:44|208:72,1,70
144,136,343880,2,0,B|112:168|112:168|112:200,1,70
112,304,344068,5,0,0:0:0:0:
160,384,344161,1,0,0:0:0:0:
208,304,344255,1,0,0:0:0:0:
256,224,344349,1,0,0:0:0:0:
304,144,344443,1,0,0:0:0:0:
352,224,344536,1,0,0:0:0:0:
400,304,344630,1,0,0:0:0:0:
496,304,344724,1,0,0:0:0:0:
400,304,344818,6,0,L|320:304,1,70
223,301,345005,2,0,P|247:237|264:208,1,70
304,152,345193,2,0,P|319:183|344:217,1,70
224,144,345380,2,0,B|192:176|192:176|152:176,1,70
56,176,345568,5,0,0:0:0:0:
24,176,345661,1,0,0:0:0:0:
224,144,345755,1,0,0:0:0:0:
256,144,345849,1,0,0:0:0:0:
56,272,345943,1,0,0:0:0:0:
40,296,346036,1,0,0:0:0:0:
224,48,346130,1,0,0:0:0:0:
240,32,346224,1,0,0:0:0:0:
128,144,346318,6,0,P|128:192|160:232,1,70
232,224,346505,2,0,P|232:176|200:136,1,70
64,224,346693,2,0,P|104:280|128:296,1,70
304,144,346880,2,0,P|264:88|240:80,1,70
116,287,347068,5,0,0:0:0:0:
200,328,347161,1,0,0:0:0:0:
296,328,347255,1,0,0:0:0:0:
376,280,347349,1,0,0:0:0:0:
424,200,347443,6,0,B|424:112|424:112|392:144|352:136,1,140
256,128,347724,5,0,0:0:0:0:
256,128,347818,1,0,0:0:0:0:
448,192,347911,1,0,0:0:0:0:
448,192,348005,1,0,0:0:0:0:
256,272,348099,1,0,0:0:0:0:
256,272,348193,1,0,0:0:0:0:
448,336,348286,1,0,0:0:0:0:
448,336,348380,1,0,0:0:0:0:
64,64,348474,5,0,0:0:0:0:
64,64,348568,1,0,0:0:0:0:
256,128,348661,1,0,0:0:0:0:
256,128,348755,1,0,0:0:0:0:
64,208,348849,1,0,0:0:0:0:
64,208,348943,1,0,0:0:0:0:
256,272,349036,1,0,0:0:0:0:
256,272,349130,1,0,0:0:0:0:
152,40,349224,5,0,0:0:0:0:
152,40,349318,1,0,0:0:0:0:
344,104,349411,1,0,0:0:0:0:
344,104,349505,1,0,0:0:0:0:
152,184,349599,1,0,0:0:0:0:
152,184,349693,1,0,0:0:0:0:
344,248,349786,1,0,0:0:0:0:
344,248,349880,1,0,0:0:0:0:
256,136,349974,5,0,0:0:0:0:
256,136,350068,1,0,0:0:0:0:
448,200,350161,1,0,0:0:0:0:
448,200,350255,1,0,0:0:0:0:
256,280,350349,1,0,0:0:0:0:
256,280,350443,1,0,0:0:0:0:
448,344,350536,1,0,0:0:0:0:
448,344,350630,1,0,0:0:0:0:
264,32,350724,6,0,P|312:32|344:64,1,70
400,120,350911,2,0,P|432:152|464:152,1,70
256,120,351099,2,0,P|304:120|328:152,1,70
400,32,351286,2,0,P|448:32|488:64,1,70
392,120,351474,5,0,0:0:0:0:
320,184,351568,1,0,0:0:0:0:
320,280,351661,1,0,0:0:0:0:
392,344,351755,1,0,0:0:0:0:
72,336,351849,1,0,0:0:0:0:
144,272,351943,1,0,0:0:0:0:
144,176,352036,1,0,0:0:0:0:
64,104,352130,1,0,0:0:0:0:
272,40,352224,6,0,B|216:40|216:40|192:64,1,70
187,168,352411,2,0,L|264:168,1,70
192,56,352599,2,0,B|160:24|160:24|128:48,1,70
72,120,352786,2,0,B|40:152|40:152|40:192,1,70
40,208,352974,5,0,0:0:0:0:
88,288,353068,1,0,0:0:0:0:
136,208,353161,1,0,0:0:0:0:
184,128,353255,1,0,0:0:0:0:
232,48,353349,1,0,0:0:0:0:
280,128,353443,1,0,0:0:0:0:
328,208,353536,1,0,0:0:0:0:
424,208,353630,1,0,0:0:0:0:
328,208,353724,1,0,0:0:0:0:
256,192,353818,12,4,355318,0:0:0:0:
40,192,356818,5,4,0:0:0:0:
464,192,357005,1,4,0:0:0:0:
40,40,357193,1,4,0:0:0:0:
472,344,357380,1,4,0:0:0:0:
256,40,357568,1,4,0:0:0:0:
256,344,357755,1,4,0:0:0:0:
472,40,357943,1,4,0:0:0:0:
40,344,358130,1,4,0:0:0:0:
160,216,358318,2,4,B|224:304|224:304|416:56,1,420
40,192,365818,5,4,0:0:0:0:
464,192,366005,1,4,0:0:0:0:
40,40,366193,1,4,0:0:0:0:
472,344,366380,1,4,0:0:0:0:
256,40,366568,1,4,0:0:0:0:
256,344,366755,1,4,0:0:0:0:
472,40,366943,1,4,0:0:0:0:
40,344,367130,1,4,0:0:0:0:
120,200,367318,2,4,B|192:304|192:304|376:64,1,420
40,192,368818,5,4,0:0:0:0:
464,192,369005,1,4,0:0:0:0:
40,40,369193,1,4,0:0:0:0:
472,344,369380,1,4,0:0:0:0:
256,40,369568,1,4,0:0:0:0:
256,344,369755,1,4,0:0:0:0:
472,40,369943,1,4,0:0:0:0:
40,344,370130,1,4,0:0:0:0:
120,200,370318,2,4,B|192:304|192:304|376:64,1,420
40,192,371818,5,4,0:0:0:0:
464,192,372005,1,4,0:0:0:0:
40,40,372193,1,4,0:0:0:0:
472,344,372380,1,4,0:0:0:0:
256,40,372568,1,4,0:0:0:0:
256,344,372755,1,4,0:0:0:0:
472,40,372943,1,4,0:0:0:0:
40,344,373130,1,4,0:0:0:0:
32,192,373318,2,4,B|104:296|104:296|288:56,1,420
40,192,374818,5,4,0:0:0:0:
464,192,375005,1,4,0:0:0:0:
40,40,375193,1,4,0:0:0:0:
472,344,375380,1,4,0:0:0:0:
256,40,375568,1,4,0:0:0:0:
256,344,375755,1,4,0:0:0:0:
472,40,375943,1,4,0:0:0:0:
40,344,376130,1,4,0:0:0:0:
472,192,376318,2,4,B|400:296|400:296|216:56,1,420
256,192,377818,5,0,0:0:0:0:
