osu file format v14

[General]
AudioFilename: Galaxy Collapse.mp3
AudioLeadIn: 0
PreviewTime: 178519
Countdown: 0
SampleSet: Soft
StackLeniency: 0.7
Mode: 0
LetterboxInBreaks: 0
WidescreenStoryboard: 0

[Editor]
Bookmarks: 28457,59790,153790,227453,229053,229853,303418,350818
DistanceSpacing: 1
BeatDivisor: 4
GridSize: 4
TimelineZoom: 8

[Metadata]
Title:Galaxy Collapse
TitleUnicode:Galaxy Collapse
Artist:Kurokotei
ArtistUnicode:黒皇帝
Creator:Doomsday is Bad
Version:Galactic
Source:東方Project
Tags:touhou speedcore nue houjuu undefined fantastic object marathon
BeatmapID:862088
BeatmapSetID:396221

[Difficulty]
HPDrainRate:3.5
CircleSize:4.5
OverallDifficulty:9.2
ApproachRate:9.9
SliderMultiplier:1.7
SliderTickRate:1

[Events]
//Background and Video events
0,0,"Houjuu.Nue.full.168235.jpg",0,0
//Break Periods
2,28457,31346
2,230853,231532
2,232507,233498
2,234163,234843
2,237472,238200
2,239187,240236
2,240901,241629
//Storyboard Layer 0 (Background)
//Storyboard Layer 1 (Fail)
//Storyboard Layer 2 (Pass)
//Storyboard Layer 3 (Foreground)
//Storyboard Sound Samples

[TimingPoints]
13,222.222222222222,4,2,0,75,1,0
13,-200,4,2,2,75,0,0
14235,-200,4,2,2,75,0,0
32012,-80,4,1,0,75,0,1
32068,-80,4,1,0,75,0,1
38679,-80,4,1,0,65,0,1
38707,-80,4,2,0,50,0,1
38901,-80,4,1,0,65,0,1
38929,-80,4,2,0,50,0,1
39124,-80,4,1,0,75,0,1
45790,-80,4,1,0,65,0,1
45804,-80,4,2,0,50,0,1
46012,-80,4,1,0,65,0,1
46026,-80,4,2,0,50,0,1
46235,-66.6666666666667,4,1,0,75,0,1
52929,-66.6666666666667,4,2,0,60,0,1
53124,-66.6666666666667,4,1,0,75,0,1
53151,-66.6666666666667,4,2,0,60,0,1
53346,-66.6666666666667,4,1,0,75,0,1
54679,-200,4,1,0,75,0,1
54901,-66.6666666666667,4,1,0,75,0,1
56457,-100,4,1,0,75,0,1
56679,-66.6666666666667,4,1,0,75,0,1
58485,-66.6666666666667,4,2,0,60,0,1
58679,-66.6666666666667,4,1,0,75,0,1
59374,-66.6666666666667,4,2,0,60,0,1
59568,-66.6666666666667,4,1,0,75,0,1
59624,-66.6666666666667,4,2,0,75,0,1
59790,-66.6666666666667,4,1,0,75,0,1
59846,-66.6666666666667,4,1,0,55,0,1
60457,-80,4,1,0,75,0,0
62235,-80,4,2,2,75,0,0
64012,-80,4,2,0,75,0,0
65790,-80,4,2,2,75,0,0
67346,-200,4,1,0,75,0,0
67568,-80,4,1,0,75,0,0
69346,-80,4,2,2,75,0,0
71124,-80,4,2,0,75,0,0
72901,-80,4,2,2,75,0,0
74679,-80,4,2,0,75,0,0
76457,-80,4,2,2,75,0,0
78235,-80,4,2,0,75,0,0
80012,-80,4,2,2,75,0,0
81790,-80,4,2,0,75,0,0
83568,-80,4,2,2,75,0,0
85346,-80,4,2,0,75,0,0
87124,-80,4,2,2,75,0,0
87151,-80,4,2,0,75,0,0
87568,-80,4,1,0,75,0,0
87596,-80,4,2,0,75,0,0
88012,-133.333333333333,4,2,2,75,0,0
88901,-80,4,1,0,75,0,1
95568,-80,4,1,0,75,0,1
95596,-80,4,2,0,75,0,1
95790,-80,4,1,0,75,0,1
95818,-80,4,2,0,75,0,1
96012,-80,4,1,0,75,0,1
102679,-80,4,1,0,75,0,1
102707,-80,4,2,0,75,0,1
102901,-80,4,1,0,75,0,1
102929,-80,4,2,0,75,0,1
103124,-66.6666666666667,4,1,0,75,0,1
109790,-66.6666666666667,4,1,0,75,0,1
109818,-66.6666666666667,4,2,0,75,0,1
110012,-66.6666666666667,4,1,0,75,0,1
110040,-66.6666666666667,4,2,0,75,0,1
110235,-66.6666666666667,4,1,0,75,0,1
114383,-66.6666666666667,4,2,0,75,0,1
114457,-66.6666666666667,4,1,0,75,0,1
115374,-66.6666666666667,4,2,0,75,0,1
115568,-66.6666666666667,4,1,0,75,0,1
115818,-66.6666666666667,4,2,0,75,0,1
116012,-66.6666666666667,4,1,0,75,0,1
116262,-66.6666666666667,4,2,0,75,0,1
116457,-66.6666666666667,4,1,0,75,0,1
116485,-66.6666666666667,4,2,0,75,0,1
116679,-66.6666666666667,4,1,0,75,0,1
116707,-66.6666666666667,4,2,0,75,0,1
117346,-50,4,2,2,75,0,0
117360,-50,4,2,0,5,0,0
117790,400,4,2,0,75,1,8
117790,-200,4,2,2,75,0,8
118590,400,4,2,0,75,1,0
119790,-100,4,2,2,75,0,0
123390,-100,4,2,2,75,0,0
128190,-100,4,2,2,75,0,0
129790,-133.333333333333,4,2,2,75,0,1
142590,-100,4,2,2,75,0,1
142690,-100,4,2,2,75,0,0
153790,400,4,2,2,75,1,0
155390,363.636363636364,4,1,1,75,1,1
156844,333.333333333333,4,1,1,75,1,1
158177,307.692307692308,4,1,1,75,1,1
159407,285.714285714286,4,1,1,75,1,1
160549,266.666666666667,4,1,1,75,1,1
161615,250,4,1,1,75,1,1
162615,235.294117647059,4,1,1,75,1,1
163556,222.222222222222,4,1,1,75,1,1
164444,210.526315789474,4,1,1,75,1,1
165286,200,4,1,1,75,1,1
166086,190.47619047619,4,1,1,75,1,1
166847,181.818181818182,4,1,1,75,1,1
167574,173.913043478261,4,1,1,75,1,1
168269,166.666666666667,4,1,1,75,1,1
168935,160,4,1,1,75,1,1
169575,153.846153846154,4,1,1,75,1,1
170190,148.148148148148,4,1,1,75,1,1
170782,142.857142857143,4,1,1,75,1,1
171353,137.931034482759,4,1,1,75,1,1
171904,133.333333333333,4,1,1,75,1,1
172437,129.032258064516,4,1,1,75,1,1
172953,125,4,1,1,75,1,1
173453,121.212121212121,4,1,1,75,1,1
173937,117.647058823529,4,1,1,75,1,1
174407,115.384615384615,4,1,1,75,1,1
175358,-100,4,1,1,55,0,1
176253,1600,4,2,2,100,1,0
176256,-100,4,2,0,5,0,0
179453,200,4,2,1,75,1,1
179453,-66.6666666666667,4,2,1,75,0,1
179503,-66.6666666666667,4,1,0,75,0,1
205053,-57.1428571428571,4,2,1,75,0,1
205103,-57.1428571428571,4,1,0,75,0,1
211086,-57.1428571428571,4,2,0,5,0,1
211253,-57.1428571428571,4,1,0,75,0,1
211278,-57.1428571428571,4,2,0,5,0,1
211453,-57.1428571428571,4,2,1,75,0,1
211503,-57.1428571428571,4,1,0,75,0,1
217478,-57.1428571428571,4,2,0,5,0,1
217853,-57.1428571428571,4,2,1,75,0,1
217853,-57.1428571428571,4,1,0,75,0,1
217903,-57.1428571428571,4,1,0,75,0,1
223886,-57.1428571428571,4,2,0,5,0,1
224053,-57.1428571428571,4,1,0,75,0,1
224078,-57.1428571428571,4,2,0,5,0,1
224253,-57.1428571428571,4,1,0,75,0,1
230653,206.896551724138,4,1,0,75,1,0
230653,-100,4,1,0,75,0,0
236885,-100,4,2,0,5,0,0
237273,214.285714285714,4,1,0,75,1,0
243728,-100,4,2,0,5,0,0
244130,222.222222222222,4,1,0,75,1,0
244130,-80,4,1,0,75,0,0
245907,-80,4,1,1,75,0,0
251018,-200,4,1,1,75,0,0
251241,-80,4,1,1,75,0,0
269018,-80,4,1,0,75,0,0
271685,-80,4,2,0,75,0,0
272574,444.444444444444,4,2,0,75,1,0
286796,-80,4,1,0,60,0,0
299240,-80,4,2,0,60,0,0
301018,1600,4,2,0,75,1,0
301020,-100,4,2,0,5,0,0
304218,200,4,1,0,75,1,1
304218,-66.6666666666667,4,2,1,75,0,1
304268,-66.6666666666667,4,1,0,75,0,1
329818,187.5,4,1,0,75,1,1
329818,-57.1428571428571,4,2,1,75,0,1
329864,-57.1428571428571,4,1,0,75,0,1
335474,-57.1428571428571,4,2,0,5,0,1
335630,-57.1428571428571,4,1,0,75,0,1
335653,-57.1428571428571,4,2,0,5,0,1
335818,-55.5555555555556,4,1,0,75,0,1
341091,-55.5555555555556,4,2,0,20,0,1
341818,-52.6315789473684,4,1,0,75,0,1
353642,-52.6315789473684,4,2,0,5,0,1
353818,375,4,1,0,75,1,0
353818,-200,4,1,0,75,0,0

[HitObjects]
56,56,13,5,6,0:0:0:0:
88,224,457,1,2,0:0:0:0:
224,88,901,1,2,0:0:0:0:
256,272,1346,1,2,0:0:0:0:
288,88,1790,5,2,0:0:0:0:
424,224,2234,1,2,0:0:0:0:
456,56,2678,1,2,0:0:0:0:
320,96,3124,1,2,0:0:0:0:
176,128,3568,6,0,B|168:168|168:168|240:184|240:272,1,170,2|2,0:0|0:0,0:0:0:0:
352,352,4456,2,0,P|456:280|472:224,1,170,2|2,0:0|0:0,0:0:0:0:
420,108,5346,2,0,P|356:44|272:36,1,170,2|0,0:0|0:0,0:0:0:0:
136,44,6235,2,0,P|80:156|88:196,1,170,2|0,0:0|0:0,0:0:0:0:
164,316,7124,6,0,L|212:332,3,42.5,6|0|0|0,0:0|0:0|0:0|0:0,0:0:0:0:
196,292,7568,2,0,L|244:292,3,42.5,2|0|0|0,0:0|0:0|0:0|0:0,0:0:0:0:
220,260,8012,2,0,L|265:237,3,42.5,2|0|0|0,0:0|0:0|0:0|0:0,0:0:0:0:
225,220,8456,2,0,L|258:186,3,42.5,2|0|0|0,0:0|0:0|0:0|0:0,0:0:0:0:
348,68,8901,6,0,L|300:52,3,42.5,2|0|0|0,0:0|0:0|0:0|0:0,0:0:0:0:
316,92,9345,2,0,L|268:92,3,42.5,2|0|0|0,0:0|0:0|0:0|0:0,0:0:0:0:
292,124,9789,2,0,L|247:147,3,42.5,2|0|0|0,0:0|0:0|0:0|0:0,0:0:0:0:
287,164,10233,2,0,L|254:198,3,42.5,2|0|0|0,0:0|0:0|0:0|0:0,0:0:0:0:
408,344,10680,6,0,L|390:303,3,42.5,2|0|0|0,0:0|0:0|0:0|0:0,0:0:0:0:
358,327,11124,2,0,L|353:283,3,42.5,2|0|0|0,0:0|0:0|0:0|0:0,0:0:0:0:
317,291,11568,2,0,L|332:250,3,42.5,2|0|0|0,0:0|0:0|0:0|0:0,0:0:0:0:
295,246,12012,2,0,L|321:212,3,42.5,2|0|0|0,0:0|0:0|0:0|0:0,0:0:0:0:
104,40,12457,6,0,L|121:80,3,42.5,2|0|0|0,0:0|0:0|0:0|0:0,0:0:0:0:
154,57,12901,2,0,L|158:100,3,42.5,2|0|0|0,0:0|0:0|0:0|0:0,0:0:0:0:
195,93,13345,2,0,L|179:133,3,42.5,2|0|0|0,0:0|0:0|0:0|0:0,0:0:0:0:
217,138,13789,2,0,L|190:171,3,42.5,2|0|0|0,0:0|0:0|0:0|0:0,0:0:0:0:
208,340,14235,5,6,0:0:0:0:
224,332,14346,1,0,0:0:0:0:
240,324,14457,1,0,0:0:0:0:
392,208,14679,5,2,0:0:0:0:
400,224,14790,1,0,0:0:0:0:
408,240,14901,1,0,0:0:0:0:
308,208,15124,5,2,0:0:0:0:
300,192,15235,1,0,0:0:0:0:
292,176,15346,1,0,0:0:0:0:
172,64,15568,5,2,0:0:0:0:
188,56,15679,1,0,0:0:0:0:
204,48,15790,1,0,0:0:0:0:
392,92,16012,5,2,0:0:0:0:
376,100,16123,1,0,0:0:0:0:
360,108,16234,1,0,0:0:0:0:
136,148,16456,5,2,0:0:0:0:
128,132,16567,1,0,0:0:0:0:
120,116,16678,1,0,0:0:0:0:
276,140,16901,5,2,0:0:0:0:
284,156,17012,1,0,0:0:0:0:
292,172,17123,1,0,0:0:0:0:
156,264,17345,5,2,0:0:0:0:
140,272,17456,1,0,0:0:0:0:
124,280,17567,1,0,0:0:0:0:
300,320,17790,5,2,0:0:0:0:
316,312,17901,1,0,0:0:0:0:
332,304,18012,1,0,0:0:0:0:
420,140,18234,5,2,0:0:0:0:
428,156,18345,1,0,0:0:0:0:
436,172,18456,1,0,0:0:0:0:
272,96,18679,5,2,0:0:0:0:
264,80,18790,1,0,0:0:0:0:
256,64,18901,1,0,0:0:0:0:
404,188,19123,5,2,0:0:0:0:
420,180,19234,1,0,0:0:0:0:
436,172,19345,1,0,0:0:0:0:
284,48,19568,5,2,0:0:0:0:
268,56,19679,1,0,0:0:0:0:
252,64,19790,1,0,0:0:0:0:
132,144,20012,5,2,0:0:0:0:
124,128,20123,1,0,0:0:0:0:
116,112,20234,1,0,0:0:0:0:
80,232,20457,5,2,0:0:0:0:
88,248,20568,1,0,0:0:0:0:
96,264,20679,1,0,0:0:0:0:
432,232,20901,5,2,0:0:0:0:
424,248,21012,1,0,0:0:0:0:
416,264,21123,1,0,0:0:0:0:
256,360,21346,5,6,0:0:0:0:
256,326,21457,1,0,0:0:0:0:
256,293,21567,1,0,0:0:0:0:
424,192,21790,5,2,0:0:0:0:
390,192,21901,1,0,0:0:0:0:
357,192,22011,1,0,0:0:0:0:
256,23,22235,5,2,0:0:0:0:
256,57,22346,1,0,0:0:0:0:
256,90,22456,1,0,0:0:0:0:
87,192,22679,5,2,0:0:0:0:
121,192,22790,1,0,0:0:0:0:
154,192,22900,1,0,0:0:0:0:
313,349,23124,5,2,0:0:0:0:
300,318,23235,1,0,0:0:0:0:
289,286,23345,1,0,0:0:0:0:
413,132,23568,5,2,0:0:0:0:
382,145,23679,1,0,0:0:0:0:
350,156,23789,1,0,0:0:0:0:
196,33,24013,5,2,0:0:0:0:
209,64,24124,1,0,0:0:0:0:
220,96,24234,1,0,0:0:0:0:
97,249,24457,5,2,0:0:0:0:
128,236,24568,1,0,0:0:0:0:
160,225,24678,1,0,0:0:0:0:
364,319,24901,5,2,0:0:0:0:
341,294,25012,1,0,0:0:0:0:
320,269,25122,1,0,0:0:0:0:
383,82,25345,5,2,0:0:0:0:
358,104,25456,1,0,0:0:0:0:
333,125,25566,1,0,0:0:0:0:
146,62,25790,5,2,0:0:0:0:
168,88,25901,1,0,0:0:0:0:
189,113,26011,1,0,0:0:0:0:
126,300,26234,5,2,0:0:0:0:
152,277,26345,1,0,0:0:0:0:
177,256,26455,1,0,0:0:0:0:
400,276,26679,5,2,0:0:0:0:
372,259,26790,1,0,0:0:0:0:
343,242,26900,1,0,0:0:0:0:
340,45,27123,5,2,0:0:0:0:
323,73,27234,1,0,0:0:0:0:
306,103,27344,1,0,0:0:0:0:
109,107,27568,5,2,0:0:0:0:
137,124,27679,1,0,0:0:0:0:
167,141,27789,1,0,0:0:0:0:
171,336,28012,5,2,0:0:0:0:
188,308,28123,1,0,0:0:0:0:
205,279,28233,1,0,0:0:0:0:
104,304,32012,6,0,B|88:288|88:288|128:240|80:192,1,106.25,4|0,0:0|0:0,0:0:0:0:
56,128,32235,1,0,0:0:0:0:
80,40,32346,1,0,0:0:0:0:
168,16,32457,2,0,P|248:40|296:72,1,106.25
296,136,32679,2,0,P|216:112|168:80,1,106.25
128,160,32901,6,0,L|96:280,1,106.25
168,328,33124,2,0,L|195:225,1,106.25
240,144,33346,1,0,0:0:0:0:
320,104,33457,1,0,0:0:0:0:
392,152,33568,2,0,B|472:216|488:264|488:272,1,106.25
376,248,33790,6,0,B|296:184|280:136|280:128,1,106.25
240,112,34012,1,0,0:0:0:0:
152,80,34124,1,0,0:0:0:0:
68,60,34235,2,0,B|37:65|37:65|16:96|64:144,1,106.25
112,200,34457,2,0,P|176:272|232:288,1,106.25
256,312,34679,5,0,0:0:0:0:
337,285,34790,1,0,0:0:0:0:
337,200,34901,1,0,0:0:0:0:
256,174,35012,1,0,0:0:0:0:
207,243,35124,1,0,0:0:0:0:
256,312,35235,1,0,0:0:0:0:
337,285,35346,1,0,0:0:0:0:
344,280,35401,1,0,0:0:0:0:
352,272,35457,1,0,0:0:0:0:
360,268,35512,1,0,0:0:0:0:
368,264,35568,6,0,B|368:248|368:248|428:268|448:188,1,106.25,0|0,0:0|0:0,0:0:0:0:
364,168,35790,2,0,L|256:108,1,106.25
192,156,36012,2,0,L|300:216,1,106.25
324,288,36235,2,0,L|272:380,1,106.25
232,301,36457,6,0,L|283:208,1,106.25
326,130,36679,1,0,0:0:0:0:
359,51,36790,1,0,0:0:0:0:
282,16,36901,1,0,0:0:0:0:
247,94,37012,1,0,0:0:0:0:
212,176,37124,2,0,P|184:192|104:152,1,106.25
64,100,37346,6,0,P|92:84|172:124,1,106.25
212,176,37568,2,0,L|292:276,1,106.25
368,244,37790,2,0,L|301:161,1,106.25
232,108,38012,1,0,0:0:0:0:
165,55,38124,1,0,0:0:0:0:
243,23,38235,5,0,0:0:0:0:
332,24,38346,1,0,0:0:0:0:
410,56,38457,1,0,0:0:0:0:
343,109,38569,1,0,0:0:0:0:
284,176,38679,6,0,L|284:212,5,35.4166666666667
260,192,38901,6,0,L|228:192,7,26.5625
252,176,39124,6,0,P|208:128|164:100,1,106.25,4|0,0:0|0:0,0:0:0:0:
88,128,39346,2,0,P|122:168|165:198,1,106.25
252,220,39568,2,0,P|295:250|329:290,1,106.25
243,314,39790,2,0,P|199:283|165:243,1,106.25
180,156,40012,5,0,0:0:0:0:
156,68,40124,1,0,0:0:0:0:
256,132,40235,1,0,0:0:0:0:
256,36,40346,1,0,0:0:0:0:
332,156,40457,1,0,0:0:0:0:
356,68,40569,1,0,0:0:0:0:
400,200,40679,2,0,L|420:312,1,106.25
360,372,40901,6,0,L|208:348,1,106.25
224,272,41124,2,0,L|328:288,1,106.25
158,199,41346,2,0,L|141:303,1,106.25
224,272,41569,2,0,L|240:167,1,106.25
277,91,41790,5,0,0:0:0:0:
359,72,41901,1,0,0:0:0:0:
426,125,42012,1,0,0:0:0:0:
426,210,42124,1,0,0:0:0:0:
359,263,42235,1,0,0:0:0:0:
277,244,42346,1,0,0:0:0:0:
240,167,42457,1,0,0:0:0:0:
214,158,42512,1,0,0:0:0:0:
214,132,42568,1,0,0:0:0:0:
240,124,42624,1,0,0:0:0:0:
255,145,42679,6,0,P|280:208|340:248,1,106.25
356,156,42901,2,0,P|331:93|271:53,1,106.25
257,145,43124,2,0,P|232:208|172:248,1,106.25
156,156,43346,2,0,P|181:93|241:53,1,106.25
296,48,43568,5,0,0:0:0:0:
374,81,43679,1,0,0:0:0:0:
307,131,43790,1,0,0:0:0:0:
309,47,43901,1,0,0:0:0:0:
413,80,44012,1,0,0:0:0:0:
323,130,44123,1,0,0:0:0:0:
327,48,44235,1,0,0:0:0:0:
465,80,44346,1,0,0:0:0:0:
346,130,44457,6,0,B|316:152|316:152|344:192|300:228,1,106.25
228,236,44679,2,0,P|308:308|360:280,1,106.25
384,304,44901,2,0,P|430:280|449:232,1,106.25
336,184,45124,2,0,L|336:68,1,106.25
256,40,45346,5,0,0:0:0:0:
168,28,45457,1,0,0:0:0:0:
256,55,45568,1,0,0:0:0:0:
176,44,45679,1,0,0:0:0:0:
252,72,45790,6,0,L|280:96,7,26.5625
256,88,46012,6,0,L|264:112,11,17.7083333333333
248,96,46235,6,0,L|188:232,1,127.500004863739,4|0,0:0|0:0,0:0:0:0:
264,288,46457,2,0,L|324:152,1,127.500004863739
396,100,46679,1,0,0:0:0:0:
447,189,46790,1,0,0:0:0:0:
430,289,46901,1,0,0:0:0:0:
352,355,47012,1,0,0:0:0:0:
244,344,47124,6,0,P|176:308|120:244,1,127.500004863739
140,168,47346,2,0,P|208:204|264:268,1,127.500004863739
268,344,47568,2,0,P|336:308|392:244,1,127.500004863739
372,168,47790,2,0,P|304:204|248:268,1,127.500004863739
184,304,48012,5,0,0:0:0:0:
84,340,48124,1,0,0:0:0:0:
176,315,48235,1,0,0:0:0:0:
66,354,48347,1,0,0:0:0:0:
162,337,48457,1,0,0:0:0:0:
32,383,48569,1,0,0:0:0:0:
8,280,48679,2,0,P|40:188|88:124,1,127.500004863739
160,140,48901,6,0,P|128:232|80:296,1,127.500004863739
20,200,49124,1,0,0:0:0:0:
72,104,49235,2,0,L|24:48,2,63.7500024318696
160,44,49457,1,0,0:0:0:0:
264,24,49568,1,0,0:0:0:0:
352,44,49679,1,0,0:0:0:0:
440,104,49790,6,0,P|448:216|416:248,1,127.500004863739
340,256,50012,2,0,P|332:144|364:112,1,127.500004863739
332,28,50235,2,0,P|441:51|463:90,1,127.500004863739
450,166,50457,2,0,P|340:142|318:103,1,127.500004863739
232,104,50679,6,0,P|224:216|256:248,1,127.500004863739
332,256,50901,2,0,P|340:144|308:112,1,127.500004863739
340,28,51124,2,0,P|230:51|208:90,1,127.500004863739
222,166,51346,2,0,P|331:142|353:103,1,127.500004863739
400,48,51568,5,0,0:0:0:0:
412,156,51679,1,0,0:0:0:0:
407,40,51790,1,0,0:0:0:0:
419,154,51901,1,0,0:0:0:0:
414,33,52012,1,0,0:0:0:0:
427,152,52123,1,0,0:0:0:0:
422,25,52235,1,0,0:0:0:0:
432,152,52346,2,0,L|408:292,1,127.500004863739
328,344,52568,5,0,0:0:0:0:
220,352,52679,1,0,0:0:0:0:
124,308,52790,1,0,0:0:0:0:
64,220,52901,6,0,L|44:176,5,42.5000016212464
80,196,53124,6,0,L|104:160,7,31.8750012159348
100,208,53346,6,0,P|164:224|240:204,1,127.500004863739,4|0,0:0|0:0,0:0:0:0:
256,112,53568,1,0,0:0:0:0:
148,120,53679,1,0,0:0:0:0:
100,208,53790,2,0,P|164:224|240:204,1,127.500004863739
320,164,54012,1,0,0:0:0:0:
420,124,54124,2,0,L|452:64,2,63.7500024318696
404,232,54346,5,0,0:0:0:0:
312,288,54457,1,0,0:0:0:0:
208,312,54568,1,0,0:0:0:0:
104,292,54679,1,0,0:0:0:0:
88,284,54735,1,0,0:0:0:0:
76,272,54790,1,0,0:0:0:0:
68,256,54846,1,0,0:0:0:0:
64,240,54901,2,0,P|76:152|128:96,1,127.500004863739
204,120,55124,6,0,P|234:175|236:238,1,127.500004863739
168,320,55346,2,0,P|256:360|340:348,1,127.500004863739
353,279,55568,2,0,P|298:246|235:238,1,127.500004863739
136,200,55790,1,0,0:0:0:0:
40,152,55901,1,0,0:0:0:0:
76,52,56012,6,0,P|180:32|232:60,1,127.500004863739
296,84,56235,1,0,0:0:0:0:
376,156,56346,1,0,0:0:0:0:
412,264,56457,1,0,0:0:0:0:
412,300,56512,1,0,0:0:0:0:
396,332,56568,1,0,0:0:0:0:
368,356,56624,1,0,0:0:0:0:
332,364,56679,2,0,L|188:348,1,127.500004863739
124,280,56901,6,0,L|140:136,1,127.500004863739
204,68,57124,2,0,L|330:53,1,127.500004863739
420,112,57346,1,0,0:0:0:0:
348,192,57457,2,0,L|288:192,3,42.5000016212464
420,272,57679,1,0,0:0:0:0:
340,344,57790,6,0,P|252:360|188:344,1,127.500004863739
80,184,58012,2,0,P|168:168|232:184,1,127.500004863739
420,272,58235,1,0,0:0:0:0:
420,272,58457,6,0,L|420:304,7,31.8750012159348
396,256,58679,6,0,L|308:156,1,127.500004863739,4|0,0:0|0:0,0:0:0:0:
216,116,58901,6,0,L|164:92,5,42.5000016212464
164,132,59124,6,0,L|79:227,1,127.500004863739
136,320,59346,6,0,L|172:360,7,31.8750012159348
184,336,59568,6,0,L|228:312,5,42.5000016212464
256,304,59790,6,0,L|316:336,17,42.5000016212464
320,304,60457,5,4,0:0:0:0:
440,56,60679,1,0,0:0:0:0:
72,56,60901,1,0,0:0:0:0:
192,304,61124,1,0,0:0:0:0:
256,68,61346,1,0,0:0:0:0:
320,304,61568,1,0,0:0:0:0:
256,16,61790,1,0,0:0:0:0:
36,192,62012,5,0,0:0:0:0:
256,192,62124,1,0,0:0:0:0:
476,192,62235,1,4,0:0:0:0:
256,44,62457,5,0,0:0:0:0:
342,311,62679,1,0,0:0:0:0:
115,146,62901,1,0,0:0:0:0:
396,146,63124,1,0,0:0:0:0:
169,311,63346,1,0,0:0:0:0:
169,311,63568,2,0,P|88:292|64:160,1,212.5
68,136,63846,1,0,0:0:0:0:
100,104,63901,1,0,0:0:0:0:
136,76,63957,1,0,0:0:0:0:
176,60,64012,5,4,0:0:0:0:
352,88,64235,1,0,0:0:0:0:
160,296,64457,1,0,0:0:0:0:
336,324,64680,1,0,0:0:0:0:
31,328,64901,5,0,0:0:0:0:
79,28,65124,1,0,0:0:0:0:
432,355,65346,1,0,0:0:0:0:
480,55,65569,5,0,0:0:0:0:
256,192,65679,1,0,0:0:0:0:
31,328,65790,1,4,0:0:0:0:
32,148,66012,1,0,0:0:0:0:
212,148,66235,1,0,0:0:0:0:
212,328,66457,1,0,0:0:0:0:
32,328,66679,5,0,0:0:0:0:
40,32,66901,1,0,0:0:0:0:
472,32,67124,1,0,0:0:0:0:
472,352,67346,2,0,L|464:339,6,14.1666666666667,0|0|0|0|0|0|4,0:0|0:0|0:0|0:0|0:0|0:0|0:0,0:0:0:0:
108,192,67790,5,0,0:0:0:0:
375,278,68012,1,0,0:0:0:0:
210,51,68234,1,0,0:0:0:0:
210,332,68457,1,0,0:0:0:0:
375,105,68679,1,0,0:0:0:0:
107,191,68901,1,0,0:0:0:0:
375,279,69124,5,0,0:0:0:0:
252,192,69235,1,0,0:0:0:0:
137,105,69346,1,4,0:0:0:0:
136,284,69568,1,0,0:0:0:0:
256,56,69790,1,0,0:0:0:0:
376,284,70012,1,2,0:0:0:0:
86,62,70235,1,0,0:0:0:0:
256,383,70457,1,0,0:0:0:0:
425,62,70679,2,0,P|468:44|464:156,1,212.5
432,168,70957,1,0,0:0:0:0:
388,180,71012,1,0,0:0:0:0:
344,192,71068,1,0,0:0:0:0:
300,208,71124,5,4,0:0:0:0:
144,120,71346,1,0,0:0:0:0:
273,240,71568,1,0,0:0:0:0:
237,46,71790,1,0,0:0:0:0:
227,241,72012,1,0,0:0:0:0:
365,73,72234,1,0,0:0:0:0:
194,202,72457,1,0,0:0:0:0:
433,200,72679,5,0,0:0:0:0:
256,340,72790,1,0,0:0:0:0:
78,200,72901,1,4,0:0:0:0:
256,16,73124,1,0,0:0:0:0:
256,248,73346,1,0,0:0:0:0:
380,67,73568,1,0,0:0:0:0:
216,231,73790,1,0,0:0:0:0:
432,191,74012,1,0,0:0:0:0:
200,192,74235,2,0,P|120:192|144:300,1,212.5
176,312,74512,1,0,0:0:0:0:
220,324,74568,1,0,0:0:0:0:
264,328,74624,1,0,0:0:0:0:
308,328,74679,6,0,L|396:236,1,106.25,4|0,0:0|0:0,0:0:0:0:
308,56,74901,2,0,L|381:132,1,106.25
204,328,75124,2,0,L|116:236,1,106.25
204,56,75346,2,0,L|130:132,1,106.25
392,244,75568,6,0,L|300:332,1,106.25
120,244,75790,2,0,L|196:317,1,106.25
392,140,76013,2,0,L|300:52,1,106.25
120,140,76235,2,0,L|196:66,1,106.25
356,100,76457,6,0,L|488:148,1,106.25,4|0,0:0|0:0,0:0:0:0:
396,200,76679,2,0,L|264:152,1,106.25
156,100,76901,2,0,L|24:148,1,106.25
116,200,77123,2,0,L|248:152,1,106.25
256,244,77346,5,0,0:0:0:0:
360,100,77568,1,0,0:0:0:0:
144,100,77790,2,0,P|56:112|72:236,1,212.5
80,252,78068,1,0,0:0:0:0:
124,264,78124,1,0,0:0:0:0:
168,272,78179,1,0,0:0:0:0:
212,276,78235,6,0,L|336:280,1,106.25,4|0,0:0|0:0,0:0:0:0:
380,216,78457,2,0,L|384:92,1,106.25
316,52,78679,2,0,L|192:48,1,106.25
136,96,78901,2,0,L|132:220,1,106.25
380,216,79124,6,0,L|384:92,1,106.25
212,276,79346,2,0,L|336:280,1,106.25
316,52,79568,2,0,L|192:48,1,106.25
140,104,79790,5,0,0:0:0:0:
256,192,79901,1,0,0:0:0:0:
372,280,80012,2,0,L|487:246,1,106.25,4|0,0:0|0:0,0:0:0:0:
140,280,80235,2,0,L|25:246,1,106.25
344,164,80457,2,0,L|401:51,1,106.25
168,164,80679,2,0,L|111:51,1,106.25
392,68,80901,5,0,0:0:0:0:
256,328,81124,1,0,0:0:0:0:
120,68,81346,2,0,P|76:32|72:128,1,212.5
116,136,81624,1,0,0:0:0:0:
160,140,81679,1,0,0:0:0:0:
204,144,81735,1,0,0:0:0:0:
248,148,81790,6,0,L|372:156,1,106.25,4|0,0:0|0:0,0:0:0:0:
264,236,82012,2,0,L|140:228,1,106.25
330,178,82235,2,0,L|320:336,1,106.25
181,205,82457,2,0,L|192:48,1,106.25
282,338,82679,6,0,L|132:324,1,106.25
229,45,82901,2,0,L|380:60,1,106.25
109,218,83124,2,0,L|124:68,1,106.25
188,56,83346,5,0,0:0:0:0:
256,192,83457,1,0,0:0:0:0:
324,328,83568,2,0,P|388:328|386:299,1,106.25,4|0,0:0|0:0,0:0:0:0:
389,76,83790,2,0,P|366:34|324:56,1,106.25
72,144,84012,2,0,L|192:144,1,106.25
440,240,84235,2,0,L|320:240,1,106.25
244,240,84457,5,0,0:0:0:0:
72,188,84679,1,0,0:0:0:0:
244,144,84901,2,0,P|320:120|440:192,1,212.5
460,216,85179,1,0,0:0:0:0:
472,260,85235,1,0,0:0:0:0:
468,304,85290,1,0,0:0:0:0:
440,340,85346,6,0,P|376:372|296:364,1,106.25,4|0,0:0|0:0,0:0:0:0:
72,44,85568,2,0,P|136:12|216:20,1,106.25
108,376,85790,2,0,P|81:330|73:278,1,106.25
403,7,86012,2,0,P|430:53|438:105,1,106.25
275,373,86235,6,0,P|223:355|183:307,1,106.25,4|0,0:0|0:0,0:0:0:0:
236,10,86457,2,0,P|288:28|328:76,1,106.25
74,211,86679,2,0,P|92:159|140:119,1,106.25
437,172,86901,2,0,P|419:224|371:264,1,106.25
292,248,87124,6,0,L|232:236,11,35.4166666666667,4|0|0|0|0|0|0|0|0|0|0|0,0:0|0:0|0:0|0:0|0:0|0:0|0:0|0:0|0:0|0:0|0:0|0:0,0:0:0:0:
228,244,87568,6,0,L|204:256,15,26.5625
192,264,88012,6,0,P|132:300|72:280,1,127.500004863739,4|0,0:0|0:0,0:0:0:0:
256,32,88457,1,0,0:0:0:0:
408,80,88901,6,0,B|424:96|424:96|384:144|432:192,1,106.25,4|0,0:0|0:0,0:0:0:0:
456,256,89124,1,0,0:0:0:0:
432,344,89235,1,0,0:0:0:0:
344,368,89346,2,0,P|264:344|216:312,1,106.25
216,248,89568,2,0,P|296:272|344:304,1,106.25
384,224,89790,6,0,L|416:104,1,106.25
344,56,90013,2,0,L|317:159,1,106.25
272,240,90235,1,0,0:0:0:0:
192,280,90346,1,0,0:0:0:0:
120,232,90457,2,0,B|40:168|24:120|24:112,1,106.25
136,136,90679,6,0,B|216:200|232:248|232:256,1,106.25
272,272,90901,1,0,0:0:0:0:
360,304,91013,1,0,0:0:0:0:
444,324,91124,2,0,B|475:319|475:319|496:288|448:240,1,106.25
400,184,91346,2,0,P|336:112|280:96,1,106.25
256,72,91568,5,0,0:0:0:0:
175,99,91679,1,0,0:0:0:0:
175,184,91790,1,0,0:0:0:0:
256,210,91901,1,0,0:0:0:0:
305,141,92013,1,0,0:0:0:0:
256,72,92124,1,0,0:0:0:0:
175,99,92235,1,0,0:0:0:0:
168,104,92290,1,0,0:0:0:0:
160,112,92346,1,0,0:0:0:0:
152,116,92401,1,0,0:0:0:0:
144,120,92457,6,0,B|144:136|144:136|84:116|64:196,1,106.25,0|0,0:0|0:0,0:0:0:0:
148,216,92679,2,0,L|256:276,1,106.25
320,228,92901,2,0,L|212:168,1,106.25
188,96,93124,2,0,L|240:4,1,106.25
280,83,93346,6,0,L|229:176,1,106.25
186,254,93568,1,0,0:0:0:0:
153,333,93679,1,0,0:0:0:0:
230,368,93790,1,0,0:0:0:0:
265,290,93901,1,0,0:0:0:0:
300,208,94013,2,0,P|328:192|408:232,1,106.25
448,284,94235,6,0,P|420:300|340:260,1,106.25
300,208,94457,2,0,L|220:108,1,106.25
144,140,94679,2,0,L|211:223,1,106.25
280,276,94901,1,0,0:0:0:0:
347,329,95013,1,0,0:0:0:0:
269,361,95124,5,0,0:0:0:0:
180,360,95235,1,0,0:0:0:0:
102,328,95346,1,0,0:0:0:0:
169,275,95458,1,0,0:0:0:0:
228,208,95568,6,0,L|228:172,5,35.4166666666667
252,192,95790,6,0,L|284:192,7,26.5625
260,208,96013,6,0,P|304:256|348:284,1,106.25,4|0,0:0|0:0,0:0:0:0:
424,256,96235,2,0,P|390:216|347:186,1,106.25
260,164,96457,2,0,P|217:134|183:94,1,106.25
269,70,96679,2,0,P|313:101|347:141,1,106.25
332,228,96901,5,0,0:0:0:0:
356,316,97013,1,0,0:0:0:0:
256,252,97124,1,0,0:0:0:0:
256,348,97235,1,0,0:0:0:0:
180,228,97346,1,0,0:0:0:0:
156,316,97458,1,0,0:0:0:0:
112,184,97568,2,0,L|92:72,1,106.25
152,12,97790,6,0,L|304:36,1,106.25
288,112,98013,2,0,L|184:96,1,106.25
354,185,98235,2,0,L|371:81,1,106.25
288,112,98458,2,0,L|272:217,1,106.25
235,293,98679,5,0,0:0:0:0:
153,312,98790,1,0,0:0:0:0:
86,259,98901,1,0,0:0:0:0:
86,174,99013,1,0,0:0:0:0:
153,121,99124,1,0,0:0:0:0:
235,140,99235,1,0,0:0:0:0:
272,217,99346,1,0,0:0:0:0:
298,226,99401,1,0,0:0:0:0:
298,252,99457,1,0,0:0:0:0:
272,260,99513,1,0,0:0:0:0:
257,239,99568,6,0,P|232:176|172:136,1,106.25
156,228,99790,2,0,P|181:291|241:331,1,106.25
255,239,100013,2,0,P|280:176|340:136,1,106.25
356,228,100235,2,0,P|331:291|271:331,1,106.25
216,336,100457,5,0,0:0:0:0:
138,303,100568,1,0,0:0:0:0:
205,253,100679,1,0,0:0:0:0:
203,337,100790,1,0,0:0:0:0:
99,304,100901,1,0,0:0:0:0:
189,254,101012,1,0,0:0:0:0:
185,336,101124,1,0,0:0:0:0:
47,304,101235,1,0,0:0:0:0:
166,254,101346,6,0,B|196:232|196:232|168:192|212:156,1,106.25
284,148,101568,2,0,P|204:76|152:104,1,106.25
128,80,101790,2,0,P|82:104|63:152,1,106.25
176,200,102013,2,0,L|176:316,1,106.25
256,344,102235,5,0,0:0:0:0:
344,356,102346,1,0,0:0:0:0:
256,329,102457,1,0,0:0:0:0:
336,340,102568,1,0,0:0:0:0:
260,312,102679,6,0,L|232:288,7,26.5625
256,296,102901,6,0,L|248:272,11,17.7083333333333
264,288,103124,6,0,L|324:152,1,127.500004863739,4|0,0:0|0:0,0:0:0:0:
248,96,103346,2,0,L|188:232,1,127.500004863739
116,284,103568,1,0,0:0:0:0:
65,195,103679,1,0,0:0:0:0:
82,95,103790,1,0,0:0:0:0:
160,29,103901,1,0,0:0:0:0:
268,40,104013,6,0,P|336:76|392:140,1,127.500004863739
372,216,104235,2,0,P|304:180|248:116,1,127.500004863739
244,40,104457,2,0,P|176:76|120:140,1,127.500004863739
140,216,104679,2,0,P|208:180|264:116,1,127.500004863739
328,80,104901,5,0,0:0:0:0:
428,44,105013,1,0,0:0:0:0:
336,69,105124,1,0,0:0:0:0:
446,30,105236,1,0,0:0:0:0:
350,47,105346,1,0,0:0:0:0:
480,1,105458,1,0,0:0:0:0:
504,104,105568,2,0,P|472:196|424:260,1,127.500004863739
352,244,105790,6,0,P|384:152|432:88,1,127.500004863739
492,184,106013,1,0,0:0:0:0:
440,280,106124,2,0,L|488:336,2,63.7500024318696
352,340,106346,1,0,0:0:0:0:
248,360,106457,1,0,0:0:0:0:
160,340,106568,1,0,0:0:0:0:
72,280,106679,6,0,P|64:168|96:136,1,127.500004863739
172,128,106901,2,0,P|180:240|148:272,1,127.500004863739
180,356,107124,2,0,P|71:333|49:294,1,127.500004863739
62,218,107346,2,0,P|172:242|194:281,1,127.500004863739
280,280,107568,6,0,P|288:168|256:136,1,127.500004863739
180,128,107790,2,0,P|172:240|204:272,1,127.500004863739
172,356,108013,2,0,P|282:333|304:294,1,127.500004863739
290,218,108235,2,0,P|181:242|159:281,1,127.500004863739
112,336,108457,5,0,0:0:0:0:
100,228,108568,1,0,0:0:0:0:
105,344,108679,1,0,0:0:0:0:
93,230,108790,1,0,0:0:0:0:
98,351,108901,1,0,0:0:0:0:
85,232,109012,1,0,0:0:0:0:
90,359,109124,1,0,0:0:0:0:
80,232,109235,2,0,L|104:92,1,127.500004863739
184,40,109457,5,0,0:0:0:0:
292,32,109568,1,0,0:0:0:0:
388,76,109679,1,0,0:0:0:0:
448,164,109790,6,0,L|468:208,5,42.5000016212464
432,188,110013,6,0,L|408:224,7,31.8750012159348
412,176,110235,6,0,P|348:160|272:180,1,127.500004863739,4|0,0:0|0:0,0:0:0:0:
256,272,110457,1,0,0:0:0:0:
364,264,110568,1,0,0:0:0:0:
412,176,110679,2,0,P|348:160|272:180,1,127.500004863739
192,220,110901,1,0,0:0:0:0:
92,260,111013,2,0,L|60:320,2,63.7500024318696
108,152,111235,5,0,0:0:0:0:
200,96,111346,1,0,0:0:0:0:
304,72,111457,1,0,0:0:0:0:
408,92,111568,1,0,0:0:0:0:
424,100,111624,1,0,0:0:0:0:
436,112,111679,1,0,0:0:0:0:
444,128,111735,1,0,0:0:0:0:
448,144,111790,2,0,P|436:232|384:288,1,127.500004863739
308,264,112013,6,0,P|278:209|276:146,1,127.500004863739
344,64,112235,2,0,P|256:24|172:36,1,127.500004863739
159,105,112457,2,0,P|214:138|277:146,1,127.500004863739
376,184,112679,1,0,0:0:0:0:
472,232,112790,1,0,0:0:0:0:
436,332,112901,6,0,P|332:352|280:324,1,127.500004863739
216,300,113124,1,0,0:0:0:0:
136,228,113235,1,0,0:0:0:0:
100,120,113346,1,0,0:0:0:0:
100,84,113401,1,0,0:0:0:0:
116,52,113457,1,0,0:0:0:0:
144,28,113513,1,0,0:0:0:0:
180,20,113568,2,0,L|324:36,1,127.500004863739
388,104,113790,6,0,L|372:248,1,127.500004863739
308,316,114013,2,0,L|182:331,1,127.500004863739
92,272,114235,1,0,0:0:0:0:
164,192,114346,2,0,L|224:192,3,42.5000016212464
92,112,114568,1,0,0:0:0:0:
172,40,114679,6,0,P|260:24|324:40,1,127.500004863739
432,200,114901,2,0,P|344:216|280:200,1,127.500004863739
92,112,115124,1,0,0:0:0:0:
92,112,115346,6,0,L|92:80,7,31.8750012159348
116,128,115568,6,0,L|204:228,1,127.500004863739,4|0,0:0|0:0,0:0:0:0:
296,268,115790,6,0,L|348:292,5,42.5000016212464
348,252,116013,6,0,L|433:157,1,127.500004863739
376,64,116235,6,0,L|340:24,7,31.8750012159348
328,48,116457,6,0,L|284:72,5,42.5000016212464
256,80,116679,6,0,L|196:48,17,42.5000016212464
192,80,117346,6,0,P|96:152|240:272,1,340,14|0,0:0|0:0,0:0:0:0:
424,188,117790,6,0,L|352:112,1,85,2|0,0:0|0:0,0:0:0:0:
88,196,118590,6,0,P|112:268|228:304,1,170,0|2,0:0|0:0,0:0:0:0:
428,200,119790,6,0,L|388:120,1,85
336,82,120190,1,6,0:0:0:0:
268,84,120390,1,0,0:0:0:0:
217,129,120590,1,0,0:0:0:0:
208,197,120790,1,0,0:0:0:0:
244,255,120990,1,2,0:0:0:0:
308,276,121190,1,0,0:0:0:0:
371,250,121390,1,0,0:0:0:0:
403,190,121590,1,0,0:0:0:0:
384,120,121790,6,0,P|300:64|200:56,1,170,2|0,0:0|0:0,0:0:0:0:
128,264,122590,2,0,P|212:320|312:328,1,170,2|0,0:0|0:0,0:0:0:0:
396,248,123390,6,0,P|424:152|272:216,1,340,6|2,0:0|0:0,0:0:0:0:
328,216,124390,1,0,0:0:0:0:
352,284,124590,1,0,0:0:0:0:
312,344,124790,1,0,0:0:0:0:
240,344,124990,1,2,0:0:0:0:
116,272,125390,6,0,L|72:208,3,56.6666666666667,0|0|0|2,0:0|0:0|0:0|0:0,0:0:0:0:
160,104,126190,6,0,P|224:76|304:68,1,85
312,68,126590,2,0,P|420:148|400:212,1,170,6|0,0:0|0:0,0:0:0:0:
376,220,127190,2,0,P|268:140|288:76,1,170
264,52,127790,1,0,0:0:0:0:
208,8,127990,1,0,0:0:0:0:
140,32,128190,2,0,P|64:152|96:236,1,170,2|0,0:0|0:0,0:0:0:0:
372,352,128990,2,0,P|448:232|416:148,1,170,2|0,0:0|0:0,0:0:0:0:
256,56,129790,6,0,L|116:112,1,127.500004863739,4|0,0:0|0:0,0:0:0:0:
256,328,130590,2,0,L|396:272,1,127.500004863739,8|0,0:0|0:0,0:0:0:0:
120,192,131390,2,0,L|176:332,1,127.500004863739
276,256,131990,1,0,0:0:0:0:
392,192,132190,2,0,L|336:52,1,127.500004863739,8|0,0:0|0:0,0:0:0:0:
292,60,132790,1,0,0:0:0:0:
240,68,132990,6,0,L|240:184,1,63.7500024318696,2|0,0:0|0:0,0:0:0:0:
188,148,133390,2,0,L|188:260,1,63.7500024318696
292,240,133790,2,0,L|292:352,1,63.7500024318696,8|0,0:0|0:0,0:0:0:0:
136,332,134190,2,0,L|136:268,1,63.7500024318696
104,224,134590,6,0,P|72:140|108:64,1,127.500004863739
132,92,135190,1,0,0:0:0:0:
184,80,135390,2,0,L|280:56,1,63.7500024318696,8|0,0:0|0:0,0:0:0:0:
328,304,135790,2,0,L|232:328,1,63.7500024318696,8|8,0:0|0:0,0:0:0:0:
192,176,136190,6,0,P|112:128|72:264,1,255.000009727478,4|8,0:0|0:0,0:0:0:0:
100,272,137190,1,0,0:0:0:0:
148,292,137390,1,0,0:0:0:0:
200,304,137590,1,0,0:0:0:0:
252,312,137790,1,0,0:0:0:0:
260,72,138190,6,0,L|200:68,3,42.5000016212464,0|0|0|8,0:0|0:0|0:0|0:0,0:0:0:0:
124,120,138990,5,0,0:0:0:0:
112,172,139190,1,0,0:0:0:0:
112,224,139390,6,0,L|132:312,1,63.7500024318696,12|0,0:0|0:0,0:0:0:0:
168,316,139790,1,0,0:0:0:0:
344,68,140190,1,8,0:0:0:0:
240,100,140590,2,0,L|168:120,1,63.7500024318696
272,284,140990,6,0,L|344:264,1,63.7500024318696
179,138,141390,2,0,L|142:203,1,63.7500024318696
332,245,141790,2,0,L|369:180,1,63.7500024318696,8|0,0:0|0:0,0:0:0:0:
368,104,142190,1,8,0:0:0:0:
368,104,142290,1,8,0:0:0:0:
368,104,142390,1,8,0:0:0:0:
368,104,142490,1,8,0:0:0:0:
368,104,142590,6,0,L|292:32,1,85,4|0,0:0|0:0,0:0:0:0:
240,72,142990,2,0,L|178:130,1,85
120,172,143390,2,0,P|76:252|64:284,1,85,8|0,0:0|0:0,0:0:0:0:
124,300,143790,2,0,P|168:220|180:188,1,85
236,232,144190,6,0,P|254:270|277:306,1,85
322,252,144589,2,0,P|303:213|280:177,1,85
232,124,144990,2,0,P|152:72|72:88,1,170,8|0,0:0|0:0,0:0:0:0:
40,140,145590,1,0,0:0:0:0:
44,212,145790,6,0,L|120:264,1,85,8|0,0:0|0:0,0:0:0:0:
468,212,146190,2,0,L|392:264,1,85
44,172,146590,2,0,L|120:120,1,85,8|0,0:0|0:0,0:0:0:0:
468,172,146990,2,0,L|392:120,1,85
256,56,147390,6,0,P|188:48|92:128,1,170,8|0,0:0|0:0,0:0:0:0:
120,172,147990,1,0,0:0:0:0:
140,240,148190,2,0,P|208:248|304:168,1,170,8|8,0:0|0:0,0:0:0:0:
280,124,148790,1,8,0:0:0:0:
260,56,148990,1,12,0:0:0:0:
84,280,149790,6,0,L|200:284,1,85,8|0,0:0|0:0,0:0:0:0:
224,240,150190,2,0,L|340:244,1,85
356,188,150590,1,8,0:0:0:0:
260,84,150990,6,0,L|196:48,3,56.6666666666667,0|0|0|8,0:0|0:0|0:0|0:0,0:0:0:0:
68,80,151790,6,0,L|40:192,1,85
444,304,152190,2,0,L|472:192,1,85,4|0,0:0|0:0,0:0:0:0:
144,48,152590,2,0,L|256:20,1,85
368,336,152990,2,0,L|256:364,1,85,8|0,0:0|0:0,0:0:0:0:
172,348,153390,1,0,0:0:0:0:
96,284,153590,1,0,0:0:0:0:
76,192,153790,6,0,B|96:172|96:172|116:244|220:216,1,170,12|0,0:0|0:0,0:0:0:0:
256,160,154390,1,0,0:0:0:0:
316,120,154590,1,8,0:0:0:0:
380,156,154790,1,0,0:0:0:0:
420,216,154990,1,8,0:0:0:0:
420,216,155090,1,8,0:0:0:0:
420,216,155190,1,8,0:0:0:0:
420,216,155290,1,8,0:0:0:0:
420,216,155390,6,0,B|393:205|393:205|403:279|284:304,1,170,4|0,0:0|0:0,0:0:0:0:
236,312,155935,1,0,0:0:0:0:
168,328,156117,1,0,0:0:0:0:
112,284,156299,1,0,0:0:0:0:
68,224,156480,1,0,0:0:0:0:
68,224,156571,1,0,0:0:0:0:
68,224,156662,1,0,0:0:0:0:
92,148,156844,6,0,P|132:100|244:88,1,170,4|0,0:0|0:0,0:0:0:0:
300,108,157344,1,0,0:0:0:0:
364,144,157510,1,0,0:0:0:0:
404,204,157677,1,0,0:0:0:0:
432,272,157844,1,0,0:0:0:0:
432,272,157927,1,0,0:0:0:0:
432,272,158010,1,0,0:0:0:0:
376,324,158177,6,0,P|288:328|240:256,1,170,4|0,0:0|0:0,0:0:0:0:
188,224,158638,1,0,0:0:0:0:
124,252,158792,1,0,0:0:0:0:
60,220,158946,1,0,0:0:0:0:
32,156,159100,1,0,0:0:0:0:
32,156,159177,1,0,0:0:0:0:
32,156,159253,1,0,0:0:0:0:
68,88,159407,6,0,B|96:85|96:85|67:154|185:217,1,170,4|0,0:0|0:0,0:0:0:0:
232,200,159835,1,0,0:0:0:0:
300,172,159978,1,0,0:0:0:0:
340,112,160121,1,0,0:0:0:0:
360,44,160264,1,0,0:0:0:0:
360,44,160335,1,0,0:0:0:0:
360,44,160407,1,0,0:0:0:0:
424,8,160549,6,0,B|452:7|452:7|464:164,1,170,4|0,0:0|0:0,0:0:0:0:
464,220,160949,1,0,0:0:0:0:
448,288,161082,1,0,0:0:0:0:
384,316,161215,1,0,0:0:0:0:
316,336,161349,1,0,0:0:0:0:
316,336,161415,1,0,0:0:0:0:
316,336,161482,1,0,0:0:0:0:
240,344,161615,6,0,P|152:336|92:272,1,170,4|0,0:0|0:0,0:0:0:0:
60,220,161990,1,0,0:0:0:0:
32,156,162115,1,0,0:0:0:0:
44,84,162240,1,0,0:0:0:0:
100,40,162365,1,0,0:0:0:0:
100,40,162427,1,0,0:0:0:0:
100,40,162490,1,0,0:0:0:0:
144,100,162615,6,0,L|304:184,1,170,4|0,0:0|0:0,0:0:0:0:
356,212,162967,1,0,0:0:0:0:
348,284,163085,1,0,0:0:0:0:
280,308,163203,1,0,0:0:0:0:
208,304,163320,1,0,0:0:0:0:
208,304,163379,1,0,0:0:0:0:
208,304,163438,1,0,0:0:0:0:
136,280,163556,6,0,B|68:207|119:151|119:151|91:145,1,170,4|0,0:0|0:0,0:0:0:0:
28,124,163889,1,0,0:0:0:0:
44,56,164000,1,0,0:0:0:0:
112,36,164111,1,0,0:0:0:0:
184,32,164222,1,0,0:0:0:0:
184,32,164278,1,0,0:0:0:0:
184,32,164333,1,0,0:0:0:0:
252,60,164444,6,0,P|316:108|336:208,1,170,4|0,0:0|0:0,0:0:0:0:
328,264,164759,1,0,0:0:0:0:
284,320,164865,1,0,0:0:0:0:
216,336,164970,1,0,0:0:0:0:
152,308,165075,1,0,0:0:0:0:
152,308,165128,1,0,0:0:0:0:
152,308,165180,1,0,0:0:0:0:
88,268,165286,6,0,B|52:248|52:248|16:120,1,170,4|0,0:0|0:0,0:0:0:0:
28,52,165586,1,0,0:0:0:0:
88,12,165686,1,0,0:0:0:0:
160,20,165786,1,0,0:0:0:0:
212,68,165886,1,0,0:0:0:0:
248,128,165986,1,0,0:0:0:0:
296,195,166086,6,0,P|249:281|194:233,1,170,4|0,0:0|0:0,0:0:0:0:
180,192,166371,1,0,0:0:0:0:
192,120,166466,1,0,0:0:0:0:
236,64,166562,1,0,0:0:0:0:
304,44,166657,1,0,0:0:0:0:
369,71,166752,1,0,0:0:0:0:
420,124,166847,6,0,P|410:220|341:197,1,170,4|0,0:0|0:0,0:0:0:0:
296,195,167119,1,0,0:0:0:0:
224,188,167210,1,0,0:0:0:0:
156,204,167301,1,0,0:0:0:0:
96,240,167392,1,0,0:0:0:0:
60,304,167483,1,0,0:0:0:0:
20,368,167574,6,0,L|8:168,1,170,4|0,0:0|0:0,0:0:0:0:
52,140,167834,1,0,0:0:0:0:
116,108,167921,1,0,0:0:0:0:
184,128,168008,1,0,0:0:0:0:
224,188,168095,1,0,0:0:0:0:
244,256,168182,1,0,0:0:0:0:
276,324,168269,6,0,P|356:352|408:292,1,170,4|0,0:0|0:0,0:0:0:0:
384,228,168519,1,0,0:0:0:0:
320,192,168602,1,0,0:0:0:0:
252,168,168685,1,0,0:0:0:0:
184,148,168769,1,0,0:0:0:0:
112,144,168852,1,0,0:0:0:0:
36,144,168935,6,0,P|12:220|76:292,1,170,4|0,0:0|0:0,0:0:0:0:
132,264,169175,1,0,0:0:0:0:
180,212,169255,1,0,0:0:0:0:
188,140,169335,1,0,0:0:0:0:
148,80,169415,1,0,0:0:0:0:
76,84,169495,1,0,0:0:0:0:
36,144,169575,6,0,P|12:220|76:292,1,170,4|0,0:0|0:0,0:0:0:0:
132,264,169805,1,0,0:0:0:0:
180,212,169882,1,0,0:0:0:0:
188,140,169959,1,0,0:0:0:0:
148,80,170036,1,0,0:0:0:0:
76,84,170113,1,0,0:0:0:0:
36,144,170190,6,0,P|12:220|76:292,1,170,4|0,0:0|0:0,0:0:0:0:
132,264,170412,1,0,0:0:0:0:
180,212,170486,1,0,0:0:0:0:
188,140,170560,1,0,0:0:0:0:
148,80,170634,1,0,0:0:0:0:
76,84,170708,1,0,0:0:0:0:
36,144,170782,6,0,P|12:220|76:292,1,170,4|0,0:0|0:0,0:0:0:0:
132,304,170996,1,0,0:0:0:0:
200,320,171067,1,0,0:0:0:0:
272,336,171139,1,0,0:0:0:0:
344,336,171210,1,0,0:0:0:0:
412,308,171282,1,0,0:0:0:0:
468,264,171353,6,0,P|518:199|494:120,1,170,4|0,0:0|0:0,0:0:0:0:
432,88,171559,1,0,0:0:0:0:
360,96,171628,1,0,0:0:0:0:
324,160,171697,1,0,0:0:0:0:
340,228,171766,1,0,0:0:0:0:
396,272,171835,1,0,0:0:0:0:
468,264,171904,6,0,P|518:199|494:120,1,170,4|0,0:0|0:0,0:0:0:0:
432,88,172104,1,0,0:0:0:0:
360,96,172170,1,0,0:0:0:0:
324,160,172237,1,0,0:0:0:0:
340,228,172304,1,0,0:0:0:0:
396,272,172370,1,0,0:0:0:0:
468,264,172437,6,0,P|518:199|494:120,1,170,4|0,0:0|0:0,0:0:0:0:
432,88,172630,1,0,0:0:0:0:
360,96,172695,1,0,0:0:0:0:
324,160,172759,1,0,0:0:0:0:
340,228,172824,1,0,0:0:0:0:
396,272,172888,1,0,0:0:0:0:
468,264,172953,6,0,P|518:199|494:120,1,170,4|0,0:0|0:0,0:0:0:0:
424,104,173140,1,0,0:0:0:0:
352,96,173203,1,0,0:0:0:0:
280,92,173265,1,0,0:0:0:0:
208,96,173328,1,0,0:0:0:0:
136,104,173390,1,0,0:0:0:0:
64,116,173453,6,0,P|13:180|37:259,1,170,4|0,0:0|0:0,0:0:0:0:
107,276,173634,1,0,0:0:0:0:
179,284,173695,1,0,0:0:0:0:
251,288,173756,1,0,0:0:0:0:
323,284,173816,1,0,0:0:0:0:
395,276,173877,1,0,0:0:0:0:
464,256,173937,6,0,P|514:191|490:112,1,170,4|0,0:0|0:0,0:0:0:0:
421,96,174113,1,0,0:0:0:0:
349,88,174172,1,0,0:0:0:0:
277,84,174231,1,0,0:0:0:0:
205,88,174289,1,0,0:0:0:0:
133,96,174348,1,0,0:0:0:0:
68,128,174407,6,0,P|44:206|94:271,1,170,4|0,0:0|0:0,0:0:0:0:
144,288,174580,1,0,0:0:0:0:
186,293,174638,1,0,0:0:0:0:
226,279,174695,1,0,0:0:0:0:
256,249,174753,1,0,0:0:0:0:
271,209,174811,1,0,0:0:0:0:
266,166,174869,5,4,0:0:0:0:
243,130,174926,1,0,0:0:0:0:
207,108,174984,1,0,0:0:0:0:
165,103,175042,1,0,0:0:0:0:
125,117,175099,5,4,0:0:0:0:
95,147,175157,1,0,0:0:0:0:
81,187,175215,1,0,0:0:0:0:
85,229,175272,1,0,0:0:0:0:
94,271,175330,6,0,L|57:334,15,42.5,4|0|0|0|0|0|0|0|0|0|0|0|0|0|0|0,0:0|0:0|0:0|0:0|0:0|0:0|0:0|0:0|0:0|0:0|0:0|0:0|0:0|0:0|0:0|0:0,0:0:0:0:
144,268,175791,6,0,L|168:280,31,21.25
120,228,176253,6,0,L|240:-12,1,255,14|0,0:0|0:0,0:0:0:0:
432,312,179453,6,0,L|416:160,1,127.500004863739,4|0,0:0|0:0,0:0:0:0:
320,144,179653,2,0,L|333:270,1,127.500004863739
252,344,179853,1,0,0:0:0:0:
156,300,179953,1,0,0:0:0:0:
240,232,180053,1,0,0:0:0:0:
144,188,180153,1,0,0:0:0:0:
220,112,180253,6,0,P|250:58|334:74,1,127.500004863739
292,272,180453,2,0,P|261:325|177:309,1,127.500004863739
284,112,180653,2,0,L|396:216,1,127.500004863739
228,272,180853,2,0,L|116:168,1,127.500004863739
72,100,181053,5,0,0:0:0:0:
221,49,181153,1,0,0:0:0:0:
129,178,181253,1,0,0:0:0:0:
127,20,181353,1,0,0:0:0:0:
222,146,181453,2,0,P|227:244|210:273,1,127.500004863739
116,308,181653,2,0,P|95:248|109:187,1,127.500004863739
222,146,181853,5,0,0:0:0:0:
354,59,181953,1,0,0:0:0:0:
298,207,182053,1,0,0:0:0:0:
257,55,182153,1,0,0:0:0:0:
379,154,182253,2,0,P|464:103|478:73,1,127.500004863739
379,154,182453,2,0,P|354:250|320:280,1,127.500004863739
244,324,182653,5,4,0:0:0:0:
149,363,182753,1,0,0:0:0:0:
55,324,182853,1,0,0:0:0:0:
16,229,182953,1,0,0:0:0:0:
55,135,183053,1,0,0:0:0:0:
149,96,183153,1,0,0:0:0:0:
244,135,183253,1,0,0:0:0:0:
283,229,183353,1,0,0:0:0:0:
264,336,183453,6,0,L|432:320,1,127.500004863739
248,48,183653,2,0,L|80:64,1,127.500004863739
400,184,183853,2,0,L|384:16,1,127.500004863739
112,200,184053,2,0,L|128:368,1,127.500004863739
400,188,184253,6,0,L|248:260,1,127.500004863739
112,196,184453,2,0,L|264:124,1,127.500004863739
495,185,184653,2,0,L|440:328,1,127.500004863739
16,198,184853,2,0,L|72:56,1,127.500004863739
256,368,185053,6,0,L|113:312,1,127.500004863739
256,16,185253,2,0,L|398:71,1,127.500004863739
424,160,185453,1,0,0:0:0:0:
412,209,185503,1,0,0:0:0:0:
381,250,185553,1,0,0:0:0:0:
337,275,185603,1,0,0:0:0:0:
286,279,185653,2,0,L|148:268,1,127.500004863739
226,105,185853,6,0,L|364:116,1,127.500004863739,4|0,0:0|0:0,0:0:0:0:
436,184,186053,1,0,0:0:0:0:
424,292,186153,1,0,0:0:0:0:
340,228,186253,1,0,0:0:0:0:
236,256,186353,1,0,0:0:0:0:
129,236,186453,1,0,0:0:0:0:
198,157,186553,1,0,0:0:0:0:
296,112,186653,6,0,P|380:144|440:208,1,127.500004863739
216,272,186853,2,0,P|132:240|72:176,1,127.500004863739
397,115,187053,2,0,P|456:176|480:260,1,127.500004863739
114,268,187253,2,0,P|56:208|32:124,1,127.500004863739
92,76,187453,5,0,0:0:0:0:
172,148,187553,1,0,0:0:0:0:
256,84,187653,1,0,0:0:0:0:
340,148,187753,1,0,0:0:0:0:
420,76,187853,2,0,L|472:224,1,127.500004863739
408,292,188053,2,0,L|260:344,1,127.500004863739
188,292,188253,6,0,L|136:144,1,127.500004863739
200,76,188453,2,0,L|348:24,1,127.500004863739
312,308,188653,2,0,L|164:360,1,127.500004863739
96,300,188853,1,0,0:0:0:0:
36,212,188953,1,0,0:0:0:0:
72,112,189053,6,0,P|152:64|228:48,1,127.500004863739
260,132,189253,2,0,L|208:272,1,127.500004863739
327,329,189453,2,0,P|387:307|440:272,1,127.500004863739
444,164,189653,2,0,L|392:24,1,127.500004863739
292,32,189853,6,0,P|168:56|80:200,1,255.000009727478
84,260,190153,1,0,0:0:0:0:
92,312,190203,1,0,0:0:0:0:
132,348,190253,2,0,P|256:368|308:352,1,127.500004863739
344,308,190453,1,0,0:0:0:0:
440,356,190553,1,0,0:0:0:0:
424,252,190653,6,0,L|380:120,1,127.500004863739
88,252,190853,2,0,L|132:120,1,127.500004863739
128,131,191153,6,0,L|88:252,1,127.500004863739
383,131,191353,2,0,L|424:252,1,127.500004863739
128,131,191553,6,0,L|88:252,1,127.500004863739
383,131,191753,2,0,L|424:252,1,127.500004863739
424,308,191903,1,0,0:0:0:0:
394,349,191953,1,0,0:0:0:0:
349,374,192003,1,0,0:0:0:0:
299,380,192053,1,0,0:0:0:0:
250,364,192103,1,0,0:0:0:0:
212,330,192153,1,0,0:0:0:0:
191,283,192203,1,0,0:0:0:0:
191,232,192253,6,0,L|188:80,1,127.500004863739,4|0,0:0|0:0,0:0:0:0:
288,60,192453,2,0,L|285:187,1,127.500004863739
143,10,192653,2,0,L|295:7,1,127.500004863739
315,107,192853,2,0,L|187:104,1,127.500004863739
84,140,193053,5,0,0:0:0:0:
68,244,193153,1,0,0:0:0:0:
180,184,193253,1,0,0:0:0:0:
176,292,193353,1,0,0:0:0:0:
256,212,193453,1,0,0:0:0:0:
256,320,193553,1,0,0:0:0:0:
332,184,193653,1,0,0:0:0:0:
336,292,193753,1,0,0:0:0:0:
428,140,193853,6,0,L|448:272,1,127.500004863739
84,244,194053,2,0,L|64:117,1,127.500004863739
380,120,194253,2,0,L|398:247,1,127.500004863739
131,263,194453,2,0,L|113:136,1,127.500004863739
303,18,194653,6,0,L|425:71,1,127.500004863739
208,365,194853,2,0,L|91:314,1,127.500004863739
261,48,195053,2,0,L|378:100,1,127.500004863739
250,335,195253,2,0,L|133:283,1,127.500004863739
48,216,195453,5,0,0:0:0:0:
48,62,195553,1,0,0:0:0:0:
180,139,195653,2,0,B|224:176|224:176|316:192,1,127.500004863739
424,136,195853,5,0,0:0:0:0:
505,6,195953,1,0,0:0:0:0:
351,1,196053,2,0,L|168:52,1,127.500004863739
104,88,196253,5,0,0:0:0:0:
38,225,196353,1,0,0:0:0:0:
191,211,196453,2,0,L|220:344,1,127.500004863739
321,173,196653,2,0,L|292:40,1,127.500004863739
275,257,196853,2,0,L|399:229,1,127.500004863739
237,127,197053,6,0,L|112:154,1,127.500004863739
52,244,197253,1,0,0:0:0:0:
124,320,197353,1,0,0:0:0:0:
124,320,197553,6,0,L|296:344,1,127.500004863739
200,240,197753,2,0,L|28:216,1,127.500004863739
20,128,197953,2,0,L|192:152,1,127.500004863739
188,168,198103,5,0,0:0:0:0:
232,191,198153,1,0,0:0:0:0:
283,189,198203,1,0,0:0:0:0:
327,162,198253,5,0,0:0:0:0:
351,117,198303,1,0,0:0:0:0:
349,66,198353,1,0,0:0:0:0:
321,23,198403,1,0,0:0:0:0:
277,0,198453,2,0,P|148:16|144:20,1,127.500004863739
88,88,198653,6,0,L|76:232,1,127.500004863739,4|0,0:0|0:0,0:0:0:0:
148,296,198853,2,0,L|292:308,1,127.500004863739
356,236,199053,2,0,L|368:92,1,127.500004863739
292,32,199253,2,0,L|148:20,1,127.500004863739
76,80,199453,5,0,0:0:0:0:
150,149,199553,1,0,0:0:0:0:
53,179,199653,1,0,0:0:0:0:
76,80,199753,1,0,0:0:0:0:
169,167,199853,1,0,0:0:0:0:
46,204,199953,1,0,0:0:0:0:
76,80,200053,1,0,0:0:0:0:
187,184,200153,1,0,0:0:0:0:
40,228,200253,6,0,B|16:248|16:248|8:352,1,127.500004863739
112,368,200453,2,0,P|156:364|244:316,1,127.500004863739
308,252,200653,2,0,B|332:232|332:232|340:128,1,127.500004863739
236,112,200853,2,0,P|192:116|104:164,1,127.500004863739
64,244,201053,5,0,0:0:0:0:
100,344,201153,1,0,0:0:0:0:
64,234,201253,1,0,0:0:0:0:
100,354,201353,1,0,0:0:0:0:
64,222,201453,1,0,0:0:0:0:
100,365,201553,1,0,0:0:0:0:
64,215,201653,1,0,0:0:0:0:
100,376,201753,1,0,0:0:0:0:
100,135,201853,6,0,L|100:8,1,127.500004863739
184,77,202053,2,0,L|184:204,1,127.500004863739
276,259,202253,2,0,L|276:132,1,127.500004863739
372,177,202453,2,0,L|372:304,1,127.500004863739
244,320,202653,5,0,0:0:0:0:
97,337,202753,1,0,0:0:0:0:
205,237,202853,1,0,0:0:0:0:
176,381,202953,1,0,0:0:0:0:
116,248,203053,1,0,0:0:0:0:
76,148,203153,2,0,P|88:84|184:52,1,127.500004863739
224,112,203353,1,0,0:0:0:0:
344,152,203453,5,0,0:0:0:0:
344,152,203653,2,0,L|436:32,1,127.500004863739
168,232,203853,2,0,L|76:352,1,127.500004863739
354,122,204053,2,0,L|399:-21,1,127.500004863739
157,261,204253,2,0,L|112:405,1,127.500004863739
52,188,204453,5,0,0:0:0:0:
82,146,204503,1,0,0:0:0:0:
127,121,204553,1,0,0:0:0:0:
177,115,204603,1,0,0:0:0:0:
226,131,204653,1,0,0:0:0:0:
264,165,204703,1,0,0:0:0:0:
285,212,204753,1,0,0:0:0:0:
285,263,204803,1,0,0:0:0:0:
260,312,204853,6,0,L|240:348,7,31.8750012159348
208,348,205053,6,0,L|36:300,1,148.750001418591,4|0,0:0|0:0,0:0:0:0:
48,184,205253,2,0,L|220:232,1,148.750001418591
312,256,205453,5,0,0:0:0:0:
426,160,205553,1,0,0:0:0:0:
451,305,205653,1,0,0:0:0:0:
285,260,205753,5,0,0:0:0:0:
435,134,205853,1,0,0:0:0:0:
468,325,205953,1,0,0:0:0:0:
262,265,206053,5,0,0:0:0:0:
443,113,206153,1,0,0:0:0:0:
482,342,206253,1,0,0:0:0:0:
245,268,206353,5,0,0:0:0:0:
449,96,206453,1,0,0:0:0:0:
493,355,206553,1,0,0:0:0:0:
356,304,206653,6,0,L|284:132,1,148.750001418591,4|0,0:0|0:0,0:0:0:0:
156,304,206853,2,0,L|228:132,1,148.750001418591
340,48,207053,5,0,0:0:0:0:
291,189,207153,1,0,0:0:0:0:
195,77,207253,1,0,0:0:0:0:
361,30,207353,5,0,0:0:0:0:
297,215,207453,1,0,0:0:0:0:
170,69,207553,1,0,0:0:0:0:
378,14,207653,5,0,0:0:0:0:
301,238,207753,1,0,0:0:0:0:
149,61,207853,1,0,0:0:0:0:
391,3,207953,5,0,0:0:0:0:
304,255,208053,1,0,0:0:0:0:
133,56,208153,1,0,0:0:0:0:
76,192,208253,6,0,L|24:348,1,148.750001418591
436,192,208453,2,0,L|488:348,1,148.750001418591
256,232,208653,5,0,0:0:0:0:
256,152,208753,1,0,0:0:0:0:
281,246,208853,5,0,0:0:0:0:
230,137,208953,1,0,0:0:0:0:
324,249,209053,5,0,0:0:0:0:
187,134,209153,1,0,0:0:0:0:
386,226,209253,5,0,0:0:0:0:
125,157,209353,1,0,0:0:0:0:
455,156,209453,5,0,0:0:0:0:
56,227,209553,1,0,0:0:0:0:
504,17,209653,5,0,0:0:0:0:
7,366,209753,1,0,0:0:0:0:
96,248,209853,6,0,P|139:198|264:167,1,148.750001418591
360,204,210053,1,0,0:0:0:0:
420,340,210153,1,0,0:0:0:0:
420,340,210353,6,0,L|220:300,1,148.750001418591
92,340,210553,2,0,L|292:300,1,148.750001418591
368,232,210753,1,0,0:0:0:0:
432,96,210853,1,0,0:0:0:0:
284,108,210953,1,0,0:0:0:0:
144,164,211053,6,0,L|100:188,5,49.5833338061969
144,164,211253,6,0,L|144:208,7,37.1875003546476
184,200,211453,6,0,L|160:348,1,148.750001418591,4|0,0:0|0:0,0:0:0:0:
328,184,211653,2,0,L|352:36,1,148.750001418591
212,92,211853,5,0,0:0:0:0:
300,292,211953,1,0,0:0:0:0:
212,92,212053,5,0,0:0:0:0:
300,292,212153,1,0,0:0:0:0:
212,92,212253,5,0,0:0:0:0:
300,292,212353,1,0,0:0:0:0:
212,92,212453,5,0,0:0:0:0:
300,292,212553,1,0,0:0:0:0:
212,92,212653,5,0,0:0:0:0:
300,292,212753,1,0,0:0:0:0:
212,92,212853,5,0,0:0:0:0:
300,292,212953,1,0,0:0:0:0:
212,92,213053,6,0,L|65:68,1,148.750001418591
300,292,213253,2,0,L|446:315,1,148.750001418591
156,236,213453,5,0,0:0:0:0:
356,148,213553,1,0,0:0:0:0:
156,236,213653,5,0,0:0:0:0:
356,148,213753,1,0,0:0:0:0:
156,236,213853,5,0,0:0:0:0:
356,148,213953,1,0,0:0:0:0:
156,236,214053,5,0,0:0:0:0:
356,148,214153,1,0,0:0:0:0:
156,236,214253,5,0,0:0:0:0:
356,148,214353,1,0,0:0:0:0:
156,236,214453,5,0,0:0:0:0:
356,148,214553,1,0,0:0:0:0:
156,236,214653,6,0,B|124:256|124:256|132:316|220:348,1,148.750001418591,4|0,0:0|0:0,0:0:0:0:
340,312,214853,1,0,0:0:0:0:
420,188,214953,1,0,0:0:0:0:
336,64,215053,1,0,0:0:0:0:
256,192,215153,5,0,0:0:0:0:
176,64,215253,5,0,0:0:0:0:
92,188,215353,1,0,0:0:0:0:
172,312,215453,5,0,0:0:0:0:
320,324,215553,1,0,0:0:0:0:
400,200,215653,2,0,L|470:60,1,148.750001418591
115,128,215853,2,0,L|44:267,1,148.750001418591
403,149,216053,2,0,L|421:-6,1,148.750001418591
111,179,216253,6,0,L|92:334,1,148.750001418591
244,336,216453,5,0,0:0:0:0:
268,48,216553,1,0,0:0:0:0:
256,321,216653,5,0,0:0:0:0:
255,62,216753,1,0,0:0:0:0:
266,308,216853,5,0,0:0:0:0:
245,75,216953,1,0,0:0:0:0:
274,295,217053,5,0,0:0:0:0:
237,88,217153,1,0,0:0:0:0:
280,283,217253,5,0,0:0:0:0:
231,100,217353,1,0,0:0:0:0:
285,271,217453,6,0,L|288:232,15,37.1875003546476
324,252,217853,6,0,L|392:108,1,148.750001418591,4|0,0:0|0:0,0:0:0:0:
256,48,218053,5,0,0:0:0:0:
186,178,218153,1,0,0:0:0:0:
107,52,218253,1,0,0:0:0:0:
195,61,218353,5,0,0:0:0:0:
186,208,218453,1,0,0:0:0:0:
61,128,218553,1,0,0:0:0:0:
145,99,218653,5,0,0:0:0:0:
200,236,218753,1,0,0:0:0:0:
52,216,218853,1,0,0:0:0:0:
116,154,218953,5,0,0:0:0:0:
224,255,219053,1,0,0:0:0:0:
82,299,219153,1,0,0:0:0:0:
114,217,219253,5,0,0:0:0:0:
254,263,219353,1,0,0:0:0:0:
144,363,219453,6,0,L|56:224,1,148.750001418591
367,20,219653,2,0,L|456:160,1,148.750001418591
294,392,219853,6,0,L|136:360,1,148.750001418591
217,0,220053,2,0,L|376:24,1,148.750001418591
423,309,220253,6,0,L|286:396,1,148.750001418591
88,74,220453,2,0,L|225:-12,1,148.750001418591
458,160,220653,6,0,L|419:317,1,148.750001418591
53,223,220853,2,0,L|92:66,1,148.750001418591
456,192,221053,6,0,L|244:192,1,148.750001418591
94,309,221253,2,0,L|265:184,1,148.750001418591
317,1,221453,2,0,L|252:203,1,148.750001418591
317,382,221653,2,0,L|252:180,1,148.750001418591
94,74,221853,6,0,L|265:199,1,148.750001418591
456,192,222053,2,0,L|244:192,1,148.750001418591
194,1,222253,2,0,L|259:203,1,148.750001418591
194,382,222453,2,0,L|259:180,1,148.750001418591
309,84,222653,5,0,0:0:0:0:
309,284,222753,1,0,0:0:0:0:
191,122,222853,1,0,0:0:0:0:
382,184,222953,1,0,0:0:0:0:
191,245,223053,1,0,0:0:0:0:
201,28,223153,5,0,0:0:0:0:
404,231,223253,1,0,0:0:0:0:
120,186,223353,1,0,0:0:0:0:
375,55,223453,1,0,0:0:0:0:
245,311,223553,1,0,0:0:0:0:
106,85,223653,5,0,0:0:0:0:
407,133,223753,1,0,0:0:0:0:
272,196,223853,6,0,L|224:224,5,49.5833338061969
272,196,224053,6,0,B|220:168|220:168|224:164,7,37.1875003546476
300,220,224253,6,0,L|420:328,1,148.750001418591
212,164,224453,2,0,L|92:56,1,148.750001418591
307,198,224653,6,0,L|462:245,1,148.750001418591
204,185,224853,2,0,L|49:138,1,148.750001418591
305,176,225053,6,0,L|465:153,1,148.750001418591
206,207,225253,2,0,L|46:230,1,148.750001418591
294,156,225453,6,0,L|429:68,1,148.750001418591
217,227,225653,2,0,L|82:315,1,148.750001418591
354,17,225853,6,0,L|275:143,1,148.750001418591
157,366,226053,2,0,L|236:240,1,148.750001418591
271,0,226253,6,0,L|253:139,1,148.750001418591
240,391,226453,2,0,L|258:244,1,148.750001418591
185,4,226653,6,0,L|231:145,1,148.750001418591
326,379,226853,2,0,L|280:238,1,148.750001418591
113,51,227053,6,0,L|214:160,1,148.750001418591
398,332,227253,2,0,L|297:223,1,148.750001418591
200,134,227453,5,0,0:0:0:0:
173,120,227503,1,0,0:0:0:0:
143,125,227553,1,0,0:0:0:0:
122,146,227603,1,0,0:0:0:0:
118,175,227653,5,0,0:0:0:0:
124,204,227703,1,0,0:0:0:0:
130,234,227753,1,0,0:0:0:0:
151,255,227803,1,0,0:0:0:0:
180,260,227853,5,0,0:0:0:0:
208,256,227903,1,0,0:0:0:0:
236,256,227953,1,0,0:0:0:0:
264,252,228003,1,0,0:0:0:0:
293,257,228053,5,0,0:0:0:0:
314,278,228103,1,0,0:0:0:0:
332,300,228153,1,0,0:0:0:0:
352,324,228203,1,0,0:0:0:0:
380,336,228253,5,0,0:0:0:0:
408,336,228303,1,0,0:0:0:0:
436,324,228353,1,0,0:0:0:0:
460,304,228403,1,0,0:0:0:0:
476,276,228453,5,0,0:0:0:0:
484,248,228503,1,0,0:0:0:0:
484,220,228553,1,0,0:0:0:0:
476,192,228603,1,0,0:0:0:0:
456,168,228653,5,0,0:0:0:0:
428,152,228703,1,0,0:0:0:0:
400,140,228753,1,0,0:0:0:0:
372,132,228803,1,0,0:0:0:0:
344,128,228853,5,0,0:0:0:0:
316,128,228903,1,0,0:0:0:0:
288,128,228953,1,0,0:0:0:0:
260,128,229003,1,0,0:0:0:0:
216,128,229053,5,0,0:0:0:0:
172,134,229103,1,0,0:0:0:0:
132,156,229153,5,0,0:0:0:0:
102,190,229203,1,0,0:0:0:0:
90,232,229253,5,0,0:0:0:0:
91,277,229303,1,0,0:0:0:0:
109,317,229353,5,0,0:0:0:0:
141,349,229403,1,0,0:0:0:0:
181,367,229453,5,0,0:0:0:0:
225,369,229503,1,0,0:0:0:0:
268,372,229553,5,0,0:0:0:0:
312,364,229603,1,0,0:0:0:0:
340,328,229653,5,0,0:0:0:0:
352,284,229703,1,0,0:0:0:0:
352,240,229753,5,0,0:0:0:0:
336,200,229803,1,0,0:0:0:0:
316,160,229853,5,0,0:0:0:0:
276,112,229903,5,0,0:0:0:0:
223,84,229953,5,0,0:0:0:0:
163,80,230003,5,0,0:0:0:0:
107,99,230053,5,0,0:0:0:0:
62,138,230103,5,0,0:0:0:0:
34,191,230153,5,0,0:0:0:0:
30,250,230203,5,0,0:0:0:0:
49,307,230253,5,0,0:0:0:0:
88,352,230303,5,0,0:0:0:0:
142,379,230353,5,0,0:0:0:0:
201,383,230403,5,0,0:0:0:0:
257,365,230453,5,0,0:0:0:0:
302,325,230503,5,0,0:0:0:0:
329,272,230553,5,0,0:0:0:0:
333,213,230603,5,0,0:0:0:0:
315,156,230653,5,0,0:0:0:0:
144,84,231997,5,0,0:0:0:0:
168,252,232204,6,0,L|260:216,1,85
424,88,233963,5,0,0:0:0:0:
108,264,235308,5,0,0:0:0:0:
336,156,235515,6,0,L|320:64,1,85
198,291,236446,5,0,0:0:0:0:
198,92,236549,1,0,0:0:0:0:
371,192,236653,1,0,0:0:0:0:
88,192,236756,1,0,0:0:0:0:
400,192,236859,6,0,L|440:192,16,21.25
84,80,238665,5,0,0:0:0:0:
176,276,238880,6,0,L|292:312,1,85
168,168,240701,5,0,0:0:0:0:
392,80,242094,5,0,0:0:0:0:
300,384,242308,6,0,L|276:260,1,85
144,204,243273,1,0,0:0:0:0:
368,180,243380,1,0,0:0:0:0:
145,213,243487,1,0,0:0:0:0:
366,170,243594,1,0,0:0:0:0:
176,64,243701,6,0,L|168:24,16,21.25,0|0|0|0|0|0|0|0|0|0|0|0|0|0|0|0|4,0:0|0:0|0:0|0:0|0:0|0:0|0:0|0:0|0:0|0:0|0:0|0:0|0:0|0:0|0:0|0:0|0:0,0:0:0:0:
72,328,244352,5,0,0:0:0:0:
440,328,244574,1,0,0:0:0:0:
320,80,244797,1,0,0:0:0:0:
256,316,245019,1,0,0:0:0:0:
192,80,245241,1,0,0:0:0:0:
256,368,245463,1,0,0:0:0:0:
476,192,245685,5,0,0:0:0:0:
256,192,245797,1,0,0:0:0:0:
36,192,245908,1,4,0:0:0:0:
256,340,246130,5,0,0:0:0:0:
170,73,246352,1,0,0:0:0:0:
397,238,246574,1,0,0:0:0:0:
116,238,246797,1,0,0:0:0:0:
343,73,247019,1,0,0:0:0:0:
343,73,247241,2,0,P|424:92|448:224,1,212.5
444,248,247519,1,0,0:0:0:0:
412,280,247574,1,0,0:0:0:0:
376,308,247630,1,0,0:0:0:0:
336,324,247685,5,4,0:0:0:0:
160,296,247908,1,0,0:0:0:0:
352,88,248130,1,0,0:0:0:0:
176,60,248353,1,0,0:0:0:0:
481,56,248574,5,0,0:0:0:0:
433,356,248797,1,0,0:0:0:0:
80,29,249019,1,0,0:0:0:0:
32,329,249242,5,0,0:0:0:0:
256,192,249352,1,0,0:0:0:0:
481,56,249463,1,4,0:0:0:0:
480,236,249685,1,0,0:0:0:0:
300,236,249908,1,0,0:0:0:0:
300,56,250130,1,0,0:0:0:0:
480,56,250352,5,0,0:0:0:0:
472,352,250574,1,0,0:0:0:0:
40,352,250797,1,0,0:0:0:0:
40,32,251019,2,0,L|48:45,6,14.1666666666667,0|0|0|0|0|0|4,0:0|0:0|0:0|0:0|0:0|0:0|0:0,0:0:0:0:
404,192,251463,5,0,0:0:0:0:
137,106,251685,1,0,0:0:0:0:
302,333,251907,1,0,0:0:0:0:
302,52,252130,1,0,0:0:0:0:
137,279,252352,1,0,0:0:0:0:
405,193,252574,1,0,0:0:0:0:
137,105,252797,5,0,0:0:0:0:
260,192,252908,1,0,0:0:0:0:
375,279,253019,1,4,0:0:0:0:
376,100,253241,1,0,0:0:0:0:
256,328,253463,1,0,0:0:0:0:
136,100,253685,1,2,0:0:0:0:
426,322,253908,1,0,0:0:0:0:
256,1,254130,1,0,0:0:0:0:
87,322,254352,2,0,P|44:340|48:228,1,212.5
80,216,254630,1,0,0:0:0:0:
124,204,254685,1,0,0:0:0:0:
168,192,254741,1,0,0:0:0:0:
212,176,254797,5,4,0:0:0:0:
368,264,255019,1,0,0:0:0:0:
239,144,255241,1,0,0:0:0:0:
275,338,255463,1,0,0:0:0:0:
285,143,255685,1,0,0:0:0:0:
147,311,255907,1,0,0:0:0:0:
318,182,256130,1,0,0:0:0:0:
79,184,256352,5,0,0:0:0:0:
256,44,256463,1,0,0:0:0:0:
434,184,256574,1,4,0:0:0:0:
256,368,256797,1,0,0:0:0:0:
256,136,257019,1,0,0:0:0:0:
132,317,257241,1,0,0:0:0:0:
296,153,257463,1,0,0:0:0:0:
80,193,257685,1,0,0:0:0:0:
312,192,257908,2,0,P|392:192|368:84,1,212.5
336,72,258185,1,0,0:0:0:0:
292,60,258241,1,0,0:0:0:0:
248,56,258297,1,0,0:0:0:0:
204,56,258352,6,0,L|116:148,1,106.25,4|0,0:0|0:0,0:0:0:0:
204,328,258574,2,0,L|131:252,1,106.25
308,56,258797,2,0,L|396:148,1,106.25
308,328,259019,2,0,L|382:252,1,106.25
120,140,259241,6,0,L|212:52,1,106.25
392,140,259463,2,0,L|316:67,1,106.25
120,244,259686,2,0,L|212:332,1,106.25
392,244,259908,2,0,L|316:318,1,106.25
156,284,260130,6,0,L|24:236,1,106.25,4|0,0:0|0:0,0:0:0:0:
116,184,260352,2,0,L|248:232,1,106.25
356,284,260574,2,0,L|488:236,1,106.25
396,184,260796,2,0,L|264:232,1,106.25
256,140,261019,5,0,0:0:0:0:
152,284,261241,1,0,0:0:0:0:
368,284,261463,2,0,P|456:272|440:148,1,212.5
432,132,261741,1,0,0:0:0:0:
388,120,261797,1,0,0:0:0:0:
344,112,261852,1,0,0:0:0:0:
300,108,261908,6,0,L|176:104,1,106.25,4|0,0:0|0:0,0:0:0:0:
132,168,262130,2,0,L|128:292,1,106.25
196,332,262352,2,0,L|320:336,1,106.25
376,288,262574,2,0,L|380:164,1,106.25
132,168,262797,6,0,L|128:292,1,106.25
300,108,263019,2,0,L|176:104,1,106.25
196,332,263241,2,0,L|320:336,1,106.25
372,280,263463,5,0,0:0:0:0:
256,192,263574,1,0,0:0:0:0:
140,104,263685,2,0,L|25:138,1,106.25,4|0,0:0|0:0,0:0:0:0:
372,104,263908,2,0,L|487:138,1,106.25
168,220,264130,2,0,L|111:333,1,106.25
344,220,264352,2,0,L|401:333,1,106.25
120,316,264574,5,0,0:0:0:0:
256,56,264797,1,0,0:0:0:0:
392,316,265019,2,0,P|436:352|440:256,1,212.5
396,248,265297,1,0,0:0:0:0:
352,244,265352,1,0,0:0:0:0:
308,240,265408,1,0,0:0:0:0:
264,236,265463,6,0,L|140:228,1,106.25,4|0,0:0|0:0,0:0:0:0:
248,148,265685,2,0,L|372:156,1,106.25
182,206,265908,2,0,L|192:48,1,106.25
331,179,266130,2,0,L|320:336,1,106.25
230,46,266352,6,0,L|380:60,1,106.25
283,339,266574,2,0,L|132:324,1,106.25
403,166,266797,2,0,L|388:316,1,106.25
324,328,267019,5,0,0:0:0:0:
256,192,267130,1,0,0:0:0:0:
188,56,267241,2,0,P|124:56|126:85,1,106.25,4|0,0:0|0:0,0:0:0:0:
123,308,267463,2,0,P|146:350|188:328,1,106.25
440,240,267685,2,0,L|320:240,1,106.25
72,144,267908,2,0,L|192:144,1,106.25
268,144,268130,5,0,0:0:0:0:
440,196,268352,1,0,0:0:0:0:
268,240,268574,2,0,P|192:264|72:192,1,212.5
52,168,268852,1,0,0:0:0:0:
40,124,268908,1,0,0:0:0:0:
44,80,268963,1,0,0:0:0:0:
72,44,269019,6,0,P|136:12|216:20,1,106.25,4|0,0:0|0:0,0:0:0:0:
440,340,269241,2,0,P|376:372|296:364,1,106.25
404,8,269463,2,0,P|431:54|439:106,1,106.25
109,377,269685,2,0,P|82:331|74:279,1,106.25
237,11,269908,6,0,P|289:29|329:77,1,106.25,4|0,0:0|0:0,0:0:0:0:
276,374,270130,2,0,P|224:356|184:308,1,106.25
438,173,270352,2,0,P|420:225|372:265,1,106.25
75,212,270574,2,0,P|93:160|141:120,1,106.25
220,136,270797,6,0,L|280:148,11,35.4166666666667,4|0|0|0|0|0|0|0|0|0|0|0,0:0|0:0|0:0|0:0|0:0|0:0|0:0|0:0|0:0|0:0|0:0|0:0,0:0:0:0:
284,140,271241,6,0,L|308:128,15,26.5625
320,120,271685,5,0,0:0:0:0:
372,236,271907,1,0,0:0:0:0:
272,316,272130,1,0,0:0:0:0:
272,316,272241,1,0,0:0:0:0:
272,316,272352,1,0,0:0:0:0:
272,316,272463,1,0,0:0:0:0:
124,316,272574,6,0,P|84:297|72:160,1,170,4|0,0:0|0:0,0:0:0:0:
388,68,273462,2,0,P|427:86|440:224,1,170
304,280,274351,1,0,0:0:0:0:
136,292,274796,2,0,P|76:232|56:120,1,170
196,56,275685,1,0,0:0:0:0:
280,76,275907,1,0,0:0:0:0:
352,120,276129,6,0,L|380:216,1,85
464,212,276574,2,0,L|492:308,1,85
320,300,277018,2,0,L|348:396,1,85
320,300,277462,1,0,0:0:0:0:
256,244,277685,1,0,0:0:0:0:
192,188,277907,2,0,P|117:159|31:203,4,170
492,32,280574,6,0,L|404:72,1,85
372,140,281018,2,0,L|284:180,1,85
212,152,281462,1,0,0:0:0:0:
72,248,281907,6,0,L|28:316,3,56.6666666666667
448,312,282796,6,0,L|404:200,1,85
348,180,283240,1,0,0:0:0:0:
348,180,283907,1,0,0:0:0:0:
116,76,284574,6,0,L|96:176,1,85
168,212,285018,1,0,0:0:0:0:
284,88,285462,1,0,0:0:0:0:
316,256,285907,1,0,0:0:0:0:
316,256,286796,6,0,L|220:328,1,106.25,4|0,0:0|0:0,0:0:0:0:
136,276,287240,2,0,L|221:212,1,106.25
324,184,287685,1,0,0:0:0:0:
356,84,287907,1,0,0:0:0:0:
340,32,288018,1,0,0:0:0:0:
292,12,288129,2,0,L|156:52,1,106.25
124,128,288574,6,0,L|164:264,1,106.25
256,256,289018,2,0,L|216:120,1,106.25
228,48,289462,1,0,0:0:0:0:
328,16,289685,1,0,0:0:0:0:
380,24,289796,1,0,0:0:0:0:
424,56,289907,2,0,P|472:120|480:188,1,106.25
468,196,290240,1,0,0:0:0:0:
428,232,290351,6,0,L|320:312,1,106.25
244,260,290796,2,0,L|329:196,1,106.25
352,92,291240,1,0,0:0:0:0:
264,32,291462,1,0,0:0:0:0:
212,28,291574,1,0,0:0:0:0:
160,24,291685,2,0,B|104:20|104:20|44:68,1,106.25
132,132,292129,5,0,0:0:0:0:
391,167,292574,1,0,0:0:0:0:
160,291,293018,1,0,0:0:0:0:
274,55,293462,1,0,0:0:0:0:
321,313,293907,5,0,0:0:0:0:
240,344,294129,1,0,0:0:0:0:
228,260,294351,1,0,0:0:0:0:
160,296,294574,1,0,0:0:0:0:
124,224,294796,1,0,0:0:0:0:
44,256,295018,1,0,0:0:0:0:
32,168,295240,1,0,0:0:0:0:
88,108,295462,1,0,0:0:0:0:
424,276,295685,5,0,0:0:0:0:
480,216,295907,1,0,0:0:0:0:
468,128,296129,1,0,0:0:0:0:
388,160,296351,1,0,0:0:0:0:
352,88,296573,1,0,0:0:0:0:
284,124,296796,1,0,0:0:0:0:
272,40,297018,1,0,0:0:0:0:
190,70,297240,1,0,0:0:0:0:
104,132,297462,5,0,0:0:0:0:
94,184,297573,1,0,0:0:0:0:
100,237,297684,1,0,0:0:0:0:
121,286,297795,1,0,0:0:0:0:
154,327,297906,5,0,0:0:0:0:
198,357,298017,1,0,0:0:0:0:
248,374,298128,1,0,0:0:0:0:
302,375,298240,1,0,0:0:0:0:
353,362,298351,5,0,0:0:0:0:
399,335,298462,1,0,0:0:0:0:
435,296,298573,1,0,0:0:0:0:
458,248,298684,1,0,0:0:0:0:
467,196,298795,5,0,0:0:0:0:
461,143,298906,1,0,0:0:0:0:
441,94,299017,1,0,0:0:0:0:
407,53,299128,1,0,0:0:0:0:
364,20,299240,6,0,L|216:52,1,106.25,4|0,0:0|0:0,0:0:0:0:
236,88,299574,6,0,L|339:65,1,106.25,4|0,0:0|0:0,0:0:0:0:
372,108,299907,6,0,L|268:130,1,106.25
260,184,300240,6,0,L|363:161,1,106.25,4|0,0:0|0:0,0:0:0:0:
388,212,300574,5,4,0:0:0:0:
292,328,301018,6,0,P|136:344|80:252,1,255,14|0,0:0|0:0,0:0:0:0:
80,72,304218,6,0,L|96:224,1,127.500004863739,4|0,0:0|0:0,0:0:0:0:
192,240,304418,2,0,L|179:114,1,127.500004863739
260,40,304618,1,0,0:0:0:0:
356,84,304718,1,0,0:0:0:0:
272,152,304818,1,0,0:0:0:0:
368,196,304918,1,0,0:0:0:0:
292,272,305018,6,0,P|262:326|178:310,1,127.500004863739
220,112,305218,2,0,P|251:59|335:75,1,127.500004863739
228,272,305418,2,0,L|116:168,1,127.500004863739
284,112,305618,2,0,L|396:216,1,127.500004863739
440,284,305818,5,0,0:0:0:0:
291,335,305918,1,0,0:0:0:0:
383,206,306018,1,0,0:0:0:0:
385,364,306118,1,0,0:0:0:0:
290,238,306218,2,0,P|285:140|302:111,1,127.500004863739
396,76,306418,2,0,P|417:136|403:197,1,127.500004863739
290,238,306618,5,0,0:0:0:0:
158,325,306718,1,0,0:0:0:0:
214,177,306818,1,0,0:0:0:0:
255,329,306918,1,0,0:0:0:0:
133,230,307018,2,0,P|48:281|34:311,1,127.500004863739
133,230,307218,2,0,P|158:134|192:104,1,127.500004863739
268,60,307418,5,4,0:0:0:0:
363,21,307518,1,0,0:0:0:0:
457,60,307618,1,0,0:0:0:0:
496,155,307718,1,0,0:0:0:0:
457,249,307818,1,0,0:0:0:0:
363,288,307918,1,0,0:0:0:0:
268,249,308018,1,0,0:0:0:0:
229,155,308118,1,0,0:0:0:0:
248,48,308218,6,0,L|80:64,1,127.500004863739
264,336,308418,2,0,L|432:320,1,127.500004863739
112,200,308618,2,0,L|128:368,1,127.500004863739
400,184,308818,2,0,L|384:16,1,127.500004863739
112,196,309018,6,0,L|264:124,1,127.500004863739
400,188,309218,2,0,L|248:260,1,127.500004863739
17,199,309418,2,0,L|72:56,1,127.500004863739
496,186,309618,2,0,L|440:328,1,127.500004863739
256,16,309818,6,0,L|399:72,1,127.500004863739
256,368,310018,2,0,L|114:313,1,127.500004863739
88,224,310218,1,0,0:0:0:0:
100,175,310268,1,0,0:0:0:0:
131,134,310318,1,0,0:0:0:0:
175,109,310368,1,0,0:0:0:0:
226,105,310418,2,0,L|364:116,1,127.500004863739
286,279,310618,6,0,L|148:268,1,127.500004863739,4|0,0:0|0:0,0:0:0:0:
76,200,310818,1,0,0:0:0:0:
88,92,310918,1,0,0:0:0:0:
172,156,311018,1,0,0:0:0:0:
276,128,311118,1,0,0:0:0:0:
383,148,311218,1,0,0:0:0:0:
314,227,311318,1,0,0:0:0:0:
216,272,311418,6,0,P|132:240|72:176,1,127.500004863739
296,112,311618,2,0,P|380:144|440:208,1,127.500004863739
115,269,311818,2,0,P|56:208|32:124,1,127.500004863739
398,116,312018,2,0,P|456:176|480:260,1,127.500004863739
420,308,312218,5,0,0:0:0:0:
340,236,312318,1,0,0:0:0:0:
256,300,312418,1,0,0:0:0:0:
172,236,312518,1,0,0:0:0:0:
92,308,312618,2,0,L|40:160,1,127.500004863739
104,92,312818,2,0,L|252:40,1,127.500004863739
324,92,313018,6,0,L|376:240,1,127.500004863739
312,308,313218,2,0,L|164:360,1,127.500004863739
200,76,313418,2,0,L|348:24,1,127.500004863739
416,84,313618,1,0,0:0:0:0:
476,172,313718,1,0,0:0:0:0:
440,272,313818,6,0,P|360:320|284:336,1,127.500004863739
252,252,314018,2,0,L|304:112,1,127.500004863739
185,55,314218,2,0,P|125:77|72:112,1,127.500004863739
68,220,314418,2,0,L|120:360,1,127.500004863739
220,352,314618,6,0,P|344:328|432:184,1,255.000009727478
428,124,314918,1,0,0:0:0:0:
420,72,314968,1,0,0:0:0:0:
380,36,315018,2,0,P|256:16|204:32,1,127.500004863739
168,76,315218,1,0,0:0:0:0:
72,28,315318,1,0,0:0:0:0:
88,132,315418,6,0,L|132:264,1,127.500004863739
424,132,315618,2,0,L|380:264,1,127.500004863739
384,253,315918,6,0,L|424:132,1,127.500004863739
129,253,316118,2,0,L|88:132,1,127.500004863739
384,253,316318,6,0,L|424:132,1,127.500004863739
129,253,316518,2,0,L|88:132,1,127.500004863739
88,76,316668,1,0,0:0:0:0:
118,35,316718,1,0,0:0:0:0:
163,10,316768,1,0,0:0:0:0:
213,4,316818,1,0,0:0:0:0:
262,20,316868,1,0,0:0:0:0:
300,54,316918,1,0,0:0:0:0:
321,101,316968,1,0,0:0:0:0:
321,152,317018,6,0,L|324:304,1,127.500004863739,4|0,0:0|0:0,0:0:0:0:
224,324,317218,2,0,L|227:197,1,127.500004863739
369,374,317418,2,0,L|217:377,1,127.500004863739
197,277,317618,2,0,L|325:280,1,127.500004863739
428,244,317818,5,0,0:0:0:0:
444,140,317918,1,0,0:0:0:0:
332,200,318018,1,0,0:0:0:0:
336,92,318118,1,0,0:0:0:0:
256,172,318218,1,0,0:0:0:0:
256,64,318318,1,0,0:0:0:0:
180,200,318418,1,0,0:0:0:0:
176,92,318518,1,0,0:0:0:0:
84,244,318618,6,0,L|64:112,1,127.500004863739
428,140,318818,2,0,L|448:267,1,127.500004863739
132,264,319018,2,0,L|114:137,1,127.500004863739
381,121,319218,2,0,L|399:248,1,127.500004863739
209,366,319418,6,0,L|87:313,1,127.500004863739
304,19,319618,2,0,L|421:70,1,127.500004863739
251,336,319818,2,0,L|134:284,1,127.500004863739
262,49,320018,2,0,L|379:101,1,127.500004863739
464,168,320218,5,0,0:0:0:0:
464,322,320318,1,0,0:0:0:0:
332,245,320418,2,0,B|288:208|288:208|196:192,1,127.500004863739
88,248,320618,5,0,0:0:0:0:
7,378,320718,1,0,0:0:0:0:
161,383,320818,2,0,L|344:332,1,127.500004863739
408,296,321018,5,0,0:0:0:0:
474,159,321118,1,0,0:0:0:0:
321,173,321218,2,0,L|292:40,1,127.500004863739
191,211,321418,2,0,L|220:344,1,127.500004863739
237,127,321618,2,0,L|113:155,1,127.500004863739
275,257,321818,6,0,L|400:230,1,127.500004863739
460,140,322018,1,0,0:0:0:0:
388,64,322118,1,0,0:0:0:0:
388,64,322318,6,0,L|216:40,1,127.500004863739
312,144,322518,2,0,L|484:168,1,127.500004863739
492,256,322718,2,0,L|320:232,1,127.500004863739
324,216,322868,5,0,0:0:0:0:
280,193,322918,1,0,0:0:0:0:
229,195,322968,1,0,0:0:0:0:
185,222,323018,5,0,0:0:0:0:
161,267,323068,1,0,0:0:0:0:
163,318,323118,1,0,0:0:0:0:
191,361,323168,1,0,0:0:0:0:
235,384,323218,2,0,P|364:368|368:364,1,127.500004863739
424,296,323418,6,0,L|436:152,1,127.500004863739,4|0,0:0|0:0,0:0:0:0:
364,88,323618,2,0,L|220:76,1,127.500004863739
156,148,323818,2,0,L|144:292,1,127.500004863739
220,352,324018,2,0,L|364:364,1,127.500004863739
436,304,324218,5,0,0:0:0:0:
362,235,324318,1,0,0:0:0:0:
459,205,324418,1,0,0:0:0:0:
436,304,324518,1,0,0:0:0:0:
343,217,324618,1,0,0:0:0:0:
466,180,324718,1,0,0:0:0:0:
436,304,324818,1,0,0:0:0:0:
325,200,324918,1,0,0:0:0:0:
472,156,325018,6,0,B|496:136|496:136|504:32,1,127.500004863739
400,16,325218,2,0,P|356:20|268:68,1,127.500004863739
204,132,325418,2,0,B|180:152|180:152|172:256,1,127.500004863739
276,272,325618,2,0,P|320:268|408:220,1,127.500004863739
448,140,325818,5,0,0:0:0:0:
412,40,325918,1,0,0:0:0:0:
448,150,326018,1,0,0:0:0:0:
412,30,326118,1,0,0:0:0:0:
448,162,326218,1,0,0:0:0:0:
412,19,326318,1,0,0:0:0:0:
448,169,326418,1,0,0:0:0:0:
412,8,326518,1,0,0:0:0:0:
412,249,326618,6,0,L|412:376,1,127.500004863739
328,307,326818,2,0,L|328:180,1,127.500004863739
236,125,327018,2,0,L|236:252,1,127.500004863739
140,207,327218,2,0,L|140:80,1,127.500004863739
268,64,327418,5,0,0:0:0:0:
415,47,327518,1,0,0:0:0:0:
307,147,327618,1,0,0:0:0:0:
336,3,327718,1,0,0:0:0:0:
396,136,327818,1,0,0:0:0:0:
436,236,327918,2,0,P|424:300|328:332,1,127.500004863739
288,272,328118,1,0,0:0:0:0:
168,232,328218,5,0,0:0:0:0:
168,232,328418,2,0,L|76:352,1,127.500004863739
344,152,328618,2,0,L|436:32,1,127.500004863739
158,262,328818,2,0,L|113:405,1,127.500004863739
355,123,329018,2,0,L|400:-21,1,127.500004863739
280,56,329218,6,0,L|228:100,11,63.7500024318696
224,52,329818,6,0,P|120:56|72:124,1,148.750001418591,4|0,0:0|0:0,0:0:0:0:
288,332,330005,2,0,P|392:328|440:260,1,148.750001418591
178,71,330193,2,0,P|81:110|59:191,1,148.750001418591
333,312,330380,2,0,P|430:273|452:192,1,148.750001418591
141,105,330568,6,0,P|64:175|71:258,1,148.750001418591
370,278,330755,2,0,P|447:208|440:125,1,148.750001418591
118,149,330943,2,0,P|70:241|105:317,1,148.750001418591
393,234,331130,2,0,P|441:142|406:66,1,148.750001418591
78,280,331318,6,0,P|74:207|118:149,1,148.750001418591
433,103,331505,2,0,P|437:176|393:234,1,148.750001418591
59,214,331693,2,0,P|80:144|141:105,1,148.750001418591
452,169,331880,2,0,P|431:239|370:278,1,148.750001418591
63,145,332068,6,0,P|107:87|178:71,1,148.750001418591
448,238,332255,2,0,P|404:296|333:312,1,148.750001418591
90,82,332443,2,0,P|151:42|224:52,1,148.750001418591
421,301,332630,2,0,P|360:341|288:332,1,148.750001418591
200,208,332818,5,0,0:0:0:0:
312,176,332911,1,0,0:0:0:0:
200,208,333005,1,0,0:0:0:0:
312,176,333098,1,0,0:0:0:0:
177,270,333193,5,0,0:0:0:0:
334,113,333286,1,0,0:0:0:0:
177,270,333380,1,0,0:0:0:0:
334,113,333473,1,0,0:0:0:0:
160,219,333568,5,0,0:0:0:0:
351,164,333661,1,0,0:0:0:0:
160,219,333755,1,0,0:0:0:0:
351,164,333848,1,0,0:0:0:0:
123,324,333943,5,0,0:0:0:0:
388,59,334036,1,0,0:0:0:0:
123,324,334130,1,0,0:0:0:0:
388,59,334223,1,0,0:0:0:0:
76,264,334318,6,0,L|48:92,1,148.750001418591
436,120,334505,2,0,L|464:292,1,148.750001418591
194,37,334693,2,0,L|341:13,1,148.750001418591
317,346,334880,2,0,L|170:370,1,148.750001418591
256,72,335068,5,0,0:0:0:0:
326,289,335161,1,0,0:0:0:0:
141,154,335255,1,0,0:0:0:0:
370,154,335349,1,0,0:0:0:0:
185,289,335443,6,0,L|136:328,5,49.5833338061969
120,320,335630,6,0,L|80:296,7,37.1875003546476
56,276,335818,6,0,P|32:220|64:128,1,152.999995330811,4|0,0:0|0:0,0:0:0:0:
456,108,336005,2,0,P|480:164|448:256,1,152.999995330811
75,99,336193,2,0,P|101:48|186:15,1,152.999995330811,4|0,0:0|0:0,0:0:0:0:
436,284,336380,2,0,P|410:335|325:368,1,152.999995330811
56,276,336568,5,0,0:0:0:0:
456,108,336661,1,0,0:0:0:0:
76,96,336755,1,0,0:0:0:0:
436,284,336849,1,0,0:0:0:0:
76,96,336943,2,0,L|32:252,1,152.999995330811
436,96,337130,2,0,L|480:252,1,152.999995330811
216,156,337318,5,0,0:0:0:0:
296,156,337411,1,0,0:0:0:0:
296,228,337505,1,0,0:0:0:0:
216,228,337599,1,0,0:0:0:0:
256,80,337693,5,0,0:0:0:0:
360,192,337786,1,0,0:0:0:0:
256,304,337880,1,0,0:0:0:0:
144,192,337974,1,0,0:0:0:0:
416,192,338068,6,0,P|476:252|480:340,1,152.999995330811
96,192,338255,2,0,P|36:132|32:44,1,152.999995330811
416,192,338443,2,0,P|476:132|480:44,1,152.999995330811
96,192,338630,2,0,P|36:252|32:340,1,152.999995330811
176,352,338818,5,0,0:0:0:0:
148,204,338911,1,0,0:0:0:0:
256,312,339005,1,0,0:0:0:0:
256,160,339099,1,0,0:0:0:0:
336,352,339193,1,0,0:0:0:0:
364,204,339286,1,0,0:0:0:0:
460,84,339380,2,0,B|480:44|480:44|440:8|348:16,1,152.999995330811
228,56,339568,6,0,L|76:116,1,152.999995330811
284,328,339755,2,0,L|436:268,1,152.999995330811
396,120,339943,1,0,0:0:0:0:
256,60,340036,1,0,0:0:0:0:
116,120,340130,1,0,0:0:0:0:
116,272,340224,1,0,0:0:0:0:
256,332,340318,6,0,L|256:176,1,152.999995330811
348,56,340505,2,0,L|348:212,1,152.999995330811
152,264,340693,2,0,L|152:111,1,152.999995330811
348,88,340880,2,0,L|512:88,1,152.999995330811
152,232,341068,6,0,L|104:232,31,38.2499988327027
80,208,341818,6,0,L|40:48,1,161.499995687485
432,176,342005,2,0,L|472:336,1,161.499995687485
103,280,342193,2,0,L|0:152,1,161.499995687485
408,103,342380,2,0,L|512:231,1,161.499995687485
155,337,342568,6,0,L|6:264,1,161.499995687485
356,46,342755,2,0,L|505:119,1,161.499995687485
225,366,342943,2,0,L|61:363,1,161.499995687485
286,17,343130,2,0,L|450:20,1,161.499995687485
433,179,343318,5,0,0:0:0:0:
383,332,343411,1,0,0:0:0:0:
225,366,343505,1,0,0:0:0:0:
117,246,343599,1,0,0:0:0:0:
166,92,343693,1,0,0:0:0:0:
324,58,343786,1,0,0:0:0:0:
433,179,343880,2,0,L|380:344,1,161.499995687485
79,205,344068,6,0,L|132:40,1,161.499995687485
432,180,344255,1,0,0:0:0:0:
79,205,344349,1,0,0:0:0:0:
380,328,344443,1,0,0:0:0:0:
124,48,344536,1,0,0:0:0:0:
256,352,344630,2,0,P|364:344|424:284,1,161.499995687485
256,32,344818,6,0,P|148:40|88:100,1,161.499995687485
164,224,345005,1,0,0:0:0:0:
297,314,345099,1,0,0:0:0:0:
309,153,345193,1,0,0:0:0:0:
118,323,345286,1,0,0:0:0:0:
406,304,345380,1,0,0:0:0:0:
245,63,345474,1,0,0:0:0:0:
249,351,345568,5,0,0:0:0:0:
372,163,345662,1,0,0:0:0:0:
147,150,345756,1,0,0:0:0:0:
508,237,345849,1,0,0:0:0:0:
236,0,345943,1,0,0:0:0:0:
165,356,346037,1,0,0:0:0:0:
338,108,346130,1,0,0:0:0:0:
175,187,346224,1,0,0:0:0:0:
325,289,346318,6,0,L|488:352,1,161.499995687485
187,95,346505,2,0,L|24:32,1,161.499995687485
325,289,346693,2,0,L|488:352,1,161.499995687485
187,95,346880,2,0,L|24:32,1,161.499995687485
325,95,347068,6,0,L|488:32,1,161.499995687485
187,289,347255,2,0,L|24:352,1,161.499995687485
325,95,347443,2,0,L|488:32,1,161.499995687485
187,289,347630,2,0,L|24:352,1,161.499995687485
328,96,347818,6,0,L|124:148,1,161.499995687485
184,288,348005,2,0,L|388:236,1,161.499995687485
225,39,348193,2,0,L|98:281,1,161.499995687485
286,344,348380,2,0,L|413:102,1,161.499995687485
256,76,348568,5,0,0:0:0:0:
95,76,348662,1,0,0:0:0:0:
174,216,348756,1,0,0:0:0:0:
264,71,348849,5,0,0:0:0:0:
87,71,348943,1,0,0:0:0:0:
173,225,349037,1,0,0:0:0:0:
273,66,349130,5,0,0:0:0:0:
78,66,349224,1,0,0:0:0:0:
176,236,349318,2,0,B|212:296|212:296|336:296,1,161.499995687485
452,232,349505,5,0,0:0:0:0:
489,20,349599,1,0,0:0:0:0:
286,94,349693,1,0,0:0:0:0:
60,152,349786,5,0,0:0:0:0:
23,364,349880,1,0,0:0:0:0:
226,290,349974,1,0,0:0:0:0:
452,152,350068,5,0,0:0:0:0:
489,364,350162,1,0,0:0:0:0:
286,290,350256,1,0,0:0:0:0:
60,232,350349,5,0,0:0:0:0:
23,20,350443,1,0,0:0:0:0:
226,94,350537,1,0,0:0:0:0:
412,264,350630,2,0,L|400:88,1,161.499995687485
256,4,350818,5,0,0:0:0:0:
366,344,350911,1,0,0:0:0:0:
77,133,351005,1,0,0:0:0:0:
434,133,351099,1,0,0:0:0:0:
145,344,351193,1,0,0:0:0:0:
176,21,351286,5,0,0:0:0:0:
420,283,351379,1,0,0:0:0:0:
69,214,351473,1,0,0:0:0:0:
393,63,351567,1,0,0:0:0:0:
220,376,351661,1,0,0:0:0:0:
111,71,351755,5,0,0:0:0:0:
443,205,351848,1,0,0:0:0:0:
96,291,351942,1,0,0:0:0:0:
326,17,352036,1,0,0:0:0:0:
301,374,352130,1,0,0:0:0:0:
74,143,352224,5,0,0:0:0:0:
431,124,352317,1,0,0:0:0:0:
153,349,352411,1,0,0:0:0:0:
246,4,352505,1,0,0:0:0:0:
374,338,352599,1,0,0:0:0:0:
70,224,352693,5,0,0:0:0:0:
386,56,352786,1,0,0:0:0:0:
229,378,352880,1,0,0:0:0:0:
167,26,352974,1,0,0:0:0:0:
424,274,353068,1,0,0:0:0:0:
101,299,353161,5,0,0:0:0:0:
317,14,353254,1,0,0:0:0:0:
310,371,353348,1,0,0:0:0:0:
105,78,353442,1,0,0:0:0:0:
443,195,353536,1,0,0:0:0:0:
256,192,353630,6,0,L|256:172,16,20.1874994609356,0|0|0|0|0|0|0|0|0|0|0|0|0|0|0|0|4,0:0|0:0|0:0|0:0|0:0|0:0|0:0|0:0|0:0|0:0|0:0|0:0|0:0|0:0|0:0|0:0|0:0,0:0:0:0:
