osu file format v14

[General]
AudioFilename: Galaxy Collapse.mp3
AudioLeadIn: 0
PreviewTime: 303018
Countdown: 0
SampleSet: Drum
StackLeniency: 0.7
Mode: 2
LetterboxInBreaks: 0
EpilepsyWarning: 1
WidescreenStoryboard: 1

[Editor]
Bookmarks: 59679,230528,351193
DistanceSpacing: 1
BeatDivisor: 8
GridSize: 8
TimelineZoom: 6.999996

[Metadata]
Title:Galaxy Collapse
TitleUnicode:Galaxy Collapse
Artist:Kurokotei
ArtistUnicode:黒皇帝
Creator:CLSW
Version:Apocalyptic Requiem
Source:東方星蓮船 ~ Undefined Fantastic Object.
Tags:touhou speedcore th12 seirensen ZUN 東方project extra stage boss theme video game fa featured artist 平安のエイリアン heian no alien nue houjuu 封獣ぬえ team shanghai alice star lotus ship ufo Sayaka- dialgadu77 marathon kurokoutei Electronic Instrumental Pyrozen Mamat Minato Yukina Crystality
BeatmapID:1108507
BeatmapSetID:521900

[Difficulty]
HPDrainRate:2
CircleSize:4.2
OverallDifficulty:10
ApproachRate:10
SliderMultiplier:1.6
SliderTickRate:1

[Events]
//Background and Video events
0,0,"bg.jpg",0,0
//Break Periods
2,28820,31399
2,176744,178944
2,301519,303719
//Storyboard Layer 0 (Background)
//Storyboard Layer 1 (Fail)
//Storyboard Layer 2 (Pass)
//Storyboard Layer 3 (Foreground)
//Storyboard Layer 4 (Overlay)
//Storyboard Sound Samples

[TimingPoints]
288,222.222222222222,4,2,0,70,1,0
7399,-100,4,2,0,80,0,0
14510,-83.3333333333333,4,2,0,90,0,0
21621,-100,4,2,0,90,0,0
32287,-100,4,3,1,90,0,1
60287,-76.9230769230769,4,3,1,90,0,1
60732,-100,4,3,1,90,0,0
89176,-100,4,3,1,90,0,1
117621,-50,4,3,1,90,0,1
118065,400,4,2,0,50,1,8
118865,400,4,2,0,50,1,0
130065,-100,4,3,2,50,0,0
147665,-83.3333333333333,4,3,2,50,0,0
149265,-100,4,3,2,50,0,0
155665,364.188163884674,4,3,1,100,1,0
157121,333.796940194715,4,3,1,100,1,0
158456,308.08729139923,4,3,1,100,1,0
159688,286.054827175209,4,3,1,100,1,0
160832,266.963292547275,4,3,1,100,1,0
161899,250.260688216893,4,3,1,100,1,0
162900,235.525024533857,4,3,1,100,1,0
163842,222.428174235403,4,3,1,100,1,0
164731,210.711150131695,4,3,1,100,1,0
165573,200.166805671393,4,3,1,100,1,0
166373,190.627482128673,4,3,1,100,1,0
167135,181.956027293404,4,3,1,100,1,0
167862,174.039158810733,4,3,1,100,1,0
168558,166.666666666667,4,3,1,100,1,0
169224,160.106737825217,4,3,1,100,1,0
169864,153.944836433611,4,3,1,100,1,0
170479,148.239654107474,4,3,1,100,1,0
171071,142.942227516379,4,3,1,100,1,0
171642,138.010350776309,4,3,1,100,1,0
172194,133.407448582546,4,3,1,100,1,0
172727,129.101667563206,4,3,1,100,1,0
173243,125.065138092757,4,3,1,100,1,0
173743,121.273370389085,4,3,1,100,1,0
174228,117.704757233938,4,3,1,100,1,0
174698,115.384615384615,4,3,1,100,1,0
176082,-100,4,3,1,100,0,0
176544,200,4,3,1,100,1,0
179744,-100,4,3,1,100,0,1
230944,206.896551724138,4,3,1,100,1,0
237564,214.285714285714,4,3,1,100,1,0
244421,222.222222222222,4,3,1,90,1,0
272865,444.609114486847,4,2,1,50,1,0
287087,-100,4,3,1,70,0,0
300875,-83.3333333333333,4,3,1,70,0,0
301319,400,4,3,1,100,1,0
304519,200,4,3,1,100,1,1
330119,187.5,4,3,1,100,1,1
342119,-100,4,3,1,100,0,1
352619,-100,4,3,1,100,0,1
353369,-100,4,3,1,100,0,1
354119,-200,4,2,0,70,0,0
401978,-200,4,2,0,5,0,0

[Colours]
Combo1 : 83,83,83
Combo2 : 223,223,223

[HitObjects]
304,80,288,5,0,0:0:0:0:
356,135,399,1,0,0:0:0:0:
331,207,510,1,0,0:0:0:0:
255,218,621,1,0,0:0:0:0:
352,192,732,1,0,0:0:0:0:
404,247,843,1,0,0:0:0:0:
379,319,954,1,0,0:0:0:0:
303,330,1065,1,0,0:0:0:0:
208,336,1176,5,0,0:0:0:0:
156,281,1287,1,0,0:0:0:0:
181,209,1398,1,0,0:0:0:0:
257,198,1509,1,0,0:0:0:0:
160,224,1620,1,0,0:0:0:0:
108,169,1731,1,0,0:0:0:0:
133,97,1842,1,0,0:0:0:0:
209,86,1953,1,0,0:0:0:0:
304,80,2065,6,0,L|384:80,3,80,0|0|0|0,0:0|0:0|0:0|0:0,0:0:0:0:
288,128,2510,2,0,L|208:128,3,80,0|0|0|0,0:0|0:0|0:0|0:0,0:0:0:0:
128,80,2954,6,0,L|208:80,3,80,0|0|0|0,0:0|0:0|0:0|0:0,0:0:0:0:
304,128,3399,2,0,L|224:128,3,80,0|0|0|0,0:0|0:0|0:0|0:0,0:0:0:0:
112,64,3843,6,0,L|96:144,1,80,0|0,0:0|0:0,0:0:0:0:
160,128,4065,2,0,L|144:208,1,80,0|0,0:0|0:0,0:0:0:0:
240,192,4287,2,0,L|256:272,1,80,0|0,0:0|0:0,0:0:0:0:
192,256,4509,2,0,L|208:336,1,80,0|0,0:0|0:0,0:0:0:0:
303,334,4732,6,0,L|319:254,1,80,0|0,0:0|0:0,0:0:0:0:
255,270,4954,2,0,L|271:190,1,80,0|0,0:0|0:0,0:0:0:0:
175,192,5176,2,0,L|159:272,1,80,0|0,0:0|0:0,0:0:0:0:
223,256,5398,2,0,L|207:336,1,80,0|0,0:0|0:0,0:0:0:0:
304,336,5621,5,0,0:0:0:0:
345,271,5732,1,0,0:0:0:0:
315,201,5843,1,0,0:0:0:0:
239,187,5954,1,0,0:0:0:0:
336,128,6065,2,0,L|256:128,1,80,0|0,0:0|0:0,0:0:0:0:
160,128,6287,2,0,L|80:128,1,80,0|0,0:0|0:0,0:0:0:0:
176,80,6510,6,0,L|272:80,1,80,0|0,0:0|0:0,0:0:0:0:
352,80,6732,2,0,L|432:80,1,80,0|0,0:0|0:0,0:0:0:0:
336,112,6954,5,0,0:0:0:0:
260,126,7065,1,0,0:0:0:0:
230,196,7176,1,0,0:0:0:0:
271,261,7287,1,0,0:0:0:0:
16,272,7399,6,0,L|96:272,1,80,2|0,0:0|0:0,0:0:0:0:
192,224,7621,2,0,L|96:224,1,80,0|0,0:0|0:0,0:0:0:0:
208,176,7843,2,0,L|304:176,1,80,2|0,0:0|0:0,0:0:0:0:
384,144,8065,2,0,L|304:144,1,80,0|0,0:0|0:0,0:0:0:0:
496,112,8287,6,0,L|416:112,1,80,2|0,0:0|0:0,0:0:0:0:
320,160,8509,2,0,L|416:160,1,80,0|0,0:0|0:0,0:0:0:0:
304,208,8732,2,0,L|208:208,1,80,2|0,0:0|0:0,0:0:0:0:
128,240,8953,2,0,L|208:240,1,80,0|0,0:0|0:0,0:0:0:0:
16,240,9176,6,0,L|32:160,1,80,2|0,0:0|0:0,0:0:0:0:
128,144,9399,2,0,L|224:144,1,80,0|0,0:0|0:0,0:0:0:0:
304,144,9621,2,0,L|384:144,1,80,2|0,0:0|0:0,0:0:0:0:
480,144,9843,2,0,L|496:64,1,80,0|0,0:0|0:0,0:0:0:0:
288,80,10065,6,0,L|176:80,1,80,2|0,0:0|0:0,0:0:0:0:
304,80,10287,2,0,L|320:160,1,80,0|0,0:0|0:0,0:0:0:0:
224,176,10510,2,0,L|320:176,1,80,2|0,0:0|0:0,0:0:0:0:
208,176,10732,2,0,L|192:96,1,80,0|0,0:0|0:0,0:0:0:0:
400,96,10954,6,0,L|512:96,3,80,2|0|0|0,0:0|0:0|0:0|0:0,0:0:0:0:
384,128,11399,2,0,L|272:128,3,80,2|0|0|0,0:0|0:0|0:0|0:0,0:0:0:0:
112,96,11843,6,0,L|0:96,3,80,2|0|0|0,0:0|0:0|0:0|0:0,0:0:0:0:
128,128,12288,2,0,L|240:128,3,80,2|0|0|0,0:0|0:0|0:0|0:0,0:0:0:0:
400,224,12732,5,2,0:0:0:0:
433,155,12843,1,0,0:0:0:0:
394,89,12954,1,0,0:0:0:0:
317,87,13065,1,0,0:0:0:0:
224,224,13176,1,2,0:0:0:0:
190,155,13287,1,0,0:0:0:0:
229,89,13398,1,0,0:0:0:0:
306,87,13509,1,0,0:0:0:0:
112,224,13621,5,2,0:0:0:0:
78,155,13732,1,0,0:0:0:0:
117,89,13843,1,0,0:0:0:0:
194,87,13954,1,0,0:0:0:0:
288,224,14065,1,2,0:0:0:0:
322,155,14176,1,0,0:0:0:0:
283,89,14287,1,0,0:0:0:0:
206,87,14398,1,0,0:0:0:0:
464,224,14510,6,0,L|480:128,1,95.9999970703126,4|0,0:0|0:0,0:0:0:0:
368,128,14732,2,0,L|352:32,1,95.9999970703126,0|0,0:0|0:0,0:0:0:0:
48,224,14954,2,0,L|32:128,1,95.9999970703126,2|0,0:0|0:0,0:0:0:0:
144,128,15176,2,0,L|160:32,1,95.9999970703126,0|0,0:0|0:0,0:0:0:0:
360,80,15399,6,0,L|456:80,1,95.9999970703126,2|0,0:0|0:0,0:0:0:0:
344,112,15621,2,0,L|232:112,1,95.9999970703126,0|0,0:0|0:0,0:0:0:0:
56,112,15843,2,0,L|152:112,1,95.9999970703126,2|0,0:0|0:0,0:0:0:0:
264,144,16065,2,0,L|168:144,1,95.9999970703126,0|0,0:0|0:0,0:0:0:0:
448,304,16287,5,2,0:0:0:0:
484,218,16398,1,0,0:0:0:0:
440,137,16509,1,0,0:0:0:0:
348,123,16620,1,0,0:0:0:0:
160,96,16732,2,0,L|64:96,1,95.9999970703126,2|0,0:0|0:0,0:0:0:0:
176,64,16954,2,0,L|272:64,1,95.9999970703126,0|0,0:0|0:0,0:0:0:0:
64,304,17176,5,2,0:0:0:0:
28,218,17287,1,0,0:0:0:0:
72,137,17398,1,0,0:0:0:0:
164,123,17509,1,0,0:0:0:0:
368,128,17621,2,0,L|272:128,1,95.9999970703126,2|0,0:0|0:0,0:0:0:0:
160,96,17843,2,0,L|256:96,1,95.9999970703126,0|0,0:0|0:0,0:0:0:0:
480,96,18065,6,0,L|464:192,1,95.9999970703126,2|0,0:0|0:0,0:0:0:0:
352,192,18287,2,0,L|256:192,1,95.9999970703126,0|0,0:0|0:0,0:0:0:0:
32,96,18510,2,0,L|48:192,1,95.9999970703126,2|0,0:0|0:0,0:0:0:0:
160,192,18732,2,0,L|256:192,1,95.9999970703126,0|0,0:0|0:0,0:0:0:0:
48,224,18954,6,0,L|64:320,1,95.9999970703126,2|0,0:0|0:0,0:0:0:0:
176,320,19176,2,0,L|288:320,1,95.9999970703126,0|0,0:0|0:0,0:0:0:0:
464,224,19399,2,0,L|448:320,1,95.9999970703126,2|0,0:0|0:0,0:0:0:0:
336,320,19621,2,0,L|224:320,1,95.9999970703126,0|0,0:0|0:0,0:0:0:0:
48,224,19843,6,0,L|144:224,1,95.9999970703126,2|0,0:0|0:0,0:0:0:0:
256,224,20065,2,0,L|352:224,1,95.9999970703126,0|0,0:0|0:0,0:0:0:0:
160,112,20287,2,0,L|256:112,1,95.9999970703126,2|0,0:0|0:0,0:0:0:0:
368,112,20509,2,0,L|464:112,1,95.9999970703126,0|0,0:0|0:0,0:0:0:0:
160,176,20732,6,0,L|48:176,3,95.9999970703126,2|0|0|0,0:0|0:0|0:0|0:0,0:0:0:0:
352,176,21176,2,0,L|464:176,3,95.9999970703126,2|0|0|0,0:0|0:0|0:0|0:0,0:0:0:0:
112,192,21621,6,0,L|96:272,1,80,4|0,0:0|0:0,0:0:0:0:
216,352,21843,2,0,L|296:352,1,80,0|0,0:0|0:0,0:0:0:0:
400,272,22065,2,0,L|416:192,1,80,2|0,0:0|0:0,0:0:0:0:
296,112,22287,2,0,L|216:112,1,80,0|0,0:0|0:0,0:0:0:0:
415,177,22510,6,0,L|400:256,1,80,2|0,0:0|0:0,0:0:0:0:
296,304,22732,2,0,L|208:304,1,80,0|0,0:0|0:0,0:0:0:0:
96,256,22954,2,0,L|112:176,1,80,2|0,0:0|0:0,0:0:0:0:
216,48,23176,2,0,L|304:48,1,80,0|0,0:0|0:0,0:0:0:0:
110,161,23399,6,0,L|96:240,1,80,2|0,0:0|0:0,0:0:0:0:
296,352,23621,2,0,L|216:352,1,80,0|0,0:0|0:0,0:0:0:0:
400,256,23843,2,0,L|416:176,1,80,2|0,0:0|0:0,0:0:0:0:
216,48,24065,2,0,L|296:48,1,80,0|0,0:0|0:0,0:0:0:0:
415,161,24287,6,0,L|400:240,1,80,2|0,0:0|0:0,0:0:0:0:
216,304,24510,2,0,L|304:304,1,80,0|0,0:0|0:0,0:0:0:0:
96,176,24732,2,0,L|112:256,1,80,2|0,0:0|0:0,0:0:0:0:
296,128,24954,2,0,L|216:128,1,80,0|0,0:0|0:0,0:0:0:0:
32,160,25176,6,0,L|16:80,1,80,2|0,0:0|0:0,0:0:0:0:
216,48,25399,2,0,L|296:48,1,80,0|0,0:0|0:0,0:0:0:0:
480,48,25621,2,0,L|496:128,1,80,2|0,0:0|0:0,0:0:0:0:
296,176,25843,2,0,L|216:176,1,80,0|0,0:0|0:0,0:0:0:0:
496,256,26065,6,0,L|480:176,1,80,2|0,0:0|0:0,0:0:0:0:
296,128,26287,2,0,L|208:128,1,80,0|0,0:0|0:0,0:0:0:0:
16,256,26510,2,0,L|32:176,1,80,2|0,0:0|0:0,0:0:0:0:
216,176,26732,2,0,L|304:176,1,80,0|0,0:0|0:0,0:0:0:0:
32,112,26954,6,0,L|16:192,1,80,2|0,0:0|0:0,0:0:0:0:
296,208,27176,2,0,L|208:208,1,80,0|0,0:0|0:0,0:0:0:0:
480,112,27399,2,0,L|496:192,1,80,2|0,0:0|0:0,0:0:0:0:
216,160,27621,2,0,L|304:160,1,80,0|0,0:0|0:0,0:0:0:0:
496,288,27843,6,0,L|480:208,1,80,2|0,0:0|0:0,0:0:0:0:
216,208,28065,2,0,L|304:208,1,80,0|0,0:0|0:0,0:0:0:0:
16,288,28287,2,0,L|32:208,1,80,2|0,0:0|0:0,0:0:0:0:
296,208,28509,2,0,L|208:208,1,80,0|0,0:0|0:0,0:0:0:0:
368,112,32287,6,0,L|448:112,1,80,12|0,0:0|0:0,0:0:0:0:
256,112,32510,2,0,L|240:192,1,80,8|0,0:0|0:0,0:0:0:0:
368,272,32732,2,0,L|192:272,1,160,8|8,0:0|0:0,0:0:0:0:
288,224,33065,1,0,0:0:0:0:
96,192,33176,6,0,L|272:192,1,160,8|8,0:0|0:0,0:0:0:0:
176,160,33510,1,0,0:0:0:0:
288,160,33621,2,0,L|304:240,1,80,8|0,0:0|0:0,0:0:0:0:
192,240,33843,2,0,L|176:320,1,80,8|8,0:0|0:0,0:0:0:0:
304,320,34065,6,0,L|224:320,1,80,8|0,0:0|0:0,0:0:0:0:
96,272,34287,2,0,L|176:272,1,80,8|0,0:0|0:0,0:0:0:0:
368,224,34510,2,0,L|208:224,1,160,8|8,0:0|0:0,0:0:0:0:
288,192,34843,1,0,0:0:0:0:
96,144,34954,6,0,L|176:144,1,80,8|0,0:0|0:0,0:0:0:0:
304,128,35176,2,0,L|224:128,1,80,8|0,0:0|0:0,0:0:0:0:
352,128,35399,2,0,L|368:208,1,80,8|0,0:0|0:0,0:0:0:0:
176,208,35621,2,0,L|144:160,3,40,8|0|8|0,0:0|0:0|0:0|0:0,0:0:0:0:
208,176,35843,6,0,L|368:176,1,160,8|8,0:0|0:0,0:0:0:0:
288,192,36176,1,0,0:0:0:0:
416,256,36287,2,0,L|320:256,1,80,8|0,0:0|0:0,0:0:0:0:
208,256,36510,2,0,L|304:256,1,80,8|0,0:0|0:0,0:0:0:0:
80,256,36732,6,0,L|64:336,1,80,8|0,0:0|0:0,0:0:0:0:
176,272,36954,2,0,L|192:352,1,80,8|0,0:0|0:0,0:0:0:0:
400,352,37176,2,0,L|240:352,1,160,8|8,0:0|0:0,0:0:0:0:
320,304,37510,1,8,0:0:0:0:
144,176,37621,6,0,L|128:256,1,80,8|0,0:0|0:0,0:0:0:0:
240,256,37843,2,0,L|160:256,1,80,8|0,0:0|0:0,0:0:0:0:
368,176,38065,2,0,L|384:256,1,80,8|0,0:0|0:0,0:0:0:0:
272,272,38287,2,0,L|352:272,1,80,8|0,0:0|0:0,0:0:0:0:
144,224,38510,6,0,L|48:224,1,80,8|0,0:0|0:0,0:0:0:0:
256,224,38732,1,8,0:0:0:0:
64,176,38843,1,0,0:0:0:0:
328,140,38954,2,0,L|353:141,2,20,0|0|0,0:0|0:0|0:0,0:0:0:0:
218,136,39037,1,0,0:0:0:0:
110,135,39065,2,0,L|85:136,2,20,0|0|0,0:0|0:0|0:0,0:0:0:0:
295,78,39176,6,0,L|423:78,1,120,0|0,0:0|2:0,0:0:0:0:
48,96,39399,6,0,L|32:176,1,80,4|0,0:0|0:0,0:0:0:0:
144,192,39621,2,0,L|160:272,1,80,8|0,0:0|0:0,0:0:0:0:
368,272,39843,2,0,L|208:272,1,160,8|8,0:0|0:0,0:0:0:0:
288,224,40176,1,0,0:0:0:0:
96,192,40287,6,0,L|16:192,1,80,8|0,0:0|0:0,0:0:0:0:
208,192,40510,2,0,L|288:192,1,80,8|0,0:0|0:0,0:0:0:0:
480,144,40732,2,0,L|384:144,1,80,8|0,0:0|0:0,0:0:0:0:
288,96,40954,2,0,L|384:96,1,80,8|0,0:0|0:0,0:0:0:0:
192,160,41176,6,0,L|176:240,1,80,8|0,0:0|0:0,0:0:0:0:
288,272,41399,2,0,L|176:272,1,80,8|0,0:0|0:0,0:0:0:0:
32,224,41621,2,0,L|192:224,1,160,8|8,0:0|0:0,0:0:0:0:
112,176,41954,1,0,0:0:0:0:
304,128,42065,6,0,L|144:128,1,160,8|8,0:0|0:0,0:0:0:0:
224,80,42399,1,0,0:0:0:0:
352,48,42510,2,0,L|272:48,1,80,8|0,0:0|0:0,0:0:0:0:
64,144,42732,2,0,L|32:208,4,40,8|0|8|0|8,0:0|0:0|0:0|0:0|0:0,0:0:0:0:
272,160,43065,6,0,L|192:160,2,80,0|8|0,0:0|0:0|0:0,0:0:0:0:
400,160,43399,2,0,L|416:240,1,80,8|0,0:0|0:0,0:0:0:0:
144,240,43621,2,0,L|128:160,1,80,8|0,0:0|0:0,0:0:0:0:
336,304,43843,6,0,L|160:304,1,160,8|8,0:0|0:0,0:0:0:0:
256,256,44176,1,0,0:0:0:0:
48,256,44287,2,0,L|32:176,1,80,8|0,0:0|0:0,0:0:0:0:
144,144,44510,2,0,L|32:144,1,80,8|0,0:0|0:0,0:0:0:0:
256,112,44732,6,0,L|64:112,1,160,8|8,0:0|0:0,0:0:0:0:
176,80,45065,1,0,0:0:0:0:
304,80,45176,2,0,L|320:160,1,80,8|0,0:0|0:0,0:0:0:0:
128,160,45399,2,0,L|112:240,1,80,8|0,0:0|0:0,0:0:0:0:
336,240,45621,5,8,0:0:0:0:
240,240,45732,1,8,0:0:0:0:
432,240,45843,1,8,0:0:0:0:
336,240,45954,1,8,0:0:0:0:
144,192,46065,6,0,L|128:192,12,10,0|0|0|0|0|0|0|0|0|0|0|0|0,0:0|0:0|0:0|0:0|0:0|0:0|0:0|0:0|0:0|0:0|0:0|0:0|0:0,0:0:0:0:
288,192,46287,5,0,0:0:0:0:
384,192,46315,1,0,0:0:0:0:
480,176,46343,1,0,0:0:0:0:
472,157,46371,1,0,0:0:0:0:
459,142,46399,1,0,0:0:0:0:
441,132,46426,1,0,0:0:0:0:
421,129,46454,1,0,0:0:0:0:
112,96,46510,6,0,L|32:96,1,80,4|0,0:0|0:0,0:0:0:0:
224,96,46732,2,0,L|144:96,1,80,8|0,0:0|0:0,0:0:0:0:
368,96,46954,2,0,L|288:96,1,80,8|0,0:0|0:0,0:0:0:0:
480,96,47176,2,0,L|400:96,1,80,8|0,0:0|0:0,0:0:0:0:
16,176,47399,6,0,L|192:176,1,160,8|8,0:0|0:0,0:0:0:0:
96,144,47732,1,0,0:0:0:0:
336,176,47843,2,0,L|496:176,1,160,8|8,0:0|0:0,0:0:0:0:
416,144,48176,1,8,0:0:0:0:
297,144,48287,6,0,L|384:144,1,80,8|0,0:0|0:0,0:0:0:0:
208,144,48510,2,0,L|192:224,1,80,8|0,0:0|0:0,0:0:0:0:
384,323,48732,2,0,L|224:323,1,160,8|8,0:0|0:0,0:0:0:0:
304,282,49065,1,0,0:0:0:0:
118,254,49176,6,0,L|198:254,2,80,8|8|8,0:0|0:0|0:0,0:0:0:0:
345,239,49510,1,0,0:0:0:0:
398,225,49565,2,0,L|474:226,1,40,0|8,0:0|0:0,0:0:0:0:
343,192,49732,1,0,0:0:0:0:
214,162,49843,2,0,L|294:162,1,80,8|0,0:0|0:0,0:0:0:0:
80,160,50065,6,0,P|64:208|160:256,1,160,8|8,0:0|0:0,0:0:0:0:
224,256,50399,1,0,0:0:0:0:
336,256,50510,2,0,L|256:256,1,80,8|0,0:0|0:0,0:0:0:0:
368,256,50732,2,0,L|384:176,1,80,8|0,0:0|0:0,0:0:0:0:
208,112,50954,6,0,L|304:112,1,80,8|8,0:0|0:0,0:0:0:0:
400,96,51176,2,0,L|304:96,1,80,8|0,0:0|0:0,0:0:0:0:
96,304,51399,2,0,L|256:304,1,160,8|8,0:0|0:0,0:0:0:0:
176,272,51732,1,8,0:0:0:0:
416,256,51843,6,0,L|256:256,1,160,8|8,0:0|0:0,0:0:0:0:
160,256,52176,1,0,0:0:0:0:
352,176,52287,2,0,L|192:176,1,160,8|8,0:0|0:0,0:0:0:0:
96,176,52621,1,0,0:0:0:0:
304,128,52732,6,0,L|224:128,1,80,8|8,0:0|0:0,0:0:0:0:
416,128,52954,2,0,L|512:128,1,80,8|8,0:0|0:0,0:0:0:0:
288,64,53176,5,0,0:0:0:0:
192,64,53204,1,0,0:0:0:0:
96,64,53232,1,0,0:0:0:0:
76,64,53260,1,0,0:0:0:0:
56,59,53288,1,0,0:0:0:0:
40,48,53316,1,0,0:0:0:0:
28,32,53343,1,0,0:0:0:0:
256,160,53399,2,0,P|306:132|311:75,1,120,0|0,0:0|2:0,0:0:0:0:
80,80,53621,6,0,L|0:144,3,80,4|0|8|0,0:0|0:0|0:0|0:0,0:0:0:0:
144,144,54065,2,0,L|64:208,3,80,8|0|8|0,0:0|0:0|0:0|0:0,0:0:0:0:
272,192,54510,6,0,L|352:256,3,80,8|0|8|0,0:0|0:0|0:0|0:0,0:0:0:0:
208,256,54954,2,0,L|288:320,1,80,8|0,0:0|0:0,0:0:0:0:
96,304,55176,1,8,0:0:0:0:
58,295,55231,1,0,0:0:0:0:
48,258,55287,1,0,0:0:0:0:
76,232,55342,1,0,0:0:0:0:
432,80,55399,6,0,L|512:144,3,80,8|0|8|0,0:0|0:0|0:0|0:0,0:0:0:0:
368,144,55843,2,0,L|448:208,3,80,8|0|8|0,0:0|0:0|0:0|0:0,0:0:0:0:
397,168,56232,1,0,0:0:0:0:
240,192,56288,6,0,L|160:256,3,80,8|0|8|0,0:0|0:0|0:0|0:0,0:0:0:0:
368,272,56732,1,8,0:0:0:0:
406,261,56787,1,0,0:0:0:0:
438,237,56843,1,0,0:0:0:0:
458,203,56898,1,0,0:0:0:0:
465,164,56954,1,8,0:0:0:0:
456,125,57009,1,0,0:0:0:0:
434,92,57065,1,0,0:0:0:0:
401,69,57120,1,0,0:0:0:0:
96,64,57176,6,0,L|-16:64,3,80,8|0|8|0,0:0|0:0|0:0|0:0,0:0:0:0:
192,112,57621,2,0,L|112:112,1,80,8|0,0:0|0:0,0:0:0:0:
288,112,57843,6,0,L|304:80,6,20,0|0|0|0|0|0|0,0:0|0:0|0:0|0:0|0:0|0:0|0:0,0:0:0:0:
416,64,58065,6,0,L|528:64,3,80,8|0|8|0,0:0|0:0|0:0|0:0,0:0:0:0:
320,112,58510,2,0,L|400:112,1,80,8|0,0:0|0:0,0:0:0:0:
224,112,58732,6,0,L|217:98,12,10,0|0|0|0|0|0|0|0|0|0|0|0|0,0:0|0:0|0:0|0:0|0:0|0:0|0:0|0:0|0:0|0:0|0:0|0:0|0:0,0:0:0:0:
32,160,58954,6,0,L|16:240,1,80,8|8,0:0|0:0,0:0:0:0:
256,176,59176,6,0,L|256:208,6,20,0|0|0|0|0|0|0,0:0|0:0|0:0|0:0|0:0|0:0|0:0,0:0:0:0:
480,160,59399,6,0,L|496:240,1,80,8|8,0:0|0:0,0:0:0:0:
256,176,59621,6,0,L|256:192,12,10,0|0|0|0|0|0|0|0|0|0|0|0|0,0:0|0:0|0:0|0:0|0:0|0:0|0:0|0:0|0:0|0:0|0:0|0:0|0:0,0:0:0:0:
50,221,59843,6,0,L|22:220,3,20,0|0|0|0,0:0|0:0|0:0|0:0,0:0:0:0:
50,221,59954,6,0,L|22:220,3,20,0|0|0|0,0:0|0:0|0:0|0:0,0:0:0:0:
50,221,60065,6,0,L|22:220,3,20,0|0|0|0,0:0|0:0|0:0|0:0,0:0:0:0:
50,221,60176,6,0,L|22:220,2,20,0|0|0,0:0|0:0|0:0,0:0:0:0:
368,96,60287,5,0,0:0:0:0:
368,96,60301,1,0,0:0:0:0:
392,103,60315,1,0,0:0:0:0:
392,103,60329,1,0,0:0:0:0:
415,115,60342,1,0,0:0:0:0:
416,112,60357,1,0,0:0:0:0:
435,131,60370,1,0,0:0:0:0:
435,131,60385,1,0,0:0:0:0:
451,152,60398,1,0,0:0:0:0:
451,152,60412,1,0,0:0:0:0:
462,175,60425,1,0,0:0:0:0:
462,175,60440,1,0,0:0:0:0:
468,200,60453,1,0,0:0:0:0:
468,200,60468,1,0,0:0:0:0:
469,226,60481,1,0,0:0:0:0:
469,226,60496,1,0,0:0:0:0:
464,252,60509,5,0,0:0:0:0:
464,252,60524,1,0,0:0:0:0:
454,276,60537,1,0,0:0:0:0:
454,276,60551,1,0,0:0:0:0:
439,297,60564,1,0,0:0:0:0:
439,297,60579,1,0,0:0:0:0:
420,315,60592,1,0,0:0:0:0:
420,315,60607,1,0,0:0:0:0:
398,328,60620,1,0,0:0:0:0:
398,328,60635,1,0,0:0:0:0:
373,336,60648,1,0,0:0:0:0:
373,336,60662,1,0,0:0:0:0:
347,339,60676,1,0,0:0:0:0:
144,176,60732,5,4,0:0:0:0:
256,192,60954,1,8,0:0:0:0:
368,176,61176,1,8,0:0:0:0:
144,176,61399,1,8,0:0:0:0:
368,160,61621,5,8,0:0:0:0:
256,160,61843,1,8,0:0:0:0:
144,192,62065,1,8,0:0:0:0:
368,160,62287,1,8,0:0:0:0:
144,144,62510,5,8,0:0:0:0:
368,160,62732,1,8,0:0:0:0:
160,192,62954,1,8,0:0:0:0:
480,144,63176,1,8,0:0:0:0:
32,144,63399,5,8,0:0:0:0:
336,144,63621,1,8,0:0:0:0:
176,144,63843,1,8,0:0:0:0:
352,144,64065,2,0,L|304:144,1,40,0|0,0:0|0:0,0:0:0:0:
160,144,64176,2,0,L|208:144,1,40,0|0,0:0|0:0,0:0:0:0:
352,144,64287,5,8,0:0:0:0:
160,176,64510,1,8,0:0:0:0:
352,192,64732,1,8,0:0:0:0:
160,224,64955,1,8,0:0:0:0:
256,224,65177,5,8,0:0:0:0:
352,192,65399,1,8,0:0:0:0:
160,192,65621,1,8,0:0:0:0:
352,160,65843,1,8,0:0:0:0:
160,144,66066,5,8,0:0:0:0:
352,128,66288,1,8,0:0:0:0:
256,192,66510,1,8,0:0:0:0:
160,192,66732,1,8,0:0:0:0:
480,144,66955,5,8,0:0:0:0:
32,144,67177,1,8,0:0:0:0:
480,144,67399,1,8,0:0:0:0:
160,144,67621,2,0,L|208:144,1,40,0|0,0:0|0:0,0:0:0:0:
352,144,67732,2,0,L|304:144,1,40,0|0,0:0|0:0,0:0:0:0:
160,144,67843,5,8,0:0:0:0:
352,144,68065,1,8,0:0:0:0:
176,176,68287,1,8,0:0:0:0:
336,176,68510,1,8,0:0:0:0:
144,208,68732,5,8,0:0:0:0:
368,208,68954,1,8,0:0:0:0:
160,240,69176,1,8,0:0:0:0:
352,240,69399,1,0,0:0:0:0:
176,208,69621,5,0,0:0:0:0:
336,208,69843,1,8,0:0:0:0:
160,160,70065,1,8,0:0:0:0:
480,128,70287,1,8,0:0:0:0:
32,128,70510,5,8,0:0:0:0:
352,128,70732,1,8,0:0:0:0:
160,128,70954,1,8,0:0:0:0:
352,144,71176,2,0,L|304:144,1,40,0|0,0:0|0:0,0:0:0:0:
160,144,71287,2,0,L|208:144,1,40,0|0,0:0|0:0,0:0:0:0:
352,144,71399,5,8,0:0:0:0:
160,144,71621,1,8,0:0:0:0:
368,144,71843,1,8,0:0:0:0:
176,176,72066,1,8,0:0:0:0:
352,176,72288,5,8,0:0:0:0:
192,208,72510,1,8,0:0:0:0:
320,208,72732,1,8,0:0:0:0:
176,176,72955,1,8,0:0:0:0:
336,176,73177,5,8,0:0:0:0:
160,144,73399,1,8,0:0:0:0:
352,144,73621,1,8,0:0:0:0:
32,128,73843,1,8,0:0:0:0:
480,128,74066,5,8,0:0:0:0:
160,128,74288,1,8,0:0:0:0:
352,128,74510,1,8,0:0:0:0:
29,219,74732,2,0,L|70:219,1,40,0|0,0:0|0:0,0:0:0:0:
221,219,74843,2,0,L|172:219,1,40,0|0,0:0|0:0,0:0:0:0:
29,219,74954,5,12,0:0:0:0:
464,128,75176,1,8,0:0:0:0:
48,128,75399,1,8,0:0:0:0:
352,144,75621,1,8,0:0:0:0:
160,144,75843,5,8,0:0:0:0:
464,224,76065,1,8,0:0:0:0:
256,224,76287,1,8,0:0:0:0:
48,224,76510,1,8,0:0:0:0:
464,224,76732,5,8,0:0:0:0:
48,224,76954,1,8,0:0:0:0:
464,176,77176,1,8,0:0:0:0:
256,192,77399,1,8,0:0:0:0:
48,176,77621,5,8,0:0:0:0:
464,224,77843,1,8,0:0:0:0:
48,224,78065,1,8,0:0:0:0:
464,224,78287,2,0,L|423:224,1,40,0|0,0:0|0:0,0:0:0:0:
272,224,78399,2,0,L|321:224,1,40,0|0,0:0|0:0,0:0:0:0:
464,224,78510,5,8,0:0:0:0:
48,128,78732,1,8,0:0:0:0:
464,128,78955,1,8,0:0:0:0:
160,176,79177,1,8,0:0:0:0:
352,176,79399,5,8,0:0:0:0:
48,224,79621,1,8,0:0:0:0:
256,224,79843,1,8,0:0:0:0:
464,224,80066,1,8,0:0:0:0:
48,224,80288,5,8,0:0:0:0:
464,224,80510,1,8,0:0:0:0:
160,176,80732,1,8,0:0:0:0:
352,176,80955,1,8,0:0:0:0:
48,144,81177,5,8,0:0:0:0:
256,128,81399,1,8,0:0:0:0:
464,128,81621,1,8,0:0:0:0:
29,219,81843,2,0,L|70:219,1,40,0|0,0:0|0:0,0:0:0:0:
221,219,81954,2,0,L|172:219,1,40,0|0,0:0|0:0,0:0:0:0:
29,219,82065,5,12,0:0:0:0:
256,128,82287,1,8,0:0:0:0:
464,128,82510,1,8,0:0:0:0:
160,128,82732,1,8,0:0:0:0:
352,128,82954,5,8,0:0:0:0:
48,96,83176,1,8,0:0:0:0:
256,96,83399,1,8,0:0:0:0:
464,96,83621,1,8,0:0:0:0:
160,80,83843,5,8,0:0:0:0:
352,80,84065,1,8,0:0:0:0:
48,80,84287,1,8,0:0:0:0:
464,80,84510,1,8,0:0:0:0:
256,144,84732,5,8,0:0:0:0:
48,144,84954,1,8,0:0:0:0:
464,144,85176,1,8,0:0:0:0:
29,219,85399,2,0,L|70:219,1,40,0|0,0:0|0:0,0:0:0:0:
221,219,85510,2,0,L|172:219,1,40,0|0,0:0|0:0,0:0:0:0:
29,219,85621,5,12,0:0:0:0:
128,128,85732,1,8,0:0:0:0:
336,128,85843,2,0,L|256:128,1,80,8|8,0:0|0:0,0:0:0:0:
448,96,86065,2,0,L|368:96,1,80,8|8,0:0|0:0,0:0:0:0:
160,96,86287,2,0,L|240:96,1,80,8|8,0:0|0:0,0:0:0:0:
464,96,86510,6,0,L|480:176,1,80,12|8,0:0|0:0,0:0:0:0:
368,176,86732,2,0,L|352:256,1,80,8|8,0:0|0:0,0:0:0:0:
48,80,86954,1,8,0:0:0:0:
41,119,87009,1,0,0:0:0:0:
33,158,87065,1,8,0:0:0:0:
144,160,87176,1,0,0:0:0:0:
152,199,87231,1,0,0:0:0:0:
160,238,87287,1,0,0:0:0:0:
375,319,87399,6,0,L|406:318,1,20,4|0,0:0|0:0,0:0:0:0:
491,298,87454,2,0,L|491:261,1,20,0|0,0:0|0:0,0:0:0:0:
397,257,87510,2,0,L|377:256,1,20,0|0,0:0|0:0,0:0:0:0:
280,252,87565,2,0,L|260:251,1,20,0|0,0:0|0:0,0:0:0:0:
137,319,87621,6,0,L|106:318,1,20,0|0,0:0|0:0,0:0:0:0:
21,298,87676,2,0,L|21:261,1,20,0|0,0:0|0:0,0:0:0:0:
115,257,87732,2,0,L|134:256,1,20,0|0,0:0|0:0,0:0:0:0:
232,252,87787,2,0,L|251:251,1,20,0|0,0:0|0:0,0:0:0:0:
361,115,87843,6,0,L|373:115,1,10,4|0,0:0|0:0,0:0:0:0:
381,113,87871,2,0,L|395:114,1,10,0|0,0:0|0:0,0:0:0:0:
480,118,87899,2,0,L|495:120,1,10,0|0,0:0|0:0,0:0:0:0:
490,119,87926,2,0,L|480:117,1,10,0|0,0:0|0:0,0:0:0:0:
391,113,87954,6,0,L|381:113,1,10,0|0,0:0|0:0,0:0:0:0:
371,115,87982,2,0,L|361:115,1,10,0|0,0:0|0:0,0:0:0:0:
275,110,88010,2,0,L|265:109,1,10,0|0,0:0|0:0,0:0:0:0:
254,111,88038,2,0,L|244:111,1,10,0|0,0:0|0:0,0:0:0:0:
151,115,88065,6,0,L|139:115,1,10,4|0,0:0|0:0,0:0:0:0:
130,113,88093,2,0,L|117:114,1,10,0|0,0:0|0:0,0:0:0:0:
32,118,88121,2,0,L|17:120,1,10,0|0,0:0|0:0,0:0:0:0:
22,119,88149,2,0,L|32:117,1,10,0|0,0:0|0:0,0:0:0:0:
120,113,88176,6,0,L|130:113,1,10,0|0,0:0|0:0,0:0:0:0:
141,115,88204,2,0,L|151:115,1,10,0|0,0:0|0:0,0:0:0:0:
237,110,88232,2,0,L|246:109,1,10,0|0,0:0|0:0,0:0:0:0:
258,111,88260,2,0,L|268:111,1,10,0|0,0:0|0:0,0:0:0:0:
384,224,88287,5,0,0:0:0:0:
256,224,88510,1,0,0:0:0:0:
128,224,88732,1,0,0:0:0:0:
192,112,89176,6,0,L|272:112,1,80,12|0,0:0|0:0,0:0:0:0:
80,112,89399,2,0,L|64:192,1,80,8|0,0:0|0:0,0:0:0:0:
176,240,89621,2,0,L|352:240,1,160,8|8,0:0|0:0,0:0:0:0:
256,224,89954,1,0,0:0:0:0:
448,192,90065,6,0,L|272:192,1,160,8|8,0:0|0:0,0:0:0:0:
368,160,90399,1,0,0:0:0:0:
256,160,90510,2,0,L|240:240,1,80,8|0,0:0|0:0,0:0:0:0:
128,240,90732,2,0,L|144:320,1,80,8|8,0:0|0:0,0:0:0:0:
256,320,90954,6,0,L|336:320,1,80,8|0,0:0|0:0,0:0:0:0:
144,288,91176,2,0,L|160:208,1,80,8|0,0:0|0:0,0:0:0:0:
368,224,91399,2,0,L|208:224,1,160,8|8,0:0|0:0,0:0:0:0:
288,192,91732,1,0,0:0:0:0:
96,144,91843,6,0,L|176:144,1,80,8|0,0:0|0:0,0:0:0:0:
288,128,92065,2,0,L|208:128,1,80,8|0,0:0|0:0,0:0:0:0:
400,128,92288,2,0,L|416:208,1,80,8|8,0:0|0:0,0:0:0:0:
176,208,92510,2,0,L|144:160,3,40,8|0|8|0,0:0|0:0|0:0|0:0,0:0:0:0:
208,176,92732,6,0,L|368:176,1,160,8|8,0:0|0:0,0:0:0:0:
288,192,93065,1,0,0:0:0:0:
480,256,93176,2,0,L|384:256,1,80,8|0,0:0|0:0,0:0:0:0:
208,256,93399,2,0,L|304:256,1,80,8|0,0:0|0:0,0:0:0:0:
80,256,93621,6,0,L|64:336,1,80,8|0,0:0|0:0,0:0:0:0:
176,272,93843,2,0,L|192:352,1,80,8|0,0:0|0:0,0:0:0:0:
368,256,94065,2,0,L|272:256,1,80,8|0,0:0|0:0,0:0:0:0:
400,144,94287,2,0,L|416:224,1,80,8|0,0:0|0:0,0:0:0:0:
144,144,94510,6,0,P|96:160|128:272,1,160,8|8,0:0|0:0,0:0:0:0:
192,256,94843,1,0,0:0:0:0:
368,144,94954,2,0,P|416:160|384:272,1,160,8|8,0:0|0:0,0:0:0:0:
320,256,95287,1,0,0:0:0:0:
144,224,95399,6,0,L|48:224,1,80,8|0,0:0|0:0,0:0:0:0:
256,224,95621,1,8,0:0:0:0:
64,176,95732,1,0,0:0:0:0:
256,160,95843,5,0,0:0:0:0:
352,160,95871,1,0,0:0:0:0:
448,160,95899,1,0,0:0:0:0:
480,160,95926,1,0,0:0:0:0:
496,144,95954,1,0,0:0:0:0:
480,112,95982,1,0,0:0:0:0:
448,112,96010,1,0,0:0:0:0:
320,96,96065,6,0,L|192:96,1,120,8|0,0:0|2:0,0:0:0:0:
464,96,96288,6,0,L|480:176,1,80,4|0,0:0|0:0,0:0:0:0:
368,192,96510,2,0,L|352:272,1,80,8|0,0:0|0:0,0:0:0:0:
144,272,96732,2,0,L|224:272,1,80,8|0,0:0|0:0,0:0:0:0:
336,240,96954,2,0,L|256:240,1,80,8|0,0:0|0:0,0:0:0:0:
480,192,97176,6,0,L|304:192,1,160,8|8,0:0|0:0,0:0:0:0:
400,144,97510,1,0,0:0:0:0:
192,144,97621,2,0,L|352:144,1,160,8|8,0:0|0:0,0:0:0:0:
272,96,97954,1,8,0:0:0:0:
80,112,98065,6,0,L|96:192,1,80,8|0,0:0|0:0,0:0:0:0:
208,272,98288,2,0,L|320:272,1,80,8|0,0:0|0:0,0:0:0:0:
400,224,98510,2,0,L|416:144,1,80,8|0,0:0|0:0,0:0:0:0:
224,112,98733,2,0,L|336:112,1,80,8|0,0:0|0:0,0:0:0:0:
496,80,98954,6,0,L|336:80,1,160,8|8,0:0|0:0,0:0:0:0:
416,112,99288,1,0,0:0:0:0:
304,112,99399,2,0,L|224:112,1,80,8|8,0:0|0:0,0:0:0:0:
448,144,99621,2,0,L|480:208,4,40,8|0|8|0|8,0:0|0:0|0:0|0:0|0:0,0:0:0:0:
224,160,99954,6,0,L|304:160,2,80,0|8|0,0:0|0:0|0:0,0:0:0:0:
112,160,100288,2,0,L|96:240,1,80,8|0,0:0|0:0,0:0:0:0:
368,240,100510,2,0,L|384:160,1,80,8|0,0:0|0:0,0:0:0:0:
176,304,100732,6,0,L|352:304,1,160,8|8,0:0|0:0,0:0:0:0:
256,256,101065,1,0,0:0:0:0:
368,256,101176,2,0,L|464:256,1,80,8|8,0:0|0:0,0:0:0:0:
192,160,101399,2,0,L|288:160,1,80,8|8,0:0|0:0,0:0:0:0:
384,128,101621,6,0,L|192:128,1,160,8|8,0:0|0:0,0:0:0:0:
288,80,101954,1,0,0:0:0:0:
176,80,102065,2,0,L|160:160,1,80,8|0,0:0|0:0,0:0:0:0:
352,160,102288,2,0,L|368:240,1,80,8|0,0:0|0:0,0:0:0:0:
160,240,102510,5,8,0:0:0:0:
256,240,102621,1,0,0:0:0:0:
64,240,102732,1,8,0:0:0:0:
160,240,102843,1,0,0:0:0:0:
352,192,102954,5,0,0:0:0:0:
352,192,102968,1,0,0:0:0:0:
372,190,102981,1,0,0:0:0:0:
372,190,102995,1,0,0:0:0:0:
391,183,103009,1,0,0:0:0:0:
391,183,103023,1,0,0:0:0:0:
406,170,103037,1,0,0:0:0:0:
406,170,103051,1,0,0:0:0:0:
416,153,103065,1,0,0:0:0:0:
416,153,103079,1,0,0:0:0:0:
420,133,103092,1,0,0:0:0:0:
420,133,103106,1,0,0:0:0:0:
417,113,103120,1,0,0:0:0:0:
160,192,103176,6,0,L|128:192,6,20,0|0|0|0|0|0|0,0:0|0:0|0:0|0:0|0:0|0:0|0:0,0:0:0:0:
400,96,103399,6,0,L|480:96,1,80,4|0,0:0|0:0,0:0:0:0:
128,64,103621,2,0,L|208:64,1,80,8|0,0:0|0:0,0:0:0:0:
304,64,103843,2,0,L|384:64,1,80,8|0,0:0|0:0,0:0:0:0:
32,96,104065,2,0,L|112:96,1,80,8|0,0:0|0:0,0:0:0:0:
336,176,104288,6,0,L|496:176,1,160,8|8,0:0|0:0,0:0:0:0:
416,144,104621,1,0,0:0:0:0:
176,176,104732,2,0,L|16:176,1,160,8|8,0:0|0:0,0:0:0:0:
96,144,105065,1,8,0:0:0:0:
304,144,105176,6,0,L|320:224,1,80,8|0,0:0|0:0,0:0:0:0:
208,224,105399,2,0,L|192:304,1,80,8|0,0:0|0:0,0:0:0:0:
320,304,105621,2,0,L|496:304,1,160,8|8,0:0|0:0,0:0:0:0:
400,272,105954,1,8,0:0:0:0:
192,256,106065,6,0,L|272:256,2,80,8|0|8,0:0|0:0|0:0,0:0:0:0:
400,224,106399,2,0,L|448:224,2,40,0|0|8,0:0|0:0|0:0,0:0:0:0:
320,192,106621,1,8,0:0:0:0:
208,160,106732,2,0,L|288:160,1,80,8|8,0:0|0:0,0:0:0:0:
80,160,106954,6,0,P|64:208|160:256,1,160,8|8,0:0|0:0,0:0:0:0:
224,256,107288,1,0,0:0:0:0:
336,256,107399,2,0,L|256:256,1,80,8|0,0:0|0:0,0:0:0:0:
368,256,107621,2,0,L|384:176,1,80,8|0,0:0|0:0,0:0:0:0:
160,176,107843,6,0,L|320:176,1,160,8|8,0:0|0:0,0:0:0:0:
240,128,108176,1,0,0:0:0:0:
416,112,108287,2,0,L|512:112,1,80,8|0,0:0|0:0,0:0:0:0:
320,64,108510,2,0,L|240:64,1,80,8|0,0:0|0:0,0:0:0:0:
464,240,108732,6,0,L|304:240,1,160,8|8,0:0|0:0,0:0:0:0:
384,208,109065,1,0,0:0:0:0:
208,176,109176,2,0,L|304:176,1,80,8|0,0:0|0:0,0:0:0:0:
176,128,109399,2,0,L|64:128,1,80,8|0,0:0|0:0,0:0:0:0:
464,160,109621,6,0,L|384:160,1,80,8|8,0:0|0:0,0:0:0:0:
208,160,109843,2,0,L|304:160,1,80,8|0,0:0|0:0,0:0:0:0:
112,160,110065,5,0,0:0:0:0:
208,112,110093,1,0,0:0:0:0:
304,64,110121,2,0,L|331:66,2,20,0|0|0,0:0|0:0|0:0,0:0:0:0:
283,63,110204,1,0,0:0:0:0:
262,62,110232,1,0,0:0:0:0:
112,160,110288,2,0,P|80:136|117:77,1,120,0|0,0:0|2:0,0:0:0:0:
464,64,110510,6,0,L|480:144,1,80,4|0,0:0|0:0,0:0:0:0:
256,128,110732,2,0,L|256:208,1,80,8|0,0:0|0:0,0:0:0:0:
48,64,110954,2,0,L|32:144,1,80,8|0,0:0|0:0,0:0:0:0:
256,128,111176,2,0,L|256:208,1,80,8|0,0:0|0:0,0:0:0:0:
224,208,111343,1,0,0:0:0:0:
48,320,111399,6,0,L|32:240,1,80,8|0,0:0|0:0,0:0:0:0:
256,256,111621,2,0,L|256:176,1,80,8|0,0:0|0:0,0:0:0:0:
464,320,111843,1,8,0:0:0:0:
471,280,111898,1,0,0:0:0:0:
479,241,111954,1,0,0:0:0:0:
48,320,112065,1,8,0:0:0:0:
33,283,112120,1,0,0:0:0:0:
34,243,112176,1,8,0:0:0:0:
50,207,112231,1,0,0:0:0:0:
304,224,112287,6,0,L|320:144,1,80,8|0,0:0|0:0,0:0:0:0:
208,224,112510,2,0,L|192:144,1,80,8|0,0:0|0:0,0:0:0:0:
64,144,112732,2,0,L|48:64,1,80,8|0,0:0|0:0,0:0:0:0:
256,128,112954,2,0,L|256:48,1,80,8|0,0:0|0:0,0:0:0:0:
448,144,113176,6,0,L|464:64,1,80,8|0,0:0|0:0,0:0:0:0:
64,144,113399,2,0,L|48:64,1,80,8|0,0:0|0:0,0:0:0:0:
464,240,113621,2,0,L|496:288,2,40,8|0|0,0:0|0:0|0:0,0:0:0:0:
416,240,113787,1,0,0:0:0:0:
256,240,113843,2,0,L|256:176,3,40,8|0|8|0,0:0|0:0|0:0|0:0,0:0:0:0:
112,240,114065,6,0,L|32:240,1,80,8|0,0:0|0:0,0:0:0:0:
400,240,114287,2,0,L|480:240,1,80,8|0,0:0|0:0,0:0:0:0:
112,240,114510,2,0,L|32:240,1,80,8|0,0:0|0:0,0:0:0:0:
224,240,114732,6,0,L|240:224,6,20,0|0|0|0|0|0|0,0:0|0:0|0:0|0:0|0:0|0:0|0:0,0:0:0:0:
400,240,114954,6,0,L|480:240,1,80,8|0,0:0|0:0,0:0:0:0:
112,240,115176,2,0,L|32:240,1,80,8|0,0:0|0:0,0:0:0:0:
400,240,115399,2,0,L|480:240,1,80,8|0,0:0|0:0,0:0:0:0:
288,240,115621,6,0,L|272:240,12,10,0|0|0|0|0|0|0|0|0|0|0|0|0,0:0|0:0|0:0|0:0|0:0|0:0|0:0|0:0|0:0|0:0|0:0|0:0|0:0,0:0:0:0:
112,240,115843,6,0,L|32:240,1,80,8|0,0:0|0:0,0:0:0:0:
224,240,116065,6,0,L|240:224,6,20,0|0|0|0|0|0|0,0:0|0:0|0:0|0:0|0:0|0:0|0:0,0:0:0:0:
400,240,116287,6,0,L|496:240,1,80,8|0,0:0|0:0,0:0:0:0:
288,240,116510,6,0,L|272:240,12,10,0|0|0|0|0|0|0|0|0|0|0|0|0,0:0|0:0|0:0|0:0|0:0|0:0|0:0|0:0|0:0|0:0|0:0|0:0|0:0,0:0:0:0:
32,103,116732,2,0,L|26:133,4,20,0|0|0|0|0,0:0|0:0|0:0|0:0|0:0,0:0:0:0:
144,96,116871,1,0,0:0:0:0:
256,96,116899,1,0,0:0:0:0:
368,96,116926,1,0,0:0:0:0:
480,103,116954,6,0,L|486:133,4,20,0|0|0|0|0,0:0|0:0|0:0|0:0|0:0,0:0:0:0:
368,96,117093,1,0,0:0:0:0:
256,96,117121,1,0,0:0:0:0:
144,96,117148,1,0,0:0:0:0:
32,160,117176,6,0,L|16:160,7,10,0|0|0|0|0|0|0|0,0:0|0:0|0:0|0:0|0:0|0:0|0:0|0:0,0:0:0:0:
32,160,117287,6,0,L|16:160,7,10,0|0|0|0|0|0|0|0,0:0|0:0|0:0|0:0|0:0|0:0|0:0|0:0,0:0:0:0:
32,160,117399,6,0,L|16:160,7,10,0|0|0|0|0|0|0|0,0:0|0:0|0:0|0:0|0:0|0:0|0:0|0:0,0:0:0:0:
32,160,117510,6,0,L|16:160,6,10,0|0|0|0|0|0|0,0:0|0:0|0:0|0:0|0:0|0:0|0:0,0:0:0:0:
256,63,117621,2,0,P|331:112|231:289,1,320,0|0,0:0|0:0,0:0:0:0:
176,192,118065,6,0,L|336:192,1,160,0|2,0:0|0:0,0:0:0:0:
112,272,118865,6,0,P|144:240|192:128,2,160,0|2|0,0:0|0:0|0:0,0:0:0:0:
296,240,120065,2,0,L|200:240,1,80,2|0,0:0|0:0,0:0:0:0:
400,288,120465,5,2,0:0:0:0:
417,210,120665,1,0,0:0:0:0:
385,138,120865,1,0,0:0:0:0:
318,98,121065,1,2,0:0:0:0:
192,112,121265,1,0,0:0:0:0:
271,105,121465,1,2,0:0:0:0:
339,146,121665,1,2,0:0:0:0:
370,218,121865,1,0,0:0:0:0:
208,224,122065,6,0,P|144:208|80:128,1,160,2|2,0:0|0:0,0:0:0:0:
304,224,122865,2,0,P|368:208|432:128,1,160,2|2,0:0|0:0,0:0:0:0:
96,128,123665,6,0,L|432:128,1,320,2|2,0:0|0:0,0:0:0:0:
336,96,124665,1,0,0:0:0:0:
176,96,124865,2,0,L|256:96,1,80,0|0,0:0|0:0,0:0:0:0:
96,96,125265,6,0,P|96:144|192:192,1,160,2|2,0:0|0:0,0:0:0:0:
96,240,125798,1,0,0:0:0:0:
184,232,125931,1,2,0:0:0:0:
320,224,126065,2,0,P|393:200|409:125,1,160,0|2,0:0|0:0,0:0:0:0:
256,128,126665,1,0,0:0:0:0:
416,80,126865,6,0,L|256:80,1,160,2|0,0:0|0:0,0:0:0:0:
96,80,127465,2,0,L|256:80,1,160,2|0,0:0|0:0,0:0:0:0:
416,80,128065,2,0,L|336:80,1,80,2|0,0:0|0:0,0:0:0:0:
176,128,128465,6,0,L|336:128,2,160,2|0|0,0:0|0:0|0:0,0:0:0:0:
400,112,130065,6,0,L|240:112,2,160,4|2|8,0:0|0:0|0:0,0:0:0:0:
112,112,131265,2,0,L|272:112,2,160,2|2|2,0:0|0:0|0:0,0:0:0:0:
192,112,132265,1,2,0:0:0:0:
384,112,132465,5,8,0:0:0:0:
112,112,132865,2,0,L|192:112,1,80,2|0,0:0|0:0,0:0:0:0:
352,112,133265,6,0,L|368:192,1,80,2|0,0:0|0:0,0:0:0:0:
240,192,133665,2,0,L|320:192,1,80,2|0,0:0|0:0,0:0:0:0:
128,272,134065,1,8,0:0:0:0:
71,221,134265,1,0,0:0:0:0:
87,146,134465,1,0,0:0:0:0:
159,122,134665,1,2,0:0:0:0:
320,128,134865,6,0,L|160:128,1,160,2|2,0:0|0:0,0:0:0:0:
320,128,135465,1,2,0:0:0:0:
160,128,135665,2,0,L|160:234,1,80,8|2,0:0|0:0,0:0:0:0:
320,80,136065,1,0,0:0:0:0:
160,48,136265,1,0,0:0:0:0:
432,48,136465,6,0,P|464:96|384:144,2,160,2|2|8,0:0|0:0|0:0,0:0:0:0:
256,48,137465,1,0,0:0:0:0:
384,112,137665,2,0,L|304:112,1,80,2|0,0:0|0:0,0:0:0:0:
128,176,138065,6,0,L|288:176,1,160,2|2,0:0|0:0,0:0:0:0:
224,144,138598,1,0,0:0:0:0:
288,144,138731,1,0,0:0:0:0:
160,144,138865,2,0,P|112:144|128:240,1,160,8|2,0:0|0:0,0:0:0:0:
192,240,139465,1,0,0:0:0:0:
352,272,139665,6,0,L|192:272,1,160,2|2,0:0|0:0,0:0:0:0:
352,272,140265,1,0,0:0:0:0:
415,232,140465,1,8,0:0:0:0:
385,165,140665,1,0,0:0:0:0:
256,176,140865,2,0,L|336:176,1,80,2|0,0:0|0:0,0:0:0:0:
176,176,141265,6,0,P|112:160|144:80,1,160,2|2,0:0|0:0,0:0:0:0:
208,80,141865,1,2,0:0:0:0:
80,64,142065,2,0,L|160:64,1,80,8|2,0:0|0:0,0:0:0:0:
320,64,142465,2,0,L|336:112,1,40,8|8,0:0|0:0,0:0:0:0:
272,96,142665,2,0,L|288:144,1,40,8|8,0:0|0:0,0:0:0:0:
480,160,142865,6,0,P|464:208|368:240,2,160,4|2|8,0:0|0:0|0:0,0:0:0:0:
176,160,144065,2,0,L|336:160,1,160,0|2,0:0|0:0,0:0:0:0:
48,160,144865,2,0,L|32:240,1,80,0|0,0:0|0:0,0:0:0:0:
193,238,145265,2,0,L|33:238,1,160,8|0,0:0|0:0,0:0:0:0:
112,176,145865,1,0,0:0:0:0:
272,160,146065,6,0,L|352:160,2,80,2|0|2,0:0|0:0|0:0,0:0:0:0:
432,160,146665,1,0,0:0:0:0:
240,160,146865,2,0,L|160:160,2,80,8|0|2,0:0|0:0|0:0,0:0:0:0:
80,160,147465,1,0,0:0:0:0:
352,96,147665,6,0,L|160:96,1,191.999994140625,2|2,0:0|0:0,0:0:0:0:
352,80,148265,1,0,0:0:0:0:
160,64,148465,2,0,L|48:64,1,95.9999970703126,8|0,0:0|0:0,0:0:0:0:
352,64,148865,2,0,L|464:64,1,95.9999970703126,0|0,0:0|0:0,0:0:0:0:
64,144,149265,6,0,L|240:144,1,160,2|2,0:0|0:0,0:0:0:0:
64,192,149865,1,0,0:0:0:0:
448,144,150065,2,0,L|368:144,1,80,8|0,0:0|0:0,0:0:0:0:
64,144,150465,2,0,L|144:144,1,80,2|0,0:0|0:0,0:0:0:0:
304,144,150865,6,0,L|144:144,1,160,2|2,0:0|0:0,0:0:0:0:
208,112,151398,1,0,0:0:0:0:
144,112,151531,1,0,0:0:0:0:
272,112,151665,2,0,L|448:112,1,160,8|2,0:0|0:0,0:0:0:0:
272,80,152265,1,0,0:0:0:0:
432,176,152465,6,0,L|272:176,1,160,2|2,0:0|0:0,0:0:0:0:
112,224,153065,1,0,0:0:0:0:
192,224,153265,1,8,0:0:0:0:
272,224,153465,1,0,0:0:0:0:
112,176,153665,2,0,L|16:176,1,80,2|0,0:0|0:0,0:0:0:0:
192,176,154065,6,0,P|256:192|288:288,1,160,2|2,0:0|0:0,0:0:0:0:
240,224,154665,1,2,0:0:0:0:
368,272,154865,2,0,L|448:272,1,80,8|0,0:0|0:0,0:0:0:0:
288,224,155265,2,0,L|304:176,1,40,8|8,0:0|0:0,0:0:0:0:
384,192,155465,2,0,L|400:144,1,40,8|8,0:0|0:0,0:0:0:0:
192,144,155665,6,0,L|32:144,1,160,4|0,0:0|0:0,0:0:0:0:
320,144,156393,2,0,L|480:144,1,160,8|0,0:0|0:0,0:0:0:0:
32,112,157121,5,4,0:0:0:0:
176,96,157454,1,0,0:0:0:0:
336,96,157788,1,8,0:0:0:0:
480,128,158122,1,8,0:0:0:0:
64,160,158456,6,0,L|48:320,1,160,4|0,0:0|0:0,0:0:0:0:
208,319,159072,2,0,L|48:319,1,160,8|0,0:0|0:0,0:0:0:0:
448,160,159688,6,0,L|464:320,1,160,4|0,0:0|0:0,0:0:0:0:
304,336,160260,2,0,L|496:336,1,160,8|0,0:0|0:0,0:0:0:0:
64,192,160832,5,4,0:0:0:0:
256,192,161098,2,0,L|288:32,1,160,8|8,0:0|0:0,0:0:0:0:
32,32,161632,1,8,0:0:0:0:
448,192,161899,5,4,0:0:0:0:
256,192,162149,2,0,L|224:32,1,160,8|8,0:0|0:0,0:0:0:0:
480,32,162649,1,8,0:0:0:0:
16,224,162900,6,0,L|176:224,1,160,4|0,0:0|0:0,0:0:0:0:
336,160,163371,2,0,L|176:160,1,160,8|0,0:0|0:0,0:0:0:0:
496,224,163842,6,0,L|336:224,1,160,4|0,0:0|0:0,0:0:0:0:
176,160,164286,2,0,L|336:160,1,160,8|0,0:0|0:0,0:0:0:0:
32,176,164731,6,0,L|176:288,1,160,4|0,0:0|0:0,0:0:0:0:
496,176,165152,2,0,L|352:288,1,160,8|0,0:0|0:0,0:0:0:0:
41,276,165573,5,4,0:0:0:0:
176,208,165773,1,8,0:0:0:0:
336,208,165973,1,8,0:0:0:0:
471,276,166173,1,8,0:0:0:0:
48,128,166373,6,0,L|32:288,1,160,4|0,0:0|0:0,0:0:0:0:
464,128,166754,2,0,L|480:288,1,160,8|0,0:0|0:0,0:0:0:0:
176,240,167135,5,4,0:0:0:0:
336,240,167316,1,0,0:0:0:0:
160,208,167498,1,8,0:0:0:0:
352,208,167680,1,0,0:0:0:0:
29,267,167862,6,0,L|160:176,1,160,4|0,0:0|0:0,0:0:0:0:
484,267,168210,2,0,L|352:176,1,160,8|0,0:0|0:0,0:0:0:0:
112,256,168558,5,4,0:0:0:0:
256,224,168724,1,0,0:0:0:0:
400,256,168891,1,8,0:0:0:0:
256,224,169058,1,0,0:0:0:0:
483,267,169224,6,0,L|352:176,1,160,4|0,0:0|0:0,0:0:0:0:
28,267,169544,2,0,L|160:176,1,160,8|0,0:0|0:0,0:0:0:0:
480,128,169864,5,4,0:0:0:0:
352,128,170017,1,0,0:0:0:0:
224,128,170171,1,8,0:0:0:0:
352,128,170325,1,0,0:0:0:0:
32,128,170479,5,4,0:0:0:0:
160,128,170627,1,0,0:0:0:0:
288,128,170775,1,8,0:0:0:0:
160,128,170923,1,0,0:0:0:0:
368,192,171071,6,0,L|481:79,1,160,4|0,0:0|0:0,0:0:0:0:
256,72,171356,1,8,0:0:0:0:
368,72,171499,1,0,0:0:0:0:
144,192,171642,6,0,L|30:79,1,160,4|0,0:0|0:0,0:0:0:0:
256,48,171918,1,8,0:0:0:0:
144,48,172056,1,0,0:0:0:0:
480,80,172194,6,0,L|352:208,1,160,4|0,0:0|0:0,0:0:0:0:
160,128,172460,1,8,0:0:0:0:
256,128,172594,1,0,0:0:0:0:
32,88,172727,6,0,L|160:216,1,160,4|0,0:0|0:0,0:0:0:0:
352,208,172985,1,8,0:0:0:0:
256,208,173114,1,0,0:0:0:0:
480,96,173243,5,4,0:0:0:0:
211,97,173368,1,0,0:0:0:0:
96,96,173493,1,8,0:0:0:0:
357,97,173618,1,0,0:0:0:0:
32,160,173743,5,4,0:0:0:0:
301,97,173864,1,0,0:0:0:0:
416,96,173985,1,8,0:0:0:0:
155,97,174106,1,0,0:0:0:0:
448,320,174228,5,4,0:0:0:0:
256,288,174345,1,0,0:0:0:0:
64,288,174463,1,8,0:0:0:0:
480,160,174581,1,0,0:0:0:0:
208,144,174698,6,0,L|320:288,3,160,4|0|8|0,0:0|0:0|0:0|0:0,0:0:0:0:
48,144,175159,6,0,L|32:304,1,160,4|0,0:0|0:0,0:0:0:0:
464,144,175390,2,0,L|480:304,1,160,4|0,0:0|0:0,0:0:0:0:
176,304,175621,6,0,L|128:208,1,80,4|0,0:0|0:0,0:0:0:0:
336,304,175736,2,0,L|384:208,1,80
128,208,175851,6,0,L|80:144,1,80
384,208,175967,2,0,L|432:144,1,80
256,128,176082,5,0,0:0:0:0:
144,128,176111,1,0,0:0:0:0:
32,128,176140,2,0,L|16:176,4,40
144,128,176284,1,0,0:0:0:0:
256,128,176313,5,0,0:0:0:0:
368,128,176342,1,0,0:0:0:0:
480,128,176371,2,0,L|496:176,4,40
368,128,176515,1,0,0:0:0:0:
256,80,176544,5,4,0:0:0:0:
304,160,179744,6,0,L|400:160,1,80,4|0,0:0|0:0,0:0:0:0:
208,128,179944,2,0,L|112:128,1,80,8|0,0:0|0:0,0:0:0:0:
416,208,180144,2,0,L|320:208,1,80,8|0,0:0|0:0,0:0:0:0:
176,208,180344,2,0,L|80:208,1,80,8|0,0:0|0:0,0:0:0:0:
256,64,180544,6,0,L|448:64,1,160,8|8,0:0|0:0,0:0:0:0:
256,112,180844,2,0,L|80:112,1,160,0|0,0:0|0:0,0:0:0:0:
336,112,181144,2,0,L|432:112,1,80,8|8,0:0|0:0,0:0:0:0:
80,112,181344,6,0,L|64:192,1,80,8|0,0:0|0:0,0:0:0:0:
160,192,181544,2,0,L|176:272,1,80,8|0,0:0|0:0,0:0:0:0:
432,112,181744,2,0,L|448:192,1,80,8|0,0:0|0:0,0:0:0:0:
352,192,181944,2,0,L|336:272,1,80,8|0,0:0|0:0,0:0:0:0:
112,224,182144,6,0,P|75:221|96:320,1,160,8|8,0:0|0:0,0:0:0:0:
336,208,182444,2,0,L|176:208,1,160,0|0,0:0|0:0,0:0:0:0:
416,208,182744,2,0,L|432:288,1,80,8|8,0:0|0:0,0:0:0:0:
96,208,182944,6,0,L|80:288,1,80,8|0,0:0|0:0,0:0:0:0:
256,160,183144,2,0,L|176:160,1,80,8|0,0:0|0:0,0:0:0:0:
336,208,183344,2,0,L|224:208,1,80,8|0,0:0|0:0,0:0:0:0:
416,208,183544,2,0,L|432:128,1,80,8|0,0:0|0:0,0:0:0:0:
176,160,183744,6,0,L|368:160,1,160,8|8,0:0|0:0,0:0:0:0:
112,160,184044,2,0,P|48:208|80:288,1,160,0|0,0:0|0:0,0:0:0:0:
296,288,184344,2,0,L|216:288,1,80,8|8,0:0|0:0,0:0:0:0:
400,160,184544,6,0,P|464:208|432:288,1,160,8|8,0:0|0:0,0:0:0:0:
176,160,184844,2,0,L|368:160,1,160,0|8,0:0|0:0,0:0:0:0:
112,160,185144,2,0,L|96:240,1,80,8|8,0:0|0:0,0:0:0:0:
320,240,185344,6,0,L|416:240,1,80,8|8,0:0|0:0,0:0:0:0:
192,240,185544,2,0,L|96:240,1,80,8|8,0:0|0:0,0:0:0:0:
400,192,185744,1,0,0:0:0:0:
440,192,185794,1,0,0:0:0:0:
480,192,185844,1,0,0:0:0:0:
112,192,185944,2,0,L|16:192,1,80,0|0,0:0|0:0,0:0:0:0:
416,320,186144,6,0,L|432:240,1,80,8|0,0:0|0:0,0:0:0:0:
320,240,186344,2,0,L|304:160,1,80,8|0,0:0|0:0,0:0:0:0:
192,240,186544,2,0,L|208:160,1,80,8|0,0:0|0:0,0:0:0:0:
96,160,186744,2,0,L|80:80,1,80,8|0,0:0|0:0,0:0:0:0:
432,96,186944,6,0,P|448:144|352:192,1,160,8|8,0:0|0:0,0:0:0:0:
176,208,187244,2,0,L|368:208,1,160,0|0,0:0|0:0,0:0:0:0:
80,112,187544,2,0,L|64:192,1,80,8|8,0:0|0:0,0:0:0:0:
416,320,187744,6,0,L|432:240,1,80,8|0,0:0|0:0,0:0:0:0:
192,240,187944,2,0,L|208:160,1,80,8|0,0:0|0:0,0:0:0:0:
320,240,188144,2,0,L|304:160,1,80,8|0,0:0|0:0,0:0:0:0:
96,160,188344,2,0,L|80:80,1,80,8|0,0:0|0:0,0:0:0:0:
432,96,188544,6,0,P|448:144|352:192,1,160,8|8,0:0|0:0,0:0:0:0:
176,208,188844,2,0,L|368:208,1,160,0|0,0:0|0:0,0:0:0:0:
80,112,189144,2,0,L|64:192,1,80,8|8,0:0|0:0,0:0:0:0:
336,160,189344,6,0,L|432:160,1,80,8|0,0:0|0:0,0:0:0:0:
176,160,189544,2,0,L|96:160,1,80,8|0,0:0|0:0,0:0:0:0:
416,112,189744,2,0,L|320:112,1,80,8|0,0:0|0:0,0:0:0:0:
96,112,189944,2,0,L|192:112,1,80,8|0,0:0|0:0,0:0:0:0:
336,112,190144,6,0,L|176:112,1,160,8|8,0:0|0:0,0:0:0:0:
256,160,190444,1,0,0:0:0:0:
96,160,190544,2,0,L|192:160,1,80,8|0,0:0|0:0,0:0:0:0:
336,160,190744,2,0,L|416:160,1,80,8|8,0:0|0:0,0:0:0:0:
176,208,190944,6,0,L|336:208,1,160,8|8,0:0|0:0,0:0:0:0:
96,288,191244,2,0,P|64:240|144:192,1,160,8|0,0:0|0:0,0:0:0:0:
416,288,191544,2,0,L|432:208,1,80,8|0,0:0|0:0,0:0:0:0:
256,224,191744,6,0,L|256:128,1,80,8|0,0:0|0:0,0:0:0:0:
96,288,191944,2,0,L|80:208,1,80,0|0,0:0|0:0,0:0:0:0:
336,192,192144,6,0,L|368:224,6,40,0|0|0|0|0|0|0,0:0|0:0|0:0|0:0|0:0|0:0|0:0,0:0:0:0:
16,96,192544,6,0,L|96:96,1,80,4|0,0:0|0:0,0:0:0:0:
256,96,192744,2,0,L|336:96,1,80,8|0,0:0|0:0,0:0:0:0:
496,96,192944,2,0,L|416:96,1,80,8|0,0:0|0:0,0:0:0:0:
256,96,193144,2,0,L|176:96,1,80,8|0,0:0|0:0,0:0:0:0:
336,176,193344,6,0,L|160:176,1,160,8|8,0:0|0:0,0:0:0:0:
416,176,193644,2,0,P|480:192|440:264,1,160,0|0,0:0|0:0,0:0:0:0:
48,240,193944,2,0,L|128:240,1,80,8|8,0:0|0:0,0:0:0:0:
432,208,194144,6,0,L|416:288,1,80,8|0,0:0|0:0,0:0:0:0:
224,320,194344,2,0,L|320:320,1,80,8|0,0:0|0:0,0:0:0:0:
80,208,194544,2,0,L|96:288,1,80,8|0,0:0|0:0,0:0:0:0:
288,320,194744,2,0,L|192:320,1,80,8|0,0:0|0:0,0:0:0:0:
400,320,194944,6,0,P|464:320|496:240,1,160,8|8,0:0|0:0,0:0:0:0:
336,208,195244,2,0,L|160:208,1,160,0|0,0:0|0:0,0:0:0:0:
16,240,195544,2,0,P|37:312|64:320,1,80,8|8,0:0|0:0,0:0:0:0:
256,288,195744,6,0,L|352:288,1,80,8|0,0:0|0:0,0:0:0:0:
256,240,195944,2,0,L|176:240,1,80,8|0,0:0|0:0,0:0:0:0:
336,192,196144,2,0,L|432:192,1,80,8|0,0:0|0:0,0:0:0:0:
176,192,196344,2,0,L|96:192,1,80,8|0,0:0|0:0,0:0:0:0:
336,128,196544,6,0,L|160:128,1,160,8|8,0:0|0:0,0:0:0:0:
416,128,196844,2,0,P|448:192|416:288,1,160,0|0,0:0|0:0,0:0:0:0:
96,128,197144,2,0,L|80:208,1,80,8|8,0:0|0:0,0:0:0:0:
256,224,197344,6,0,L|416:224,1,160,8|8,0:0|0:0,0:0:0:0:
256,272,197644,2,0,L|96:272,1,160,0|8,0:0|0:0,0:0:0:0:
256,304,197944,2,0,L|336:304,1,80,8|8,0:0|0:0,0:0:0:0:
112,304,198144,6,0,L|96:224,1,80,8|8,0:0|0:0,0:0:0:0:
256,224,198344,2,0,L|256:144,1,80,8|8,0:0|0:0,0:0:0:0:
416,224,198544,2,0,L|432:176,6,40,8|0|8|0|8|0|0,0:0|0:0|0:0|0:0|0:0|0:0|0:0,0:0:0:0:
128,96,198944,6,0,L|208:96,1,80,8|0,0:0|0:0,0:0:0:0:
384,96,199144,2,0,L|304:96,1,80,8|0,0:0|0:0,0:0:0:0:
400,128,199344,2,0,L|416:208,1,80,8|0,0:0|0:0,0:0:0:0:
112,128,199544,2,0,L|96:208,1,80,8|0,0:0|0:0,0:0:0:0:
256,160,199744,6,0,L|432:160,1,160,8|8,0:0|0:0,0:0:0:0:
96,160,200044,2,0,P|52:243|96:304,1,160,0|0,0:0|0:0,0:0:0:0:
400,288,200344,2,0,L|304:288,1,80,8|8,0:0|0:0,0:0:0:0:
48,304,200544,6,0,L|32:224,1,80,8|0,0:0|0:0,0:0:0:0:
128,224,200744,2,0,L|144:144,1,80,8|0,0:0|0:0,0:0:0:0:
368,144,200944,2,0,L|352:224,1,80,8|0,0:0|0:0,0:0:0:0:
256,224,201144,2,0,L|272:304,1,80,8|0,0:0|0:0,0:0:0:0:
496,304,201344,6,0,P|496:240|400:208,1,160,8|8,0:0|0:0,0:0:0:0:
176,144,201644,2,0,L|352:144,1,160,0|0,0:0|0:0,0:0:0:0:
32,320,201944,2,0,L|48:240,1,80,8|8,0:0|0:0,0:0:0:0:
256,208,202144,6,0,L|336:208,1,80,8|0,0:0|0:0,0:0:0:0:
176,208,202344,2,0,L|96:208,1,80,8|0,0:0|0:0,0:0:0:0:
336,176,202544,2,0,L|416:176,1,80,8|0,0:0|0:0,0:0:0:0:
256,176,202744,2,0,L|176:176,1,80,8|0,0:0|0:0,0:0:0:0:
336,112,202944,6,0,L|160:112,1,160,8|8,0:0|0:0,0:0:0:0:
256,160,203244,2,0,L|432:160,1,160,0|0,0:0|0:0,0:0:0:0:
176,160,203544,2,0,L|96:160,1,80,8|8,0:0|0:0,0:0:0:0:
384,128,203744,6,0,L|288:128,1,80,8|0,0:0|0:0,0:0:0:0:
128,128,203944,2,0,L|224:128,3,80,8|0|8|0,0:0|0:0|0:0|0:0,0:0:0:0:
464,128,204344,2,0,L|368:128,1,80,8|0,0:0|0:0,0:0:0:0:
176,128,204544,5,8,0:0:0:0:
256,128,204644,1,0,0:0:0:0:
336,128,204744,1,8,0:0:0:0:
96,128,204844,1,0,0:0:0:0:
352,128,204944,6,0,L|376:128,1,20,0|0,0:0|0:0,0:0:0:0:
392,128,204994,1,0,0:0:0:0:
401,144,205019,1,0,0:0:0:0:
400,164,205044,1,0,0:0:0:0:
387,179,205069,1,0,0:0:0:0:
368,183,205094,1,0,0:0:0:0:
256,128,205119,1,0,0:0:0:0:
160,128,205144,6,0,L|136:128,1,20,0|0,0:0|0:0,0:0:0:0:
120,128,205194,1,0,0:0:0:0:
110,144,205219,1,0,0:0:0:0:
111,164,205244,1,0,0:0:0:0:
124,179,205269,1,0,0:0:0:0:
143,183,205294,1,0,0:0:0:0:
256,128,205319,1,0,0:0:0:0:
448,96,205344,5,12,0:0:0:0:
368,96,205444,1,8,0:0:0:0:
456,144,205544,1,8,0:0:0:0:
272,144,205644,1,8,0:0:0:0:
448,192,205744,5,8,0:0:0:0:
368,192,205844,1,8,0:0:0:0:
456,240,205944,1,8,0:0:0:0:
272,240,206044,1,8,0:0:0:0:
80,80,206144,6,0,L|64:160,1,80,8|8,0:0|0:0,0:0:0:0:
256,144,206344,2,0,L|256:224,1,80,8|8,0:0|0:0,0:0:0:0:
432,80,206544,6,0,L|448:160,1,80,8|8,0:0|0:0,0:0:0:0:
216,192,206744,1,0,0:0:0:0:
296,192,206844,2,0,L|233:193,1,40,8|0,0:0|0:0,0:0:0:0:
64,96,206944,5,8,0:0:0:0:
144,96,207044,1,8,0:0:0:0:
56,144,207144,1,8,0:0:0:0:
240,144,207244,1,8,0:0:0:0:
64,192,207344,5,8,0:0:0:0:
144,192,207444,1,8,0:0:0:0:
56,240,207544,1,8,0:0:0:0:
240,240,207644,1,8,0:0:0:0:
432,192,207744,6,0,L|448:272,1,80,8|8,0:0|0:0,0:0:0:0:
216,256,207944,2,0,L|312:256,1,80,8|8,0:0|0:0,0:0:0:0:
80,176,208144,6,0,L|64:224,4,40,8|8|8|0|8,0:0|0:0|0:0|0:0|0:0,0:0:0:0:
160,176,208444,1,8,0:0:0:0:
432,64,208544,5,8,0:0:0:0:
352,64,208644,1,8,0:0:0:0:
440,112,208744,1,8,0:0:0:0:
256,112,208844,1,8,0:0:0:0:
432,64,208944,5,8,0:0:0:0:
352,64,209044,1,8,0:0:0:0:
440,112,209144,1,8,0:0:0:0:
256,112,209244,1,8,0:0:0:0:
64,96,209344,6,0,L|80:176,1,80,8|8,0:0|0:0,0:0:0:0:
256,176,209544,2,0,L|176:176,1,80,8|8,0:0|0:0,0:0:0:0:
448,96,209744,6,0,L|432:176,1,80,8|8,0:0|0:0,0:0:0:0:
256,176,209944,2,0,L|336:176,1,80,8|8,0:0|0:0,0:0:0:0:
296,144,210094,1,0,0:0:0:0:
80,96,210144,5,8,0:0:0:0:
160,96,210244,2,0,L|176:136,2,40,8|0|8,0:0|0:0|0:0,0:0:0:0:
80,96,210444,1,8,0:0:0:0:
336,192,210544,6,0,L|352:240,4,40,8|8|8|0|8,0:0|0:0|0:0|0:0|0:0,0:0:0:0:
256,192,210844,1,8,0:0:0:0:
432,272,210944,5,8,0:0:0:0:
445,234,210994,1,0,0:0:0:0:
450,194,211044,1,8,0:0:0:0:
447,155,211094,1,0,0:0:0:0:
434,117,211144,1,8,0:0:0:0:
352,112,211244,1,8,0:0:0:0:
80,106,211344,6,0,L|61:136,6,20,8|0|0|0|8|0|0,0:0|0:0|0:0|0:0|0:0|0:0|0:0,0:0:0:0:
213,240,211544,5,8,0:0:0:0:
251,240,211594,1,0,0:0:0:0:
271,208,211644,1,8,0:0:0:0:
252,174,211694,1,0,0:0:0:0:
120,168,211744,5,8,0:0:0:0:
40,168,211844,1,8,0:0:0:0:
208,208,211944,1,8,0:0:0:0:
32,216,212044,1,8,0:0:0:0:
120,168,212144,5,8,0:0:0:0:
40,168,212244,1,8,0:0:0:0:
256,120,212344,2,8,L|160:120,1,80,8|8,0:0|0:0,0:0:0:0:
336,112,212544,6,0,L|352:192,1,80,8|8,0:0|0:0,0:0:0:0:
256,192,212744,2,0,L|336:192,1,80,8|8,0:0|0:0,0:0:0:0:
96,256,212944,6,0,L|80:336,1,80,8|8,0:0|0:0,0:0:0:0:
296,160,213144,1,8,0:0:0:0:
216,160,213244,2,0,L|208:120,1,40,8|0,0:0|0:0,0:0:0:0:
392,152,213344,5,8,0:0:0:0:
472,152,213444,1,8,0:0:0:0:
304,208,213544,1,8,0:0:0:0:
480,200,213644,1,8,0:0:0:0:
392,152,213744,5,8,0:0:0:0:
472,152,213844,1,8,0:0:0:0:
256,160,213944,2,8,L|352:160,1,80,8|8,0:0|0:0,0:0:0:0:
176,160,214144,6,0,L|160:240,1,80,8|8,0:0|0:0,0:0:0:0:
256,240,214344,2,0,L|160:240,1,80,8|8,0:0|0:0,0:0:0:0:
480,192,214544,6,0,L|496:240,4,40,8|0|8|0|8,0:0|0:0|0:0|0:0|0:0,0:0:0:0:
400,192,214844,1,8,0:0:0:0:
216,64,214944,5,8,0:0:0:0:
296,64,215044,1,8,0:0:0:0:
135,111,215144,1,8,0:0:0:0:
377,111,215244,1,8,0:0:0:0:
216,64,215344,5,8,0:0:0:0:
296,64,215444,1,8,0:0:0:0:
80,64,215544,1,8,0:0:0:0:
160,64,215644,1,8,0:0:0:0:
432,64,215744,6,0,L|416:144,1,80,8|8,0:0|0:0,0:0:0:0:
216,144,215944,2,0,L|296:144,1,80,8|8,0:0|0:0,0:0:0:0:
80,64,216144,6,0,L|96:144,1,80,8|8,0:0|0:0,0:0:0:0:
296,176,216344,2,0,L|200:176,1,80,8|8,0:0|0:0,0:0:0:0:
208,224,216494,1,0,0:0:0:0:
384,128,216544,5,8,0:0:0:0:
480,128,216644,2,0,L|496:176,2,40,8|0|8,0:0|0:0|0:0,0:0:0:0:
400,128,216844,1,8,0:0:0:0:
176,80,216944,6,0,L|160:128,2,40,8|0|8,0:0|0:0|0:0,0:0:0:0:
336,80,217144,2,0,L|352:128,2,40,8|0|8,0:0|0:0|0:0,0:0:0:0:
55,360,217344,2,0,L|23:360,1,20,0|0,0:0|0:0,0:0:0:0:
126,314,217394,2,0,L|158:314,1,20,0|0,0:0|0:0,0:0:0:0:
237,275,217444,2,0,L|269:275,1,20,0|0,0:0|0:0,0:0:0:0:
348,253,217494,2,0,L|380:253,1,20,0|0,0:0|0:0,0:0:0:0:
459,244,217544,2,0,L|491:244,1,20,0|0,0:0|0:0,0:0:0:0:
388,198,217594,2,0,L|356:198,1,20,0|0,0:0|0:0,0:0:0:0:
277,159,217644,2,0,L|245:159,1,20,0|0,0:0|0:0,0:0:0:0:
166,137,217694,2,0,L|134:137,1,20,0|0,0:0|0:0,0:0:0:0:
344,297,217744,5,0,0:0:0:0:
353,295,217756,1,0,0:0:0:0:
362,289,217769,1,0,0:0:0:0:
371,285,217781,1,0,0:0:0:0:
380,280,217794,1,0,0:0:0:0:
388,276,217806,1,0,0:0:0:0:
397,269,217819,1,0,0:0:0:0:
405,265,217831,1,0,0:0:0:0:
412,257,217844,5,0,0:0:0:0:
421,252,217856,1,0,0:0:0:0:
426,242,217869,1,0,0:0:0:0:
434,237,217881,1,0,0:0:0:0:
438,226,217894,1,0,0:0:0:0:
446,221,217906,1,0,0:0:0:0:
449,209,217919,1,0,0:0:0:0:
452,200,217931,1,0,0:0:0:0:
452,189,217944,6,0,L|452:173,12,10,0|0|0|0|0|0|0|0|0|0|0|0|0,0:0|0:0|0:0|0:0|0:0|0:0|0:0|0:0|0:0|0:0|0:0|0:0|0:0,0:0:0:0:
112,272,218144,6,0,L|16:272,1,80,4|8,0:0|0:0,0:0:0:0:
224,176,218344,2,0,L|128:176,1,80,8|8,0:0|0:0,0:0:0:0:
368,272,218544,6,0,L|288:272,1,80,8|8,0:0|0:0,0:0:0:0:
496,176,218744,2,0,L|400:176,1,80,8|8,0:0|0:0,0:0:0:0:
216,128,218944,6,0,L|312:128,1,80,8|8,0:0|0:0,0:0:0:0:
128,144,219144,2,0,L|112:224,1,80,8|8,0:0|0:0,0:0:0:0:
304,240,219344,6,0,L|320:320,1,80,8|8,0:0|0:0,0:0:0:0:
112,320,219544,1,0,0:0:0:0:
176,288,219644,2,0,L|224:288,1,40,8|0,0:0|0:0,0:0:0:0:
400,224,219744,6,0,L|496:224,1,80,8|8,0:0|0:0,0:0:0:0:
288,192,219944,2,0,L|384:192,1,80,8|8,0:0|0:0,0:0:0:0:
144,192,220144,6,0,L|224:192,1,80,8|8,0:0|0:0,0:0:0:0:
32,192,220344,2,0,L|128:192,1,80,8|8,0:0|0:0,0:0:0:0:
432,96,220544,6,0,L|448:176,1,80,8|8,0:0|0:0,0:0:0:0:
216,128,220744,2,0,L|296:128,1,80,8|8,0:0|0:0,0:0:0:0:
80,96,220944,5,8,0:0:0:0:
68,136,220994,1,8,0:0:0:0:
65,174,221044,1,8,0:0:0:0:
304,176,221144,2,0,L|320:256,1,80,0|8,0:0|0:0,0:0:0:0:
112,224,221344,6,0,L|16:224,1,80,8|8,0:0|0:0,0:0:0:0:
224,176,221544,2,0,L|128:176,1,80,8|8,0:0|0:0,0:0:0:0:
368,176,221744,6,0,L|288:176,1,80,8|8,0:0|0:0,0:0:0:0:
480,224,221944,2,0,L|384:224,1,80,8|8,0:0|0:0,0:0:0:0:
124,188,222144,6,0,L|108:268,1,80,8|8,0:0|0:0,0:0:0:0:
296,225,222344,2,0,L|216:225,1,80,8|8,0:0|0:0,0:0:0:0:
388,188,222544,6,0,L|400:272,1,80,8|8,0:0|0:0,0:0:0:0:
64,80,222744,2,0,L|48:160,1,80,8|8,0:0|0:0,0:0:0:0:
88,200,222894,1,0,0:0:0:0:
256,136,222944,5,8,0:0:0:0:
176,136,223044,2,0,L|160:184,2,40,8|0|8,0:0|0:0|0:0,0:0:0:0:
256,136,223244,1,8,0:0:0:0:
96,136,223344,6,0,L|80:176,4,40,8|0|8|0|8,0:0|0:0|0:0|0:0|0:0,0:0:0:0:
176,136,223644,1,8,0:0:0:0:
416,96,223744,5,8,0:0:0:0:
423,135,223794,1,0,0:0:0:0:
431,174,223844,1,8,0:0:0:0:
96,96,223944,2,0,L|80:176,1,80,8|8,0:0|0:0,0:0:0:0:
304,280,224144,6,0,B|304:208|208:208|208:282,1,160,0|8,0:0|0:0,0:0:0:0:
480,128,224544,6,0,L|384:128,1,80,8|8,0:0|0:0,0:0:0:0:
240,128,224744,2,0,L|336:128,1,80,8|8,0:0|0:0,0:0:0:0:
160,144,224944,6,0,L|144:224,1,80,8|8,0:0|0:0,0:0:0:0:
320,224,225144,2,0,L|240:224,1,80,8|8,0:0|0:0,0:0:0:0:
80,96,225344,6,0,L|64:176,1,80,8|8,0:0|0:0,0:0:0:0:
256,176,225544,2,0,L|160:176,1,80,8|8,0:0|0:0,0:0:0:0:
432,96,225744,6,0,L|448:176,1,80,8|8,0:0|0:0,0:0:0:0:
256,176,225944,2,0,L|352:176,1,80,8|8,0:0|0:0,0:0:0:0:
297,177,226094,1,0,0:0:0:0:
32,112,226144,6,0,L|112:112,1,80,8|8,0:0|0:0,0:0:0:0:
272,112,226344,2,0,L|176:112,1,80,8|8,0:0|0:0,0:0:0:0:
352,272,226544,6,0,L|368:192,1,80,8|8,0:0|0:0,0:0:0:0:
192,256,226744,2,0,L|272:256,1,80,8|8,0:0|0:0,0:0:0:0:
448,80,226944,6,0,L|464:160,1,80,8|8,0:0|0:0,0:0:0:0:
216,152,227144,2,0,L|304:152,1,80,8|8,0:0|0:0,0:0:0:0:
64,80,227344,6,0,L|48:128,4,40,0|0|0|0|8,0:0|0:0|0:0|0:0|0:0,0:0:0:0:
144,80,227644,1,8,0:0:0:0:
340,85,227744,6,0,L|394:87,1,40,0|0,0:0|0:0,0:0:0:0:
198,129,227844,2,0,L|144:131,1,40,0|0,0:0|0:0,0:0:0:0:
314,129,227944,2,0,L|368:131,1,40,0|0,0:0|0:0,0:0:0:0:
172,85,228044,2,0,L|118:87,1,40,0|0,0:0|0:0,0:0:0:0:
350,298,228144,6,0,L|404:296,1,40,0|0,0:0|0:0,0:0:0:0:
198,255,228244,2,0,L|144:253,1,40,0|0,0:0|0:0,0:0:0:0:
314,255,228344,2,0,L|368:253,1,40,0|0,0:0|0:0,0:0:0:0:
162,298,228444,2,0,L|108:296,1,40,0|0,0:0|0:0,0:0:0:0:
369,86,228544,6,0,L|423:88,1,40,0|0,0:0|0:0,0:0:0:0:
198,129,228644,2,0,L|144:131,1,40,0|0,0:0|0:0,0:0:0:0:
314,129,228744,2,0,L|368:131,1,40,0|0,0:0|0:0,0:0:0:0:
143,86,228844,2,0,L|89:88,1,40,0|0,0:0|0:0,0:0:0:0:
382,297,228944,6,0,L|436:295,1,40,0|0,0:0|0:0,0:0:0:0:
198,255,229044,2,0,L|144:253,1,40,0|0,0:0|0:0,0:0:0:0:
314,255,229144,2,0,L|368:253,1,40,0|0,0:0|0:0,0:0:0:0:
130,297,229244,2,0,L|76:295,1,40,0|0,0:0|0:0,0:0:0:0:
362,118,229344,6,0,L|386:119,1,20,0|0,0:0|0:0,0:0:0:0:
464,179,229394,2,0,L|488:180,1,20,0|0,0:0|0:0,0:0:0:0:
382,118,229444,2,0,L|358:119,1,20,0|0,0:0|0:0,0:0:0:0:
266,87,229494,2,0,L|242:88,1,20,0|0,0:0|0:0,0:0:0:0:
150,118,229544,6,0,L|126:119,1,20,0|0,0:0|0:0,0:0:0:0:
48,179,229594,2,0,L|24:180,1,20,0|0,0:0|0:0,0:0:0:0:
130,118,229644,2,0,L|154:119,1,20,0|0,0:0|0:0,0:0:0:0:
246,87,229694,2,0,L|270:88,1,20,0|0,0:0|0:0,0:0:0:0:
362,118,229744,6,0,L|386:119,1,20,0|0,0:0|0:0,0:0:0:0:
464,179,229794,2,0,L|488:180,1,20,0|0,0:0|0:0,0:0:0:0:
382,118,229844,2,0,L|358:119,1,20,0|0,0:0|0:0,0:0:0:0:
266,87,229894,2,0,L|242:88,1,20,0|0,0:0|0:0,0:0:0:0:
150,118,229944,6,0,L|126:119,1,20,0|0,0:0|0:0,0:0:0:0:
48,179,229994,2,0,L|24:180,1,20,0|0,0:0|0:0,0:0:0:0:
130,118,230044,2,0,L|154:119,1,20,0|0,0:0|0:0,0:0:0:0:
246,87,230094,2,0,L|270:88,1,20,0|0,0:0|0:0,0:0:0:0:
482,102,230144,5,0,0:0:0:0:
485,111,230156,1,0,0:0:0:0:
489,120,230169,1,0,0:0:0:0:
491,129,230181,1,0,0:0:0:0:
493,140,230194,1,0,0:0:0:0:
494,149,230206,1,0,0:0:0:0:
492,160,230219,1,0,0:0:0:0:
494,169,230231,1,0,0:0:0:0:
494,179,230244,5,0,0:0:0:0:
493,188,230256,1,0,0:0:0:0:
492,198,230269,1,0,0:0:0:0:
490,207,230281,1,0,0:0:0:0:
486,216,230294,1,0,0:0:0:0:
368,176,230306,1,0,0:0:0:0:
256,176,230319,1,0,0:0:0:0:
144,176,230331,1,0,0:0:0:0:
30,102,230344,5,0,0:0:0:0:
27,111,230356,1,0,0:0:0:0:
23,120,230369,1,0,0:0:0:0:
21,129,230381,1,0,0:0:0:0:
19,140,230394,1,0,0:0:0:0:
18,149,230406,1,0,0:0:0:0:
20,160,230419,1,0,0:0:0:0:
18,169,230431,1,0,0:0:0:0:
18,179,230444,5,0,0:0:0:0:
19,188,230456,1,0,0:0:0:0:
20,198,230469,1,0,0:0:0:0:
22,207,230481,1,0,0:0:0:0:
26,216,230494,1,0,0:0:0:0:
144,176,230506,1,0,0:0:0:0:
256,176,230519,1,0,0:0:0:0:
368,176,230531,1,0,0:0:0:0:
482,102,230544,5,0,0:0:0:0:
485,111,230556,1,0,0:0:0:0:
489,120,230569,1,0,0:0:0:0:
491,129,230581,1,0,0:0:0:0:
493,140,230594,1,0,0:0:0:0:
494,149,230606,1,0,0:0:0:0:
492,160,230619,1,0,0:0:0:0:
494,169,230631,1,0,0:0:0:0:
494,179,230644,5,0,0:0:0:0:
493,188,230656,1,0,0:0:0:0:
492,198,230669,1,0,0:0:0:0:
490,207,230681,1,0,0:0:0:0:
486,216,230694,1,0,0:0:0:0:
368,176,230706,1,0,0:0:0:0:
256,176,230719,1,0,0:0:0:0:
144,176,230731,1,0,0:0:0:0:
30,102,230744,5,0,0:0:0:0:
27,111,230756,1,0,0:0:0:0:
23,120,230769,1,0,0:0:0:0:
21,129,230781,1,0,0:0:0:0:
19,140,230794,1,0,0:0:0:0:
18,149,230806,1,0,0:0:0:0:
20,160,230819,1,0,0:0:0:0:
18,169,230831,1,0,0:0:0:0:
18,179,230844,5,0,0:0:0:0:
19,188,230856,1,0,0:0:0:0:
20,198,230869,1,0,0:0:0:0:
22,207,230881,1,0,0:0:0:0:
26,216,230894,1,0,0:0:0:0:
144,176,230906,1,0,0:0:0:0:
256,176,230919,1,0,0:0:0:0:
368,176,230931,1,0,0:0:0:0:
482,102,230944,5,4,0:0:0:0:
256,144,232288,5,8,0:0:0:0:
368,144,232495,1,8,0:0:0:0:
144,144,232599,5,12,0:0:0:0:
368,160,234254,5,12,0:0:0:0:
256,144,235599,5,8,0:0:0:0:
144,144,235806,1,8,0:0:0:0:
368,144,235909,5,12,0:0:0:0:
216,160,236737,5,8,0:0:0:0:
296,160,236840,1,8,0:0:0:0:
208,208,236944,1,8,0:0:0:0:
304,208,237047,1,8,0:0:0:0:
32,272,237150,6,0,L|16:272,12,10,8|0|0|0|0|0|0|0|0|0|0|0|0,0:0|0:0|0:0|0:0|0:0|0:0|0:0|0:0|0:0|0:0|0:0|0:0|0:0,0:0:0:0:
256,272,237357,5,0,0:0:0:0:
275,269,237383,1,0,0:0:0:0:
294,262,237409,1,0,0:0:0:0:
309,249,237435,1,0,0:0:0:0:
320,232,237461,1,0,0:0:0:0:
325,212,237487,1,0,0:0:0:0:
323,192,237512,1,0,0:0:0:0:
144,224,237564,5,12,0:0:0:0:
256,144,238956,5,8,0:0:0:0:
368,144,239171,1,8,0:0:0:0:
144,144,239278,5,12,0:0:0:0:
368,224,240992,5,12,0:0:0:0:
256,144,242385,5,8,0:0:0:0:
144,144,242599,1,8,0:0:0:0:
368,144,242706,5,12,0:0:0:0:
216,160,243564,5,8,0:0:0:0:
296,160,243671,1,8,0:0:0:0:
208,208,243778,1,8,0:0:0:0:
304,208,243885,1,8,0:0:0:0:
32,272,243992,6,0,L|16:272,12,10,8|0|0|0|0|0|0|0|0|0|0|0|0,0:0|0:0|0:0|0:0|0:0|0:0|0:0|0:0|0:0|0:0|0:0|0:0|0:0,0:0:0:0:
256,272,244206,5,0,0:0:0:0:
275,269,244233,1,0,0:0:0:0:
294,262,244260,1,0,0:0:0:0:
309,249,244287,1,0,0:0:0:0:
320,232,244314,1,0,0:0:0:0:
325,212,244340,1,0,0:0:0:0:
323,192,244367,1,0,0:0:0:0:
32,192,244421,6,0,L|32:32,1,160,12|8,0:0|0:0,0:0:0:0:
336,64,244865,2,0,L|176:64,1,160,8|8,0:0|0:0,0:0:0:0:
480,192,245309,6,0,L|480:352,1,160,8|8,0:0|0:0,0:0:0:0:
176,320,245753,2,0,L|336:320,1,160,8|0,0:0|0:0,0:0:0:0:
32,272,246198,6,0,L|32:112,1,160,0|8,0:0|0:0,0:0:0:0:
480,272,246643,2,0,L|480:112,1,160,8|8,0:0|0:0,0:0:0:0:
160,112,247087,5,8,0:0:0:0:
352,112,247309,1,8,0:0:0:0:
32,192,247532,1,8,0:0:0:0:
480,192,247754,2,0,L|432:192,1,40
288,192,247865,2,0,L|336:192,1,40
480,192,247976,6,0,L|480:352,1,160,0|8,0:0|0:0,0:0:0:0:
176,320,248420,2,0,L|336:320,1,160,8|8,0:0|0:0,0:0:0:0:
32,192,248864,6,0,L|32:32,1,160,8|8,0:0|0:0,0:0:0:0:
480,48,249309,2,0,L|480:208,1,160,8|8,0:0|0:0,0:0:0:0:
160,160,249754,5,8,0:0:0:0:
352,160,249976,1,8,0:0:0:0:
32,112,250198,2,0,L|32:272,1,160,8|8,0:0|0:0,0:0:0:0:
352,208,250642,5,8,0:0:0:0:
160,208,250864,1,8,0:0:0:0:
480,256,251087,1,8,0:0:0:0:
32,160,251309,2,0,L|80:160,1,40
224,160,251421,2,0,L|176:160,1,40
32,240,251532,5,4,0:0:0:0:
176,240,251754,1,8,0:0:0:0:
336,240,251976,1,8,0:0:0:0:
480,240,252198,1,8,0:0:0:0:
64,144,252421,5,8,0:0:0:0:
256,144,252643,1,8,0:0:0:0:
448,144,252865,1,8,0:0:0:0:
160,96,253087,1,8,0:0:0:0:
352,96,253309,5,8,0:0:0:0:
256,64,253532,1,8,0:0:0:0:
352,96,253754,1,8,0:0:0:0:
160,96,253976,1,8,0:0:0:0:
448,144,254198,5,8,0:0:0:0:
256,144,254421,1,8,0:0:0:0:
64,144,254643,1,8,0:0:0:0:
480,176,254865,2,0,L|432:176,1,40
288,176,254976,2,0,L|352:176,1,40
480,240,255087,5,0,0:0:0:0:
32,240,255310,1,8,0:0:0:0:
352,240,255532,1,8,0:0:0:0:
160,240,255754,1,8,0:0:0:0:
448,144,255977,5,8,0:0:0:0:
256,160,256199,1,8,0:0:0:0:
64,144,256421,1,8,0:0:0:0:
352,144,256643,1,8,0:0:0:0:
160,144,256865,5,8,0:0:0:0:
256,64,257088,1,8,0:0:0:0:
352,96,257310,1,8,0:0:0:0:
160,96,257532,1,8,0:0:0:0:
448,144,257754,5,8,0:0:0:0:
64,144,257977,1,8,0:0:0:0:
448,176,258199,1,8,0:0:0:0:
32,192,258421,2,0,L|96:192,1,40
224,192,258532,2,0,L|176:192,1,40
32,144,258643,5,4,0:0:0:0:
464,128,258865,1,8,0:0:0:0:
48,128,259088,1,8,0:0:0:0:
352,144,259310,1,8,0:0:0:0:
160,144,259532,5,8,0:0:0:0:
464,224,259754,1,8,0:0:0:0:
256,224,259976,1,8,0:0:0:0:
48,224,260199,1,8,0:0:0:0:
464,224,260421,5,8,0:0:0:0:
48,224,260643,1,8,0:0:0:0:
464,176,260865,1,8,0:0:0:0:
256,192,261088,1,8,0:0:0:0:
48,176,261310,5,8,0:0:0:0:
464,224,261532,1,8,0:0:0:0:
48,224,261754,1,8,0:0:0:0:
464,128,261976,2,0,L|400:128,1,40
272,128,262087,2,0,L|336:128,1,40
464,80,262198,5,0,0:0:0:0:
48,128,262421,1,8,0:0:0:0:
464,128,262644,1,8,0:0:0:0:
160,176,262866,1,8,0:0:0:0:
352,176,263088,5,8,0:0:0:0:
48,224,263310,1,8,0:0:0:0:
256,224,263532,1,8,0:0:0:0:
464,224,263755,1,8,0:0:0:0:
48,224,263977,5,8,0:0:0:0:
464,224,264199,1,8,0:0:0:0:
160,176,264421,1,8,0:0:0:0:
352,176,264644,1,8,0:0:0:0:
48,144,264866,5,8,0:0:0:0:
256,128,265088,1,8,0:0:0:0:
464,128,265310,1,8,0:0:0:0:
48,96,265532,2,0,L|96:96,1,40
240,96,265643,2,0,L|192:96,1,40
48,128,265754,5,4,0:0:0:0:
256,128,265976,1,8,0:0:0:0:
464,128,266199,1,8,0:0:0:0:
160,128,266421,1,8,0:0:0:0:
352,128,266643,5,8,0:0:0:0:
48,96,266865,1,8,0:0:0:0:
256,96,267088,1,8,0:0:0:0:
464,96,267310,1,8,0:0:0:0:
160,80,267532,5,8,0:0:0:0:
352,80,267754,1,8,0:0:0:0:
48,80,267976,1,8,0:0:0:0:
256,80,268199,1,8,0:0:0:0:
464,80,268421,5,8,0:0:0:0:
48,128,268643,1,8,0:0:0:0:
464,128,268865,1,8,0:0:0:0:
48,80,269087,2,0,L|96:80,1,40
240,80,269198,2,0,L|192:80,1,40
48,128,269309,1,4,0:0:0:0:
128,128,269421,5,8,0:0:0:0:
384,128,269532,2,0,L|464:128,1,80,8|8,0:0|0:0,0:0:0:0:
112,192,269754,2,0,L|208:192,1,80,8|8,0:0|0:0,0:0:0:0:
320,192,269976,2,0,L|416:192,1,80,8|8,0:0|0:0,0:0:0:0:
128,128,270198,6,0,L|48:128,1,80,12|8,0:0|0:0,0:0:0:0:
464,128,270421,2,0,L|384:128,1,80,8|8,0:0|0:0,0:0:0:0:
192,192,270643,2,0,L|112:192,1,80,8|8,0:0|0:0,0:0:0:0:
400,192,270865,2,0,L|320:192,1,80,0|0,0:0|0:0,0:0:0:0:
280,192,271032,1,0,0:0:0:0:
96,192,271087,5,4,0:0:0:0:
32,192,271198,2,0,L|16:144,2,40,0|0|0,0:0|0:0|0:0,0:0:0:0:
96,160,271421,1,0,0:0:0:0:
288,160,271532,2,0,L|384:160,2,80,4|0|0,0:0|0:0|0:0,0:0:0:0:
480,128,271865,2,0,L|496:176,1,40,0|0,0:0|0:0,0:0:0:0:
208,112,271976,6,0,P|144:128|128:192,1,120,4|0,0:0|2:0,0:0:0:0:
304,112,272198,6,0,P|368:128|384:192,1,120,4|0,0:0|2:0,0:0:0:0:
176,192,272421,6,0,L|352:192,2,160,4|4|4,0:0|0:0|0:0,0:0:0:0:
336,192,273309,6,0,L|176:192,2,160,2|0|2,0:0|0:0|0:0,0:0:0:0:
112,272,274643,6,0,P|144:240|192:128,2,160,0|2|0,0:0|0:0|0:0,0:0:0:0:
296,240,275977,2,0,L|200:240,1,80,2|0,0:0|0:0,0:0:0:0:
400,288,276421,5,2,0:0:0:0:
417,210,276644,1,0,0:0:0:0:
385,138,276866,1,0,0:0:0:0:
318,98,277088,1,2,0:0:0:0:
192,112,277311,1,0,0:0:0:0:
271,105,277533,1,2,0:0:0:0:
339,146,277755,1,2,0:0:0:0:
370,218,277978,1,0,0:0:0:0:
208,224,278200,6,0,P|144:208|80:128,1,160,2|2,0:0|0:0,0:0:0:0:
304,224,279089,2,0,P|368:208|432:128,1,160,2|2,0:0|0:0,0:0:0:0:
96,128,279978,6,0,L|432:128,1,320,2|2,0:0|0:0,0:0:0:0:
336,96,281090,1,0,0:0:0:0:
176,96,281312,2,0,L|256:96,1,80
96,96,281757,6,0,P|96:144|192:192,1,160,2|2,0:0|0:0,0:0:0:0:
96,240,282349,1,0,0:0:0:0:
184,232,282498,1,2,0:0:0:0:
320,224,282646,2,0,P|393:200|409:125,1,160,0|2,0:0|0:0,0:0:0:0:
256,128,283313,1,0,0:0:0:0:
416,80,283535,6,0,L|256:80,1,160,2|0,0:0|0:0,0:0:0:0:
96,80,284202,2,0,L|256:80,1,160,2|0,0:0|0:0,0:0:0:0:
416,80,284869,2,0,L|336:80,1,80,2|0,0:0|0:0,0:0:0:0:
176,128,285314,6,0,L|336:128,2,160,2|0|0,0:0|0:0|0:0,0:0:0:0:
448,144,287092,5,4,0:0:0:0:
288,144,287314,2,0,L|272:192,2,40,0|0|8,0:0|0:0|0:0,0:0:0:0:
368,160,287759,1,0,0:0:0:0:
208,160,287981,6,0,L|224:208,1,40,8|0,0:0|0:0,0:0:0:0:
304,224,288204,2,0,L|264:224,1,40
384,224,288426,2,0,L|400:304,1,80,8|0,0:0|0:0,0:0:0:0:
368,336,288759,1,0,0:0:0:0:
272,320,288870,6,0,L|320:320,2,40,8|0|0,0:0|0:0|0:0,0:0:0:0:
112,336,289315,2,0,L|192:336,1,80,8|0,0:0|0:0,0:0:0:0:
32,336,289760,6,0,L|16:256,1,80,8|0,0:0|0:0,0:0:0:0:
48,224,290093,1,0,0:0:0:0:
144,192,290204,2,0,L|32:192,1,80
104,152,290538,1,0,0:0:0:0:
224,144,290649,6,0,L|160:144,2,40,8|0|0,0:0|0:0|0:0,0:0:0:0:
384,144,291093,2,0,L|304:144,1,80,8|0,0:0|0:0,0:0:0:0:
464,144,291538,6,0,P|480:96|448:80,1,80,8|0,0:0|0:0,0:0:0:0:
423,48,291872,1,0,0:0:0:0:
336,80,291983,2,0,L|448:80,1,80,8|0,0:0|0:0,0:0:0:0:
376,128,292316,1,0,0:0:0:0:
280,128,292427,6,0,L|232:128,2,40,8|0|0,0:0|0:0|0:0,0:0:0:0:
128,176,292872,2,0,L|208:176,1,80,8|0,0:0|0:0,0:0:0:0:
48,176,293317,6,0,L|64:128,1,40,8|0,0:0|0:0,0:0:0:0:
176,128,293539,2,0,L|272:128,1,80,0|8,0:0|0:0,0:0:0:0:
64,112,293983,1,0,0:0:0:0:
416,96,294206,5,8,0:0:0:0:
240,96,294428,1,8,0:0:0:0:
432,128,294650,1,8,0:0:0:0:
256,128,294873,1,8,0:0:0:0:
80,128,295095,1,8,0:0:0:0:
256,128,295317,1,8,0:0:0:0:
64,160,295540,1,8,0:0:0:0:
240,160,295762,1,8,0:0:0:0:
432,192,295984,5,8,0:0:0:0:
256,192,296206,1,8,0:0:0:0:
80,192,296429,1,8,0:0:0:0:
256,208,296651,1,8,0:0:0:0:
64,224,296873,1,8,0:0:0:0:
240,240,297096,1,8,0:0:0:0:
448,240,297318,1,8,0:0:0:0:
272,240,297540,1,8,0:0:0:0:
448,192,297763,6,0,L|432:240,1,40,8|8,0:0|0:0,0:0:0:0:
336,224,297985,2,0,L|320:272,1,40,8|8,0:0|0:0,0:0:0:0:
224,272,298207,2,0,L|208:320,1,40,8|8,0:0|0:0,0:0:0:0:
304,304,298430,2,0,L|320:352,1,40,8|8,0:0|0:0,0:0:0:0:
64,192,298652,6,0,L|80:240,1,40,8|8,0:0|0:0,0:0:0:0:
176,224,298874,2,0,L|192:272,1,40,8|8,0:0|0:0,0:0:0:0:
288,272,299096,2,0,L|304:320,1,40,8|8,0:0|0:0,0:0:0:0:
208,304,299319,2,0,L|192:352,1,40,8|8,0:0|0:0,0:0:0:0:
384,160,299541,6,0,L|480:160,1,80,4|0,0:0|0:0,0:0:0:0:
128,160,299875,2,0,L|32:160,1,80,4|0,0:0|0:0,0:0:0:0:
432,224,300208,6,0,L|352:224,1,80,4|0,0:0|0:0,0:0:0:0:
80,224,300541,2,0,L|160:224,1,80,4|0,0:0|0:0,0:0:0:0:
352,160,300875,6,0,L|144:160,1,191.999994140625,12|4,0:0|0:0,0:0:0:0:
176,192,304519,6,0,L|256:192,1,80,4|0,0:0|0:0,0:0:0:0:
96,144,304719,2,0,L|192:144,1,80,8|0,0:0|0:0,0:0:0:0:
336,144,304919,2,0,L|416:144,1,80,8|0,0:0|0:0,0:0:0:0:
256,96,305119,2,0,L|336:96,1,80,8|0,0:0|0:0,0:0:0:0:
496,96,305319,6,0,L|336:96,1,160,8|8,0:0|0:0,0:0:0:0:
176,96,305619,2,0,L|16:96,1,160,0|0,0:0|0:0,0:0:0:0:
296,96,305919,2,0,L|216:96,1,80,8|8,0:0|0:0,0:0:0:0:
416,176,306119,6,0,L|496:176,1,80,8|0,0:0|0:0,0:0:0:0:
272,176,306319,2,0,L|256:256,1,80,8|0,0:0|0:0,0:0:0:0:
96,176,306519,2,0,L|16:176,1,80,8|0,0:0|0:0,0:0:0:0:
240,176,306719,2,0,L|256:256,1,80,8|0,0:0|0:0,0:0:0:0:
464,256,306919,6,0,P|480:320|384:336,1,160,8|8,0:0|0:0,0:0:0:0:
176,256,307219,2,0,P|160:320|256:336,1,160,0|0,0:0|0:0,0:0:0:0:
464,256,307519,2,0,L|480:336,1,80,8|8,0:0|0:0,0:0:0:0:
176,240,307719,6,0,L|272:240,1,80,8|0,0:0|0:0,0:0:0:0:
416,240,307919,2,0,L|320:240,1,80,8|0,0:0|0:0,0:0:0:0:
16,176,308119,2,0,L|112:176,1,80,8|0,0:0|0:0,0:0:0:0:
256,176,308319,2,0,L|160:176,1,80,8|0,0:0|0:0,0:0:0:0:
336,176,308519,6,0,L|512:176,1,160,8|8,0:0|0:0,0:0:0:0:
176,176,308819,2,0,L|16:176,1,160,0|0,0:0|0:0,0:0:0:0:
256,176,309119,2,0,L|352:176,1,80,8|8,0:0|0:0,0:0:0:0:
176,128,309319,6,0,L|368:128,1,160,8|0,0:0|0:0,0:0:0:0:
144,256,309619,2,0,P|80:240|80:144,1,160,0|0,0:0|0:0,0:0:0:0:
368,256,309919,2,0,L|464:256,1,80,8|0,0:0|0:0,0:0:0:0:
176,272,310119,6,0,L|160:192,1,80,8|0,0:0|0:0,0:0:0:0:
256,192,310319,2,0,L|256:96,1,80,8|0,0:0|0:0,0:0:0:0:
432,144,310519,1,0,0:0:0:0:
440,104,310569,1,0,0:0:0:0:
448,65,310619,1,0,0:0:0:0:
80,144,310719,2,0,L|64:64,1,80,0|0,0:0|0:0,0:0:0:0:
256,64,310919,6,0,L|368:64,1,80,8|0,0:0|0:0,0:0:0:0:
176,112,311119,2,0,L|96:112,1,80,8|0,0:0|0:0,0:0:0:0:
416,160,311319,2,0,L|320:160,1,80,8|0,0:0|0:0,0:0:0:0:
176,160,311519,2,0,L|272:160,1,80,8|0,0:0|0:0,0:0:0:0:
96,208,311719,6,0,L|256:208,1,160,8|8,0:0|0:0,0:0:0:0:
416,208,312019,2,0,L|256:208,1,160,0|0,0:0|0:0,0:0:0:0:
16,208,312319,2,0,L|112:208,1,80,8|8,0:0|0:0,0:0:0:0:
256,64,312519,6,0,L|144:64,1,80,8|0,0:0|0:0,0:0:0:0:
336,112,312719,2,0,L|416:112,1,80,8|0,0:0|0:0,0:0:0:0:
96,160,312919,2,0,L|192:160,1,80,8|0,0:0|0:0,0:0:0:0:
496,160,313119,2,0,L|400:160,1,80,8|0,0:0|0:0,0:0:0:0:
256,192,313319,6,0,L|416:192,1,160,8|8,0:0|0:0,0:0:0:0:
256,224,313619,2,0,L|96:224,1,160,0|0,0:0|0:0,0:0:0:0:
496,240,313919,2,0,L|400:240,1,80,8|8,0:0|0:0,0:0:0:0:
256,272,314119,6,0,L|336:272,1,80,8|0,0:0|0:0,0:0:0:0:
96,224,314319,2,0,L|80:144,1,80,8|0,0:0|0:0,0:0:0:0:
256,144,314519,2,0,L|256:64,1,80,8|0,0:0|0:0,0:0:0:0:
416,224,314719,2,0,L|432:144,1,80,8|0,0:0|0:0,0:0:0:0:
176,192,314919,6,0,L|352:192,1,160,0|8,0:0|0:0,0:0:0:0:
256,160,315219,1,0,0:0:0:0:
416,160,315319,2,0,L|432:240,1,80,8|0,0:0|0:0,0:0:0:0:
352,224,315519,2,0,L|336:304,1,80,8|0,0:0|0:0,0:0:0:0:
176,144,315719,6,0,L|352:144,1,160,8|8,0:0|0:0,0:0:0:0:
16,192,316019,2,0,L|192:192,1,160,8|8,0:0|0:0,0:0:0:0:
336,192,316319,2,0,L|256:192,1,80,8|8,0:0|0:0,0:0:0:0:
496,192,316519,6,0,L|416:192,1,80,8|8,0:0|0:0,0:0:0:0:
216,96,316719,1,0,0:0:0:0:
256,96,316769,1,0,0:0:0:0:
296,96,316819,1,0,0:0:0:0:
32,208,316919,6,0,L|0:176,6,40,0|0|0|0|0|0|0,0:0|0:0|0:0|0:0|0:0|0:0|0:0,0:0:0:0:
256,192,317319,6,0,L|368:192,1,80,4|0,0:0|0:0,0:0:0:0:
128,192,317519,2,0,L|112:272,1,80,8|0,0:0|0:0,0:0:0:0:
352,224,317719,2,0,L|336:304,1,80,8|0,0:0|0:0,0:0:0:0:
144,224,317919,2,0,L|240:224,1,80,8|0,0:0|0:0,0:0:0:0:
416,144,318119,6,0,L|240:144,1,160,8|8,0:0|0:0,0:0:0:0:
496,192,318419,2,0,L|320:192,1,160,0|0,0:0|0:0,0:0:0:0:
16,192,318719,2,0,L|96:192,1,80,8|8,0:0|0:0,0:0:0:0:
256,192,318919,6,0,L|144:192,1,80,8|0,0:0|0:0,0:0:0:0:
384,192,319119,2,0,L|400:272,1,80,8|0,0:0|0:0,0:0:0:0:
160,224,319319,2,0,L|176:304,1,80,0|0,0:0|0:0,0:0:0:0:
368,224,319519,2,0,L|272:224,1,80,8|0,0:0|0:0,0:0:0:0:
96,144,319719,6,0,L|272:144,1,160,8|8,0:0|0:0,0:0:0:0:
16,192,320019,2,0,L|192:192,1,160,0|0,0:0|0:0,0:0:0:0:
496,192,320319,2,0,L|416:192,1,80,8|8,0:0|0:0,0:0:0:0:
80,80,320519,6,0,L|96:160,1,80,8|0,0:0|0:0,0:0:0:0:
256,176,320719,2,0,L|272:256,1,80,8|0,0:0|0:0,0:0:0:0:
432,304,320919,2,0,L|416:224,1,80,8|0,0:0|0:0,0:0:0:0:
256,208,321119,2,0,L|240:128,1,80,8|0,0:0|0:0,0:0:0:0:
48,64,321319,6,0,L|240:64,1,160,8|8,0:0|0:0,0:0:0:0:
464,64,321619,2,0,L|272:64,1,160,0|0,0:0|0:0,0:0:0:0:
48,64,321919,2,0,L|160:64,1,80,8|0,0:0|0:0,0:0:0:0:
336,160,322119,6,0,L|176:160,1,160,8|8,0:0|0:0,0:0:0:0:
416,160,322419,2,0,P|448:192|368:256,1,160,8|8,0:0|0:0,0:0:0:0:
216,288,322719,2,0,L|296:288,1,80,8|8,0:0|0:0,0:0:0:0:
96,160,322919,6,0,L|80:240,1,80,8|0,0:0|0:0,0:0:0:0:
296,288,323119,2,0,L|216:288,1,80,8|0,0:0|0:0,0:0:0:0:
416,160,323319,1,8,0:0:0:0:
424,199,323369,1,0,0:0:0:0:
432,238,323419,1,0,0:0:0:0:
96,160,323519,2,0,L|80:240,1,80,8|0,0:0|0:0,0:0:0:0:
256,192,323719,6,0,L|352:192,1,80,8|0,0:0|0:0,0:0:0:0:
96,160,323919,2,0,L|176:160,1,80,8|0,0:0|0:0,0:0:0:0:
336,160,324119,2,0,L|416:160,1,80,8|0,0:0|0:0,0:0:0:0:
176,80,324319,2,0,L|256:80,1,80,8|0,0:0|0:0,0:0:0:0:
496,80,324519,6,0,L|320:80,1,160,8|8,0:0|0:0,0:0:0:0:
176,112,324819,2,0,L|336:112,1,160,0|0,0:0|0:0,0:0:0:0:
96,112,325119,2,0,L|0:112,1,80,8|8,0:0|0:0,0:0:0:0:
256,192,325319,6,0,L|336:192,1,80,8|0,0:0|0:0,0:0:0:0:
96,192,325519,2,0,L|80:272,1,80,8|0,0:0|0:0,0:0:0:0:
256,272,325719,2,0,L|256:352,1,80,8|0,0:0|0:0,0:0:0:0:
416,192,325919,2,0,L|432:272,1,80,8|0,0:0|0:0,0:0:0:0:
176,176,326119,6,0,L|352:176,1,160,8|8,0:0|0:0,0:0:0:0:
96,160,326419,2,0,P|64:192|144:256,1,160,0|0,0:0|0:0,0:0:0:0:
296,288,326719,2,0,L|216:288,1,80,8|8,0:0|0:0,0:0:0:0:
416,288,326919,6,0,L|432:192,1,80,8|0,0:0|0:0,0:0:0:0:
256,192,327119,2,0,L|160:192,1,80,8|0,0:0|0:0,0:0:0:0:
336,192,327319,2,0,L|320:112,1,80,8|0,0:0|0:0,0:0:0:0:
144,112,327519,2,0,L|64:112,1,80,8|0,0:0|0:0,0:0:0:0:
256,112,327719,6,0,L|448:112,1,160,8|8,0:0|0:0,0:0:0:0:
336,112,328019,2,0,L|512:112,1,160,0|0,0:0|0:0,0:0:0:0:
416,160,328319,2,0,L|496:160,1,80,8|8,0:0|0:0,0:0:0:0:
208,96,328519,6,0,L|112:96,1,80,8|0,0:0|0:0,0:0:0:0:
304,96,328719,2,0,L|400:96,1,80,8|8,0:0|0:0,0:0:0:0:
176,160,328919,1,8,0:0:0:0:
256,160,329019,1,8,0:0:0:0:
336,160,329119,1,8,0:0:0:0:
176,160,329219,1,8,0:0:0:0:
336,224,329319,5,8,0:0:0:0:
176,192,329419,1,0,0:0:0:0:
256,160,329519,1,0,0:0:0:0:
336,160,329619,1,0,0:0:0:0:
90,177,329719,5,0,0:0:0:0:
70,180,329744,1,0,0:0:0:0:
51,187,329769,1,0,0:0:0:0:
34,198,329794,1,0,0:0:0:0:
20,209,329819,2,0,L|53:207,1,20,0|0,0:0|0:0,0:0:0:0:
168,241,329869,2,0,L|201:239,1,20,0|0,0:0|0:0,0:0:0:0:
321,240,329919,6,0,L|354:238,1,20,0|0,0:0|0:0,0:0:0:0:
469,244,329969,2,0,L|502:242,1,20,0|0,0:0|0:0,0:0:0:0:
469,244,330019,1,0,0:0:0:0:
452,255,330044,1,0,0:0:0:0:
433,262,330069,1,0,0:0:0:0:
413,265,330094,1,0,0:0:0:0:
256,64,330119,6,0,L|160:64,1,80,4|8,0:0|0:0,0:0:0:0:
256,128,330306,1,8,0:0:0:0:
96,128,330400,1,8,0:0:0:0:
176,160,330494,6,0,L|80:160,1,80,8|8,0:0|0:0,0:0:0:0:
176,224,330681,1,8,0:0:0:0:
16,224,330775,1,8,0:0:0:0:
256,96,330869,6,0,L|272:176,1,80,8|8,0:0|0:0,0:0:0:0:
112,176,331056,2,0,L|224:176,1,80,0|0,0:0|0:0,0:0:0:0:
32,114,331244,6,8,L|16:192,1,80,8|8,0:0|0:0,0:0:0:0:
256,156,331431,2,8,L|168:156,1,80,8|8,0:0|0:0,0:0:0:0:
148,106,331572,1,0,0:0:0:0:
256,64,331619,2,0,L|336:64,1,80,8|8,0:0|0:0,0:0:0:0:
256,128,331806,1,8,0:0:0:0:
416,128,331900,1,8,0:0:0:0:
336,160,331994,6,0,L|432:160,1,80,8|8,0:0|0:0,0:0:0:0:
336,224,332181,1,8,0:0:0:0:
496,224,332275,1,8,0:0:0:0:
256,96,332369,6,0,L|240:176,1,80,8|8,0:0|0:0,0:0:0:0:
400,176,332556,2,0,L|288:176,1,80,8|8,0:0|0:0,0:0:0:0:
481,100,332744,5,0,0:0:0:0:
481,139,332790,1,0,0:0:0:0:
466,176,332837,1,0,0:0:0:0:
436,202,332884,1,0,0:0:0:0:
398,214,332931,1,0,0:0:0:0:
336,224,333025,1,0,0:0:0:0:
176,224,333119,6,8,L|96:224,1,80,8|8,0:0|0:0,0:0:0:0:
256,176,333306,1,8,0:0:0:0:
96,176,333400,1,8,0:0:0:0:
336,224,333494,6,8,L|416:224,1,80,8|8,0:0|0:0,0:0:0:0:
256,176,333681,1,8,0:0:0:0:
416,176,333775,1,8,0:0:0:0:
128,96,333869,6,0,L|208:96,1,80,8|8,0:0|0:0,0:0:0:0:
384,96,334056,2,0,L|304:96,1,80,8|8,0:0|0:0,0:0:0:0:
464,160,334244,6,0,L|384:160,1,80,8|8,0:0|0:0,0:0:0:0:
48,160,334431,2,0,L|128:160,1,80,8|8,0:0|0:0,0:0:0:0:
176,160,334572,1,0,0:0:0:0:
336,128,334619,6,0,L|240:128,1,80,0|0,0:0|0:0,0:0:0:0:
416,128,334806,2,0,L|432:208,1,80,8|8,0:0|0:0,0:0:0:0:
72,235,334994,5,8,0:0:0:0:
33,229,335040,1,0,0:0:0:0:
16,195,335087,1,8,0:0:0:0:
34,161,335134,1,0,0:0:0:0:
72,157,335181,1,8,0:0:0:0:
150,159,335275,1,8,0:0:0:0:
229,161,335369,5,8,0:0:0:0:
268,155,335415,1,0,0:0:0:0:
285,121,335462,1,8,0:0:0:0:
267,87,335509,1,0,0:0:0:0:
229,83,335556,1,8,0:0:0:0:
149,83,335650,1,8,0:0:0:0:
307,62,335744,5,8,0:0:0:0:
420,63,335767,1,0,0:0:0:0:
440,66,335790,1,0,0:0:0:0:
458,75,335814,1,0,0:0:0:0:
473,88,335837,1,0,0:0:0:0:
485,104,335861,1,0,0:0:0:0:
492,122,335884,1,0,0:0:0:0:
368,128,335908,1,0,0:0:0:0:
208,224,335931,5,0,0:0:0:0:
92,225,335955,1,0,0:0:0:0:
72,221,335978,1,0,0:0:0:0:
54,212,336002,1,0,0:0:0:0:
39,200,336025,1,0,0:0:0:0:
27,184,336049,1,0,0:0:0:0:
20,165,336072,1,0,0:0:0:0:
144,160,336095,1,0,0:0:0:0:
256,192,336119,6,0,L|368:192,1,80,8|8,0:0|0:0,0:0:0:0:
96,176,336306,2,0,L|80:96,1,80,8|8,0:0|0:0,0:0:0:0:
336,128,336494,5,8,0:0:0:0:
176,112,336587,1,8,0:0:0:0:
416,176,336681,2,0,L|432:96,1,80,8|8,0:0|0:0,0:0:0:0:
176,64,336869,5,8,0:0:0:0:
336,64,336962,1,8,0:0:0:0:
80,97,337056,2,0,L|64:177,1,80,8|8,0:0|0:0,0:0:0:0:
432,97,337244,6,0,L|448:177,1,80,8|8,0:0|0:0,0:0:0:0:
216,64,337431,2,0,L|312:64,1,80,8|8,0:0|0:0,0:0:0:0:
304,112,337572,1,0,0:0:0:0:
80,97,337619,6,0,L|64:177,1,80,8|8,0:0|0:0,0:0:0:0:
336,208,337806,1,8,0:0:0:0:
176,224,337900,1,8,0:0:0:0:
432,97,337994,6,0,L|448:177,1,80,8|8,0:0|0:0,0:0:0:0:
176,176,338181,1,8,0:0:0:0:
336,176,338275,1,8,0:0:0:0:
96,224,338369,6,0,L|112:304,1,80,8|8,0:0|0:0,0:0:0:0:
416,224,338556,2,0,L|400:304,1,80,8|0,0:0|0:0,0:0:0:0:
56,64,338744,6,0,L|40:112,4,40,0|0|0|0|0,0:0|0:0|0:0|0:0|0:0,0:0:0:0:
136,64,339025,1,0,0:0:0:0:
296,96,339119,6,0,L|216:96,1,80,8|8,0:0|0:0,0:0:0:0:
456,152,339306,1,8,0:0:0:0:
296,152,339400,1,8,0:0:0:0:
216,96,339494,6,0,L|296:96,1,80,8|8,0:0|0:0,0:0:0:0:
56,152,339681,1,8,0:0:0:0:
216,152,339775,1,8,0:0:0:0:
400,224,339869,6,0,L|480:224,1,80,8|8,0:0|0:0,0:0:0:0:
216,216,340056,2,0,L|296:216,1,80,8|8,0:0|0:0,0:0:0:0:
112,224,340244,6,0,L|24:224,1,80,8|8,0:0|0:0,0:0:0:0:
296,144,340431,1,8,0:0:0:0:
216,144,340525,2,0,L|208:184,1,40,8|0,0:0|0:0,0:0:0:0:
400,168,340619,5,8,0:0:0:0:
480,168,340712,2,0,L|496:208,2,40,8|0|8,0:0|0:0|0:0,0:0:0:0:
400,168,340900,1,8,0:0:0:0:
216,136,340994,6,0,L|200:96,2,40,8|0|8,0:0|0:0|0:0,0:0:0:0:
296,136,341181,1,8,0:0:0:0:
32,176,341275,2,0,L|16:216,1,40,0|0,0:0|0:0,0:0:0:0:
367,248,341369,5,0,0:0:0:0:
386,247,341392,1,0,0:0:0:0:
402,236,341415,1,0,0:0:0:0:
409,217,341439,1,0,0:0:0:0:
403,198,341462,1,0,0:0:0:0:
384,188,341486,1,0,0:0:0:0:
272,182,341509,1,0,0:0:0:0:
161,179,341533,1,0,0:0:0:0:
51,177,341556,5,0,0:0:0:0:
32,176,341579,1,0,0:0:0:0:
16,165,341602,1,0,0:0:0:0:
9,146,341626,1,0,0:0:0:0:
15,127,341649,1,0,0:0:0:0:
34,117,341673,1,0,0:0:0:0:
146,111,341696,1,0,0:0:0:0:
257,108,341720,1,0,0:0:0:0:
478,111,341744,6,0,L|495:112,7,10,0|0|0|0|0|0|0|0,0:0|0:0|0:0|0:0|0:0|0:0|0:0|0:0,0:0:0:0:
478,111,341837,6,0,L|495:112,7,10,0|0|0|0|0|0|0|0,0:0|0:0|0:0|0:0|0:0|0:0|0:0|0:0,0:0:0:0:
478,111,341931,6,0,L|495:112,7,10,0|0|0|0|0|0|0|0,0:0|0:0|0:0|0:0|0:0|0:0|0:0|0:0,0:0:0:0:
478,111,342025,6,0,L|495:112,4,10,0|0|0|0|0,0:0|0:0|0:0|0:0|0:0,0:0:0:0:
96,272,342119,6,0,L|0:272,1,80,4|8,0:0|0:0,0:0:0:0:
176,256,342306,1,8,0:0:0:0:
16,224,342400,1,8,0:0:0:0:
176,208,342494,6,0,L|272:208,1,80,8|8,0:0|0:0,0:0:0:0:
96,160,342681,1,8,0:0:0:0:
256,160,342775,1,8,0:0:0:0:
416,208,342869,6,0,L|496:208,1,80,8|8,0:0|0:0,0:0:0:0:
256,208,343056,2,0,L|336:208,1,80,8|8,0:0|0:0,0:0:0:0:
96,208,343244,6,0,L|16:208,1,80,8|8,0:0|0:0,0:0:0:0:
256,208,343431,2,0,L|176:208,1,80,8|8,0:0|0:0,0:0:0:0:
216,169,343572,1,0,0:0:0:0:
416,288,343619,6,0,L|512:288,1,80,8|8,0:0|0:0,0:0:0:0:
336,288,343806,1,0,0:0:0:0:
496,288,343900,1,0,0:0:0:0:
336,232,343994,6,0,L|240:232,1,80,8|8,0:0|0:0,0:0:0:0:
416,232,344181,1,0,0:0:0:0:
256,232,344275,1,0,0:0:0:0:
96,232,344369,6,0,L|0:232,1,80,8|8,0:0|0:0,0:0:0:0:
296,160,344556,2,0,L|216:160,1,80,8|8,0:0|0:0,0:0:0:0:
480,168,344744,6,0,L|496:208,4,40,8|0|8|0|8,0:0|0:0|0:0|0:0|0:0,0:0:0:0:
400,168,345025,1,0,0:0:0:0:
176,48,345119,6,0,L|256:48,1,80,8|8,0:0|0:0,0:0:0:0:
96,48,345306,1,8,0:0:0:0:
256,48,345400,1,8,0:0:0:0:
416,48,345494,5,8,0:0:0:0:
256,48,345587,1,8,0:0:0:0:
336,48,345681,2,0,L|256:48,1,80,8|8,0:0|0:0,0:0:0:0:
464,96,345869,6,0,L|480:176,1,80,8|8,0:0|0:0,0:0:0:0:
216,176,346056,2,0,L|296:176,1,80,8|8,0:0|0:0,0:0:0:0:
32,96,346244,6,0,L|16:176,1,80,8|8,0:0|0:0,0:0:0:0:
464,96,346431,2,0,L|480:184,1,80,8|8,0:0|0:0,0:0:0:0:
432,208,346572,1,0,0:0:0:0:
216,112,346619,5,8,0:0:0:0:
296,112,346712,2,0,L|312:152,2,40,8|0|8,0:0|0:0|0:0,0:0:0:0:
216,112,346900,1,8,0:0:0:0:
416,96,346994,6,0,L|432:136,2,40,8|0|8,0:0|0:0|0:0,0:0:0:0:
216,48,347181,2,0,L|312:48,1,80,8|8,0:0|0:0,0:0:0:0:
96,112,347369,5,8,0:0:0:0:
84,144,347415,1,0,0:0:0:0:
80,176,347462,1,8,0:0:0:0:
416,128,347556,2,0,L|432:208,1,80,8|8,0:0|0:0,0:0:0:0:
128,224,347744,5,8,0:0:0:0:
384,224,347931,1,8,0:0:0:0:
16,144,348119,6,0,L|96:144,1,80,8|8,0:0|0:0,0:0:0:0:
256,144,348306,1,8,0:0:0:0:
96,192,348400,1,8,0:0:0:0:
336,192,348494,6,0,L|256:192,1,80,8|8,0:0|0:0,0:0:0:0:
96,192,348681,1,0,0:0:0:0:
256,192,348775,1,8,0:0:0:0:
16,192,348869,6,0,L|96:192,1,80,8|8,0:0|0:0,0:0:0:0:
296,120,349056,2,0,L|216:120,1,80,8|8,0:0|0:0,0:0:0:0:
416,192,349244,6,0,L|496:192,1,80,8|8,0:0|0:0,0:0:0:0:
196,208,349431,1,8,0:0:0:0:
276,208,349525,2,0,L|332:208,1,40,8|0,0:0|0:0,0:0:0:0:
496,272,349619,6,0,L|416:272,1,80,8|8,0:0|0:0,0:0:0:0:
256,272,349806,1,8,0:0:0:0:
416,240,349900,1,8,0:0:0:0:
176,240,349994,6,0,L|256:240,1,80,8|8,0:0|0:0,0:0:0:0:
416,208,350181,1,0,0:0:0:0:
256,208,350275,1,8,0:0:0:0:
496,208,350369,6,0,L|416:208,1,80,8|8,0:0|0:0,0:0:0:0:
216,104,350556,2,0,L|312:104,1,80,8|8,0:0|0:0,0:0:0:0:
32,208,350744,6,0,L|16:248,4,40,8|0|8|0|8,0:0|0:0|0:0|0:0|0:0,0:0:0:0:
112,208,351025,1,8,0:0:0:0:
344,65,351119,6,0,L|392:65,1,40,0|0,0:0|0:0,0:0:0:0:
199,115,351212,2,0,L|151:115,1,40,0|0,0:0|0:0,0:0:0:0:
313,115,351306,2,0,L|361:115,1,40,0|0,0:0|0:0,0:0:0:0:
168,65,351400,2,0,L|120:65,1,40,0|0,0:0|0:0,0:0:0:0:
360,319,351494,6,0,L|408:319,1,40,0|0,0:0|0:0,0:0:0:0:
199,269,351587,2,0,L|151:269,1,40,0|0,0:0|0:0,0:0:0:0:
313,269,351681,2,0,L|361:269,1,40,0|0,0:0|0:0,0:0:0:0:
152,319,351775,2,0,L|104:319,1,40,0|0,0:0|0:0,0:0:0:0:
372,65,351869,6,0,L|420:65,1,40,0|0,0:0|0:0,0:0:0:0:
199,115,351962,2,0,L|151:115,1,40,0|0,0:0|0:0,0:0:0:0:
313,115,352056,2,0,L|361:115,1,40,0|0,0:0|0:0,0:0:0:0:
140,65,352150,2,0,L|92:65,1,40,0|0,0:0|0:0,0:0:0:0:
391,319,352244,6,0,L|439:319,1,40,0|0,0:0|0:0,0:0:0:0:
199,269,352337,2,0,L|151:269,1,40,0|0,0:0|0:0,0:0:0:0:
313,269,352431,2,0,L|361:269,1,40,0|0,0:0|0:0,0:0:0:0:
121,319,352525,2,0,L|73:319,1,40,0|0,0:0|0:0,0:0:0:0:
362,118,352619,6,0,L|386:119,1,20,0|0,0:0|0:0,0:0:0:0:
464,179,352665,2,0,L|487:180,1,20,0|0,0:0|0:0,0:0:0:0:
382,118,352712,2,0,L|358:119,1,20,0|0,0:0|0:0,0:0:0:0:
266,87,352759,2,0,L|242:88,1,20,0|0,0:0|0:0,0:0:0:0:
150,118,352806,6,0,L|126:119,1,20,0|0,0:0|0:0,0:0:0:0:
48,179,352853,2,0,L|24:180,1,20,0|0,0:0|0:0,0:0:0:0:
130,118,352900,2,0,L|154:119,1,20,0|0,0:0|0:0,0:0:0:0:
246,87,352947,2,0,L|270:88,1,20,0|0,0:0|0:0,0:0:0:0:
362,118,352994,6,0,L|386:119,1,20,0|0,0:0|0:0,0:0:0:0:
464,179,353040,2,0,L|488:180,1,20,0|0,0:0|0:0,0:0:0:0:
382,118,353087,2,0,L|358:119,1,20,0|0,0:0|0:0,0:0:0:0:
266,87,353134,2,0,L|242:88,1,20,0|0,0:0|0:0,0:0:0:0:
150,118,353181,6,0,L|126:119,1,20,0|0,0:0|0:0,0:0:0:0:
48,179,353228,2,0,L|24:180,1,20,0|0,0:0|0:0,0:0:0:0:
130,118,353275,2,0,L|154:119,1,20,0|0,0:0|0:0,0:0:0:0:
246,87,353322,2,0,L|270:88,1,20,0|0,0:0|0:0,0:0:0:0:
484,104,353369,5,0,0:0:0:0:
487,113,353380,1,0,0:0:0:0:
491,122,353392,1,0,0:0:0:0:
493,131,353404,1,0,0:0:0:0:
495,142,353415,1,0,0:0:0:0:
496,151,353427,1,0,0:0:0:0:
494,162,353439,1,0,0:0:0:0:
496,171,353451,1,0,0:0:0:0:
496,181,353462,5,0,0:0:0:0:
495,190,353474,1,0,0:0:0:0:
494,200,353486,1,0,0:0:0:0:
492,209,353497,1,0,0:0:0:0:
488,218,353509,1,0,0:0:0:0:
368,176,353521,1,0,0:0:0:0:
256,176,353533,1,0,0:0:0:0:
144,176,353544,1,0,0:0:0:0:
28,104,353556,5,0,0:0:0:0:
25,113,353567,1,0,0:0:0:0:
21,122,353579,1,0,0:0:0:0:
19,131,353591,1,0,0:0:0:0:
17,142,353602,1,0,0:0:0:0:
16,151,353614,1,0,0:0:0:0:
18,162,353626,1,0,0:0:0:0:
16,171,353638,1,0,0:0:0:0:
16,181,353649,5,0,0:0:0:0:
17,190,353661,1,0,0:0:0:0:
18,200,353673,1,0,0:0:0:0:
20,209,353684,1,0,0:0:0:0:
24,218,353696,1,0,0:0:0:0:
144,176,353708,1,0,0:0:0:0:
256,176,353720,1,0,0:0:0:0:
368,176,353732,1,0,0:0:0:0:
484,104,353744,5,0,0:0:0:0:
487,113,353755,1,0,0:0:0:0:
491,122,353767,1,0,0:0:0:0:
493,131,353779,1,0,0:0:0:0:
495,142,353790,1,0,0:0:0:0:
496,151,353802,1,0,0:0:0:0:
494,162,353814,1,0,0:0:0:0:
496,171,353826,1,0,0:0:0:0:
496,181,353837,5,0,0:0:0:0:
495,190,353849,1,0,0:0:0:0:
494,200,353861,1,0,0:0:0:0:
492,209,353872,1,0,0:0:0:0:
488,218,353884,1,0,0:0:0:0:
368,176,353896,1,0,0:0:0:0:
256,176,353908,1,0,0:0:0:0:
144,176,353919,1,0,0:0:0:0:
28,104,353931,5,0,0:0:0:0:
25,113,353942,1,0,0:0:0:0:
21,122,353954,1,0,0:0:0:0:
19,131,353966,1,0,0:0:0:0:
17,142,353977,1,0,0:0:0:0:
16,151,353989,1,0,0:0:0:0:
18,162,354001,1,0,0:0:0:0:
16,171,354013,1,0,0:0:0:0:
16,181,354024,5,0,0:0:0:0:
17,190,354036,1,0,0:0:0:0:
18,200,354048,1,0,0:0:0:0:
20,209,354059,1,0,0:0:0:0:
24,218,354071,1,0,0:0:0:0:
144,176,354083,1,0,0:0:0:0:
256,176,354095,1,0,0:0:0:0:
368,176,354107,1,0,0:0:0:0:
496,104,354119,5,4,0:0:0:0:
496,104,354306,1,0,0:0:0:0:
496,104,354494,1,0,0:0:0:0:
288,112,354869,2,0,L|217:221,2,120,0|0|0,0:0|0:0|0:0,0:0:0:0:
16,144,355619,6,0,L|16:304,1,160
224,144,356369,2,0,L|295:253,2,120,0|0|0,0:0|0:0|0:0,0:0:0:0:
488,112,357119,6,0,L|488:288,1,160,0|0,0:0|0:0,0:0:0:0:
288,128,357869,2,0,L|222:228,2,120,0|0|0,0:0|0:0|0:0,0:0:0:0:
32,128,358619,5,0,0:0:0:0:
256,176,358900,1,0,0:0:0:0:
480,112,359181,1,0,0:0:0:0:
176,112,359369,2,0,L|256:112,1,80,0|0,0:0|0:0,0:0:0:0:
96,176,359744,2,0,L|80:256,1,80,0|0,0:0|0:0,0:0:0:0:
448,240,360119,6,0,L|368:240,2,80,0|0|0,0:0|0:0|0:0,0:0:0:0:
208,176,360869,2,0,L|336:176,1,120,0|0,0:0|0:0,0:0:0:0:
112,96,361431,1,0,0:0:0:0:
368,96,361619,6,0,L|208:96,1,160,0|0,0:0|0:0,0:0:0:0:
424,192,362369,2,0,L|304:192,2,120,0|0|0,0:0|0:0|0:0,0:0:0:0:
144,288,363119,5,0,0:0:0:0:
304,224,363306,2,0,L|144:224,1,160,0|0,0:0|0:0,0:0:0:0:
304,160,363869,1,0,0:0:0:0:
144,160,364056,2,0,L|96:160,2,40,0|0|0,0:0|0:0|0:0,0:0:0:0:
224,160,364431,1,0,0:0:0:0:
384,112,364619,6,0,L|224:112,2,160,0|0|0,0:0|0:0|0:0,0:0:0:0:
32,176,365744,1,0,0:0:0:0:
464,256,366119,6,0,P|480:232|416:136,1,160,4|0,0:0|0:0,0:0:0:0:
200,120,366869,2,0,L|328:120,1,120,0|0,0:0|0:0,0:0:0:0:
336,48,367431,1,0,0:0:0:0:
48,256,367619,6,0,P|32:232|96:136,1,160,0|0,0:0|0:0,0:0:0:0:
312,96,368369,2,0,L|192:96,1,120,0|0,0:0|0:0,0:0:0:0:
176,48,368931,1,0,0:0:0:0:
464,256,369119,6,0,P|480:232|416:136,1,160
200,144,369869,2,0,L|328:144,1,120,0|0,0:0|0:0,0:0:0:0:
336,64,370431,1,0,0:0:0:0:
48,256,370619,6,0,P|64:224|144:208,2,120,0|0|0,0:0|0:0|0:0,0:0:0:0:
224,256,371369,2,0,L|240:160,1,80,0|0,0:0|0:0,0:0:0:0:
144,160,371744,2,0,L|128:80,1,80,0|0,0:0|0:0,0:0:0:0:
384,160,372119,6,0,P|384:128|272:64,2,160,0|0|0,0:0|0:0|0:0,0:0:0:0:
224,192,373150,1,0,0:0:0:0:
448,224,373431,1,0,0:0:0:0:
128,176,373619,6,0,P|128:144|240:80,2,160,0|0|0,0:0|0:0|0:0,0:0:0:0:
288,208,374650,1,0,0:0:0:0:
48,224,374931,1,0,0:0:0:0:
480,240,375119,6,0,P|480:208|368:144,3,160,0|0|0|0,0:0|0:0|0:0|0:0,0:0:0:0:
256,128,376431,6,0,L|416:128,1,160,0|0,0:0|0:0,0:0:0:0:
272,96,376994,2,0,L|352:96,1,80,0|0,0:0|0:0,0:0:0:0:
176,144,377369,2,0,L|96:144,1,80,0|0,0:0|0:0,0:0:0:0:
240,96,377744,2,0,L|144:96,1,80,0|0,0:0|0:0,0:0:0:0:
416,144,378119,6,0,P|448:208|288:336,1,320,4|0,0:0|0:0,0:0:0:0:
176,208,379150,1,0,0:0:0:0:
352,144,379431,1,0,0:0:0:0:
96,144,379619,6,0,P|64:208|224:336,1,320
352,224,380650,1,0,0:0:0:0:
160,192,380931,1,0,0:0:0:0:
416,160,381119,6,0,L|80:160,1,320,0|0,0:0|0:0,0:0:0:0:
256,112,382150,1,0,0:0:0:0:
64,65,382431,1,0,0:0:0:0:
352,144,382619,6,0,P|384:144|448:208,2,120
160,144,383369,2,0,P|128:160|96:208,1,80,0|0,0:0|0:0,0:0:0:0:
240,256,383744,2,0,P|217:287|181:306,1,80,0|0,0:0|0:0,0:0:0:0:
304,304,384119,6,0,P|272:288|384:128,1,320,0|0,0:0|0:0,0:0:0:0:
224,96,385150,1,0,0:0:0:0:
464,96,385431,1,0,0:0:0:0:
208,304,385619,6,0,P|240:288|128:128,1,320
288,80,386650,1,0,0:0:0:0:
48,96,386931,1,0,0:0:0:0:
336,144,387119,5,0,0:0:0:0:
176,112,387306,2,0,L|352:112,1,160,0|0,0:0|0:0,0:0:0:0:
176,48,387869,1,0,0:0:0:0:
336,48,388056,2,0,L|352:96,2,40,0|0|0,0:0|0:0|0:0,0:0:0:0:
176,48,388431,1,0,0:0:0:0:
480,250,388619,6,0,P|444:137|352:64,1,240,0|0,0:0|0:0,0:0:0:0:
80,336,389369,2,0,P|172:262|65:120,1,320,0|4,0:0|0:0,0:0:0:0:
416,160,390869,6,0,L|96:160,1,320,0|0,0:0|0:0,0:0:0:0:
256,112,392369,1,0,0:0:0:0:
96,96,393119,6,0,L|416:96,2,320,0|0|0,0:0|0:0|0:0,0:0:0:0:
336,96,395369,6,0,L|176:96,1,160,0|0,0:0|0:0,0:0:0:0:
416,96,396119,6,0,P|416:160|224:288,2,320,0|0|0,0:0|0:0|0:0,0:0:0:0:
256,128,398369,1,0,0:0:0:0:
96,96,399119,6,0,P|96:160|288:288,1,320,2|0,0:0|0:0,0:0:0:0:
96,272,400431,1,2,0:0:0:0:
224,272,400619,5,0,0:0:0:0:
266,207,400806,1,2,0:0:0:0:
237,136,400994,1,2,0:0:0:0:
162,120,401181,1,2,0:0:0:0:
288,112,401369,6,0,L|304:192,1,80,2|0,0:0|0:0,0:0:0:0:
176,192,401744,2,0,L|160:112,1,80,2|0,0:0|0:0,0:0:0:0:
256,192,402119,12,0,405119,0:0:0:0:
