osu file format v14

[General]
AudioFilename: Galaxy Collapse.mp3
AudioLeadIn: 0
PreviewTime: 178453
Countdown: 0
SampleSet: Normal
StackLeniency: 0.4
Mode: 0
LetterboxInBreaks: 0
WidescreenStoryboard: 0

[Editor]
Bookmarks: 14235,60457,88012,88901,353818
DistanceSpacing: 1.4
BeatDivisor: 4
GridSize: 32
TimelineZoom: 4.400003

[Metadata]
Title:Galaxy Collapse
TitleUnicode:Galaxy Collapse
Artist:Kurokotei
ArtistUnicode:黒皇帝
Creator:Anxient
Version:End of the Universe
Source:東方Project
Tags:touhou speedcore heian alien nue houjuu undefined fantastic object dialgadu77 marathon kurokoutei Sayaka-
BeatmapID:937405
BeatmapSetID:435143

[Difficulty]
HPDrainRate:3.3
CircleSize:4.4
OverallDifficulty:9.9
ApproachRate:9.9
SliderMultiplier:1.3
SliderTickRate:1

[Events]
//Background and Video events
0,0,"bg.jpg",0,0
//Break Periods
2,28657,31442
2,176453,178653
2,230853,231532
2,232508,233498
2,234163,234843
2,237473,238200
2,239187,240147
2,240901,241629
2,301218,303418
//Storyboard Layer 0 (Background)
//Storyboard Layer 1 (Fail)
//Storyboard Layer 2 (Pass)
//Storyboard Layer 3 (Foreground)
//Storyboard Sound Samples

[TimingPoints]
13,222.222222222222,4,1,0,90,1,0
38679,-83.3333333333333,4,1,0,90,0,0
38846,-83.3333333333333,4,2,0,5,0,0
38901,-71.4285714285714,4,1,0,90,0,0
39068,-71.4285714285714,4,2,0,5,0,0
39124,-100,4,1,0,90,0,0
45809,-100,4,1,0,40,0,0
46012,-100,4,1,0,90,0,0
46040,-100,4,1,0,40,0,0
46235,-100,4,1,0,90,0,0
52901,-76.9230769230769,4,1,0,90,0,0
53346,-100,4,1,0,90,0,0
58475,-100,4,1,0,40,0,0
58679,-100,4,1,0,90,0,0
58938,-100,4,1,0,40,0,0
59124,-100,4,1,0,90,0,0
59364,-100,4,1,0,40,0,0
59568,-100,4,1,0,90,0,0
59605,-100,4,1,0,40,0,0
60012,-100,4,1,0,90,0,0
60031,-100,4,1,0,40,0,0
60457,-100,4,1,0,90,0,0
87151,-100,4,1,0,40,0,0
87346,-100,4,1,0,90,0,0
87587,-100,4,1,0,40,0,0
87790,-100,4,1,0,90,0,0
95568,-83.3333333333333,4,1,0,90,0,0
95735,-83.3333333333333,4,2,0,5,0,0
95790,-71.4285714285714,4,1,0,90,0,0
95957,-71.4285714285714,4,2,0,5,0,0
96012,-100,4,1,0,90,0,0
102698,-100,4,1,0,40,0,0
102901,-100,4,1,0,90,0,0
102938,-100,4,1,0,40,0,0
103124,-100,4,1,0,90,0,0
109790,-76.9230769230769,4,1,0,90,0,0
110235,-90.9090909090909,4,1,0,90,0,0
117790,400,4,2,0,70,1,8
129790,-100,4,1,0,70,0,8
155390,363.636363636364,4,1,0,100,1,0
156844,333.333333333333,4,1,0,100,1,0
158177,307.692307692308,4,1,0,100,1,0
159407,285.714285714286,4,1,0,100,1,0
160549,266.666666666667,4,1,0,100,1,0
161615,250,4,1,0,100,1,0
162615,235.294117647059,4,1,0,100,1,0
163556,222.222222222222,4,1,0,100,1,0
164444,210.526315789474,4,1,0,100,1,0
165286,200,4,1,0,100,1,0
166086,190.47619047619,4,1,0,100,1,0
166847,181.818181818182,4,1,0,100,1,0
167574,173.913043478261,4,1,0,100,1,0
168269,166.666666666667,4,1,0,100,1,0
168935,160,4,1,0,100,1,0
169575,153.846153846154,4,1,0,100,1,0
170190,148.148148148148,4,1,0,100,1,0
170782,142.857142857143,4,1,0,100,1,0
171353,137.931034482759,4,1,0,100,1,0
171904,133.333333333333,4,1,0,100,1,0
172437,129.032258064516,4,1,0,100,1,0
172953,125,4,1,0,100,1,0
173453,121.212121212121,4,1,0,100,1,0
173937,117.647058823529,4,1,0,100,1,0
174407,115.384615384615,4,1,0,100,1,0
176253,200,4,1,0,100,1,0
179453,-76.9230769230769,4,1,0,100,0,1
211078,-76.9230769230769,4,1,0,40,0,1
211253,-76.9230769230769,4,1,0,100,0,1
211278,-76.9230769230769,4,1,0,40,0,1
211453,-76.9230769230769,4,1,0,100,0,1
217078,-76.9230769230769,4,1,0,40,0,1
217253,-76.9230769230769,4,1,0,100,0,1
217269,-76.9230769230769,4,1,0,40,0,1
217453,-76.9230769230769,4,1,0,100,0,1
217465,-76.9230769230769,4,1,0,40,0,1
217853,-76.9230769230769,4,1,0,100,0,1
230653,206.896551724138,4,1,0,100,1,0
237273,214.285714285714,4,1,0,100,1,0
244130,222.222222222222,4,1,0,100,1,0
269018,-90.9090909090909,4,1,0,100,0,0
272574,444.444444444444,4,1,0,75,1,0
273018,-100,4,2,0,75,0,0
286796,-83.3333333333333,4,1,0,100,0,0
301018,400,4,1,0,100,1,0
304218,200,4,1,0,100,1,1
304218,-76.9230769230769,4,1,0,100,0,1
329818,187.5,4,1,0,100,1,1
329818,-66.6666666666667,4,1,0,100,0,1
335466,-66.6666666666667,4,1,0,40,0,1
335630,-66.6666666666667,4,1,0,100,0,1
335661,-66.6666666666667,4,1,0,40,0,1
335818,-66.6666666666667,4,1,0,100,0,1
341458,-66.6666666666667,4,1,0,40,0,1
341818,-66.6666666666667,4,1,0,100,0,1
353818,-100,4,1,0,100,0,0

[Colours]
Combo1 : 170,198,128
Combo2 : 205,205,205
Combo3 : 16,141,148

[HitObjects]
76,50,14235,5,0,0:0:0:0:
68,81,14346,1,0,0:0:0:0:
60,112,14457,1,0,0:0:0:0:
53,143,14568,1,0,0:0:0:0:
115,208,14679,5,2,0:0:0:0:
131,235,14790,1,0,0:0:0:0:
148,263,14901,1,0,0:0:0:0:
165,290,15012,1,0,0:0:0:0:
110,41,15123,5,0,0:0:0:0:
102,72,15234,1,0,0:0:0:0:
94,103,15345,1,0,0:0:0:0:
87,134,15456,1,0,0:0:0:0:
149,199,15567,5,2,0:0:0:0:
165,226,15678,1,0,0:0:0:0:
182,254,15789,1,0,0:0:0:0:
199,281,15900,1,0,0:0:0:0:
307,104,16012,6,0,P|310:66|307:34,1,65
359,177,16234,2,0,P|388:153|408:128,1,65
339,322,16457,6,0,L|274:316,1,65,2|0,0:0|0:0,0:0:0:0:
417,260,16679,2,0,L|481:254,1,65
250,314,16901,5,0,0:0:0:0:
211,310,17012,1,0,0:0:0:0:
172,307,17123,1,0,0:0:0:0:
133,303,17234,1,0,0:0:0:0:
149,199,17346,5,2,0:0:0:0:
124,170,17457,1,0,0:0:0:0:
99,140,17568,1,0,0:0:0:0:
74,110,17679,1,0,0:0:0:0:
158,46,17790,6,0,L|223:52,1,65
303,10,18012,2,0,L|344:60,1,65
178,71,18234,6,0,L|243:77,1,65,2|0,0:0|0:0,0:0:0:0:
323,35,18456,2,0,L|364:85,1,65
321,213,18679,6,0,P|305:158|309:122,1,65
430,270,18901,2,0,L|426:351,1,65
295,222,19123,6,0,P|279:167|283:131,1,65,2|0,0:0|0:0,0:0:0:0:
404,279,19345,2,0,L|400:360,1,65
231,314,19568,5,0,0:0:0:0:
154,298,19679,1,0,0:0:0:0:
77,283,19790,1,0,0:0:0:0:
0,267,19901,1,0,0:0:0:0:
236,290,20012,5,2,0:0:0:0:
159,274,20123,1,0,0:0:0:0:
82,259,20234,1,0,0:0:0:0:
5,243,20345,1,0,0:0:0:0:
241,266,20457,5,0,0:0:0:0:
164,250,20568,1,0,0:0:0:0:
87,235,20679,1,0,0:0:0:0:
10,219,20790,1,0,0:0:0:0:
236,290,20901,5,2,0:0:0:0:
159,274,21012,1,0,0:0:0:0:
82,259,21123,1,0,0:0:0:0:
5,243,21234,1,0,0:0:0:0:
246,242,21346,6,0,L|264:157,1,65,4|0,0:0|0:0,0:0:0:0:
318,109,21568,2,0,L|270:36,1,65
344,196,21790,5,10,0:0:0:0:
177,154,21901,1,0,0:0:0:0:
347,211,22012,5,0,0:0:0:0:
180,169,22123,1,0,0:0:0:0:
350,223,22235,6,0,L|437:215,1,65
295,319,22457,2,0,L|231:314,1,65
424,352,22679,5,10,0:0:0:0:
441,194,22790,1,0,0:0:0:0:
440,363,22901,5,0,0:0:0:0:
457,205,23012,1,0,0:0:0:0:
295,319,23124,6,0,L|231:314,1,65
421,375,23346,2,0,L|485:370,1,65
441,194,23568,2,0,P|437:247|446:287,1,65,10|0,0:0|0:0,0:0:0:0:
339,124,23790,2,0,P|341:91|336:59,1,65
225,237,24012,5,0,0:0:0:0:
361,206,24124,1,0,0:0:0:0:
208,228,24235,5,0,0:0:0:0:
344,197,24347,1,0,0:0:0:0:
134,245,24457,6,0,P|132:278|137:310,1,65,10|0,0:0|0:0,0:0:0:0:
251,145,24679,2,0,P|253:112|248:80,1,65
61,35,24901,5,0,0:0:0:0:
77,131,25012,1,0,0:0:0:0:
173,115,25124,1,0,0:0:0:0:
157,19,25235,1,0,0:0:0:0:
33,40,25346,2,0,L|-44:53,1,65,10|0,0:0|0:0,0:0:0:0:
81,155,25568,2,0,L|94:232,1,65
211,341,25790,6,0,P|249:351|283:351,1,65
131,294,26012,2,0,P|98:295|67:304,1,65
261,209,26235,2,0,L|250:144,1,65,10|0,0:0|0:0,0:0:0:0:
373,272,26457,2,0,L|362:336,1,65
505,190,26679,1,0,0:0:0:0:
256,192,26735,12,0,28457,0:0:0:0:
490,23,32012,6,0,P|480:77|480:94,1,65,4|0,0:0|0:0,0:0:0:0:
443,170,32235,2,0,P|474:215|486:227,1,65,8|0,0:0|0:0,0:0:0:0:
389,88,32457,2,0,L|307:81,1,65
241,118,32679,2,0,L|159:111,1,65,8|0,0:0|0:0,0:0:0:0:
85,109,32901,5,0,0:0:0:0:
85,109,33012,1,0,0:0:0:0:
101,199,33124,1,8,0:0:0:0:
101,199,33235,1,0,0:0:0:0:
117,289,33346,2,0,L|130:362,1,65
227,211,33568,2,0,L|238:147,1,65,8|0,0:0|0:0,0:0:0:0:
254,147,33735,1,0,0:0:0:0:
270,148,33790,5,0,0:0:0:0:
342,202,33901,1,0,0:0:0:0:
321,290,34012,1,8,0:0:0:0:
393,344,34123,1,0,0:0:0:0:
471,297,34235,2,0,L|459:233,1,65
419,151,34457,2,0,L|430:87,1,65,8|0,0:0|0:0,0:0:0:0:
364,24,34679,6,0,P|327:15|290:17,1,65
238,147,34901,2,0,P|270:146|301:138,1,65,8|0,0:0|0:0,0:0:0:0:
170,53,35124,1,0,0:0:0:0:
87,91,35235,1,0,0:0:0:0:
4,129,35346,2,0,L|17:202,1,65,8|8,0:0|0:0,0:0:0:0:
21,214,35512,1,0,0:0:0:0:
27,235,35568,5,0,0:0:0:0:
54,321,35679,1,0,0:0:0:0:
221,171,35790,2,0,P|189:162|157:162,1,65,8|0,0:0|0:0,0:0:0:0:
170,275,36012,1,0,0:0:0:0:
238,147,36124,1,0,0:0:0:0:
210,348,36235,2,0,P|178:356|146:356,1,65,8|0,0:0|0:0,0:0:0:0:
303,257,36457,6,0,L|367:262,1,65
446,307,36679,2,0,L|510:312,1,65,8|0,0:0|0:0,0:0:0:0:
346,178,36901,2,0,P|341:137|342:101,1,65
367,348,37124,1,8,0:0:0:0:
290,341,37235,1,8,0:0:0:0:
450,213,37346,6,0,P|455:172|454:136,1,65
418,65,37568,1,8,0:0:0:0:
418,65,37679,1,0,0:0:0:0:
281,172,37790,2,0,L|345:177,1,65
267,27,38012,2,0,L|202:32,1,65,8|0,0:0|0:0,0:0:0:0:
29,51,38235,6,0,P|41:89|43:125,1,65
101,183,38457,2,0,P|82:218|58:245,1,65,8|0,0:0|0:0,0:0:0:0:
182,116,38679,6,0,B|200:162|200:162|186:248,1,116.999996429443
188,247,38901,2,0,P|194:296|275:285,1,136.499995834351,8|0,0:0|0:0,0:0:0:0:
285,288,39124,6,0,L|350:283,1,65,4|0,0:0|0:0,0:0:0:0:
428,328,39346,1,8,0:0:0:0:
428,328,39457,1,0,0:0:0:0:
485,213,39568,2,0,P|487:169|472:128,1,65
314,144,39790,2,0,P|307:175|310:208,1,65,8|0,0:0|0:0,0:0:0:0:
398,60,40012,5,0,0:0:0:0:
306,50,40124,1,0,0:0:0:0:
215,40,40235,2,0,B|207:131,1,65,8|0,0:0|0:0,0:0:0:0:
0,136,40457,5,0,0:0:0:0:
92,126,40569,1,0,0:0:0:0:
183,116,40680,2,0,B|191:207,1,65,8|0,0:0|0:0,0:0:0:0:
61,317,40901,6,0,B|53:225,1,65
215,192,41124,2,0,B|207:283,1,65,8|0,0:0|0:0,0:0:0:0:
165,351,41346,1,0,0:0:0:0:
257,341,41458,1,0,0:0:0:0:
348,331,41568,2,0,L|412:336,1,65,8|0,0:0|0:0,0:0:0:0:
279,187,41790,6,0,L|215:192,1,65
356,255,42012,2,0,L|420:260,1,65,8|0,0:0|0:0,0:0:0:0:
377,100,42235,1,0,0:0:0:0:
286,107,42346,1,0,0:0:0:0:
195,114,42457,2,0,L|162:116,2,32.5,8|0|8,0:0|0:0|0:0,0:0:0:0:
398,180,42679,6,0,L|462:185,1,65
286,107,42901,1,8,0:0:0:0:
286,107,43012,1,0,0:0:0:0:
486,192,43124,2,0,P|494:159|492:120,1,65
390,272,43346,2,0,P|389:304|397:335,1,65,8|0,0:0|0:0,0:0:0:0:
279,187,43568,6,0,L|215:192,1,65
123,198,43790,1,8,0:0:0:0:
32,205,43901,1,0,0:0:0:0:
171,339,44012,2,0,P|179:308|179:276,1,65
20,229,44235,2,0,P|19:261|27:292,1,65,8|0,0:0|0:0,0:0:0:0:
61,103,44457,6,0,L|125:98,1,65
190,34,44679,2,0,L|254:29,1,65,8|0,0:0|0:0,0:0:0:0:
405,17,44901,1,0,0:0:0:0:
333,72,45012,1,0,0:0:0:0:
309,160,45124,1,8,0:0:0:0:
285,247,45235,1,0,0:0:0:0:
374,229,45346,6,0,P|406:228|456:239,1,65
235,334,45568,2,0,P|202:339|170:338,1,65,8|0,0:0|0:0,0:0:0:0:
354,328,45790,2,0,L|357:339,11,10.8333333333333
368,335,46012,2,0,L|375:359,7,16.25,8|0|0|0|0|0|0|0,0:0|0:0|0:0|0:0|0:0|0:0|0:0|0:0,0:0:0:0:
390,344,46235,6,0,L|454:339,1,65,4|0,0:0|0:0,0:0:0:0:
285,247,46457,2,0,L|221:252,1,65,8|0,0:0|0:0,0:0:0:0:
129,260,46679,1,0,0:0:0:0:
58,201,46790,1,0,0:0:0:0:
43,111,46901,2,0,L|30:29,1,65,8|0,0:0|0:0,0:0:0:0:
58,48,47068,1,0,0:0:0:0:
84,49,47124,5,0,0:0:0:0:
165,90,47235,1,0,0:0:0:0:
240,38,47346,2,0,P|287:33|319:38,1,65,8|0,0:0|0:0,0:0:0:0:
205,167,47568,2,0,L|141:172,1,65
332,116,47790,2,0,B|324:207,1,65,8|0,0:0|0:0,0:0:0:0:
312,347,48012,5,0,0:0:0:0:
358,268,48124,1,0,0:0:0:0:
267,262,48235,2,0,L|203:267,1,65,8|0,0:0|0:0,0:0:0:0:
436,282,48457,2,0,B|441:217,1,65
332,116,48679,2,0,L|268:121,1,65,8|0,0:0|0:0,0:0:0:0:
466,105,48901,5,0,0:0:0:0:
501,21,49012,1,0,0:0:0:0:
409,27,49124,2,0,L|345:32,1,65,8|0,0:0|0:0,0:0:0:0:
324,33,49290,1,0,0:0:0:0:
304,34,49346,1,0,0:0:0:0:
213,40,49457,1,0,0:0:0:0:
141,96,49568,2,0,P|131:129|128:162,1,65,8|8,0:0|0:0,0:0:0:0:
32,235,49790,6,0,P|28:202|18:171,1,65
90,311,50012,1,8,0:0:0:0:
90,311,50124,1,0,0:0:0:0:
165,260,50235,2,0,P|208:249|250:252,1,65
309,206,50457,2,0,P|347:228|374:260,1,65,8|0,0:0|0:0,0:0:0:0:
212,333,50679,5,0,0:0:0:0:
302,339,50790,1,0,0:0:0:0:
392,345,50901,2,0,L|479:351,1,65,8|0,0:0|0:0,0:0:0:0:
470,157,51124,5,0,0:0:0:0:
380,163,51235,1,0,0:0:0:0:
290,169,51346,2,0,L|203:175,1,65,8|0,0:0|0:0,0:0:0:0:
32,46,51568,5,0,0:0:0:0:
42,136,51679,1,0,0:0:0:0:
52,226,51790,2,0,L|61:310,1,65,8|0,0:0|0:0,0:0:0:0:
205,91,52012,2,0,L|140:95,1,65
290,169,52235,2,0,L|354:164,1,65,8|0,0:0|0:0,0:0:0:0:
212,333,52457,5,0,0:0:0:0:
178,248,52568,1,0,0:0:0:0:
267,261,52679,2,0,L|331:256,1,65,8|0,0:0|0:0,0:0:0:0:
469,157,52901,6,0,B|445:191|460:233|460:233|441:243|441:243|457:277|443:315,2,168.999992263794,8|8|4,0:0|0:0|0:0,0:0:0:0:
428,75,53457,1,0,0:0:0:0:
342,45,53568,2,0,P|299:39|255:48,1,65,8|0,0:0|0:0,0:0:0:0:
184,177,53790,1,0,0:0:0:0:
123,108,53901,2,0,L|116:43,2,65,0|8|0,0:0|0:0|0:0,0:0:0:0:
304,128,54235,5,0,0:0:0:0:
184,177,54346,1,0,0:0:0:0:
361,253,54457,5,8,0:0:0:0:
205,187,54568,1,0,0:0:0:0:
393,267,54679,2,0,L|402:351,1,65
219,261,54901,2,0,L|225:196,1,65,8|0,0:0|0:0,0:0:0:0:
205,187,55068,1,0,0:0:0:0:
184,177,55124,5,0,0:0:0:0:
107,225,55235,1,0,0:0:0:0:
35,168,55346,2,0,P|26:118|30:84,1,65,8|0,0:0|0:0,0:0:0:0:
64,300,55568,2,0,L|0:305,1,65
58,102,55790,2,0,L|122:107,1,65,8|0,0:0|0:0,0:0:0:0:
144,98,55957,1,0,0:0:0:0:
164,89,56012,5,0,0:0:0:0:
249,122,56124,1,0,0:0:0:0:
328,77,56235,2,0,P|336:38|334:3,1,65,8|0,0:0|0:0,0:0:0:0:
319,203,56457,2,0,L|383:198,1,65
387,213,56624,1,0,0:0:0:0:
390,228,56679,1,8,0:0:0:0:
393,244,56735,1,0,0:0:0:0:
396,259,56790,1,8,0:0:0:0:
399,274,56846,1,0,0:0:0:0:
402,289,56901,5,0,0:0:0:0:
478,338,57012,1,0,0:0:0:0:
397,382,57124,2,0,P|350:364|324:341,1,65,8|0,0:0|0:0,0:0:0:0:
263,304,57346,2,0,P|216:322|190:345,1,65
125,375,57568,2,0,P|109:380|100:380,5,21.6666666666667,8|0|0|0|0|0,0:0|0:0|0:0|0:0|0:0|0:0,0:0:0:0:
112,350,57790,6,0,L|117:272,1,65
64,210,58012,2,0,L|59:132,1,65,8|0,0:0|0:0,0:0:0:0:
117,73,58235,1,0,0:0:0:0:
117,73,58346,1,0,0:0:0:0:
193,121,58457,2,0,L|206:120,11,10.8333333333333,8|0|0|0|0|0|0|0|0|0|0|0,0:0|0:0|0:0|0:0|0:0|0:0|0:0|0:0|0:0|0:0|0:0|0:0,0:0:0:0:
200,135,58679,6,0,L|204:199,1,65
281,248,58901,2,0,L|283:280,5,21.6666666666667,8|0|0|0|0|0,0:0|0:0|0:0|0:0|0:0|0:0,0:0:0:0:
311,257,59124,2,0,L|390:251,1,65
444,192,59346,2,0,L|457:191,11,10.8333333333333,8|0|0|0|0|0|0|0|0|0|0|0,0:0|0:0|0:0|0:0|0:0|0:0|0:0|0:0|0:0|0:0|0:0|0:0,0:0:0:0:
443,180,59568,6,0,L|410:182,11,21.6666666666667
431,160,60012,6,0,L|444:159,23,10.8333333333333,8|0|0|0|0|0|0|0|0|0|0|0|0|0|0|0|0|0|0|0|0|0|0|0,0:0|0:0|0:0|0:0|0:0|0:0|0:0|0:0|0:0|0:0|0:0|0:0|0:0|0:0|0:0|0:0|0:0|0:0|0:0|0:0|0:0|0:0|0:0|0:0,0:0:0:0:
437,147,60457,5,4,0:0:0:0:
347,94,60679,1,8,0:0:0:0:
265,157,60901,1,0,0:0:0:0:
183,221,61124,1,8,0:0:0:0:
325,77,61346,2,0,P|271:59|185:93,1,130,0|8,0:0|0:0,0:0:0:0:
123,290,61790,2,0,P|184:309|245:291,1,130,0|8,0:0|0:0,0:0:0:0:
323,326,62124,1,0,0:0:0:0:
185,196,62235,5,0,0:0:0:0:
264,129,62457,1,8,0:0:0:0:
183,221,62679,1,0,0:0:0:0:
110,44,62901,1,8,0:0:0:0:
214,212,63124,6,0,L|368:202,2,130,0|8|0,0:0|0:0|0:0,0:0:0:0:
214,212,63790,1,8,0:0:0:0:
182,214,63846,1,0,0:0:0:0:
149,216,63901,1,0,0:0:0:0:
117,218,63957,1,0,0:0:0:0:
84,220,64012,5,0,0:0:0:0:
40,315,64235,1,8,0:0:0:0:
28,144,64457,2,0,L|21:8,1,130,0|8,0:0|0:0,0:0:0:0:
84,220,64901,1,0,0:0:0:0:
162,115,65124,2,0,L|316:105,2,130,8|0|8,0:0|0:0|0:0,0:0:0:0:
171,205,65679,1,0,0:0:0:0:
181,295,65790,6,0,L|335:285,1,130,0|8,0:0|0:0,0:0:0:0:
393,326,66124,1,0,0:0:0:0:
451,256,66235,2,0,P|457:218|448:163,1,65
484,345,66457,1,8,0:0:0:0:
421,98,66679,6,0,L|291:106,2,130,0|8|0,0:0|0:0|0:0,0:0:0:0:
421,98,67346,1,0,0:0:0:0:
442,74,67401,1,0,0:0:0:0:
444,42,67457,1,0,0:0:0:0:
425,16,67512,1,0,0:0:0:0:
395,8,67568,6,0,L|265:16,1,130,4|8,0:0|0:0,0:0:0:0:
124,82,68012,1,0,0:0:0:0:
219,206,68235,2,0,B|230:253|230:253|216:269|216:269|226:350,2,130,8|0|8,0:0|0:0|0:0,0:0:0:0:
134,239,68790,1,0,0:0:0:0:
301,300,68901,2,0,B|341:318|341:318|431:309,1,130,0|8,0:0|0:0,0:0:0:0:
49,272,69346,5,0,0:0:0:0:
59,142,69568,1,8,0:0:0:0:
70,12,69790,2,0,L|200:4,1,130,0|8,0:0|0:0,0:0:0:0:
180,87,70124,1,0,0:0:0:0:
275,199,70235,6,0,B|282:151|282:151|263:72,1,130,0|8,0:0|0:0,0:0:0:0:
425,16,70679,1,0,0:0:0:0:
425,16,70901,1,8,0:0:0:0:
416,47,70956,1,0,0:0:0:0:
412,79,71012,1,0,0:0:0:0:
413,112,71067,1,0,0:0:0:0:
417,144,71123,5,0,0:0:0:0:
365,305,71346,1,8,0:0:0:0:
298,178,71568,2,0,B|250:168|250:168|165:184,1,130,0|8,0:0|0:0,0:0:0:0:
430,241,72012,1,0,0:0:0:0:
365,305,72124,1,0,0:0:0:0:
452,329,72235,1,8,0:0:0:0:
250,252,72457,2,0,L|114:280,1,130,0|8,0:0|0:0,0:0:0:0:
34,298,72790,1,0,0:0:0:0:
161,154,72901,5,0,0:0:0:0:
58,73,73124,1,8,0:0:0:0:
170,182,73346,1,0,0:0:0:0:
199,4,73568,2,0,L|135:17,1,65,8|0,0:0|0:0,0:0:0:0:
285,85,73790,2,0,L|412:111,1,130,0|8,0:0|0:0,0:0:0:0:
250,252,74235,1,0,0:0:0:0:
250,252,74457,1,8,0:0:0:0:
281,258,74512,1,0,0:0:0:0:
313,265,74568,1,0,0:0:0:0:
345,271,74623,1,0,0:0:0:0:
377,278,74679,5,4,0:0:0:0:
490,215,74901,1,8,0:0:0:0:
412,111,75124,2,0,P|407:68|411:30,1,65
454,298,75346,1,8,0:0:0:0:
454,298,75568,5,0,0:0:0:0:
420,213,75679,1,0,0:0:0:0:
333,184,75790,2,0,B|230:148|230:148|220:166,1,130,8|0,0:0|0:0,0:0:0:0:
164,239,76124,1,0,0:0:0:0:
59,137,76235,2,0,P|57:86|61:53,1,65,8|0,0:0|0:0,0:0:0:0:
148,266,76457,5,0,0:0:0:0:
148,266,76568,1,0,0:0:0:0:
57,257,76679,2,0,P|19:222|0:196,1,65,8|0,0:0|0:0,0:0:0:0:
103,359,76901,2,0,B|112:377|112:377|215:341,1,130,0|8,0:0|0:0,0:0:0:0:
215,341,77346,5,0,0:0:0:0:
297,302,77457,1,0,0:0:0:0:
491,297,77568,1,8,0:0:0:0:
461,211,77679,1,0,0:0:0:0:
394,364,77790,1,0,0:0:0:0:
394,364,78012,1,8,0:0:0:0:
399,332,78067,1,0,0:0:0:0:
399,299,78123,1,0,0:0:0:0:
393,267,78178,1,0,0:0:0:0:
382,237,78234,5,0,0:0:0:0:
298,120,78457,1,8,0:0:0:0:
388,112,78568,1,0,0:0:0:0:
478,105,78679,2,0,P|497:73|500:29,1,65
301,149,78901,2,0,L|304:233,1,65,8|0,0:0|0:0,0:0:0:0:
336,36,79124,6,0,L|178:44,1,130,0|8,0:0|0:0,0:0:0:0:
139,104,79457,1,0,0:0:0:0:
226,260,79568,2,0,L|221:130,1,130,0|8,0:0|0:0,0:0:0:0:
114,95,79901,1,0,0:0:0:0:
29,193,80012,6,0,L|32:277,1,65
114,95,80235,2,0,B|73:78|73:78|-10:96,1,130,8|0,0:0|0:0,0:0:0:0:
132,321,80679,1,8,0:0:0:0:
221,130,80901,2,0,B|262:113|262:113|354:133,2,130,0|8|0,0:0|0:0|0:0,0:0:0:0:
221,130,81568,1,8,0:0:0:0:
222,162,81623,1,0,0:0:0:0:
223,195,81679,1,0,0:0:0:0:
224,227,81734,1,0,0:0:0:0:
226,260,81790,5,4,0:0:0:0:
331,336,82012,1,8,0:0:0:0:
428,249,82235,2,0,P|433:210|430:174,1,65
445,365,82457,2,0,L|521:355,1,65,8|0,0:0|0:0,0:0:0:0:
341,213,82679,5,0,0:0:0:0:
341,213,82790,1,0,0:0:0:0:
362,124,82901,2,0,P|396:101|441:88,1,65,8|0,0:0|0:0,0:0:0:0:
223,195,83124,2,0,L|225:259,1,65
273,65,83346,1,8,0:0:0:0:
273,65,83568,6,0,P|223:53|180:58,1,65
340,212,83790,2,0,L|343:277,1,65,8|0,0:0|0:0,0:0:0:0:
130,272,84012,2,0,L|125:142,1,130,0|8,0:0|0:0,0:0:0:0:
233,351,84457,6,0,P|187:359|148:357,1,65
343,277,84679,2,0,P|375:278|407:285,1,65,8|0,0:0|0:0,0:0:0:0:
257,100,84901,1,0,0:0:0:0:
257,100,85124,1,0,0:0:0:0:
251,132,85179,1,0,0:0:0:0:
249,164,85235,1,0,0:0:0:0:
249,196,85290,1,0,0:0:0:0:
252,229,85346,5,4,0:0:0:0:
336,174,85457,1,0,0:0:0:0:
159,153,85568,1,8,0:0:0:0:
159,153,85679,1,0,0:0:0:0:
370,181,85790,2,0,P|403:189|450:213,1,65
251,229,86012,1,8,0:0:0:0:
220,235,86067,1,0,0:0:0:0:
189,244,86123,1,0,0:0:0:0:
158,256,86178,1,0,0:0:0:0:
130,272,86234,5,4,0:0:0:0:
61,332,86346,1,0,0:0:0:0:
25,248,86457,2,0,P|16:204|23:158,1,65,8|0,0:0|0:0,0:0:0:0:
167,89,86679,2,0,P|166:121|158:152,1,65
221,319,86901,1,8,0:0:0:0:
249,334,86957,1,0,0:0:0:0:
279,346,87012,1,0,0:0:0:0:
310,355,87068,1,0,0:0:0:0:
342,362,87124,6,0,L|371:364,7,16.25,4|0|0|0|0|0|0|0,0:0|0:0|0:0|0:0|0:0|0:0|0:0|0:0,0:0:0:0:
391,353,87346,2,0,L|399:282,1,65,8|0,0:0|0:0,0:0:0:0:
377,106,87568,2,0,L|360:104,11,10.8333333333333,4|0|0|0|0|0|0|0|0|0|0|0,0:0|0:0|0:0|0:0|0:0|0:0|0:0|0:0|0:0|0:0|0:0|0:0,0:0:0:0:
343,109,87790,2,0,L|335:180,1,65,8|0,0:0|0:0,0:0:0:0:
512,220,88012,5,2,0:0:0:0:
486,214,88235,1,2,0:0:0:0:
460,208,88457,1,2,0:0:0:0:
167,89,88901,5,4,0:0:0:0:
153,178,89012,1,0,0:0:0:0:
81,120,89124,2,0,L|1:116,1,65,8|0,0:0|0:0,0:0:0:0:
185,186,89346,2,0,L|249:182,1,65
90,274,89568,1,8,0:0:0:0:
16,147,89679,1,0,0:0:0:0:
109,306,89790,6,0,L|173:302,1,65
309,240,90012,2,0,P|330:200|330:168,1,65,8|0,0:0|0:0,0:0:0:0:
373,347,90235,1,0,0:0:0:0:
269,321,90346,1,0,0:0:0:0:
433,287,90457,1,8,0:0:0:0:
242,326,90568,1,0,0:0:0:0:
434,202,90679,6,0,L|431:129,1,65
252,117,90901,2,0,L|249:181,1,65,8|0,0:0|0:0,0:0:0:0:
349,40,91124,1,0,0:0:0:0:
258,32,91235,2,0,L|164:26,1,65,0|8,0:0|0:0,0:0:0:0:
389,48,91457,1,0,0:0:0:0:
162,26,91568,6,0,P|133:62|122:100,1,65
249,181,91790,2,0,L|252:117,1,65,8|0,0:0|0:0,0:0:0:0:
87,209,92012,2,0,L|89:273,1,65
237,197,92235,1,8,0:0:0:0:
238,229,92290,1,0,0:0:0:0:
239,261,92346,1,8,0:0:0:0:
241,294,92401,1,0,0:0:0:0:
242,326,92457,5,0,0:0:0:0:
325,362,92568,1,0,0:0:0:0:
400,310,92679,2,0,P|436:299|467:301,1,65,8|0,0:0|0:0,0:0:0:0:
334,115,92901,2,0,L|331:179,1,65
467,135,93124,1,8,0:0:0:0:
462,44,93235,1,0,0:0:0:0:
334,88,93346,6,0,L|240:82,1,65
422,219,93568,2,0,L|486:214,1,65,8|0,0:0|0:0,0:0:0:0:
249,181,93790,1,0,0:0:0:0:
205,262,93901,1,0,0:0:0:0:
308,320,94012,2,0,P|307:288|295:257,1,65,8|0,0:0|0:0,0:0:0:0:
227,79,94235,6,0,L|133:73,1,65
365,90,94457,1,8,0:0:0:0:
304,21,94568,1,0,0:0:0:0:
330,179,94679,2,0,L|394:174,1,65
205,262,94901,2,0,P|188:234|180:202,1,65,8|0,0:0|0:0,0:0:0:0:
335,361,95124,5,0,0:0:0:0:
244,350,95235,1,0,0:0:0:0:
153,339,95346,2,0,L|81:354,1,65,8|0,0:0|0:0,0:0:0:0:
46,159,95568,6,0,B|64:200|64:200|57:272,1,116.999996429443
123,131,95790,2,0,P|166:111|265:170,1,136.499995834351
62,76,96012,6,0,L|59:3,1,65,4|0,0:0|0:0,0:0:0:0:
180,202,96235,2,0,L|177:266,1,65,8|0,0:0|0:0,0:0:0:0:
313,94,96457,1,0,0:0:0:0:
241,40,96568,1,0,0:0:0:0:
152,33,96679,2,0,L|70:28,1,65,8|0,0:0|0:0,0:0:0:0:
340,77,96901,6,0,L|404:73,1,65
260,227,97124,2,0,L|257:163,1,65,8|0,0:0|0:0,0:0:0:0:
414,174,97346,1,0,0:0:0:0:
418,264,97457,1,0,0:0:0:0:
246,138,97568,1,8,0:0:0:0:
432,153,97679,1,0,0:0:0:0:
326,306,97790,6,0,P|291:320|245:329,1,65
445,271,98012,2,0,L|442:335,1,65,8|0,0:0|0:0,0:0:0:0:
450,132,98235,1,0,0:0:0:0:
359,143,98346,1,0,0:0:0:0:
302,71,98457,1,8,0:0:0:0:
211,60,98568,1,0,0:0:0:0:
120,49,98679,6,0,P|80:82|65:109,1,65
249,202,98901,2,0,L|246:138,1,65,8|0,0:0|0:0,0:0:0:0:
115,224,99124,2,0,L|118:288,1,65
259,353,99346,1,8,0:0:0:0:
291,351,99401,1,0,0:0:0:0:
323,350,99457,1,8,0:0:0:0:
356,348,99512,1,0,0:0:0:0:
388,347,99568,5,0,0:0:0:0:
453,283,99679,1,0,0:0:0:0:
397,210,99790,2,0,P|387:168|394:122,1,65,8|0,0:0|0:0,0:0:0:0:
310,266,100012,2,0,L|214:273,1,65
245,137,100235,1,8,0:0:0:0:
371,125,100346,1,0,0:0:0:0:
162,144,100457,6,0,L|165:208,1,65
302,71,100679,2,0,L|305:7,1,65,8|0,0:0|0:0,0:0:0:0:
465,168,100901,1,0,0:0:0:0:
275,149,101012,1,0,0:0:0:0:
493,93,101124,2,0,L|490:157,1,65,8|0,0:0|0:0,0:0:0:0:
245,137,101346,5,0,0:0:0:0:
192,62,101457,1,0,0:0:0:0:
101,51,101568,1,8,0:0:0:0:
10,43,101679,1,0,0:0:0:0:
49,124,101790,2,0,L|52:188,1,65
97,315,102012,1,8,0:0:0:0:
35,213,102124,1,0,0:0:0:0:
245,137,102235,6,0,P|294:162|324:168,1,65
158,261,102457,2,0,P|109:286|79:292,1,65,8|0,0:0|0:0,0:0:0:0:
296,272,102679,6,0,P|302:275|305:275,11,10.8333333333333
331,282,102901,6,0,P|344:277|351:273,5,21.6666666666667,8|0|0|0|0|0,0:0|0:0|0:0|0:0|0:0|0:0,0:0:0:0:
363,264,103124,5,4,0:0:0:0:
398,180,103235,1,0,0:0:0:0:
454,251,103346,2,0,P|467:298|467:337,1,65,8|0,0:0|0:0,0:0:0:0:
392,155,103568,2,0,P|395:122|406:91,1,65
339,30,103790,1,8,0:0:0:0:
309,18,103845,1,0,0:0:0:0:
277,13,103901,1,0,0:0:0:0:
244,16,103956,1,0,0:0:0:0:
214,27,104012,5,0,0:0:0:0:
155,97,104124,1,0,0:0:0:0:
74,54,104235,2,0,P|52:22|43:-4,1,65,8|0,0:0|0:0,0:0:0:0:
165,124,104457,1,0,0:0:0:0:
99,207,104568,2,0,L|19:214,2,65,0|8|0,0:0|0:0|0:0,0:0:0:0:
277,194,104901,5,0,0:0:0:0:
203,247,105012,1,0,0:0:0:0:
288,349,105124,2,0,P|290:317|286:285,1,65,8|0,0:0|0:0,0:0:0:0:
454,251,105346,2,0,P|449:283|451:315,1,65
299,180,105568,1,8,0:0:0:0:
439,224,105679,1,0,0:0:0:0:
203,247,105790,6,0,L|200:183,1,65
384,101,106012,2,0,L|381:165,1,65,8|0,0:0|0:0,0:0:0:0:
361,169,106179,1,0,0:0:0:0:
341,173,106235,1,0,0:0:0:0:
276,75,106346,1,0,0:0:0:0:
373,10,106457,2,0,P|416:16|454:38,1,65,8|8,0:0|0:0,0:0:0:0:
196,99,106679,6,0,P|153:93|115:71,1,65
99,207,106901,2,0,L|102:271,1,65,8|0,0:0|0:0,0:0:0:0:
24,114,107124,1,0,0:0:0:0:
175,177,107235,1,0,0:0:0:0:
115,350,107346,2,0,P|72:344|34:322,1,65,8|0,0:0|0:0,0:0:0:0:
220,284,107568,5,0,0:0:0:0:
309,298,107679,1,0,0:0:0:0:
398,312,107790,2,0,P|425:283|439:247,1,65,8|0,0:0|0:0,0:0:0:0:
320,86,108012,1,0,0:0:0:0:
323,210,108124,1,0,0:0:0:0:
428,146,108235,2,0,P|445:104|448:59,1,65,8|0,0:0|0:0,0:0:0:0:
235,34,108457,5,0,0:0:0:0:
235,125,108569,1,0,0:0:0:0:
188,202,108679,2,0,P|157:228|128:241,1,65,8|0,0:0|0:0,0:0:0:0:
44,76,108901,2,0,P|72:90|96:112,1,65
71,290,109124,1,8,0:0:0:0:
24,159,109235,1,0,0:0:0:0:
235,125,109346,6,0,L|299:120,1,65
284,288,109568,2,0,L|220:284,1,65,8|0,0:0|0:0,0:0:0:0:
410,210,109790,6,0,B|432:248|419:286|419:286|438:296|438:296|422:330|436:368,2,168.999992263794,0|8|4,0:0|0:0|0:0,0:0:0:0:
383,119,110346,1,0,0:0:0:0:
422,34,110457,2,0,P|458:21|500:17,1,71.5000021820069,8|0,0:0|0:0,0:0:0:0:
356,146,110679,2,0,L|284:140,1,71.5000021820069
212,82,110901,1,8,0:0:0:0:
121,104,111012,1,0,0:0:0:0:
68,181,111124,6,0,L|72:277,1,71.5000021820069
284,288,111346,2,0,L|287:216,1,71.5000021820069,8|0,0:0|0:0,0:0:0:0:
155,355,111568,1,0,0:0:0:0:
145,219,111679,2,0,L|141:147,1,71.5000021820069,0|8,0:0|0:0,0:0:0:0:
177,147,111846,1,0,0:0:0:0:
212,145,111901,1,0,0:0:0:0:
248,142,111957,1,0,0:0:0:0:
284,140,112012,5,0,0:0:0:0:
367,183,112124,1,0,0:0:0:0:
451,95,112235,2,0,P|460:57|461:15,1,71.5000021820069,8|0,0:0|0:0,0:0:0:0:
478,211,112457,1,0,0:0:0:0:
355,293,112568,2,0,L|283:287,1,71.5000021820069,0|8,0:0|0:0,0:0:0:0:
454,313,112790,1,0,0:0:0:0:
454,313,112846,1,0,0:0:0:0:
454,313,112901,5,0,0:0:0:0:
388,378,113012,1,0,0:0:0:0:
262,261,113124,2,0,P|255:215|261:179,1,71.5000021820069,8|0,0:0|0:0,0:0:0:0:
289,88,113346,2,0,P|293:70|292:53,3,35.7500010910034
257,73,113568,1,8,0:0:0:0:
221,68,113623,1,0,0:0:0:0:
185,67,113679,1,0,0:0:0:0:
150,69,113734,1,0,0:0:0:0:
114,75,113790,5,0,0:0:0:0:
48,140,113901,1,0,0:0:0:0:
141,289,114012,2,0,P|148:243|142:207,1,71.5000021820069,8|0,0:0|0:0,0:0:0:0:
20,280,114235,2,0,P|17:315|24:350,1,71.5000021820069
139,198,114457,2,0,L|177:195,5,23.833334060669,8|0|0|0|0|0,0:0|0:0|0:0|0:0|0:0|0:0,0:0:0:0:
186,194,114679,6,0,L|261:190,1,71.5000021820069
310,361,114901,2,0,L|238:357,1,71.5000021820069,8|0,0:0|0:0,0:0:0:0:
382,251,115124,1,0,0:0:0:0:
235,274,115235,1,0,0:0:0:0:
413,247,115346,2,0,L|431:246,7,17.8750005455017,8|0|0|0|0|0|0|0,0:0|0:0|0:0|0:0|0:0|0:0|0:0|0:0,0:0:0:0:
448,244,115568,6,0,P|456:203|453:168,1,71.5000021820069
477,83,115790,2,0,P|465:65|451:54,5,23.833334060669,8|0|0|0|0|0,0:0|0:0|0:0|0:0|0:0|0:0,0:0:0:0:
451,84,116012,2,0,L|351:76,1,71.5000021820069
286,71,116235,2,0,L|267:72,7,17.8750005455017,8|0|0|0|0|0|0|0,0:0|0:0|0:0|0:0|0:0|0:0|0:0|0:0,0:0:0:0:
279,86,116457,6,0,P|285:120|283:156,1,71.5000021820069
69,115,116679,2,0,P|66:79|73:44,1,71.5000021820069,8|0,0:0|0:0,0:0:0:0:
241,245,116901,2,0,L|312:240,1,71.5000021820069
103,194,117124,2,0,L|31:189,1,71.5000021820069,8|0,0:0|0:0,0:0:0:0:
189,33,117346,6,0,L|183:179,1,143.000004364014
257,343,117790,5,0,0:0:0:0:
196,274,118190,1,2,0:0:0:0:
111,239,118590,2,0,B|18:237|18:237|51:282,2,130,0|2|0,0:0|0:0|0:0,0:0:0:0:
111,239,119790,1,2,0:0:0:0:
196,274,119990,1,0,0:0:0:0:
278,235,120190,6,0,P|316:224|348:224,1,65
403,347,120590,2,0,P|370:345|339:335,1,65,2|0,0:0|0:0,0:0:0:0:
443,215,120990,1,0,0:0:0:0:
432,346,121190,1,0,0:0:0:0:
445,182,121390,1,2,0:0:0:0:
320,319,121590,1,0,0:0:0:0:
447,149,121790,6,0,P|394:139|294:154,4,130,0|2|0|2|0,0:0|0:0|0:0|0:0|0:0,0:0:0:0:
447,149,124190,5,2,0:0:0:0:
415,141,124390,1,0,0:0:0:0:
382,138,124590,1,0,0:0:0:0:
350,140,124790,1,0,0:0:0:0:
318,146,124990,1,0,0:0:0:0:
318,146,125390,5,0,0:0:0:0:
251,117,125523,1,0,0:0:0:0:
183,87,125656,1,0,0:0:0:0:
386,176,125790,1,2,0:0:0:0:
386,176,126190,2,0,L|392:250,1,65
308,278,126590,6,0,B|264:257|264:257|155:273,1,130,2|0,0:0|0:0,0:0:0:0:
108,217,127190,2,0,P|75:194|97:113,1,130
103,309,127790,2,0,P|74:326|42:336,1,65
167,159,128190,2,0,L|303:180,2,130,2|0|2,0:0|0:0|0:0,0:0:0:0:
384,337,129790,5,4,0:0:0:0:
442,267,130190,1,0,0:0:0:0:
411,97,130590,1,8,0:0:0:0:
411,97,130990,2,0,L|325:102,1,65
434,183,131390,5,0,0:0:0:0:
466,181,131490,1,0,0:0:0:0:
498,180,131590,1,0,0:0:0:0:
317,105,131790,2,0,P|311:144|313:187,1,65,2|0,0:0|0:0,0:0:0:0:
384,337,132190,1,8,0:0:0:0:
384,337,132590,2,0,L|298:342,1,65
132,352,132990,5,0,0:0:0:0:
222,315,133190,1,0,0:0:0:0:
203,219,133390,2,0,L|185:136,1,65,8|0,0:0|0:0,0:0:0:0:
229,343,133790,5,4,0:0:0:0:
192,253,133990,1,0,0:0:0:0:
96,272,134190,2,0,L|13:290,1,65
181,122,134590,6,0,P|215:114|324:131,4,130,8|0|4|4|2,0:0|0:0|0:0|0:0|0:0,0:0:0:0:
181,122,136990,5,8,0:0:0:0:
188,193,137190,1,0,0:0:0:0:
195,264,137390,1,0,0:0:0:0:
202,335,137590,1,0,0:0:0:0:
357,189,137790,1,0,0:0:0:0:
357,189,138190,5,8,0:0:0:0:
371,331,138323,1,8,0:0:0:0:
357,189,138456,1,8,0:0:0:0:
371,331,138590,1,4,0:0:0:0:
371,331,138990,2,0,L|463:337,1,65
357,189,139390,6,0,L|228:197,1,130
154,153,139990,1,0,0:0:0:0:
227,35,140190,2,0,P|227:68|220:100,1,65,8|0,0:0|0:0,0:0:0:0:
79,193,140590,2,0,P|71:161|71:128,1,65
159,275,140990,6,0,L|30:283,1,130,0|8,0:0|0:0,0:0:0:0:
42,320,141590,1,0,0:0:0:0:
143,188,141790,2,0,L|78:192,1,65,4|0,0:0|0:0,0:0:0:0:
125,357,142190,1,8,0:0:0:0:
157,354,142290,1,8,0:0:0:0:
189,352,142390,1,8,0:0:0:0:
222,350,142490,1,8,0:0:0:0:
254,348,142590,6,0,L|382:339,1,130,12|0,0:0|0:0,0:0:0:0:
396,309,143190,1,0,0:0:0:0:
445,135,143390,1,8,0:0:0:0:
322,238,143590,1,0,0:0:0:0:
354,235,143690,1,0,0:0:0:0:
386,233,143790,1,0,0:0:0:0:
475,321,143990,1,0,0:0:0:0:
367,153,144190,5,0,0:0:0:0:
334,155,144290,1,0,0:0:0:0:
302,157,144390,1,0,0:0:0:0:
219,118,144590,1,8,0:0:0:0:
238,243,144790,1,0,0:0:0:0:
208,42,144990,2,0,L|143:46,1,65,4|0,0:0|0:0,0:0:0:0:
130,76,145290,1,0,0:0:0:0:
117,105,145390,1,8,0:0:0:0:
280,66,145590,1,0,0:0:0:0:
39,79,145790,6,0,P|36:116|44:147,1,65
215,181,146190,2,0,P|221:149|218:117,1,65,8|0,0:0|0:0,0:0:0:0:
102,282,146590,1,4,0:0:0:0:
100,191,146790,2,0,L|35:186,2,65,0|8|0,0:0|0:0|0:0,0:0:0:0:
197,197,147390,6,0,L|325:205,1,130,0|8,0:0|0:0,0:0:0:0:
357,229,147990,1,0,0:0:0:0:
426,81,148190,2,0,L|361:76,1,65,4|0,0:0|0:0,0:0:0:0:
429,182,148590,2,0,L|493:186,1,65,8|0,0:0|0:0,0:0:0:0:
395,338,148990,1,4,0:0:0:0:
395,338,149790,5,8,0:0:0:0:
317,330,149990,1,0,0:0:0:0:
239,323,150190,1,0,0:0:0:0:
161,316,150390,1,0,0:0:0:0:
83,309,150590,1,2,0:0:0:0:
83,309,150990,5,8,0:0:0:0:
161,316,151123,1,8,0:0:0:0:
239,323,151256,1,8,0:0:0:0:
395,338,151390,1,4,0:0:0:0:
395,338,151790,2,0,L|482:345,1,65
317,281,152190,6,0,B|308:247|308:247|316:142,1,130,0|8,0:0|0:0,0:0:0:0:
393,235,152790,1,0,0:0:0:0:
239,323,152990,2,0,L|174:317,1,65,4|0,0:0|0:0,0:0:0:0:
398,257,153390,2,0,L|462:262,1,65
294,123,153790,6,0,L|166:115,1,130,2|0,0:0|0:0,0:0:0:0:
108,170,154390,1,0,0:0:0:0:
174,317,154590,1,8,0:0:0:0:
95,139,154790,1,0,0:0:0:0:
268,248,154990,5,8,0:0:0:0:
300,250,155090,1,8,0:0:0:0:
332,252,155190,1,8,0:0:0:0:
365,254,155290,1,8,0:0:0:0:
397,256,155390,5,12,0:0:0:0:
432,66,155753,1,8,0:0:0:0:
432,66,156117,1,0,0:0:0:0:
432,66,156480,1,8,0:0:0:0:
365,254,156844,5,4,0:0:0:0:
399,63,157177,1,8,0:0:0:0:
399,63,157510,1,0,0:0:0:0:
399,63,157844,1,8,0:0:0:0:
332,252,158177,5,4,0:0:0:0:
366,61,158484,1,8,0:0:0:0:
366,61,158792,1,0,0:0:0:0:
366,61,159100,1,8,0:0:0:0:
300,250,159407,5,4,0:0:0:0:
334,59,159692,1,8,0:0:0:0:
334,59,159978,1,0,0:0:0:0:
334,59,160264,1,8,0:0:0:0:
268,248,160549,5,4,0:0:0:0:
302,57,160815,1,8,0:0:0:0:
302,57,161082,1,0,0:0:0:0:
302,57,161349,1,8,0:0:0:0:
254,336,161615,5,4,0:0:0:0:
180,282,161865,1,8,0:0:0:0:
89,279,162115,1,0,0:0:0:0:
15,333,162365,1,8,0:0:0:0:
256,305,162615,5,4,0:0:0:0:
182,251,162850,1,8,0:0:0:0:
91,248,163085,1,0,0:0:0:0:
17,302,163320,1,8,0:0:0:0:
77,104,163556,6,0,B|50:128|50:128|164:106,1,130,4|8,0:0|0:0,0:0:0:0:
281,156,164000,2,0,B|308:180|308:180|216:163,1,130,0|8,0:0|0:0,0:0:0:0:
353,59,164444,5,4,0:0:0:0:
377,146,164654,1,8,0:0:0:0:
401,233,164865,1,0,0:0:0:0:
425,320,165075,1,8,0:0:0:0:
417,35,165286,5,4,0:0:0:0:
423,124,165486,1,8,0:0:0:0:
430,214,165686,1,0,0:0:0:0:
437,304,165886,1,8,0:0:0:0:
228,75,166086,5,4,0:0:0:0:
191,158,166276,1,8,0:0:0:0:
340,296,166466,1,0,0:0:0:0:
303,213,166656,1,8,0:0:0:0:
202,60,166847,5,4,0:0:0:0:
173,165,167028,1,8,0:0:0:0:
376,301,167210,1,0,0:0:0:0:
317,209,167392,1,8,0:0:0:0:
223,343,167574,6,0,L|356:332,1,130,4|8,0:0|0:0,0:0:0:0:
133,297,167921,2,0,L|0:286,1,130,0|8,0:0|0:0,0:0:0:0:
264,63,168269,5,4,0:0:0:0:
233,148,168435,1,8,0:0:0:0:
146,176,168602,1,0,0:0:0:0:
60,206,168769,1,8,0:0:0:0:
243,43,168935,5,4,0:0:0:0:
212,128,169095,1,8,0:0:0:0:
125,156,169255,1,0,0:0:0:0:
39,186,169415,1,8,0:0:0:0:
317,124,169575,6,0,P|368:113|446:123,1,130,4|8,0:0|0:0,0:0:0:0:
339,232,169882,2,0,P|275:242|211:230,1,130,0|8,0:0|0:0,0:0:0:0:
441,328,170190,5,4,0:0:0:0:
363,200,170338,1,8,0:0:0:0:
451,348,170486,1,0,0:0:0:0:
444,122,170634,1,8,0:0:0:0:
351,334,170782,6,0,L|205:323,1,130,4|8,0:0|0:0,0:0:0:0:
125,156,171067,2,0,L|254:165,1,130,0|8,0:0|0:0,0:0:0:0:
99,330,171353,5,4,0:0:0:0:
68,244,171490,1,8,0:0:0:0:
37,158,171628,2,0,B|43:58|43:58|58:84,1,130,0|8,0:0|0:0,0:0:0:0:
14,313,171904,5,4,0:0:0:0:
68,244,172037,1,8,0:0:0:0:
156,225,172170,1,0,0:0:0:0:
240,260,172304,1,8,0:0:0:0:
343,72,172437,5,4,0:0:0:0:
322,187,172566,1,8,0:0:0:0:
437,208,172695,1,0,0:0:0:0:
458,93,172824,1,8,0:0:0:0:
341,294,172953,6,0,P|394:329|467:338,1,130,4|8,0:0|0:0,0:0:0:0:
343,72,173203,2,0,P|279:81|225:116,1,130,0|8,0:0|0:0,0:0:0:0:
131,310,173453,5,4,0:0:0:0:
95,140,173574,1,8,0:0:0:0:
137,339,173695,2,0,B|214:354|214:354|280:344,1,130,0|8,0:0|0:0,0:0:0:0:
30,241,173937,5,4,0:0:0:0:
221,213,174054,1,8,0:0:0:0:
0,247,174172,2,0,B|9:350|9:350|30:318,1,130,0|8,0:0|0:0,0:0:0:0:
90,106,174407,5,4,0:0:0:0:
133,231,174522,1,8,0:0:0:0:
108,69,174637,5,0,0:0:0:0:
131,267,174752,1,8,0:0:0:0:
236,134,174868,5,4,0:0:0:0:
17,158,174983,1,8,0:0:0:0:
260,184,175099,5,4,0:0:0:0:
41,160,175214,1,8,0:0:0:0:
340,118,175330,5,4,0:0:0:0:
280,303,175445,1,8,0:0:0:0:
159,149,175560,1,0,0:0:0:0:
369,115,175676,2,0,L|406:109,19,32.5
425,105,176253,5,4,0:2:0:0:
106,68,179453,6,0,P|102:113|107:156,1,84.4999961318971
316,182,179653,2,0,P|320:140|316:98,1,84.4999961318971,8|0,0:0|0:0,0:0:0:0:
138,259,179853,1,0,0:0:0:0:
301,299,179953,1,0,0:0:0:0:
110,252,180053,2,0,L|114:343,1,84.4999961318971,8|0,0:0|0:0,0:0:0:0:
316,271,180253,6,0,B|359:251|359:251|492:279,1,168.999992263794,0|8,0:0|0:0,0:0:0:0:
441,181,180553,2,0,P|410:155|488:67,1,168.999992263794
316,182,180853,2,0,L|222:229,1,84.4999961318971,8|0,0:0|0:0,0:0:0:0:
102,45,181053,5,0,0:0:0:0:
134,141,181153,1,0,0:0:0:0:
288,56,181253,2,0,P|248:45|206:44,1,84.4999961318971,8|0,0:0|0:0,0:0:0:0:
23,164,181453,2,0,P|65:162|105:151,1,84.4999961318971
240,219,181653,2,0,L|242:303,1,84.4999961318971,8|0,0:0|0:0,0:0:0:0:
148,262,181853,5,0,0:0:0:0:
326,286,181953,2,0,L|429:297,1,84.4999961318971,0|8,0:0|0:0,0:0:0:0:
145,293,182153,5,0,0:0:0:0:
323,317,182253,2,0,L|426:328,1,84.4999961318971
142,324,182453,5,8,0:0:0:0:
320,348,182553,1,0,0:0:0:0:
58,285,182653,6,0,L|55:200,1,84.4999961318971
205,44,182853,2,0,L|202:128,1,84.4999961318971,8|0,0:0|0:0,0:0:0:0:
52,73,183053,5,0,0:0:0:0:
229,136,183153,1,0,0:0:0:0:
4,141,183253,2,0,L|7:57,1,84.4999961318971,8|0,0:0|0:0,0:0:0:0:
155,231,183453,6,0,B|199:218|199:218|334:235,1,168.999992263794,0|8,0:0|0:0,0:0:0:0:
419,208,183753,2,0,B|461:172|461:172|451:84|451:84|429:123,1,168.999992263794
287,45,184053,2,0,L|370:54,1,84.4999961318971,8|0,0:0|0:0,0:0:0:0:
386,297,184253,6,0,B|342:310|342:310|220:295,1,168.999992263794,0|8,0:0|0:0,0:0:0:0:
123,159,184553,2,0,P|88:190|126:303,1,168.999992263794
201,128,184853,1,8,0:0:0:0:
38,92,184953,1,0,0:0:0:0:
235,135,185053,6,0,L|321:153,1,84.4999961318971
208,36,185253,2,0,L|122:54,1,84.4999961318971,8|0,0:0|0:0,0:0:0:0:
291,227,185453,5,8,0:0:0:0:
291,40,185553,1,8,0:0:0:0:
219,294,185653,5,8,0:0:0:0:
370,212,185753,1,8,0:0:0:0:
123,159,185853,6,0,P|88:190|126:303,1,168.999992263794,0|8,0:0|0:0,0:0:0:0:
313,329,186153,1,0,0:0:0:0:
221,378,186253,2,0,L|219:294,1,84.4999961318971
372,128,186453,2,0,L|370:212,1,84.4999961318971,8|0,0:0|0:0,0:0:0:0:
219,260,186653,5,0,0:0:0:0:
396,319,186753,2,0,B|362:329|312:328,1,84.4999961318971,0|8,0:0|0:0,0:0:0:0:
294,142,186953,1,0,0:0:0:0:
473,160,187053,2,0,L|471:244,1,84.4999961318971
374,101,187253,2,0,L|376:17,1,84.4999961318971,8|0,0:0|0:0,0:0:0:0:
218,224,187453,5,0,0:0:0:0:
118,203,187553,1,0,0:0:0:0:
54,123,187653,2,0,P|19:175|10:214,1,84.4999961318971,8|0,0:0|0:0,0:0:0:0:
180,131,187853,2,0,L|182:47,1,84.4999961318971
149,302,188053,1,8,0:0:0:0:
17,118,188153,1,0,0:0:0:0:
160,345,188253,6,0,B|209:345|243:335,1,84.4999961318971
59,297,188453,1,8,0:0:0:0:
255,265,188553,2,0,B|290:229|307:198,1,84.4999961318971
149,302,188753,1,0,0:0:0:0:
265,141,188853,2,0,B|265:91|255:57,1,84.4999961318971,8|0,0:0|0:0,0:0:0:0:
395,207,189053,6,0,B|385:241|385:291,1,84.4999961318971
481,109,189253,1,8,0:0:0:0:
294,122,189353,1,0,0:0:0:0:
492,144,189453,2,0,B|502:178|502:228,1,84.4999961318971
385,55,189653,5,8,0:0:0:0:
385,55,189753,1,0,0:0:0:0:
306,198,189853,2,0,B|296:232|296:282,1,84.4999961318971
385,55,190053,5,8,0:0:0:0:
392,156,190153,1,0,0:0:0:0:
399,257,190253,2,0,B|409:291|409:341,1,84.4999961318971
203,287,190453,2,0,B|203:237|213:203,1,84.4999961318971,8|0,0:0|0:0,0:0:0:0:
99,56,190653,6,0,B|57:91|57:91|182:58|183:57,1,168.999992263794,0|8,0:0|0:0,0:0:0:0:
83,176,190953,2,0,P|70:230|73:370,1,168.999992263794
225,172,191253,1,8,0:0:0:0:
28,124,191353,1,0,0:0:0:0:
212,203,191453,6,0,B|261:203|295:193,1,84.4999961318971
404,98,191653,1,8,0:0:0:0:
297,283,191753,1,0,0:0:0:0:
377,82,191853,5,0,0:0:0:0:
377,82,191903,1,0,0:0:0:0:
377,82,191953,2,0,P|385:117|382:148,1,42.2499980659486
474,180,192053,1,8,0:0:0:0:
462,220,192103,1,0,0:0:0:0:
445,259,192153,1,0,0:0:0:0:
421,294,192203,1,0,0:0:0:0:
392,324,192253,6,0,L|200:315,1,168.999992263794,4|8,0:0|0:0,0:0:0:0:
129,354,192553,1,0,0:0:0:0:
57,223,192653,2,0,P|48:167|57:116,1,84.4999961318971
39,317,192853,2,0,P|6:354|-34:373,1,84.4999961318971,8|0,0:0|0:0,0:0:0:0:
152,175,193053,6,0,L|320:182,1,168.999992263794,0|8,0:0|0:0,0:0:0:0:
445,70,193353,2,0,B|424:97|424:97|437:198|437:198|466:212,1,168.999992263794
309,81,193653,1,8,0:0:0:0:
512,140,193753,1,0,0:0:0:0:
269,70,193853,6,0,L|178:65,1,84.4999961318971
239,249,194053,2,0,L|323:253,1,84.4999961318971,8|0,0:0|0:0,0:0:0:0:
129,174,194253,1,0,0:0:0:0:
65,310,194353,1,0,0:0:0:0:
157,327,194453,1,8,0:0:0:0:
37,157,194553,1,0,0:0:0:0:
177,349,194653,6,0,L|261:353,1,84.4999961318971
65,310,194853,1,8,0:0:0:0:
239,249,194953,6,0,L|323:253,1,84.4999961318971
127,210,195153,1,0,0:0:0:0:
301,149,195253,2,0,L|385:153,1,84.4999961318971,8|0,0:0|0:0,0:0:0:0:
188,109,195453,6,0,L|104:105,1,84.4999961318971
277,24,195653,1,8,0:0:0:0:
376,41,195753,1,0,0:0:0:0:
455,103,195853,2,0,P|478:156|483:202,1,84.4999961318971
408,306,196053,1,8,0:0:0:0:
273,228,196153,2,0,P|282:186|301:149,1,84.4999961318971
498,280,196353,6,0,L|503:368,1,84.4999961318971,0|8,0:0|0:0,0:0:0:0:
310,338,196553,2,0,B|265:312|265:312|122:329,1,168.999992263794
81,178,196853,1,8,0:0:0:0:
273,228,196953,1,0,0:0:0:0:
139,100,197053,6,0,L|130:3,1,84.4999961318971
53,200,197253,1,8,0:0:0:0:
199,166,197353,6,0,L|261:91,1,84.4999961318971
27,222,197553,1,0,0:0:0:0:
194,255,197653,2,0,L|291:246,1,84.4999961318971,8|0,0:0|0:0,0:0:0:0:
438,291,197853,5,0,0:0:0:0:
438,291,197953,1,0,0:0:0:0:
386,203,198053,1,8,0:0:0:0:
386,203,198153,1,0,0:0:0:0:
453,40,198253,5,0,0:0:0:0:
457,61,198303,1,0,0:0:0:0:
457,82,198353,1,0,0:0:0:0:
455,103,198403,1,0,0:0:0:0:
450,123,198453,1,8,0:0:0:0:
374,230,198553,1,0,0:0:0:0:
252,100,198653,6,0,L|168:96,1,84.4999961318971
194,255,198853,2,0,L|291:246,1,84.4999961318971,8|0,0:0|0:0,0:0:0:0:
84,181,199053,1,0,0:0:0:0:
68,328,199153,1,0,0:0:0:0:
74,151,199253,1,8,0:0:0:0:
158,341,199353,1,0,0:0:0:0:
64,121,199453,6,0,B|110:89|110:89|241:93,1,168.999992263794,0|8,0:0|0:0,0:0:0:0:
278,247,199753,2,0,L|109:262,1,168.999992263794
299,138,200053,1,8,0:0:0:0:
309,228,200153,1,0,0:0:0:0:
320,318,200253,6,0,L|417:327,1,84.4999961318971
486,266,200453,2,0,P|497:212|488:157,1,84.4999961318971,8|0,0:0|0:0,0:0:0:0:
290,55,200653,2,0,P|288:97|298:137,1,84.4999961318971
409,213,200853,1,8,0:0:0:0:
447,78,200953,1,0,0:0:0:0:
263,33,201053,6,0,P|209:33|155:48,1,84.4999961318971
85,163,201253,1,8,0:0:0:0:
258,69,201353,2,0,P|219:107|192:155,1,84.4999961318971
223,286,201553,1,0,0:0:0:0:
382,130,201653,2,0,L|297:137,1,84.4999961318971,8|0,0:0|0:0,0:0:0:0:
120,258,201853,6,0,B|105:305|105:305|224:286,1,168.999992263794,0|8,0:0|0:0,0:0:0:0:
306,329,202153,1,0,0:0:0:0:
394,295,202253,2,0,P|407:246|407:197,1,84.4999961318971
202,131,202453,2,0,P|204:173|216:213,1,84.4999961318971,8|0,0:0|0:0,0:0:0:0:
387,66,202653,5,0,0:0:0:0:
298,94,202753,1,0,0:0:0:0:
459,129,202853,1,8,0:0:0:0:
265,87,202953,1,0,0:0:0:0:
394,295,203053,2,0,P|407:246|407:197,1,84.4999961318971
202,131,203253,2,0,P|204:173|216:213,1,84.4999961318971,8|0,0:0|0:0,0:0:0:0:
107,303,203453,2,0,L|22:298,1,84.4999961318971
217,335,203653,6,0,P|259:313|301:305,1,84.4999961318971,8|0,0:0|0:0,0:0:0:0:
130,221,203853,2,0,P|88:199|46:191,1,84.4999961318971
298,94,204053,2,0,P|295:136|283:176,1,84.4999961318971,8|0,0:0|0:0,0:0:0:0:
83,51,204253,6,0,L|40:57,2,42.2499980659486
151,114,204453,1,8,0:0:0:0:
151,114,204553,1,0,0:0:0:0:
213,45,204653,1,0,0:0:0:0:
247,20,204703,1,0,0:0:0:0:
288,10,204753,1,0,0:0:0:0:
329,13,204803,1,0,0:0:0:0:
367,31,204853,2,0,P|390:55|400:88,1,42.2499980659486,8|0,0:0|0:0,0:0:0:0:
448,157,204953,2,0,P|447:189|431:220,1,42.2499980659486
416,303,205053,6,0,L|238:308,1,168.999992263794,4|8,0:0|0:0,0:0:0:0:
165,263,205353,1,0,0:0:0:0:
85,310,205453,2,0,P|44:345|19:390,1,84.4999961318971
83,215,205653,2,0,P|28:211|-19:225,1,84.4999961318971,8|0,0:0|0:0,0:0:0:0:
243,220,205853,6,0,B|253:176|253:176|235:36,1,168.999992263794,0|8,0:0|0:0,0:0:0:0:
151,91,206153,1,0,0:0:0:0:
320,242,206253,2,0,L|345:149,1,84.4999961318971
154,105,206453,2,0,L|165:190,1,84.4999961318971,8|0,0:0|0:0,0:0:0:0:
343,60,206653,5,0,0:0:0:0:
435,97,206753,1,0,0:0:0:0:
481,184,206853,1,8,0:0:0:0:
461,282,206953,1,0,0:0:0:0:
383,343,207053,2,0,L|298:350,1,84.4999961318971
143,194,207253,2,0,L|154:279,1,84.4999961318971,8|0,0:0|0:0,0:0:0:0:
78,346,207453,6,0,P|42:355|17:358,2,42.2499980659486
209,357,207653,1,8,0:0:0:0:
118,199,207753,1,0,0:0:0:0:
232,176,207853,2,0,P|268:185|293:188,2,42.2499980659486
93,204,208053,1,8,0:0:0:0:
187,43,208153,1,0,0:0:0:0:
238,278,208253,6,0,L|406:273,1,168.999992263794,0|8,0:0|0:0,0:0:0:0:
484,206,208553,1,0,0:0:0:0:
402,145,208653,2,0,P|392:97|397:49,1,84.4999961318971
492,237,208853,2,0,P|493:279|484:320,1,84.4999961318971,8|0,0:0|0:0,0:0:0:0:
355,109,209053,6,0,L|270:111,1,84.4999961318971
168,115,209253,1,8,0:0:0:0:
354,140,209353,6,0,L|269:142,1,84.4999961318971
167,146,209553,1,0,0:0:0:0:
100,21,209653,2,0,L|184:18,1,84.4999961318971,8|0,0:0|0:0,0:0:0:0:
228,218,209853,5,0,0:0:0:0:
196,229,209903,1,0,0:0:0:0:
162,230,209953,1,0,0:0:0:0:
130,222,210003,1,0,0:0:0:0:
101,204,210053,6,0,P|83:171|79:139,4,42.2499980659486,8|0|0|0|0,0:0|0:0|0:0|0:0|0:0,0:0:0:0:
62,280,210353,1,0,0:0:0:0:
24,355,210453,2,0,P|67:362|112:347,1,84.4999961318971,8|0,0:0|0:0,0:0:0:0:
201,316,210653,6,0,L|294:326,1,84.4999961318971
251,136,210853,2,0,L|158:146,1,84.4999961318971,8|0,0:0|0:0,0:0:0:0:
309,309,211053,2,0,L|330:311,7,21.1249990329743
327,286,211253,2,0,L|348:288,7,21.1249990329743,8|0|0|0|0|0|0|0,0:0|0:0|0:0|0:0|0:0|0:0|0:0|0:0,0:0:0:0:
345,263,211453,6,0,P|358:209|356:162,1,84.4999961318971
469,270,211653,2,0,P|480:310|482:352,1,84.4999961318971,8|0,0:0|0:0,0:0:0:0:
342,155,211853,5,0,0:0:0:0:
511,192,211953,1,0,0:0:0:0:
326,129,212053,5,8,0:0:0:0:
495,92,212153,1,0,0:0:0:0:
310,103,212253,6,0,L|268:17,1,84.4999961318971
274,206,212453,1,8,0:0:0:0:
191,264,212553,2,0,P|150:281|106:282,1,84.4999961318971
277,303,212753,1,0,0:0:0:0:
135,198,212853,2,0,L|93:112,1,84.4999961318971,8|0,0:0|0:0,0:0:0:0:
279,330,213053,6,0,L|372:340,1,84.4999961318971
442,289,213253,1,8,0:0:0:0:
442,289,213353,1,0,0:0:0:0:
342,155,213453,2,0,P|329:215|336:261,1,84.4999961318971
506,174,213653,2,0,P|506:131|494:91,1,84.4999961318971,8|0,0:0|0:0,0:0:0:0:
305,48,213853,6,0,B|249:43|249:43|265:177,1,168.999992263794,0|8,0:0|0:0,0:0:0:0:
167,118,214153,2,0,P|151:164|90:162,1,84.4999961318971
87,164,214303,1,0,0:0:0:0:
80,130,214353,1,0,0:0:0:0:
74,96,214403,1,0,0:0:0:0:
68,62,214453,1,8,0:0:0:0:
236,32,214553,1,0,0:0:0:0:
205,226,214653,6,0,P|186:268|157:296,1,84.4999961318971
262,154,214853,2,0,L|346:163,1,84.4999961318971,8|0,0:0|0:0,0:0:0:0:
125,292,215053,2,0,L|40:282,1,84.4999961318971
302,245,215253,1,8,0:0:0:0:
302,245,215353,1,0,0:0:0:0:
302,245,215453,2,0,P|308:295|300:345,1,84.4999961318971
427,117,215653,5,8,0:0:0:0:
418,209,215753,1,0,0:0:0:0:
409,301,215853,2,0,L|493:310,1,84.4999961318971
302,245,216053,2,0,L|217:254,1,84.4999961318971,8|0,0:0|0:0,0:0:0:0:
428,84,216253,6,0,B|393:58|393:58|239:70,1,168.999992263794,0|8,0:0|0:0,0:0:0:0:
191,121,216553,2,0,P|152:139|95:95,1,84.4999961318971
105,111,216703,1,0,0:0:0:0:
96,96,216753,1,0,0:0:0:0:
271,151,216853,2,0,P|278:184|277:206,1,42.2499980659486,8|0,0:0|0:0,0:0:0:0:
137,224,216953,2,0,P|118:252|102:267,1,42.2499980659486
283,330,217053,6,0,L|304:327,7,21.1249990329743
314,348,217253,2,0,L|330:346,11,14.0833326886495,8|0|0|0|0|0|0|0|0|0|0|0,0:0|0:0|0:0|0:0|0:0|0:0|0:0|0:0|0:0|0:0|0:0|0:0,0:0:0:0:
335,332,217453,2,0,L|347:330,30,10.5624995164871,0|0|0|0|0|0|0|0|0|0|0|0|0|0|0|8|0|0|0|0|0|0|0|0|0|0|0|0|0|0|0,0:0|0:0|0:0|0:0|0:0|0:0|0:0|0:0|0:0|0:0|0:0|0:0|0:0|0:0|0:0|0:0|0:0|0:0|0:0|0:0|0:0|0:0|0:0|0:0|0:0|0:0|0:0|0:0|0:0|0:0|0:0,0:0:0:0:
348,352,217853,6,0,L|432:342,1,84.4999961318971,4|0,0:0|0:0,0:0:0:0:
361,182,218053,2,0,L|277:192,1,84.4999961318971,8|0,0:0|0:0,0:0:0:0:
474,231,218253,2,0,P|483:173|472:126,1,84.4999961318971
247,201,218453,2,0,P|238:259|249:306,1,84.4999961318971,8|0,0:0|0:0,0:0:0:0:
391,62,218653,5,0,0:0:0:0:
289,56,218753,1,0,0:0:0:0:
187,50,218853,1,8,0:0:0:0:
381,87,218953,5,0,0:0:0:0:
279,81,219053,1,0,0:0:0:0:
177,75,219153,1,0,0:0:0:0:
60,187,219253,2,0,P|48:120|57:69,1,84.4999961318971,8|0,0:0|0:0,0:0:0:0:
76,116,219403,1,0,0:0:0:0:
102,128,219453,5,0,0:0:0:0:
139,222,219553,1,0,0:0:0:0:
88,309,219653,2,0,P|29:311|-13:295,1,84.4999961318971,8|0,0:0|0:0,0:0:0:0:
164,195,219853,2,0,P|205:190|246:200,1,84.4999961318971
358,322,220053,2,0,P|342:264|341:218,1,84.4999961318971,8|0,0:0|0:0,0:0:0:0:
254,318,220253,5,0,0:0:0:0:
428,263,220353,1,0,0:0:0:0:
252,279,220453,1,8,0:0:0:0:
462,258,220553,2,0,P|478:200|479:154,1,84.4999961318971
440,360,220753,1,0,0:0:0:0:
488,136,220853,2,0,L|404:146,1,84.4999961318971,8|0,0:0|0:0,0:0:0:0:
205,46,221053,6,0,L|289:56,1,84.4999961318971
138,101,221253,1,8,0:0:0:0:
138,101,221353,1,0,0:0:0:0:
234,215,221453,2,0,P|236:173|225:133,1,84.4999961318971
97,226,221653,2,0,P|85:266|87:308,1,84.4999961318971,8|0,0:0|0:0,0:0:0:0:
241,241,221853,6,0,P|317:234|332:310,1,168.999992263794,0|8,0:0|0:0,0:0:0:0:
320,200,222153,2,0,B|372:195|372:195|408:64,1,168.999992263794
428,263,222453,2,0,L|400:380,1,84.4999961318971,8|0,0:0|0:0,0:0:0:0:
310,116,222653,6,0,L|137:129,1,168.999992263794,0|8,0:0|0:0,0:0:0:0:
61,175,222953,2,0,P|44:218|139:212,1,168.999992263794
69,91,223253,2,0,B|35:63|35:63|-24:74,1,84.4999961318971,8|0,0:0|0:0,0:0:0:0:
142,255,223453,6,0,L|226:248,1,84.4999961318971
96,341,223653,1,8,0:0:0:0:
96,341,223753,1,0,0:0:0:0:
261,231,223853,2,0,L|345:224,1,84.4999961318971,10|0,0:0|0:0,0:0:0:0:
261,335,224053,2,0,L|176:341,1,84.4999961318971,10|0,0:0|0:0,0:0:0:0:
391,355,224253,5,0,0:0:0:0:
415,265,224353,1,0,0:0:0:0:
440,175,224453,1,8,0:0:0:0:
465,85,224553,1,0,0:0:0:0:
373,68,224653,2,0,L|279:49,1,84.4999961318971
261,231,224853,2,0,L|345:224,1,84.4999961318971,8|0,0:0|0:0,0:0:0:0:
205,133,225053,6,0,L|120:139,1,84.4999961318971
310,142,225253,1,8,0:0:0:0:
156,222,225353,6,0,L|71:228,1,84.4999961318971
261,231,225553,1,0,0:0:0:0:
107,311,225653,2,0,L|22:317,1,84.4999961318971,8|0,0:0|0:0,0:0:0:0:
212,320,225853,5,0,0:0:0:0:
300,349,225953,1,0,0:0:0:0:
386,314,226053,1,8,0:0:0:0:
400,222,226153,1,0,0:0:0:0:
414,130,226253,2,0,L|426:36,1,84.4999961318971
250,147,226453,2,0,L|260:230,1,84.4999961318971,8|0,0:0|0:0,0:0:0:0:
315,58,226653,5,0,0:0:0:0:
222,51,226753,1,0,0:0:0:0:
129,44,226853,2,0,L|34:39,1,84.4999961318971,8|0,0:0|0:0,0:0:0:0:
161,152,227053,1,0,0:0:0:0:
161,152,227103,1,0,0:0:0:0:
161,152,227153,1,0,0:0:0:0:
161,152,227203,1,0,0:0:0:0:
161,152,227253,2,0,L|66:147,1,84.4999961318971,8|0,0:0|0:0,0:0:0:0:
29,227,227453,6,0,P|17:264|17:284,3,42.2499980659486
101,275,227653,2,0,P|118:309|132:323,3,42.2499980659486,8|0|0|0,0:0|0:0|0:0|0:0,0:0:0:0:
185,258,227853,2,0,P|222:270|242:270,3,42.2499980659486
305,239,228053,1,8,0:0:0:0:
346,238,228103,1,0,0:0:0:0:
382,259,228153,1,0,0:0:0:0:
403,295,228203,1,0,0:0:0:0:
403,337,228253,6,0,L|352:342,3,42.2499980659486,0|0|0|0,0:0|0:0|0:0|0:0,0:0:0:0:
465,229,228453,2,0,L|516:233,3,42.2499980659486,8|0|0|0,0:0|0:0|0:0|0:0,0:0:0:0:
419,136,228653,1,0,0:0:0:0:
376,138,228703,1,0,0:0:0:0:
334,141,228753,1,0,0:0:0:0:
292,144,228803,1,0,0:0:0:0:
250,147,228853,2,0,L|144:157,1,84.4999961318971,8|0,0:0|0:0,0:0:0:0:
303,56,229053,2,0,L|387:48,1,84.4999961318971
141,157,229253,6,0,P|129:213|132:255,1,84.4999961318971,8|0,0:0|0:0,0:0:0:0:
45,110,229453,2,0,P|44:67|33:27,1,84.4999961318971
134,274,229653,2,0,L|49:281,1,84.4999961318971,8|0,0:0|0:0,0:0:0:0:
185,40,229853,6,0,L|270:33,1,84.4999961318971
427,144,230053,1,8,0:0:0:0:
303,56,230153,1,8,0:0:0:0:
293,199,230253,1,8,0:0:0:0:
460,129,230353,1,8,0:0:0:0:
280,168,230453,1,8,0:0:0:0:
475,291,230553,1,8,0:0:0:0:
267,137,230653,5,6,0:0:0:0:
267,137,231997,5,2,0:0:0:0:
267,137,232204,1,8,0:0:0:0:
493,114,232308,1,4,0:0:0:0:
157,152,233963,5,4,0:0:0:0:
157,152,235308,5,2,0:0:0:0:
157,152,235515,1,8,0:0:0:0:
383,129,235619,1,4,0:0:0:0:
383,129,236446,5,2,0:0:0:0:
309,181,236549,1,2,0:0:0:0:
358,257,236653,1,10,0:0:0:0:
342,346,236756,1,2,0:0:0:0:
439,207,236859,2,0,P|469:168|478:125,1,65,2|2,0:0|0:0,0:0:0:0:
266,262,237066,2,0,L|183:266,1,65,10|2,0:0|0:0,0:0:0:0:
435,362,237273,5,4,0:0:0:0:
435,362,238665,5,2,0:0:0:0:
435,362,238880,1,8,0:0:0:0:
174,266,238987,1,4,0:0:0:0:
436,339,240701,5,4,0:0:0:0:
436,339,242094,5,2,0:0:0:0:
436,339,242308,1,8,0:0:0:0:
175,243,242415,1,4,0:0:0:0:
150,115,243273,5,2,0:0:0:0:
224,167,243380,1,2,0:0:0:0:
175,243,243487,1,10,0:0:0:0:
191,332,243594,1,2,0:0:0:0:
94,193,243701,2,0,P|64:154|55:111,1,65,2|2,0:0|0:0,0:0:0:0:
262,256,243915,2,0,L|345:260,1,65,10|2,0:0|0:0,0:0:0:0:
89,351,244130,5,6,0:0:0:0:
191,332,244352,1,8,0:0:0:0:
262,256,244574,1,0,0:0:0:0:
320,342,244796,1,8,0:0:0:0:
334,131,245018,2,0,P|293:150|197:131,1,130,0|8,0:0|0:0,0:0:0:0:
439,203,245463,2,0,B|469:227|469:227|466:332,1,130,0|8,0:0|0:0,0:0:0:0:
392,268,245796,1,0,0:0:0:0:
404,79,245907,5,0,0:0:0:0:
300,62,246130,1,8,0:0:0:0:
204,21,246352,1,0,0:0:0:0:
100,38,246575,1,8,0:0:0:0:
168,228,246796,5,0,0:0:0:0:
83,167,247018,1,8,0:0:0:0:
178,124,247241,1,0,0:0:0:0:
178,124,247463,1,8,0:0:0:0:
210,122,247518,1,0,0:0:0:0:
242,121,247574,1,0,0:0:0:0:
275,119,247629,1,0,0:0:0:0:
307,118,247685,5,0,0:0:0:0:
338,313,247907,1,8,0:0:0:0:
321,220,248130,1,0,0:0:0:0:
436,79,248352,2,0,L|428:14,1,65,8|0,0:0|0:0,0:0:0:0:
447,265,248574,6,0,B|425:301|425:301|318:316,1,130,0|8,0:0|0:0,0:0:0:0:
213,172,249018,2,0,B|299:184|299:184|321:220,1,130,0|8,0:0|0:0,0:0:0:0:
249,264,249352,1,0,0:0:0:0:
67,237,249463,5,0,0:0:0:0:
67,237,249685,1,8,0:0:0:0:
150,251,249796,1,0,0:0:0:0:
97,316,249907,2,0,P|72:337|29:348,1,65
90,130,250130,1,8,0:0:0:0:
90,130,250352,2,0,B|135:120|135:120|237:142,2,130,0|8|0,0:0|0:0|0:0,0:0:0:0:
90,130,251018,1,8,0:0:0:0:
61,116,251073,1,0,0:0:0:0:
46,87,251129,1,0,0:0:0:0:
53,56,251184,1,0,0:0:0:0:
77,35,251240,5,4,0:0:0:0:
194,30,251463,1,8,0:0:0:0:
294,89,251685,1,0,0:0:0:0:
411,94,251908,1,8,0:0:0:0:
217,137,252130,6,0,B|189:160|189:160|198:265,1,130,0|8,0:0|0:0,0:0:0:0:
308,320,252574,2,0,B|316:226|316:226|288:203,1,130,0|8,0:0|0:0,0:0:0:0:
219,348,252907,1,0,0:0:0:0:
397,292,253018,6,0,L|410:146,1,130,0|8,0:0|0:0,0:0:0:0:
364,89,253352,1,0,0:0:0:0:
288,203,253463,2,0,P|259:220|163:208,1,130,0|8,0:0|0:0,0:0:0:0:
218,49,253907,5,0,0:0:0:0:
51,83,254130,1,8,0:0:0:0:
223,145,254352,1,0,0:0:0:0:
223,145,254574,1,8,0:0:0:0:
228,176,254629,1,0,0:0:0:0:
231,209,254685,1,0,0:0:0:0:
230,241,254740,1,0,0:0:0:0:
226,274,254796,5,0,0:0:0:0:
342,331,255018,1,8,0:0:0:0:
426,323,255130,1,0,0:0:0:0:
379,254,255241,2,0,P|370:204|374:174,1,65
226,274,255463,2,0,P|225:306|217:337,1,65,8|0,0:0|0:0,0:0:0:0:
345,162,255685,6,0,B|315:139|315:139|199:146,1,130,0|8,0:0|0:0,0:0:0:0:
103,291,256130,2,0,B|196:297|196:297|226:274,1,130,0|8,0:0|0:0,0:0:0:0:
167,213,256463,1,0,0:0:0:0:
186,33,256574,6,0,L|121:37,1,65
222,144,256796,2,0,B|315:139|315:139|345:162,1,130,8|0,0:0|0:0,0:0:0:0:
478,57,257241,1,8,0:0:0:0:
453,184,257463,6,0,L|436:259,1,65,2|0,0:0|0:0,0:0:0:0:
467,326,257685,1,10,0:0:0:0:
316,254,257907,1,2,0:0:0:0:
316,254,258130,1,8,0:0:0:0:
284,245,258185,1,0,0:0:0:0:
252,245,258241,1,0,0:0:0:0:
221,256,258296,1,0,0:0:0:0:
195,275,258352,6,0,P|165:294|73:239,1,130,4|8,0:0|0:0,0:0:0:0:
158,112,258796,1,0,0:0:0:0:
95,57,258907,1,0,0:0:0:0:
78,140,259018,1,8,0:0:0:0:
245,165,259241,6,0,B|252:128|252:128|247:16,1,130,0|8,0:0|0:0,0:0:0:0:
247,35,259685,1,0,0:0:0:0:
329,58,259796,1,0,0:0:0:0:
412,47,259907,2,0,L|481:38,1,65,8|0,0:0|0:0,0:0:0:0:
330,143,260129,6,0,B|323:180|323:180|328:292,1,130,0|8,0:0|0:0,0:0:0:0:
479,347,260574,2,0,P|495:309|410:295,1,130,0|8,0:0|0:0,0:0:0:0:
278,347,261018,2,0,L|140:329,1,130,2|10,0:0|0:0,0:0:0:0:
50,192,261463,1,2,0:0:0:0:
50,192,261685,1,8,0:0:0:0:
77,208,261740,1,0,0:0:0:0:
109,210,261796,1,0,0:0:0:0:
138,196,261851,1,0,0:0:0:0:
157,171,261907,6,8,L|156:31,1,130,0|8,0:0|0:0,0:0:0:0:
77,72,262241,1,0,0:0:0:0:
239,123,262352,2,0,L|316:112,1,65
220,304,262574,1,8,0:0:0:0:
220,304,262796,6,0,P|235:262|330:228,1,130,0|8,0:0|0:0,0:0:0:0:
455,312,263241,2,0,B|476:330|476:330|485:205,1,130,0|8,0:0|0:0,0:0:0:0:
395,185,263574,1,0,0:0:0:0:
465,44,263685,6,0,B|433:69|433:69|327:53,1,130,0|8,0:0|0:0,0:0:0:0:
160,121,264130,1,0,0:0:0:0:
247,164,264241,1,0,0:0:0:0:
241,66,264352,2,0,L|240:-4,1,65,8|0,0:0|0:0,0:0:0:0:
170,212,264574,6,0,L|32:230,2,130,2|10|2,0:0|0:0|0:0,0:0:0:0:
170,212,265241,1,0,0:0:0:0:
191,236,265296,1,0,0:0:0:0:
220,251,265352,1,0,0:0:0:0:
252,255,265407,1,0,0:0:0:0:
283,248,265463,6,0,L|361:257,1,65
332,378,265685,2,0,L|254:369,1,65,8|0,0:0|0:0,0:0:0:0:
435,330,265907,1,0,0:0:0:0:
430,232,266018,1,0,0:0:0:0:
425,133,266130,1,8,0:0:0:0:
425,133,266352,6,0,L|422:49,1,65
285,183,266574,2,0,L|282:247,1,65,8|0,0:0|0:0,0:0:0:0:
322,84,266796,2,0,B|289:66|289:66|169:79,1,130,0|8,0:0|0:0,0:0:0:0:
128,136,267130,1,0,0:0:0:0:
13,12,267241,6,0,P|46:66|37:130,1,130,0|8,0:0|0:0,0:0:0:0:
190,281,267685,2,0,P|180:217|213:163,1,130,0|8,0:0|0:0,0:0:0:0:
32,283,268130,5,2,0:0:0:0:
140,354,268352,1,10,0:0:0:0:
266,235,268574,1,2,0:0:0:0:
266,235,268796,1,8,0:0:0:0:
298,232,268851,1,0,0:0:0:0:
330,237,268907,1,0,0:0:0:0:
360,248,268962,1,0,0:0:0:0:
388,265,269018,6,0,P|423:254|461:224,1,71.5000021820069,4|0,0:0|0:0,0:0:0:0:
322,84,269241,2,0,L|323:158,1,71.5000021820069,8|0,0:0|0:0,0:0:0:0:
482,119,269463,2,0,L|481:47,1,71.5000021820069
288,83,269685,2,0,L|216:83,1,71.5000021820069,8|0,0:0|0:0,0:0:0:0:
199,97,269852,1,0,0:0:0:0:
182,110,269907,5,4,0:0:0:0:
196,194,270018,1,0,0:0:0:0:
34,155,270130,2,0,L|33:83,1,71.5000021820069,8|0,0:0|0:0,0:0:0:0:
100,240,270352,2,0,L|99:311,1,71.5000021820069
266,194,270574,2,0,P|231:188|196:194,1,71.5000021820069,8|0,0:0|0:0,0:0:0:0:
197,219,270741,1,0,0:0:0:0:
198,243,270796,5,4,0:0:0:0:
268,303,270907,1,0,0:0:0:0:
358,246,271018,2,0,P|368:193|367:153,1,71.5000021820069,8|0,0:0|0:0,0:0:0:0:
365,362,271241,5,4,0:0:0:0:
445,329,271352,1,0,0:0:0:0:
467,202,271463,2,0,P|464:166|456:131,1,71.5000021820069,8|0,0:0|0:0,0:0:0:0:
266,193,271685,6,0,P|215:208|163:207,1,71.5000021820069,2|0,0:0|0:0,0:0:0:0:
257,45,271907,2,0,P|292:49|326:61,1,71.5000021820069,10|0,0:0|0:0,0:0:0:0:
160,109,272130,1,2,0:0:0:0:
160,109,272241,1,2,0:0:0:0:
160,109,272352,1,10,0:0:0:0:
443,44,272574,5,4,0:0:0:0:
443,44,273018,2,0,P|394:29|319:72,2,130,2|0|2,0:0|0:0|0:0,0:0:0:0:
398,138,274351,5,0,0:0:0:0:
304,184,274796,2,0,B|276:164|276:164|166:171,1,130,2|0,0:0|0:0,0:0:0:0:
180,170,275685,1,2,0:0:0:0:
185,202,275907,1,0,0:0:0:0:
99,339,276129,5,0,0:0:0:0:
52,268,276351,1,0,0:0:0:0:
42,183,276574,1,2,0:0:0:0:
38,150,276796,1,0,0:0:0:0:
16,341,277018,5,0,0:0:0:0:
185,279,277240,1,0,0:0:0:0:
177,247,277462,1,2,0:0:0:0:
150,383,277685,1,0,0:0:0:0:
229,179,277907,6,0,B|196:161|196:161|80:186,1,130,0|2,0:0|0:0,0:0:0:0:
282,243,278796,2,0,B|315:261|315:261|431:236,1,130,0|2,0:0|0:0,0:0:0:0:
267,46,279685,1,0,0:0:0:0:
267,46,280574,5,2,0:0:0:0:
262,78,280796,1,0,0:0:0:0:
227,147,281018,1,0,0:0:0:0:
246,174,281240,1,0,0:0:0:0:
270,246,281462,1,2,0:0:0:0:
270,246,281907,5,0,0:0:0:0:
246,174,282055,1,0,0:0:0:0:
222,102,282203,1,0,0:0:0:0:
281,273,282351,5,2,0:0:0:0:
281,273,282796,2,0,L|190:277,1,65
351,182,283240,5,2,0:0:0:0:
376,87,283907,1,0,0:0:0:0:
326,277,284574,5,2,0:0:0:0:
351,182,284796,1,0,0:0:0:0:
301,372,285018,1,0,0:0:0:0:
301,372,285462,1,0,0:0:0:0:
301,372,285907,1,2,0:0:0:0:
248,80,286796,5,4,0:0:0:0:
172,147,287018,2,0,L|175:204,1,38.9999988098145
154,50,287240,2,0,L|72:42,1,77.999997619629,8|0,0:0|0:0,0:0:0:0:
176,223,287685,6,0,L|258:215,1,77.999997619629
250,250,288018,1,0,0:0:0:0:
246,284,288129,1,8,0:0:0:0:
90,188,288351,2,0,L|93:245,1,38.9999988098145
249,119,288574,5,0,0:0:0:0:
287,115,288685,1,0,0:0:0:0:
326,111,288796,1,0,0:0:0:0:
253,215,289018,1,8,0:0:0:0:
176,53,289240,1,0,0:0:0:0:
287,214,289462,6,0,L|369:206,1,77.999997619629
361,241,289795,1,0,0:0:0:0:
357,275,289906,1,8,0:0:0:0:
420,330,290129,2,0,L|423:387,1,38.9999988098145
470,147,290351,5,2,0:0:0:0:
507,222,290574,2,0,L|504:279,1,38.9999988098145
459,115,290796,1,8,0:0:0:0:
271,24,291018,1,0,0:0:0:0:
434,140,291240,6,0,L|429:217,1,77.999997619629,2|0,0:0|0:0,0:0:0:0:
326,111,291574,1,0,0:0:0:0:
326,111,291685,2,0,L|321:33,1,77.999997619629,8|0,0:0|0:0,0:0:0:0:
253,215,292129,6,0,P|175:217|97:230,4,155.999995239258,2|8|2|8|0,0:0|0:0|0:0|0:0|0:0,0:0:0:0:
262,244,294129,1,0,0:0:0:0:
272,273,294351,1,8,0:0:0:0:
282,302,294574,1,0,0:0:0:0:
434,140,294796,5,0,0:0:0:0:
421,177,295018,1,0,0:0:0:0:
408,215,295241,1,8,0:0:0:0:
395,253,295463,1,0,0:0:0:0:
279,40,295685,5,0,0:0:0:0:
318,141,295907,1,0,0:0:0:0:
316,20,296129,1,8,0:0:0:0:
319,172,296351,1,0,0:0:0:0:
141,48,296574,5,0,0:0:0:0:
69,140,296796,1,0,0:0:0:0:
161,212,297018,1,8,0:0:0:0:
233,120,297240,1,0,0:0:0:0:
69,231,297462,6,0,P|64:266|64:295,1,38.9999988098145
238,158,297685,2,0,P|236:138|232:119,1,38.9999988098145
183,299,297907,2,0,L|250:297,1,38.9999988098145,8|0,0:0|0:0,0:0:0:0:
272,91,298129,2,0,L|205:89,1,38.9999988098145
302,246,298351,5,0,0:0:0:0:
340,244,298462,1,0,0:0:0:0:
379,243,298573,1,0,0:0:0:0:
418,242,298684,1,0,0:0:0:0:
457,241,298796,2,0,L|524:239,1,38.9999988098145,8|0,0:0|0:0,0:0:0:0:
364,139,299018,2,0,P|362:119|358:100,1,38.9999988098145
335,338,299240,5,4,0:0:0:0:
335,79,299574,1,4,0:0:0:0:
182,288,299907,1,4,0:0:0:0:
428,208,300240,1,4,0:0:0:0:
182,128,300573,1,4,0:0:0:0:
335,338,301018,5,6,0:0:0:0:
182,128,304218,6,0,L|71:117,1,84.4999961318971
281,189,304418,2,0,L|365:180,1,84.4999961318971,8|0,0:0|0:0,0:0:0:0:
209,333,304618,1,0,0:0:0:0:
115,233,304718,1,0,0:0:0:0:
296,275,304818,2,0,L|380:266,1,84.4999961318971,8|0,0:0|0:0,0:0:0:0:
478,97,305018,6,0,B|454:135|454:135|473:258,1,168.999992263794,0|8,0:0|0:0,0:0:0:0:
375,92,305318,2,0,P|342:58|430:22,1,168.999992263794
365,180,305618,2,0,L|281:189,1,84.4999961318971,8|0,0:0|0:0,0:0:0:0:
109,113,305818,6,0,P|114:71|134:34,1,84.4999961318971
222,110,306018,2,0,P|242:147|248:188,1,84.4999961318971,8|0,0:0|0:0,0:0:0:0:
110,269,306218,1,0,0:0:0:0:
269,218,306318,1,0,0:0:0:0:
78,279,306418,2,0,P|58:241|52:200,1,84.4999961318971,8|0,0:0|0:0,0:0:0:0:
215,345,306618,6,0,L|299:336,1,84.4999961318971
443,320,306818,1,8,0:0:0:0:
212,308,306918,6,0,L|296:299,1,84.4999961318971
440,283,307118,1,0,0:0:0:0:
356,173,307218,1,8,0:0:0:0:
372,339,307318,1,0,0:0:0:0:
487,153,307418,6,0,L|485:58,1,84.4999961318971
323,186,307618,2,0,L|321:270,1,84.4999961318971,8|0,0:0|0:0,0:0:0:0:
377,78,307818,2,0,P|327:64|280:70,1,84.4999961318971
154,161,308018,1,8,0:0:0:0:
327,150,308118,1,0,0:0:0:0:
138,181,308218,6,0,L|136:265,1,84.4999961318971
201,75,308418,1,8,0:0:0:0:
49,176,308518,6,0,L|47:260,1,84.4999961318971
112,70,308718,1,0,0:0:0:0:
227,186,308818,2,0,L|225:270,1,84.4999961318971,8|0,0:0|0:0,0:0:0:0:
372,339,309018,6,0,P|423:316|397:214,1,168.999992263794,0|8,0:0|0:0,0:0:0:0:
286,342,309318,2,0,B|241:360|241:360|110:338,1,168.999992263794
227,186,309618,2,0,L|225:270,1,84.4999961318971,8|0,0:0|0:0,0:0:0:0:
112,70,309818,5,0,0:0:0:0:
201,75,309918,1,0,0:0:0:0:
290,80,310018,2,0,P|329:122|339:162,1,84.4999961318971,8|0,0:0|0:0,0:0:0:0:
136,265,310218,2,0,L|137:180,1,84.4999961318971
286,342,310418,1,8,0:0:0:0:
325,355,310468,1,0,0:0:0:0:
367,360,310518,1,0,0:0:0:0:
409,355,310568,1,0,0:0:0:0:
449,341,310618,6,0,L|451:257,1,84.4999961318971
324,171,310818,2,0,L|326:255,1,84.4999961318971,8|0,0:0|0:0,0:0:0:0:
457,102,311018,5,0,0:0:0:0:
290,80,311118,1,0,0:0:0:0:
494,180,311218,2,0,L|496:96,1,84.4999961318971,8|0,0:0|0:0,0:0:0:0:
260,63,311418,6,0,B|228:91|228:91|230:230,1,168.999992263794,0|8,0:0|0:0,0:0:0:0:
146,197,311718,2,0,P|128:236|30:190,1,168.999992263794
123,78,312018,2,0,P|80:75|32:88,1,84.4999961318971,8|0,0:0|0:0,0:0:0:0:
86,283,312218,6,0,B|115:318|115:318|260:304,1,168.999992263794,0|8,0:0|0:0,0:0:0:0:
326,255,312518,1,0,0:0:0:0:
422,285,312618,2,0,P|451:335|456:370,1,84.4999961318971
398,190,312818,2,0,B|391:146|391:146|401:90,1,84.4999961318971,8|0,0:0|0:0,0:0:0:0:
203,140,313018,5,0,0:0:0:0:
301,122,313118,2,0,P|307:71|302:19,1,84.4999961318971,0|8,0:0|0:0,0:0:0:0:
171,147,313318,2,0,P|169:189|175:230,1,84.4999961318971
261,330,313518,1,0,0:0:0:0:
137,227,313618,2,0,P|88:224|35:232,1,84.4999961318971,8|0,0:0|0:0,0:0:0:0:
284,342,313818,6,0,P|333:339|386:347,1,84.4999961318971
161,312,314018,2,0,P|112:309|59:317,1,84.4999961318971,8|0,0:0|0:0,0:0:0:0:
301,122,314218,1,0,0:0:0:0:
301,122,314318,1,0,0:0:0:0:
301,122,314418,2,0,P|350:119|403:127,1,84.4999961318971,8|0,0:0|0:0,0:0:0:0:
178,92,314618,2,0,P|129:89|76:97,1,84.4999961318971
341,212,314818,5,8,0:0:0:0:
239,220,314918,1,0,0:0:0:0:
137,227,315018,2,0,P|88:224|35:232,1,84.4999961318971
199,341,315218,2,0,P|240:345|283:341,1,84.4999961318971,8|0,0:0|0:0,0:0:0:0:
473,254,315418,6,0,B|433:230|433:230|450:367,1,168.999992263794,0|8,0:0|0:0,0:0:0:0:
508,177,315718,2,0,B|388:112|388:112|394:173,1,168.999992263794
324,44,316018,2,0,P|367:21|412:25,1,84.4999961318971,8|0,0:0|0:0,0:0:0:0:
341,212,316218,5,0,0:0:0:0:
266,143,316318,1,0,0:0:0:0:
165,129,316418,2,0,L|71:116,1,84.4999961318971,8|0,0:0|0:0,0:0:0:0:
204,325,316618,1,0,0:0:0:0:
258,184,316718,6,0,P|264:164|266:143,1,42.2499980659486
97,225,316818,2,0,P|98:246|104:266,2,42.2499980659486,8|0|0,0:0|0:0|0:0,0:0:0:0:
294,312,317018,6,0,B|347:292|347:292|473:314,1,168.999992263794,4|8,0:0|0:0,0:0:0:0:
505,221,317318,1,0,0:0:0:0:
445,138,317418,2,0,P|435:87|439:34,1,84.4999961318971
266,142,317618,2,0,P|265:184|256:225,1,84.4999961318971,8|0,0:0|0:0,0:0:0:0:
329,50,317818,6,0,B|276:30|276:30|150:52,1,168.999992263794,0|8,0:0|0:0,0:0:0:0:
97,111,318118,2,0,P|53:132|25:33,1,168.999992263794
175,173,318418,1,8,0:0:0:0:
161,265,318518,1,0,0:0:0:0:
148,357,318618,6,0,L|61:361,1,84.4999961318971
0,233,318818,2,0,P|1:191|10:150,1,84.4999961318971,8|0,0:0|0:0,0:0:0:0:
161,265,319018,2,0,L|248:269,1,84.4999961318971
309,141,319218,2,0,P|308:99|299:58,1,84.4999961318971,8|0,0:0|0:0,0:0:0:0:
282,256,319418,6,0,P|323:246|365:245,1,84.4999961318971
456,268,319618,1,8,0:0:0:0:
309,141,319718,6,0,P|299:99|298:57,1,84.4999961318971
384,92,319918,1,0,0:0:0:0:
231,186,320018,2,0,L|146:182,1,84.4999961318971,8|0,0:0|0:0,0:0:0:0:
337,329,320218,6,0,P|384:350|519:345,1,168.999992263794,0|8,0:0|0:0,0:0:0:0:
456,268,320518,1,0,0:0:0:0:
492,182,320618,2,0,P|501:140|502:98,1,84.4999961318971
355,162,320818,2,0,P|356:204|365:245,1,84.4999961318971,8|0,0:0|0:0,0:0:0:0:
400,58,321018,6,0,B|358:37|358:37|223:56,1,168.999992263794,0|8,0:0|0:0,0:0:0:0:
145,68,321318,2,0,P|124:117|230:139,1,168.999992263794
99,147,321618,2,0,P|83:188|82:234,1,84.4999961318971,8|0,0:0|0:0,0:0:0:0:
268,347,321818,6,0,P|262:263|230:185,1,168.999992263794,0|8,0:0|0:0,0:0:0:0:
323,182,322118,2,0,B|360:208|360:208|501:172,1,168.999992263794
382,302,322418,1,8,0:0:0:0:
382,302,322518,1,0,0:0:0:0:
273,108,322618,6,0,P|323:96|385:113,1,84.4999961318971
145,68,322818,2,0,P|95:56|33:73,1,84.4999961318971,8|0,0:0|0:0,0:0:0:0:
190,155,323018,1,0,0:0:0:0:
195,192,323068,1,0,0:0:0:0:
196,230,323118,1,0,0:0:0:0:
193,268,323168,1,0,0:0:0:0:
186,305,323218,1,8,0:0:0:0:
107,257,323318,1,0,0:0:0:0:
323,182,323418,6,0,P|321:233|311:287,1,84.4999961318971
273,108,323618,2,0,P|323:96|385:113,1,84.4999961318971,8|0,0:0|0:0,0:0:0:0:
479,177,323818,5,0,0:0:0:0:
421,22,323918,1,0,0:0:0:0:
401,203,324018,2,0,P|402:245|408:287,1,84.4999961318971,8|0,0:0|0:0,0:0:0:0:
273,108,324218,6,0,B|133:98|133:98|180:131,1,168.999992263794,0|8,0:0|0:0,0:0:0:0:
210,191,324518,1,0,0:0:0:0:
50,125,324618,2,0,P|49:78|72:27,1,84.4999961318971
107,219,324818,2,0,B|82:254|82:254|46:276,1,84.4999961318971,8|0,0:0|0:0,0:0:0:0:
210,191,325018,5,0,0:0:0:0:
276,256,325118,1,0,0:0:0:0:
355,207,325218,2,0,L|354:120,1,84.4999961318971,8|0,0:0|0:0,0:0:0:0:
188,221,325418,2,0,L|187:308,1,84.4999961318971
297,355,325618,1,8,0:0:0:0:
112,329,325718,1,0,0:0:0:0:
375,298,325818,6,0,P|429:294|485:302,1,84.4999961318971
276,256,326018,1,8,0:0:0:0:
355,207,326118,6,0,P|409:203|465:211,1,84.4999961318971
256,165,326318,1,0,0:0:0:0:
335,116,326418,6,0,P|389:112|445:120,1,84.4999961318971,8|0,0:0|0:0,0:0:0:0:
236,74,326618,6,0,P|183:94|85:35,1,168.999992263794,0|8,0:0|0:0,0:0:0:0:
22,107,326918,1,0,0:0:0:0:
84,175,327018,2,0,P|95:227|92:284,1,84.4999961318971
256,165,327218,2,0,P|257:122|267:81,1,84.4999961318971,8|0,0:0|0:0,0:0:0:0:
187,305,327418,5,0,0:0:0:0:
15,264,327518,1,0,0:0:0:0:
66,341,327618,1,8,0:0:0:0:
66,341,327718,1,0,0:0:0:0:
218,306,327818,6,0,P|216:263|206:222,1,84.4999961318971
307,321,328018,1,8,0:0:0:0:
139,372,328118,1,0,0:0:0:0:
339,311,328218,2,0,L|444:284,1,84.4999961318971
350,121,328418,6,0,P|340:162|338:204,1,84.4999961318971,8|0,0:0|0:0,0:0:0:0:
488,138,328618,2,0,P|486:95|476:54,1,84.4999961318971
323,28,328818,1,8,0:0:0:0:
291,39,328868,1,0,0:0:0:0:
259,50,328918,1,0,0:0:0:0:
227,61,328968,1,0,0:0:0:0:
195,72,329018,6,0,L|104:67,1,84.4999961318971
122,227,329218,2,0,L|206:222,1,84.4999961318971,8|0,0:0|0:0,0:0:0:0:
39,142,329418,1,0,0:0:0:0:
26,182,329468,1,0,0:0:0:0:
20,224,329518,1,0,0:0:0:0:
23,266,329568,1,0,0:0:0:0:
33,307,329618,2,0,P|62:335|88:348,1,42.2499980659486,8|0,0:0|0:0,0:0:0:0:
176,307,329718,2,0,P|211:306|236:298,1,42.2499980659486
338,204,329818,6,0,L|468:196,1,97.50000371933
337,315,330005,2,0,L|207:307,1,97.50000371933,8|0,0:0|0:0,0:0:0:0:
117,162,330193,2,0,P|105:108|119:45,1,97.50000371933
125,280,330380,2,0,B|77:303|77:303|19:307,1,97.50000371933,8|0,0:0|0:0,0:0:0:0:
190,114,330568,5,0,0:0:0:0:
190,114,330661,1,0,0:0:0:0:
190,114,330755,1,8,0:0:0:0:
256,186,330849,1,0,0:0:0:0:
256,186,330942,1,0,0:0:0:0:
256,186,331036,1,0,0:0:0:0:
287,93,331130,2,0,P|292:35|283:-6,1,97.50000371933,8|0,0:0|0:0,0:0:0:0:
338,204,331318,6,0,L|468:196,1,97.50000371933
384,23,331505,2,0,P|375:70|381:119,1,97.50000371933,8|0,0:0|0:0,0:0:0:0:
512,244,331693,2,0,P|517:195|509:147,1,97.50000371933
413,329,331880,1,8,0:0:0:0:
325,319,331974,1,0,0:0:0:0:
237,310,332068,6,0,L|139:315,1,97.50000371933
76,254,332255,1,8,0:0:0:0:
164,92,332349,2,0,P|174:148|165:202,1,97.50000371933
92,231,332536,1,0,0:0:0:0:
188,59,332630,2,0,L|285:53,1,97.50000371933,8|0,0:0|0:0,0:0:0:0:
500,49,332818,5,0,0:0:0:0:
421,87,332911,1,0,0:0:0:0:
371,159,333005,1,8,0:0:0:0:
356,245,333099,1,0,0:0:0:0:
312,321,333193,2,0,P|268:348|215:354,1,97.50000371933
169,187,333380,2,0,P|216:194|257:220,1,97.50000371933,8|0,0:0|0:0,0:0:0:0:
78,348,333568,6,0,B|66:285|66:285|80:240,1,97.50000371933
155,290,333755,1,8,0:0:0:0:
185,153,333849,6,0,B|197:90|197:90|183:45,1,97.50000371933
108,95,334036,1,0,0:0:0:0:
257,220,334130,2,0,L|357:213,1,97.50000371933,8|0,0:0|0:0,0:0:0:0:
382,46,334318,6,0,L|284:39,2,97.50000371933,0|0|8,0:0|0:0|0:0,0:0:0:0:
454,111,334599,2,0,P|479:167|483:221,1,97.50000371933
430,284,334786,1,0,0:0:0:0:
257,220,334880,2,0,L|264:116,1,97.50000371933,8|0,0:0|0:0,0:0:0:0:
335,300,335068,6,0,L|331:348,3,48.750001859665
291,320,335255,2,0,L|161:313,1,97.50000371933,8|0,0:0|0:0,0:0:0:0:
144,185,335443,2,0,L|168:186,7,24.3750009298325
101,211,335630,2,0,L|68:209,5,32.5000012397767,8|0|0|0|0|0,0:0|0:0|0:0|0:0|0:0|0:0,0:0:0:0:
37,184,335818,6,0,P|33:135|51:71,1,97.50000371933
113,310,336005,2,0,L|-17:303,1,97.50000371933,8|0,0:0|0:0,0:0:0:0:
168,104,336193,2,0,L|265:109,1,97.50000371933
362,119,336380,1,8,0:0:0:0:
434,184,336474,1,0,0:0:0:0:
456,279,336568,6,0,L|442:378,1,97.50000371933
412,193,336755,1,8,0:0:0:0:
362,293,336849,6,0,L|282:353,1,97.50000371933
391,201,337036,1,0,0:0:0:0:
285,236,337130,2,0,L|186:222,1,97.50000371933,8|0,0:0|0:0,0:0:0:0:
166,235,337271,1,0,0:0:0:0:
145,247,337318,5,0,0:0:0:0:
70,185,337411,1,0,0:0:0:0:
70,87,337505,1,8,0:0:0:0:
145,25,337598,1,0,0:0:0:0:
225,81,337693,2,0,P|279:96|343:88,1,97.50000371933
487,189,337880,2,0,P|438:187|392:202,1,97.50000371933,8|0,0:0|0:0,0:0:0:0:
254,314,338068,5,0,0:0:0:0:
229,220,338161,1,0,0:0:0:0:
323,245,338255,1,8,0:0:0:0:
153,280,338349,2,0,P|105:291|57:292,1,97.50000371933
61,268,338489,1,0,0:0:0:0:
66,244,338536,1,0,0:0:0:0:
146,102,338630,2,0,P|97:102|49:113,1,97.50000371933,8|0,0:0|0:0,0:0:0:0:
229,220,338818,6,0,P|276:230|325:230,1,97.50000371933
290,139,339005,1,8,0:0:0:0:
370,83,339099,1,0,0:0:0:0:
464,108,339193,2,0,L|465:210,1,97.50000371933
468,303,339380,1,8,0:0:0:0:
468,303,339474,1,0,0:0:0:0:
468,303,339568,2,0,P|420:313|371:313,1,97.50000371933
290,139,339755,5,8,0:0:0:0:
261,232,339849,1,0,0:0:0:0:
282,327,339943,2,0,P|234:337|185:337,1,97.50000371933
132,209,340130,2,0,P|180:208|228:219,1,97.50000371933,8|0,0:0|0:0,0:0:0:0:
86,304,340318,6,0,B|43:268|43:268|53:92,1,195.00000743866,0|8,0:0|0:0,0:0:0:0:
117,57,340599,1,0,0:0:0:0:
201,105,340693,2,0,P|228:111|270:109,3,48.750001859665
223,69,340880,2,0,P|279:45|315:8,1,97.50000371933,8|0,0:0|0:0,0:0:0:0:
464,108,341068,6,0,L|465:210,1,97.50000371933
329,133,341255,2,0,L|329:35,1,97.50000371933,8|0,0:0|0:0,0:0:0:0:
379,239,341443,2,0,L|378:255,23,16.2500006198883
362,251,341818,6,0,P|319:263|265:262,1,97.50000371933,4|0,0:0|0:0,0:0:0:0:
182,212,342005,1,8,0:0:0:0:
94,256,342099,1,0,0:0:0:0:
73,351,342193,2,0,P|125:348|177:313,1,97.50000371933
112,157,342380,2,0,P|60:160|8:195,1,97.50000371933,8|0,0:0|0:0,0:0:0:0:
189,78,342568,5,0,0:0:0:0:
278,115,342661,1,0,0:0:0:0:
367,76,342755,1,8,0:0:0:0:
444,136,342849,2,0,P|463:183|464:239,1,97.50000371933
458,40,343036,1,0,0:0:0:0:
379,204,343130,2,0,P|336:216|282:215,1,97.50000371933,8|0,0:0|0:0,0:0:0:0:
273,243,343271,1,0,0:0:0:0:
262,270,343318,6,0,P|254:324|259:368,1,97.50000371933
108,253,343505,2,0,P|116:199|111:155,1,97.50000371933,8|0,0:0|0:0,0:0:0:0:
172,335,343693,1,0,0:0:0:0:
172,335,343786,1,0,0:0:0:0:
202,120,343880,2,0,P|153:118|106:131,1,97.50000371933,8|0,0:0|0:0,0:0:0:0:
267,52,344068,6,0,B|286:99|286:99|272:249,1,195.00000743866,0|8,0:0|0:0,0:0:0:0:
357,217,344349,2,0,P|371:268|459:207,1,195.00000743866
303,323,344630,2,0,P|248:338|192:334,1,97.50000371933,8|0,0:0|0:0,0:0:0:0:
413,141,344818,5,0,0:0:0:0:
326,136,344911,1,0,0:0:0:0:
244,168,345005,1,8,0:0:0:0:
157,173,345098,1,0,0:0:0:0:
68,177,345193,2,0,P|46:119|46:75,1,97.50000371933
114,250,345380,2,0,B|101:305|101:305|59:347|59:346,1,97.50000371933,8|0,0:0|0:0,0:0:0:0:
68,59,345568,6,0,B|115:38|115:38|281:32,1,195.00000743866,0|8,0:0|0:0,0:0:0:0:
323,92,345849,2,0,B|375:105|375:105|339:135|339:135|312:265,1,195.00000743866
415,179,346130,1,8,0:0:0:0:
244,168,346224,1,0,0:0:0:0:
405,291,346318,6,0,P|455:284|501:257,2,97.50000371933,0|0|8,0:0|0:0|0:0,0:0:0:0:
322,321,346599,2,0,B|270:297|270:297|108:318,1,195.00000743866
72,251,346880,2,0,P|54:185|63:125,1,97.50000371933,8|0,0:0|0:0,0:0:0:0:
260,73,347068,2,0,P|259:121|243:167,1,97.50000371933
148,102,347255,1,8,0:0:0:0:
148,102,347349,1,0,0:0:0:0:
272,186,347443,2,0,L|382:178,1,97.50000371933
169,258,347630,2,0,L|59:250,1,97.50000371933,8|0,0:0|0:0,0:0:0:0:
322,321,347818,5,0,0:0:0:0:
389,265,347911,1,0,0:0:0:0:
470,230,348005,1,8,0:0:0:0:
478,143,348099,2,0,L|488:37,1,97.50000371933
263,89,348286,2,0,L|272:186,2,97.50000371933,0|8|0,0:0|0:0|0:0,0:0:0:0:
389,265,348568,6,0,B|337:288|337:288|170:267,1,195.00000743866,0|8,0:0|0:0,0:0:0:0:
121,231,348849,2,0,P|77:257|154:334,1,195.00000743866
195,180,349130,2,0,L|185:82,1,97.50000371933,8|0,0:0|0:0,0:0:0:0:
162,91,349271,1,0,0:0:0:0:
139,99,349318,6,0,P|84:101|18:81,1,97.50000371933
271,185,349505,2,0,P|325:187|391:167,1,97.50000371933,8|0,0:0|0:0,0:0:0:0:
442,114,349693,1,0,0:0:0:0:
461,208,349786,1,0,0:0:0:0:
315,110,349880,2,0,L|309:12,1,97.50000371933,8|0,0:0|0:0,0:0:0:0:
353,257,350068,6,0,B|305:268|242:257|242:257|285:295|295:343,1,195.00000743866,0|8,0:0|0:0,0:0:0:0:
469,318,350349,2,0,B|491:270|491:270|476:105,1,195.00000743866
367,178,350630,2,0,P|319:187|271:185,1,97.50000371933,8|0,0:0|0:0,0:0:0:0:
84,133,350818,5,0,0:0:0:0:
137,213,350911,1,0,0:0:0:0:
56,269,351005,1,8,0:0:0:0:
59,293,351052,1,0,0:0:0:0:
60,317,351099,2,0,L|64:370,5,48.750001859665
141,295,351380,2,0,L|145:348,5,48.750001859665,8|0|0|0|0|0,0:0|0:0|0:0|0:0|0:0|0:0,0:0:0:0:
222,315,351661,5,0,0:0:0:0:
245,322,351707,1,0,0:0:0:0:
269,325,351754,1,8,0:0:0:0:
293,324,351801,1,0,0:0:0:0:
317,319,351848,1,0,0:0:0:0:
339,309,351895,1,0,0:0:0:0:
360,296,351943,6,0,P|402:295|431:302,3,48.750001859665
450,222,352130,2,0,P|480:250|495:276,7,48.750001859665,8|0|0|0|0|0|0|0,0:0|0:0|0:0|0:0|0:0|0:0|0:0|0:0,0:0:0:0:
428,205,352505,6,0,P|410:140|414:103,1,97.50000371933,8|0,0:0|0:0,0:0:0:0:
243,139,352693,2,0,P|243:187|227:233,1,97.50000371933
317,48,352880,2,0,B|339:25|339:25|428:29,1,97.50000371933,8|0,0:0|0:0,0:0:0:0:
160,176,353068,5,0,0:0:0:0:
63,187,353161,1,0,0:0:0:0:
120,266,353255,2,0,L|127:366,1,97.50000371933,8|0,0:0|0:0,0:0:0:0:
327,246,353443,2,0,L|333:148,1,97.50000371933
241,360,353630,2,0,P|289:362|337:353,1,97.50000371933,8|0,0:0|0:0,0:0:0:0:
269,51,353818,5,4,0:0:0:0:
256,192,354286,12,0,359818,0:0:0:0:
