osu file format v14

[General]
AudioFilename: audio.mp3
AudioLeadIn: 0
PreviewTime: 92993
Countdown: 0
SampleSet: Normal
StackLeniency: 0.7
Mode: 1
LetterboxInBreaks: 0
WidescreenStoryboard: 0

[Editor]
DistanceSpacing: 0.5
BeatDivisor: 4
GridSize: 32
TimelineZoom: 2.799999

[Metadata]
Title:Chronostasis
TitleUnicode:Chronostasis
Artist:Kurokotei
ArtistUnicode:黒皇帝
Creator:Player-
Version:Inner Oni
Source:BMS
Tags:sayaka- dialgadu77 bofu2016
BeatmapID:1414470
BeatmapSetID:668626

[Difficulty]
HPDrainRate:6
CircleSize:2
OverallDifficulty:6
ApproachRate:10
SliderMultiplier:1.3999998544693
SliderTickRate:1

[Events]
//Background and Video events
0,0,"alarm-clock-water-fantasy-design-creative-960x1280.jpg",0,0
//Break Periods
//Storyboard Layer 0 (Background)
//Storyboard Layer 1 (Fail)
//Storyboard Layer 2 (Pass)
//Storyboard Layer 3 (Foreground)
//Storyboard Layer 4 (Overlay)
//Storyboard Sound Samples

[TimingPoints]
4983,306.122448979592,4,1,0,70,1,0
14778,-100,4,1,0,75,0,0
22125,-90.9090909090909,4,1,0,85,0,0
29472,-100,4,1,0,80,0,0
49064,-100,4,1,0,70,0,0
58860,-100,4,1,0,75,0,0
68656,-100,4,1,0,60,0,0
68809,-125,4,1,0,60,0,0
78452,-111.111111111111,4,1,0,70,0,0
83350,-100,4,1,0,75,0,0
85799,-90.9090909090909,4,1,0,80,0,0
88401,-100,4,1,0,90,0,0
93146,-100,4,1,0,100,0,1
112738,-100,4,1,0,100,0,0
112891,-111.111111111111,4,1,0,85,0,0
122840,-100,4,1,0,90,0,0
127431,-90.9090909090909,4,1,0,90,0,0
129880,-83.3333333333333,4,1,0,90,0,0
132431,-125,4,1,0,70,0,0

[HitObjects]
256,192,4983,5,8,0:0:0:0:
352,224,5136,1,0,0:0:0:0:
384,160,5289,1,8,0:0:0:0:
192,96,5442,1,8,0:0:0:0:
192,224,5595,1,8,0:0:0:0:
320,96,5748,1,0,0:0:0:0:
416,128,5901,1,8,0:0:0:0:
256,224,6054,1,8,0:0:0:0:
352,192,6207,1,8,0:0:0:0:
160,224,6360,1,0,0:0:0:0:
224,160,6513,1,8,0:0:0:0:
320,128,6666,1,8,0:0:0:0:
384,96,6819,1,8,0:0:0:0:
320,224,6972,1,0,0:0:0:0:
96,160,7125,1,8,0:0:0:0:
192,256,7278,1,8,0:0:0:0:
256,128,7431,1,0,0:0:0:0:
160,96,7585,1,0,0:0:0:0:
288,128,7738,1,8,0:0:0:0:
320,256,7891,1,8,0:0:0:0:
224,256,8044,1,0,0:0:0:0:
288,192,8197,1,0,0:0:0:0:
224,192,8350,1,8,0:0:0:0:
160,128,8503,1,8,0:0:0:0:
128,192,8656,1,0,0:0:0:0:
224,256,8809,1,0,0:0:0:0:
352,256,8962,1,8,0:0:0:0:
288,128,9115,1,8,0:0:0:0:
384,160,9268,1,0,0:0:0:0:
224,256,9421,1,0,0:0:0:0:
192,160,9574,1,8,0:0:0:0:
192,160,9727,1,8,0:0:0:0:
320,256,9880,1,8,0:0:0:0:
352,192,10034,1,0,0:0:0:0:
224,224,10187,1,8,0:0:0:0:
192,256,10340,1,8,0:0:0:0:
288,160,10493,1,8,0:0:0:0:
320,288,10646,1,0,0:0:0:0:
320,160,10799,1,8,0:0:0:0:
192,256,10952,1,8,0:0:0:0:
192,160,11105,1,8,0:0:0:0:
288,64,11258,1,0,0:0:0:0:
320,192,11411,1,8,0:0:0:0:
192,256,11564,1,8,0:0:0:0:
384,256,11717,1,8,0:0:0:0:
224,192,11870,1,0,0:0:0:0:
288,192,12023,1,8,0:0:0:0:
320,320,12176,1,8,0:0:0:0:
160,288,12329,1,0,0:0:0:0:
256,256,12483,1,0,0:0:0:0:
320,160,12636,1,8,0:0:0:0:
192,192,12789,1,8,0:0:0:0:
160,224,12942,1,0,0:0:0:0:
384,256,13095,1,0,0:0:0:0:
288,256,13248,1,8,0:0:0:0:
160,256,13401,1,8,0:0:0:0:
96,256,13554,1,0,0:0:0:0:
256,320,13707,1,0,0:0:0:0:
224,224,13860,1,8,0:0:0:0:
384,224,14013,1,8,0:0:0:0:
288,128,14166,1,0,0:0:0:0:
320,256,14319,1,0,0:0:0:0:
96,128,14472,1,8,0:0:0:0:
192,256,14625,1,8,0:0:0:0:
352,192,14778,1,12,0:0:0:0:
224,160,14931,1,0,0:0:0:0:
320,160,15008,1,0,0:0:0:0:
96,192,15085,1,8,0:0:0:0:
160,224,15238,1,8,0:0:0:0:
224,256,15391,1,8,0:0:0:0:
256,224,15544,1,0,0:0:0:0:
320,256,15620,1,0,0:0:0:0:
288,192,15697,1,8,0:0:0:0:
256,128,15850,1,8,0:0:0:0:
160,224,16003,1,8,0:0:0:0:
160,160,16156,1,0,0:0:0:0:
224,128,16233,1,0,0:0:0:0:
256,192,16309,1,8,0:0:0:0:
352,192,16462,1,8,0:0:0:0:
352,128,16615,1,8,0:0:0:0:
256,96,16768,1,0,0:0:0:0:
320,128,16845,1,0,0:0:0:0:
224,224,16921,1,8,0:0:0:0:
320,224,17074,1,8,0:0:0:0:
256,160,17227,1,0,0:0:0:0:
128,192,17380,1,0,0:0:0:0:
224,256,17457,1,0,0:0:0:0:
160,128,17534,1,8,0:0:0:0:
224,96,17687,1,8,0:0:0:0:
352,160,17840,1,0,0:0:0:0:
288,192,17993,1,0,0:0:0:0:
320,256,18069,1,0,0:0:0:0:
352,224,18146,1,8,0:0:0:0:
160,128,18299,1,8,0:0:0:0:
288,128,18452,1,0,0:0:0:0:
192,256,18605,1,0,0:0:0:0:
128,224,18681,1,0,0:0:0:0:
256,224,18758,1,8,0:0:0:0:
224,128,18911,1,8,0:0:0:0:
384,128,19064,1,0,0:0:0:0:
288,192,19217,1,0,0:0:0:0:
320,224,19294,1,0,0:0:0:0:
416,192,19370,1,8,0:0:0:0:
128,160,19523,1,8,0:0:0:0:
224,128,19676,1,8,0:0:0:0:
256,128,19829,1,0,0:0:0:0:
256,224,19906,1,0,0:0:0:0:
160,224,19983,1,8,0:0:0:0:
192,128,20136,1,8,0:0:0:0:
384,192,20289,1,8,0:0:0:0:
288,224,20442,1,0,0:0:0:0:
320,256,20518,1,0,0:0:0:0:
224,256,20595,1,8,0:0:0:0:
288,96,20748,1,8,0:0:0:0:
416,96,20901,1,8,0:0:0:0:
256,192,21054,1,0,0:0:0:0:
384,224,21130,1,0,0:0:0:0:
128,128,21207,1,8,0:0:0:0:
224,128,21360,1,8,0:0:0:0:
320,128,21513,1,8,0:0:0:0:
288,192,21666,1,0,0:0:0:0:
288,192,21743,1,0,0:0:0:0:
192,224,21819,1,8,0:0:0:0:
384,256,21972,1,8,0:0:0:0:
384,160,22125,1,4,0:0:0:0:
448,128,22278,1,4,0:0:0:0:
224,192,22585,1,12,0:0:0:0:
352,224,22738,1,12,0:0:0:0:
224,96,23044,1,12,0:0:0:0:
320,128,23197,1,12,0:0:0:0:
224,224,23503,1,4,0:0:0:0:
288,256,23656,1,4,0:0:0:0:
256,160,23962,1,4,0:0:0:0:
384,192,24268,1,12,0:0:0:0:
128,128,24574,1,4,0:0:0:0:
224,192,27023,1,0,0:0:0:0:
352,192,27176,1,0,0:0:0:0:
288,128,27483,1,8,0:0:0:0:
256,256,27636,1,8,0:0:0:0:
352,224,27942,1,8,0:0:0:0:
192,160,28095,1,8,0:0:0:0:
288,160,28401,1,0,0:0:0:0:
224,288,28554,1,0,0:0:0:0:
320,224,28707,1,0,0:0:0:0:
320,288,28758,1,0,0:0:0:0:
192,256,28809,1,0,0:0:0:0:
96,192,28860,1,8,0:0:0:0:
256,64,29013,1,0,0:0:0:0:
192,128,29166,1,8,0:0:0:0:
416,192,29319,1,0,0:0:0:0:
96,96,29472,1,12,0:0:0:0:
192,224,29625,1,0,0:0:0:0:
320,256,29702,1,0,0:0:0:0:
96,224,29778,1,8,0:0:0:0:
320,128,29931,1,0,0:0:0:0:
448,192,30085,1,8,0:0:0:0:
256,192,30161,1,8,0:0:0:0:
256,320,30238,1,0,0:0:0:0:
128,256,30314,1,0,0:0:0:0:
160,288,30391,1,8,0:0:0:0:
192,160,30544,1,8,0:0:0:0:
288,256,30620,1,8,0:0:0:0:
352,288,30697,1,0,0:0:0:0:
416,224,30850,1,0,0:0:0:0:
352,160,31003,1,8,0:0:0:0:
288,64,31156,1,0,0:0:0:0:
160,160,31233,1,8,0:0:0:0:
288,160,31309,1,0,0:0:0:0:
224,128,31462,1,0,0:0:0:0:
128,96,31615,1,8,0:0:0:0:
288,224,31768,1,8,0:0:0:0:
160,256,31845,1,8,0:0:0:0:
192,192,31921,1,0,0:0:0:0:
384,128,32074,1,8,0:0:0:0:
288,224,32151,1,0,0:0:0:0:
352,224,32227,1,8,0:0:0:0:
288,160,32380,1,8,0:0:0:0:
224,128,32457,1,0,0:0:0:0:
128,192,32534,1,0,0:0:0:0:
224,224,32687,1,0,0:0:0:0:
416,128,32840,1,8,0:0:0:0:
320,192,32993,1,8,0:0:0:0:
320,256,33069,1,0,0:0:0:0:
224,256,33146,1,0,0:0:0:0:
288,160,33299,1,8,0:0:0:0:
192,160,33452,1,8,0:0:0:0:
352,192,33605,1,8,0:0:0:0:
320,128,33681,1,8,0:0:0:0:
384,256,33758,1,0,0:0:0:0:
224,96,33835,1,8,0:0:0:0:
288,256,33911,1,0,0:0:0:0:
192,224,34064,1,8,0:0:0:0:
128,128,34217,1,0,0:0:0:0:
192,160,34294,1,0,0:0:0:0:
288,192,34370,1,8,0:0:0:0:
288,96,34523,1,8,0:0:0:0:
384,160,34600,1,0,0:0:0:0:
384,96,34676,1,8,0:0:0:0:
352,224,34829,1,0,0:0:0:0:
192,192,34906,1,0,0:0:0:0:
256,256,34983,1,8,0:0:0:0:
160,128,35059,1,8,0:0:0:0:
288,160,35136,1,0,0:0:0:0:
352,160,35212,1,0,0:0:0:0:
224,96,35289,1,8,0:0:0:0:
352,128,35442,1,8,0:0:0:0:
416,224,35518,1,8,0:0:0:0:
192,256,35595,1,0,0:0:0:0:
128,128,35748,1,8,0:0:0:0:
64,96,35824,1,8,0:0:0:0:
256,160,35901,1,8,0:0:0:0:
64,192,36054,1,0,0:0:0:0:
160,224,36130,1,8,0:0:0:0:
288,224,36207,1,0,0:0:0:0:
352,128,36284,1,8,0:0:0:0:
416,192,36360,1,0,0:0:0:0:
256,128,36513,1,8,0:0:0:0:
192,128,36666,1,0,0:0:0:0:
288,96,36743,1,8,0:0:0:0:
320,224,36819,1,0,0:0:0:0:
128,224,36972,1,8,0:0:0:0:
128,128,37049,1,0,0:0:0:0:
224,256,37125,1,8,0:0:0:0:
384,160,37278,1,8,0:0:0:0:
256,128,37355,1,8,0:0:0:0:
192,160,37431,1,0,0:0:0:0:
352,224,37508,1,8,0:0:0:0:
128,224,37585,1,0,0:0:0:0:
256,192,37738,1,8,0:0:0:0:
288,128,37891,1,8,0:0:0:0:
256,256,37967,1,8,0:0:0:0:
160,256,38044,1,0,0:0:0:0:
160,160,38197,1,0,0:0:0:0:
256,96,38350,1,8,0:0:0:0:
352,224,38503,1,0,0:0:0:0:
224,160,38579,1,8,0:0:0:0:
320,160,38656,1,0,0:0:0:0:
256,288,38733,1,0,0:0:0:0:
224,256,38809,1,8,0:0:0:0:
128,192,38962,1,0,0:0:0:0:
128,128,39039,1,0,0:0:0:0:
160,96,39115,1,0,0:0:0:0:
320,128,39192,1,0,0:0:0:0:
320,224,39268,1,8,0:0:0:0:
192,224,39421,1,0,0:0:0:0:
320,256,39498,1,0,0:0:0:0:
96,224,39574,1,8,0:0:0:0:
320,128,39727,1,0,0:0:0:0:
448,192,39881,1,8,0:0:0:0:
256,192,39957,1,8,0:0:0:0:
256,320,40034,1,0,0:0:0:0:
128,256,40110,1,0,0:0:0:0:
160,288,40187,1,8,0:0:0:0:
192,160,40340,1,8,0:0:0:0:
288,256,40416,1,8,0:0:0:0:
352,288,40493,1,0,0:0:0:0:
416,224,40646,1,0,0:0:0:0:
352,160,40799,1,8,0:0:0:0:
288,64,40952,1,0,0:0:0:0:
160,160,41029,1,8,0:0:0:0:
288,160,41105,1,0,0:0:0:0:
224,128,41258,1,0,0:0:0:0:
128,96,41411,1,8,0:0:0:0:
288,224,41564,1,8,0:0:0:0:
160,256,41641,1,8,0:0:0:0:
192,192,41717,1,0,0:0:0:0:
384,128,41870,1,8,0:0:0:0:
288,224,41947,1,0,0:0:0:0:
352,224,42023,1,8,0:0:0:0:
288,160,42176,1,8,0:0:0:0:
224,128,42253,1,0,0:0:0:0:
128,192,42330,1,0,0:0:0:0:
224,224,42483,1,0,0:0:0:0:
416,128,42636,1,8,0:0:0:0:
320,192,42789,1,8,0:0:0:0:
320,256,42865,1,0,0:0:0:0:
224,256,42942,1,0,0:0:0:0:
288,160,43095,1,8,0:0:0:0:
192,160,43248,1,8,0:0:0:0:
352,192,43401,1,8,0:0:0:0:
320,128,43477,1,8,0:0:0:0:
384,256,43554,1,0,0:0:0:0:
224,96,43631,1,8,0:0:0:0:
288,256,43707,1,0,0:0:0:0:
192,224,43860,1,8,0:0:0:0:
128,128,44013,1,0,0:0:0:0:
192,160,44090,1,0,0:0:0:0:
288,192,44166,1,8,0:0:0:0:
384,128,44319,1,0,0:0:0:0:
288,96,44472,1,8,0:0:0:0:
288,256,44625,1,0,0:0:0:0:
416,224,44702,1,0,0:0:0:0:
320,224,44778,1,8,0:0:0:0:
224,192,44855,1,0,0:0:0:0:
224,128,44931,1,0,0:0:0:0:
128,192,45085,1,8,0:0:0:0:
320,128,45238,1,8,0:0:0:0:
384,128,45314,1,0,0:0:0:0:
192,256,45391,1,8,0:0:0:0:
320,256,45467,1,0,0:0:0:0:
320,224,45544,1,0,0:0:0:0:
448,288,45620,1,0,0:0:0:0:
288,288,45697,1,8,0:0:0:0:
256,160,45773,1,0,0:0:0:0:
192,224,45850,1,0,0:0:0:0:
160,256,45926,1,8,0:0:0:0:
160,160,46003,1,8,0:0:0:0:
128,192,46079,1,0,0:0:0:0:
192,128,46156,1,0,0:0:0:0:
256,96,46233,1,8,0:0:0:0:
352,160,46309,1,8,0:0:0:0:
352,288,46386,1,0,0:0:0:0:
384,224,46462,1,8,0:0:0:0:
288,192,46615,1,12,0:0:0:0:
160,160,46768,1,8,0:0:0:0:
416,160,46845,1,8,0:0:0:0:
160,256,46921,1,0,0:0:0:0:
288,128,47074,1,8,0:0:0:0:
352,160,47227,1,12,0:0:0:0:
192,160,47380,1,0,0:0:0:0:
320,256,47457,1,8,0:0:0:0:
256,160,47534,1,0,0:0:0:0:
192,256,47610,1,0,0:0:0:0:
160,32,47687,1,8,0:0:0:0:
384,160,47763,1,8,0:0:0:0:
32,224,47840,1,0,0:0:0:0:
160,192,47993,1,0,0:0:0:0:
320,224,48069,1,8,0:0:0:0:
288,128,48146,1,0,0:0:0:0:
256,96,48222,1,0,0:0:0:0:
224,224,48299,1,8,0:0:0:0:
160,128,48452,1,0,0:0:0:0:
352,224,48528,1,0,0:0:0:0:
384,128,48605,1,8,0:0:0:0:
256,96,48681,1,8,0:0:0:0:
160,192,48758,1,0,0:0:0:0:
160,96,48835,1,8,0:0:0:0:
256,224,48911,1,8,0:0:0:0:
288,192,49064,1,4,0:0:0:0:
352,128,49217,1,8,0:0:0:0:
288,96,49370,1,0,0:0:0:0:
192,160,49523,1,8,0:0:0:0:
160,96,49676,1,8,0:0:0:0:
128,160,49829,1,0,0:0:0:0:
256,224,49983,1,8,0:0:0:0:
288,128,50136,1,0,0:0:0:0:
224,96,50289,1,8,0:0:0:0:
128,128,50442,1,8,0:0:0:0:
192,224,50595,1,0,0:0:0:0:
256,160,50748,1,8,0:0:0:0:
352,160,50901,1,0,0:0:0:0:
288,96,51054,1,8,0:0:0:0:
128,96,51207,1,8,0:0:0:0:
192,96,51360,1,0,0:0:0:0:
160,128,51513,1,8,0:0:0:0:
256,160,51666,1,8,0:0:0:0:
320,64,51819,1,0,0:0:0:0:
320,128,51972,1,8,0:0:0:0:
320,192,52125,1,8,0:0:0:0:
384,128,52278,1,0,0:0:0:0:
256,128,52431,1,8,0:0:0:0:
192,160,52585,1,0,0:0:0:0:
192,96,52738,1,8,0:0:0:0:
320,160,52891,1,8,0:0:0:0:
256,224,53044,1,8,0:0:0:0:
128,160,53197,1,8,0:0:0:0:
320,96,53350,1,8,0:0:0:0:
320,128,53503,1,0,0:0:0:0:
224,128,53656,1,8,0:0:0:0:
160,64,53733,1,8,0:0:0:0:
128,160,53809,1,0,0:0:0:0:
224,224,53886,1,0,0:0:0:0:
288,192,53962,1,8,0:0:0:0:
320,96,54115,1,8,0:0:0:0:
352,192,54268,1,8,0:0:0:0:
256,128,54421,1,0,0:0:0:0:
320,128,54574,1,8,0:0:0:0:
128,160,54727,1,8,0:0:0:0:
160,128,54880,1,0,0:0:0:0:
192,160,55034,1,8,0:0:0:0:
224,128,55187,1,0,0:0:0:0:
256,192,55340,1,0,0:0:0:0:
320,128,55493,1,8,0:0:0:0:
288,96,55646,1,8,0:0:0:0:
160,96,55799,1,8,0:0:0:0:
160,160,55952,1,0,0:0:0:0:
224,128,56105,1,8,0:0:0:0:
320,192,56258,1,0,0:0:0:0:
288,160,56411,1,8,0:0:0:0:
320,128,56564,1,0,0:0:0:0:
256,96,56717,1,0,0:0:0:0:
192,128,56870,1,8,0:0:0:0:
128,160,57023,1,0,0:0:0:0:
384,64,57176,1,0,0:0:0:0:
320,128,57329,1,8,0:0:0:0:
288,160,57483,1,0,0:0:0:0:
192,128,57636,1,8,0:0:0:0:
256,96,57789,1,0,0:0:0:0:
320,96,57942,1,8,0:0:0:0:
352,192,58095,1,8,0:0:0:0:
224,192,58248,1,8,0:0:0:0:
384,96,58401,1,8,0:0:0:0:
192,96,58554,1,8,0:0:0:0:
320,128,58630,1,8,0:0:0:0:
96,192,58707,1,0,0:0:0:0:
128,128,58784,1,0,0:0:0:0:
288,192,58860,1,8,0:0:0:0:
352,128,59013,1,8,0:0:0:0:
288,96,59166,1,0,0:0:0:0:
416,192,59243,1,0,0:0:0:0:
192,160,59319,1,8,0:0:0:0:
160,96,59472,1,8,0:0:0:0:
128,160,59625,1,0,0:0:0:0:
256,224,59779,1,8,0:0:0:0:
384,96,59855,1,8,0:0:0:0:
288,128,59932,1,0,0:0:0:0:
224,96,60085,1,8,0:0:0:0:
128,128,60238,1,8,0:0:0:0:
384,192,60314,1,8,0:0:0:0:
192,224,60391,1,0,0:0:0:0:
256,160,60544,1,8,0:0:0:0:
352,160,60697,1,0,0:0:0:0:
128,192,60773,1,0,0:0:0:0:
288,96,60850,1,8,0:0:0:0:
128,96,61003,1,8,0:0:0:0:
192,96,61156,1,0,0:0:0:0:
160,128,61309,1,8,0:0:0:0:
256,160,61462,1,8,0:0:0:0:
352,224,61539,1,8,0:0:0:0:
320,64,61615,1,0,0:0:0:0:
320,128,61768,1,8,0:0:0:0:
320,192,61921,1,8,0:0:0:0:
384,128,62074,1,0,0:0:0:0:
256,128,62227,1,8,0:0:0:0:
256,224,62304,1,8,0:0:0:0:
192,160,62381,1,0,0:0:0:0:
192,96,62534,1,8,0:0:0:0:
320,160,62687,1,8,0:0:0:0:
256,224,62840,1,8,0:0:0:0:
448,192,62916,1,8,0:0:0:0:
128,160,62993,1,8,0:0:0:0:
320,96,63146,1,8,0:0:0:0:
320,128,63299,1,0,0:0:0:0:
224,128,63452,1,8,0:0:0:0:
160,64,63529,1,8,0:0:0:0:
128,160,63605,1,0,0:0:0:0:
224,224,63682,1,0,0:0:0:0:
288,192,63758,1,8,0:0:0:0:
320,96,63911,1,8,0:0:0:0:
416,128,63988,1,0,0:0:0:0:
352,192,64064,1,8,0:0:0:0:
256,128,64217,1,0,0:0:0:0:
320,128,64370,1,8,0:0:0:0:
288,256,64447,1,0,0:0:0:0:
128,160,64523,1,8,0:0:0:0:
160,256,64600,1,0,0:0:0:0:
160,128,64676,1,0,0:0:0:0:
192,160,64830,1,8,0:0:0:0:
224,128,64983,1,4,0:0:0:0:
256,192,65136,1,0,0:0:0:0:
416,96,65212,1,0,0:0:0:0:
320,128,65289,1,8,0:0:0:0:
288,96,65442,1,8,0:0:0:0:
160,96,65595,1,8,0:0:0:0:
320,224,65671,1,0,0:0:0:0:
160,160,65748,1,0,0:0:0:0:
448,160,65824,1,0,0:0:0:0:
224,128,65901,1,8,0:0:0:0:
320,192,66054,1,0,0:0:0:0:
288,160,66207,1,12,0:0:0:0:
320,128,66360,1,0,0:0:0:0:
384,96,66437,1,8,0:0:0:0:
256,96,66513,1,0,0:0:0:0:
192,128,66666,1,8,0:0:0:0:
128,160,66819,1,4,0:0:0:0:
384,64,66972,1,0,0:0:0:0:
256,224,67049,1,0,0:0:0:0:
320,128,67125,1,8,0:0:0:0:
288,160,67279,1,0,0:0:0:0:
192,128,67432,1,12,0:0:0:0:
256,96,67585,1,0,0:0:0:0:
416,128,67661,1,0,0:0:0:0:
320,96,67738,1,8,0:0:0:0:
256,288,67814,1,0,0:0:0:0:
352,192,67891,1,8,0:0:0:0:
96,192,67967,1,0,0:0:0:0:
224,192,68044,1,8,0:0:0:0:
128,64,68120,1,0,0:0:0:0:
384,96,68197,1,8,0:0:0:0:
320,64,68273,1,0,0:0:0:0:
192,96,68350,1,8,0:0:0:0:
320,128,68426,1,8,0:0:0:0:
96,192,68503,1,0,0:0:0:0:
128,128,68580,1,0,0:0:0:0:
96,96,68656,1,8,0:0:0:0:
256,192,69880,1,0,0:0:0:0:
320,160,70493,1,8,0:0:0:0:
224,160,71105,1,0,0:0:0:0:
192,128,72176,1,8,0:0:0:0:
320,128,72253,1,8,0:0:0:0:
288,96,72329,1,0,0:0:0:0:
224,224,72636,1,0,0:0:0:0:
288,224,72942,1,0,0:0:0:0:
256,96,73248,1,0,0:0:0:0:
320,128,73554,1,8,0:0:0:0:
320,192,74778,1,0,0:0:0:0:
288,160,75238,1,8,0:0:0:0:
288,128,75544,1,0,0:0:0:0:
160,96,75850,1,0,0:0:0:0:
224,96,76003,1,8,0:0:0:0:
224,160,77227,1,8,0:0:0:0:
320,160,77687,1,0,0:0:0:0:
320,128,77763,1,8,0:0:0:0:
192,128,77840,1,8,0:0:0:0:
224,224,78069,1,8,0:0:0:0:
64,192,78299,1,8,0:0:0:0:
416,128,78452,1,0,0:0:0:0:
224,160,78758,1,0,0:0:0:0:
128,160,79064,1,8,0:0:0:0:
224,64,79217,1,8,0:0:0:0:
320,192,79370,1,0,0:0:0:0:
256,192,79523,1,8,0:0:0:0:
192,160,79676,1,0,0:0:0:0:
320,96,79829,1,8,0:0:0:0:
96,96,79983,1,0,0:0:0:0:
192,96,80136,1,8,0:0:0:0:
320,192,80289,1,8,0:0:0:0:
192,224,80442,1,0,0:0:0:0:
256,192,80518,1,0,0:0:0:0:
288,96,80595,1,8,0:0:0:0:
416,128,80748,1,8,0:0:0:0:
384,128,80901,1,0,0:0:0:0:
224,160,81207,1,0,0:0:0:0:
288,96,81360,1,4,0:0:0:0:
128,96,81666,1,12,0:0:0:0:
192,128,81972,1,12,0:0:0:0:
320,160,82125,1,0,0:0:0:0:
384,288,82278,1,8,0:0:0:0:
448,96,82431,1,0,0:0:0:0:
256,64,82585,1,0,0:0:0:0:
224,192,82738,1,8,0:0:0:0:
96,96,82814,1,8,0:0:0:0:
192,128,82891,1,0,0:0:0:0:
352,192,83044,1,8,0:0:0:0:
384,160,83197,1,0,0:0:0:0:
256,128,83350,1,8,0:0:0:0:
352,64,83503,1,0,0:0:0:0:
288,64,83656,1,8,0:0:0:0:
160,96,83809,1,0,0:0:0:0:
352,256,83886,1,0,0:0:0:0:
192,224,83962,1,8,0:0:0:0:
288,160,84115,1,0,0:0:0:0:
256,96,84268,1,8,0:0:0:0:
384,96,84421,1,8,0:0:0:0:
352,160,84574,1,8,0:0:0:0:
224,160,84727,1,0,0:0:0:0:
192,224,84804,1,0,0:0:0:0:
128,192,84880,1,8,0:0:0:0:
256,128,85034,1,8,0:0:0:0:
160,96,85187,1,8,0:0:0:0:
224,64,85340,1,0,0:0:0:0:
256,64,85493,1,8,0:0:0:0:
256,160,85646,1,8,0:0:0:0:
416,160,85799,1,8,0:0:0:0:
320,224,85875,1,0,0:0:0:0:
320,128,85952,1,0,0:0:0:0:
352,96,86028,1,8,0:0:0:0:
448,96,86105,1,8,0:0:0:0:
224,96,86181,1,8,0:0:0:0:
160,128,86258,1,0,0:0:0:0:
192,192,86335,1,0,0:0:0:0:
128,192,86411,1,8,0:0:0:0:
96,128,86488,1,8,0:0:0:0:
128,64,86564,1,0,0:0:0:0:
192,64,86641,1,0,0:0:0:0:
320,64,86717,1,8,0:0:0:0:
96,256,86794,1,8,0:0:0:0:
256,160,86870,1,0,0:0:0:0:
384,160,86947,1,0,0:0:0:0:
384,128,87023,1,8,0:0:0:0:
256,256,87100,1,0,0:0:0:0:
128,224,87176,1,0,0:0:0:0:
128,192,87253,1,8,0:0:0:0:
160,128,87329,1,8,0:0:0:0:
224,128,87406,1,0,0:0:0:0:
160,64,87483,1,8,0:0:0:0:
352,256,87559,1,0,0:0:0:0:
288,96,87636,1,8,0:0:0:0:
352,96,87712,1,8,0:0:0:0:
352,192,87789,1,8,0:0:0:0:
224,224,87865,1,0,0:0:0:0:
128,192,87942,1,8,0:0:0:0:
128,128,88018,1,8,0:0:0:0:
256,128,88095,1,0,0:0:0:0:
192,160,88171,1,0,0:0:0:0:
128,64,88248,1,8,0:0:0:0:
128,288,88401,1,8,0:0:0:0:
320,256,88554,1,0,0:0:0:0:
384,128,88707,1,8,0:0:0:0:
256,160,89013,1,0,0:0:0:0:
192,128,89166,1,8,0:0:0:0:
160,128,89319,1,0,0:0:0:0:
352,128,89472,1,0,0:0:0:0:
256,64,89549,1,0,0:0:0:0:
160,64,89625,1,8,0:0:0:0:
288,224,89702,1,8,0:0:0:0:
224,224,89778,1,0,0:0:0:0:
416,192,89855,1,8,0:0:0:0:
352,256,89931,1,0,0:0:0:0:
256,160,90008,1,0,0:0:0:0:
128,192,90085,1,8,0:0:0:0:
96,224,90161,1,0,0:0:0:0:
320,128,90238,1,0,0:0:0:0:
192,96,90314,1,8,0:0:0:0:
96,128,90391,1,8,0:0:0:0:
160,128,90467,1,0,0:0:0:0:
192,224,90544,1,8,0:0:0:0:
256,192,90620,1,8,0:0:0:0:
320,224,90697,1,8,0:0:0:0:
192,160,92687,1,0,0:0:0:0:
320,160,92840,1,8,0:0:0:0:
224,256,93146,1,12,0:0:0:0:
320,96,93299,1,0,0:0:0:0:
352,192,93375,1,0,0:0:0:0:
256,128,93452,1,8,0:0:0:0:
416,256,93605,1,0,0:0:0:0:
416,128,93681,1,8,0:0:0:0:
288,160,93758,1,8,0:0:0:0:
160,192,93911,1,0,0:0:0:0:
192,128,94064,1,8,0:0:0:0:
256,96,94141,1,0,0:0:0:0:
320,96,94217,1,8,0:0:0:0:
160,64,94294,1,8,0:0:0:0:
128,96,94370,1,0,0:0:0:0:
64,192,94523,1,0,0:0:0:0:
256,256,94676,1,8,0:0:0:0:
256,192,94753,1,0,0:0:0:0:
320,192,94829,1,8,0:0:0:0:
128,192,94906,1,0,0:0:0:0:
224,128,94983,1,8,0:0:0:0:
320,128,95136,1,0,0:0:0:0:
288,96,95212,1,0,0:0:0:0:
192,96,95289,1,8,0:0:0:0:
128,96,95365,1,0,0:0:0:0:
64,128,95442,1,8,0:0:0:0:
192,256,95518,1,8,0:0:0:0:
320,224,95595,1,0,0:0:0:0:
224,192,95748,1,0,0:0:0:0:
288,160,95824,1,0,0:0:0:0:
320,128,95901,1,8,0:0:0:0:
224,128,95977,1,8,0:0:0:0:
320,64,96054,1,0,0:0:0:0:
352,128,96130,1,0,0:0:0:0:
128,128,96207,1,8,0:0:0:0:
192,96,96360,1,0,0:0:0:0:
128,224,96513,1,8,0:0:0:0:
224,192,96590,1,0,0:0:0:0:
256,192,96666,1,0,0:0:0:0:
256,96,96743,1,0,0:0:0:0:
352,192,96819,1,8,0:0:0:0:
320,128,96972,1,8,0:0:0:0:
384,96,97125,1,8,0:0:0:0:
160,128,97278,1,8,0:0:0:0:
160,192,97355,1,8,0:0:0:0:
96,192,97431,1,0,0:0:0:0:
288,192,97585,1,0,0:0:0:0:
256,128,97738,1,8,0:0:0:0:
288,64,97814,1,8,0:0:0:0:
320,96,97891,1,0,0:0:0:0:
352,160,97967,1,0,0:0:0:0:
192,128,98044,1,8,0:0:0:0:
192,192,98197,1,0,0:0:0:0:
288,224,98273,1,0,0:0:0:0:
96,96,98350,1,8,0:0:0:0:
288,96,98503,1,8,0:0:0:0:
352,160,98656,1,0,0:0:0:0:
320,224,98809,1,0,0:0:0:0:
192,192,98962,1,8,0:0:0:0:
128,128,99115,1,8,0:0:0:0:
96,160,99192,1,8,0:0:0:0:
288,128,99268,1,0,0:0:0:0:
320,128,99421,1,0,0:0:0:0:
224,96,99574,1,8,0:0:0:0:
416,224,99880,1,0,0:0:0:0:
320,192,100034,1,0,0:0:0:0:
256,160,100187,1,8,0:0:0:0:
320,96,100340,1,8,0:0:0:0:
192,128,100416,1,8,0:0:0:0:
96,192,100493,1,0,0:0:0:0:
288,288,100646,1,8,0:0:0:0:
192,256,100722,1,0,0:0:0:0:
320,160,100799,1,8,0:0:0:0:
352,256,100875,1,8,0:0:0:0:
288,192,100952,1,0,0:0:0:0:
128,160,101028,1,0,0:0:0:0:
224,96,101105,1,8,0:0:0:0:
416,224,101181,1,0,0:0:0:0:
160,96,101258,1,0,0:0:0:0:
352,128,101411,1,8,0:0:0:0:
128,224,101488,1,8,0:0:0:0:
224,192,101564,1,0,0:0:0:0:
288,256,101641,1,0,0:0:0:0:
256,160,101717,1,8,0:0:0:0:
96,96,101870,1,8,0:0:0:0:
192,96,102023,1,8,0:0:0:0:
288,96,102176,1,8,0:0:0:0:
352,192,102253,1,8,0:0:0:0:
224,192,102329,1,8,0:0:0:0:
160,192,102406,1,0,0:0:0:0:
64,224,102483,1,0,0:0:0:0:
192,256,102636,1,0,0:0:0:0:
288,288,102712,1,0,0:0:0:0:
256,224,102789,1,0,0:0:0:0:
160,160,102865,1,0,0:0:0:0:
256,96,102942,1,8,0:0:0:0:
352,192,103095,1,0,0:0:0:0:
320,160,103171,1,0,0:0:0:0:
160,128,103248,1,8,0:0:0:0:
128,192,103324,1,0,0:0:0:0:
96,128,103401,1,8,0:0:0:0:
96,96,103477,1,8,0:0:0:0:
192,64,103554,1,8,0:0:0:0:
256,128,103630,1,8,0:0:0:0:
288,96,103707,1,0,0:0:0:0:
320,320,103784,1,0,0:0:0:0:
352,192,103860,1,8,0:0:0:0:
192,192,104013,1,8,0:0:0:0:
96,192,104090,1,0,0:0:0:0:
160,160,104166,1,8,0:0:0:0:
224,160,104319,1,0,0:0:0:0:
256,224,104396,1,0,0:0:0:0:
160,96,104472,1,8,0:0:0:0:
352,96,104549,1,8,0:0:0:0:
320,192,104625,1,0,0:0:0:0:
384,160,104702,1,0,0:0:0:0:
256,96,104778,1,8,0:0:0:0:
288,128,104931,1,0,0:0:0:0:
256,160,105085,1,8,0:0:0:0:
192,224,105161,1,0,0:0:0:0:
128,128,105238,1,0,0:0:0:0:
192,96,105314,1,8,0:0:0:0:
256,96,105391,1,0,0:0:0:0:
320,160,105544,1,0,0:0:0:0:
320,192,105620,1,0,0:0:0:0:
256,256,105697,1,8,0:0:0:0:
160,256,105850,1,0,0:0:0:0:
128,160,105926,1,0,0:0:0:0:
192,160,106003,1,8,0:0:0:0:
256,96,106079,1,8,0:0:0:0:
256,160,106156,1,0,0:0:0:0:
320,160,106233,1,0,0:0:0:0:
352,128,106309,1,8,0:0:0:0:
320,64,106462,1,8,0:0:0:0:
256,224,106539,1,0,0:0:0:0:
128,256,106615,1,8,0:0:0:0:
128,128,106768,1,8,0:0:0:0:
224,128,106845,1,8,0:0:0:0:
192,224,106921,1,8,0:0:0:0:
320,224,107074,1,8,0:0:0:0:
320,160,107151,1,0,0:0:0:0:
320,96,107227,1,8,0:0:0:0:
64,256,107380,1,0,0:0:0:0:
128,192,107534,1,8,0:0:0:0:
192,224,107687,1,0,0:0:0:0:
224,160,107763,1,0,0:0:0:0:
160,128,107840,1,8,0:0:0:0:
320,224,107993,1,0,0:0:0:0:
256,288,108069,1,0,0:0:0:0:
320,64,108146,1,8,0:0:0:0:
320,128,108299,1,8,0:0:0:0:
352,224,108375,1,8,0:0:0:0:
352,288,108452,1,8,0:0:0:0:
224,160,108528,1,8,0:0:0:0:
160,160,108605,1,0,0:0:0:0:
64,256,108681,1,0,0:0:0:0:
96,96,108758,1,8,0:0:0:0:
192,256,108911,1,0,0:0:0:0:
128,224,108988,1,0,0:0:0:0:
256,192,109064,1,8,0:0:0:0:
224,128,109217,1,8,0:0:0:0:
352,128,109370,1,8,0:0:0:0:
320,256,109523,1,8,0:0:0:0:
256,192,109600,1,8,0:0:0:0:
192,256,109676,1,0,0:0:0:0:
96,224,109753,1,8,0:0:0:0:
96,192,109829,1,0,0:0:0:0:
160,192,109906,1,0,0:0:0:0:
128,160,109983,1,8,0:0:0:0:
192,128,110136,1,0,0:0:0:0:
256,192,110289,1,8,0:0:0:0:
288,160,110365,1,0,0:0:0:0:
288,96,110442,1,8,0:0:0:0:
320,128,110518,1,8,0:0:0:0:
320,256,110595,1,0,0:0:0:0:
384,160,110671,1,0,0:0:0:0:
384,128,110748,1,8,0:0:0:0:
320,64,110824,1,8,0:0:0:0:
224,128,110901,1,0,0:0:0:0:
128,192,110977,1,0,0:0:0:0:
128,128,111054,1,8,0:0:0:0:
160,96,111130,1,8,0:0:0:0:
32,128,111207,1,0,0:0:0:0:
32,192,111284,1,0,0:0:0:0:
96,256,111360,1,8,0:0:0:0:
192,256,111437,1,8,0:0:0:0:
288,192,111513,1,0,0:0:0:0:
256,96,111590,1,0,0:0:0:0:
288,128,111666,1,8,0:0:0:0:
352,128,111743,1,8,0:0:0:0:
320,64,111819,1,8,0:0:0:0:
192,128,111896,1,0,0:0:0:0:
128,160,111972,1,8,0:0:0:0:
224,256,112049,1,8,0:0:0:0:
224,224,112125,1,0,0:0:0:0:
224,160,112202,1,0,0:0:0:0:
288,224,112278,1,0,0:0:0:0:
352,224,112355,1,0,0:0:0:0:
320,160,112431,1,8,0:0:0:0:
96,256,112508,1,0,0:0:0:0:
128,160,112585,1,0,0:0:0:0:
128,192,112661,1,0,0:0:0:0:
64,192,112738,1,8,0:0:0:0:
256,192,113350,1,8,0:0:0:0:
160,128,113962,1,0,0:0:0:0:
256,128,114574,1,8,0:0:0:0:
192,192,115187,1,0,0:0:0:0:
288,160,115799,1,8,0:0:0:0:
160,128,116411,1,0,0:0:0:0:
320,192,117023,1,0,0:0:0:0:
224,160,117636,1,8,0:0:0:0:
352,160,118860,1,0,0:0:0:0:
160,192,120085,1,0,0:0:0:0:
224,192,120697,1,0,0:0:0:0:
320,160,121309,1,8,0:0:0:0:
224,160,121921,1,0,0:0:0:0:
128,160,122534,1,0,0:0:0:0:
288,192,122840,1,12,0:0:0:0:
256,96,122993,1,8,0:0:0:0:
224,192,123069,1,8,0:0:0:0:
128,288,123146,1,0,0:0:0:0:
288,288,123299,1,8,0:0:0:0:
416,160,123452,1,8,0:0:0:0:
96,192,123528,1,8,0:0:0:0:
384,256,123605,1,8,0:0:0:0:
128,128,123681,1,0,0:0:0:0:
96,96,123758,1,8,0:0:0:0:
192,224,123911,1,0,0:0:0:0:
256,192,124064,1,8,0:0:0:0:
256,128,124217,1,0,0:0:0:0:
192,160,124294,1,0,0:0:0:0:
256,64,124370,1,8,0:0:0:0:
352,192,124523,1,8,0:0:0:0:
352,64,124676,1,8,0:0:0:0:
224,224,124753,1,0,0:0:0:0:
128,224,124829,1,8,0:0:0:0:
64,224,124906,1,8,0:0:0:0:
96,128,124983,1,0,0:0:0:0:
160,128,125136,1,8,0:0:0:0:
256,128,125212,1,0,0:0:0:0:
96,64,125289,1,8,0:0:0:0:
160,64,125442,1,0,0:0:0:0:
224,96,125518,1,0,0:0:0:0:
288,224,125595,1,8,0:0:0:0:
192,224,125671,1,8,0:0:0:0:
128,224,125748,1,0,0:0:0:0:
96,192,125824,1,0,0:0:0:0:
160,160,125901,1,8,0:0:0:0:
96,96,126054,1,8,0:0:0:0:
192,128,126130,1,8,0:0:0:0:
224,192,126207,1,0,0:0:0:0:
288,160,126360,1,8,0:0:0:0:
256,64,126513,1,8,0:0:0:0:
288,128,126666,1,8,0:0:0:0:
352,160,126743,1,8,0:0:0:0:
256,288,126819,1,8,0:0:0:0:
192,224,126972,1,0,0:0:0:0:
128,160,127049,1,0,0:0:0:0:
64,256,127125,1,8,0:0:0:0:
64,192,127278,1,0,0:0:0:0:
256,160,127431,1,12,0:0:0:0:
224,256,127585,1,0,0:0:0:0:
160,224,127661,1,0,0:0:0:0:
128,64,127738,1,8,0:0:0:0:
192,128,127814,1,0,0:0:0:0:
192,64,127891,1,8,0:0:0:0:
288,128,127967,1,8,0:0:0:0:
288,96,128044,1,0,0:0:0:0:
256,160,128197,1,8,0:0:0:0:
192,224,128273,1,0,0:0:0:0:
224,224,128350,1,8,0:0:0:0:
96,192,128503,1,8,0:0:0:0:
160,128,128656,1,12,0:0:0:0:
288,256,128809,1,8,0:0:0:0:
256,192,128886,1,0,0:0:0:0:
224,96,128962,1,8,0:0:0:0:
288,96,129115,1,8,0:0:0:0:
352,224,129192,1,0,0:0:0:0:
320,160,129268,1,0,0:0:0:0:
192,192,129345,1,8,0:0:0:0:
160,224,129421,1,0,0:0:0:0:
128,192,129574,1,8,0:0:0:0:
128,128,129727,1,8,0:0:0:0:
256,192,129880,1,8,0:0:0:0:
288,160,129956,1,0,0:0:0:0:
288,96,130033,1,8,0:0:0:0:
320,128,130109,1,8,0:0:0:0:
320,256,130186,1,0,0:0:0:0:
384,160,130262,1,0,0:0:0:0:
384,128,130339,1,8,0:0:0:0:
320,64,130415,1,8,0:0:0:0:
224,128,130492,1,0,0:0:0:0:
128,192,130568,1,0,0:0:0:0:
128,128,130645,1,8,0:0:0:0:
160,96,130721,1,8,0:0:0:0:
32,128,130798,1,0,0:0:0:0:
32,192,130875,1,0,0:0:0:0:
96,256,130951,1,8,0:0:0:0:
192,256,131028,1,8,0:0:0:0:
288,192,131104,1,0,0:0:0:0:
256,96,131181,1,0,0:0:0:0:
288,128,131257,1,8,0:0:0:0:
352,128,131334,1,8,0:0:0:0:
320,64,131410,1,8,0:0:0:0:
192,128,131487,1,0,0:0:0:0:
128,160,131563,1,8,0:0:0:0:
224,256,131640,1,8,0:0:0:0:
224,224,131716,1,0,0:0:0:0:
224,160,131793,1,0,0:0:0:0:
288,224,131869,1,0,0:0:0:0:
352,224,131946,1,0,0:0:0:0:
320,160,132022,1,8,0:0:0:0:
96,256,132099,1,0,0:0:0:0:
128,160,132176,1,0,0:0:0:0:
128,192,132252,1,0,0:0:0:0:
64,192,132329,1,8,0:0:0:0:
224,224,132534,1,8,0:0:0:0:
320,160,132738,1,0,0:0:0:0:
256,160,132942,1,8,0:0:0:0:
160,160,133146,1,8,0:0:0:0:
160,64,133350,1,0,0:0:0:0:
224,64,133554,1,8,0:0:0:0:
288,128,133758,1,8,0:0:0:0:
352,96,133962,1,0,0:0:0:0:
128,224,134166,1,8,0:0:0:0:
224,192,134370,1,8,0:0:0:0:
352,224,134574,1,0,0:0:0:0:
288,192,134778,1,8,0:0:0:0:
320,128,134983,1,8,0:0:0:0:
192,160,135187,1,0,0:0:0:0:
256,128,135391,1,8,0:0:0:0:
224,96,135595,1,8,0:0:0:0:
320,128,135799,1,0,0:0:0:0:
288,96,136003,1,8,0:0:0:0:
224,192,136207,1,0,0:0:0:0:
160,128,136411,1,8,0:0:0:0:
256,96,136615,1,8,0:0:0:0:
288,128,136819,1,0,0:0:0:0:
256,192,137023,1,8,0:0:0:0:
160,192,137227,1,8,0:0:0:0:
192,128,137431,1,8,0:0:0:0:
256,128,137636,1,0,0:0:0:0:
256,160,137840,1,8,0:0:0:0:
384,192,138044,1,8,0:0:0:0:
352,160,138248,1,0,0:0:0:0:
288,128,138452,1,8,0:0:0:0:
160,256,138656,1,8,0:0:0:0:
256,256,138860,1,0,0:0:0:0:
352,224,139064,1,8,0:0:0:0:
256,128,139268,1,8,0:0:0:0:
192,192,139472,1,0,0:0:0:0:
128,128,139676,1,8,0:0:0:0:
416,160,139880,1,8,0:0:0:0:
288,224,140085,1,0,0:0:0:0:
160,192,140289,1,8,0:0:0:0:
256,128,140493,1,8,0:0:0:0:
192,96,140697,1,0,0:0:0:0:
256,192,140901,8,0,142431,0:0:0:0:
