osu file format v14

[General]
AudioFilename: audio.mp3
AudioLeadIn: 0
PreviewTime: 72623
Countdown: 0
SampleSet: Soft
StackLeniency: 0.4
Mode: 0
LetterboxInBreaks: 0
WidescreenStoryboard: 0

[Editor]
DistanceSpacing: 0.8
BeatDivisor: 4
GridSize: 4
TimelineZoom: 2.66

[Metadata]
Title:Callback
TitleUnicode:Callback
Artist:Kurokotei
ArtistUnicode:黒皇帝
Creator:Cris-
Version:Recall
Source:osu!
Tags:Hazu- Featured Artist FA Mappers' Guild MG Mini-Pack Instrumental Electronic J-Core Into The Void Cut Version
BeatmapID:2399543
BeatmapSetID:1112375

[Difficulty]
HPDrainRate:6
CircleSize:4.3
OverallDifficulty:8
ApproachRate:9.1
SliderMultiplier:2.2
SliderTickRate:1

[Events]
//Background and Video events
0,0,"callback.jpg",0,0
//Break Periods
//Storyboard Layer 0 (Background)
//Storyboard Layer 1 (Fail)
//Storyboard Layer 2 (Pass)
//Storyboard Layer 3 (Foreground)
//Storyboard Layer 4 (Overlay)
//Storyboard Sound Samples

[TimingPoints]
18681,384.615384615385,3,2,1,55,1,0
18681,-125,3,2,1,55,0,0
27911,-111.111111111111,3,2,1,55,0,0
37142,-100,3,2,1,65,0,0
37238,-100,3,2,1,5,0,0
37527,-100,3,2,1,65,0,0
41854,-100,3,2,1,5,0,0
42142,-100,3,2,1,65,0,0
46373,-100,3,2,1,70,0,0
46469,-100,3,2,1,5,0,0
46757,-100,3,2,1,70,0,0
47431,-100,3,2,1,5,0,0
47527,-100,3,2,1,70,0,0
48344,-100,3,2,1,5,0,0
48681,-100,3,2,1,70,0,0
49738,-100,3,2,1,5,0,0
49834,-100,3,2,1,70,0,0
50604,-100,3,2,6,70,0,0
50988,-100,3,2,1,70,0,0
51084,-100,3,2,1,5,0,0
51373,-100,3,2,1,70,0,0
52046,-100,3,2,1,5,0,0
52142,-100,3,2,1,70,0,0
55604,-125,3,2,1,65,0,0
64834,-125,3,2,1,70,0,0
73296,-90.9090909090909,3,2,1,75,0,0
74065,-76.9230769230769,3,2,1,80,0,1
92527,-200,3,2,1,80,0,0

[Colours]
Combo1 : 232,159,226
Combo2 : 225,89,137
Combo3 : 225,91,199
Combo4 : 112,164,241

[HitObjects]
84,65,18681,5,2,0:1:0:0:
84,65,19065,2,0,L|170:49,1,88,2|0,0:0|0:0,0:0:0:0:
0,81,19450,1,2,0:0:0:0:
55,146,19834,1,2,0:0:0:0:
29,0,20219,5,2,0:1:0:0:
428,65,20988,5,2,0:1:0:0:
428,65,21373,2,0,L|342:49,1,88,2|0,0:0|0:0,0:0:0:0:
512,81,21757,1,2,0:0:0:0:
457,146,22142,1,2,0:0:0:0:
483,0,22527,5,2,0:1:0:0:
428,65,22719,1,2,0:0:0:0:
256,303,23296,5,2,0:1:0:0:
256,303,23681,2,0,L|170:319,1,88,2|0,0:0|0:0,0:0:0:0:
340,287,24065,1,2,0:0:0:0:
285,222,24450,1,2,0:0:0:0:
311,368,24834,5,2,0:1:0:0:
311,368,25219,1,2,0:0:0:0:
340,287,25411,1,2,0:0:0:0:
198,238,25604,5,2,0:1:0:0:
198,238,25988,2,0,L|284:222,1,88,2|0,0:0|0:0,0:0:0:0:
114,254,26373,1,2,0:0:0:0:
256,303,26757,5,2,0:1:0:0:
256,303,27142,5,2,0:0:0:0:
285,222,27334,1,0,0:0:0:0:
230,157,27527,1,2,0:0:0:0:
198,238,27719,1,0,0:0:0:0:
340,287,27911,5,2,0:1:0:0:
340,287,28296,2,0,B|379:277|379:277|396:283|396:283|435:273,1,98.9999969787599,2|0,0:0|0:0,0:0:0:0:
256,303,28681,1,2,0:0:0:0:
285,222,29065,1,2,0:0:0:0:
314,368,29450,5,2,0:1:0:0:
256,81,30219,5,2,0:1:0:0:
256,81,30604,2,0,B|216:71|216:71|199:77|199:77|160:67,1,98.9999969787599,2|0,0:0|0:0,0:0:0:0:
340,97,30988,1,2,0:0:0:0:
285,162,31373,1,2,0:0:0:0:
311,16,31757,5,2,0:1:0:0:
340,97,31950,1,2,0:0:0:0:
145,192,32527,5,2,0:1:0:0:
145,192,32911,2,0,B|105:201|105:201|88:195|88:195|49:205,1,98.9999969787599,2|0,0:0|0:0,0:0:0:0:
229,176,33296,1,2,0:0:0:0:
174,111,33681,1,2,0:0:0:0:
200,257,34065,5,2,0:1:0:0:
200,257,34450,1,2,0:0:0:0:
229,176,34642,1,2,0:0:0:0:
90,127,34834,5,2,0:1:0:0:
90,127,35219,2,0,B|50:136|50:136|33:130|33:130|-5:140,1,98.9999969787599,2|0,0:0|0:0,0:0:0:0:
174,111,35604,1,2,0:0:0:0:
116,273,35988,5,2,0:1:0:0:
116,273,36373,1,2,0:0:0:0:
171,338,36565,1,0,0:0:0:0:
200,257,36757,1,2,0:0:0:0:
145,192,36950,1,0,0:0:0:0:
32,364,37142,6,0,L|86:354,1,55,2|0,0:1|0:0,0:0:0:0:
86,354,37527,1,2,0:0:0:0:
116,273,37719,1,0,0:0:0:0:
171,338,37911,1,2,0:0:0:0:
32,289,38296,1,2,0:0:0:0:
229,176,38681,5,2,0:1:0:0:
28,18,39450,5,2,0:1:0:0:
85,81,39642,1,0,0:0:0:0:
113,0,39834,1,2,0:0:0:0:
169,64,40027,1,0,0:0:0:0:
59,162,40219,1,2,0:1:0:0:
59,162,40604,1,2,0:0:0:0:
1,98,40796,1,0,0:0:0:0:
144,144,40988,5,2,0:1:0:0:
169,64,41181,1,2,0:0:0:0:
395,294,41757,6,0,L|341:304,1,55,2|0,0:1|0:0,0:0:0:0:
341,304,42142,1,2,0:0:0:0:
284,241,42334,1,0,0:0:0:0:
256,322,42527,1,2,0:0:0:0:
369,223,42911,1,2,0:0:0:0:
166,115,43296,5,2,0:1:0:0:
166,115,43681,1,2,0:0:0:0:
194,34,43873,1,2,0:0:0:0:
225,178,44065,5,2,0:1:0:0:
166,115,44257,1,0,0:0:0:0:
140,196,44450,1,2,0:0:0:0:
82,132,44642,1,0,0:0:0:0:
225,178,44834,1,2,0:1:0:0:
200,258,45027,1,0,0:0:0:0:
56,213,45219,5,2,0:1:0:0:
114,277,45411,1,0,0:0:0:0:
225,178,45604,1,2,0:0:0:0:
200,258,45796,1,0,0:0:0:0:
140,196,45988,1,2,0:0:0:0:
166,115,46181,1,0,0:0:0:0:
338,231,46373,6,0,L|284:241,1,55,10|0,3:1|0:0,0:0:0:0:
284,241,46757,1,2,0:0:0:0:
225,178,46950,1,0,0:0:0:0:
175,338,47142,6,0,B|227:326|227:326|279:350|279:350|331:338,1,165,2|0,0:1|0:0,0:0:0:0:
416,316,47527,2,0,L|426:370,1,55,10|0,3:0|0:0,0:0:0:0:
284,241,47911,5,2,0:1:0:0:
500,294,48296,2,0,L|505:321,1,27.5,2|0,3:0|0:0,0:0:0:0:
200,258,48681,5,10,3:1:0:0:
225,178,48873,1,0,0:0:0:0:
115,276,49065,1,2,0:0:0:0:
284,241,49257,1,0,0:0:0:0:
140,196,49450,6,0,B|88:208|88:208|36:184|36:184|-16:196,1,165,2|0,0:1|0:0,0:0:0:0:
0,275,49834,2,0,L|10:329,1,55,10|0,3:0|0:0,0:0:0:0:
10,329,50027,1,0,0:0:0:0:
140,196,50219,5,2,0:1:0:0:
200,258,50411,1,2,0:0:0:0:
56,211,50604,1,2,0:0:0:0:
242,44,50988,6,0,L|252:98,1,55,10|0,3:1|0:0,0:0:0:0:
252,98,51373,1,2,0:0:0:0:
225,178,51565,1,0,0:0:0:0:
368,224,51757,6,0,B|420:212|420:212|472:236|472:236|524:224,1,165,2|0,0:1|0:0,0:0:0:0:
508,145,52142,2,0,L|498:91,1,55,10|0,3:0|0:0,0:0:0:0:
284,241,52527,5,2,0:1:0:0:
485,349,52911,1,2,3:0:0:0:
510,269,53104,1,2,0:0:0:0:
315,383,53296,5,10,3:1:0:0:
342,303,53488,1,0,0:0:0:0:
400,367,53681,1,2,0:0:0:0:
427,287,53873,1,0,0:0:0:0:
284,241,54065,1,2,0:1:0:0:
260,320,54257,1,0,0:0:0:0:
368,224,54450,5,2,0:1:0:0:
427,287,54642,1,0,0:0:0:0:
226,177,54834,1,2,0:0:0:0:
200,258,55027,1,2,0:0:0:0:
454,209,55219,1,2,0:0:0:0:
446,169,55315,1,2,0:0:0:0:
437,127,55411,1,2,0:0:0:0:
430,85,55507,1,2,0:0:0:0:
421,42,55604,5,6,3:0:0:0:
421,42,55988,1,2,3:2:0:0:
421,42,56373,1,2,3:2:0:0:
226,177,56757,6,0,L|312:161,1,88,2|0,3:2|0:0,0:0:0:0:
196,27,57142,2,0,L|168:109,1,88,2|0,3:1|0:0,0:0:0:0:
345,77,57527,2,0,L|283:13,1,88,2|0,3:2|0:0,0:0:0:0:
226,177,57911,5,2,3:1:0:0:
226,177,58296,2,0,B|260:300|260:300|280:256,1,176,2|0,3:2|3:2,0:0:0:0:
313,161,58873,1,2,0:0:0:0:
195,27,59065,6,0,L|109:42,1,88,2|2,3:2|0:0,0:0:0:0:
137,193,59450,1,2,3:1:0:0:
195,27,59642,1,2,0:0:0:0:
225,177,59834,1,2,3:2:0:0:
79,125,60027,1,2,0:0:0:0:
255,93,60219,5,2,3:1:0:0:
255,93,60604,1,2,3:2:0:0:
255,93,60988,1,2,3:2:0:0:
107,277,61373,6,0,L|50:210,1,88,2|2,3:2|0:0,0:0:0:0:
195,261,61757,1,2,3:1:0:0:
226,177,61950,1,2,0:0:0:0:
78,360,62142,1,2,3:2:0:0:
20,292,62334,1,2,0:0:0:0:
256,327,62527,5,2,3:1:0:0:
256,327,62911,1,2,3:2:0:0:
256,327,63296,1,2,3:2:0:0:
256,93,63681,6,0,L|170:108,1,88,2|0,3:1|0:0,0:0:0:0:
286,243,64065,1,2,3:2:0:0:
316,159,64257,1,2,0:0:0:0:
137,193,64450,1,2,3:2:0:0:
195,261,64642,1,2,0:0:0:0:
256,93,64834,5,2,3:1:0:0:
256,93,65219,1,2,3:2:0:0:
256,93,65604,1,2,3:2:0:0:
20,292,65988,6,0,L|50:210,1,88,2|2,3:2|0:0,0:0:0:0:
165,345,66373,1,2,3:1:0:0:
137,193,66565,1,2,0:0:0:0:
78,360,66757,1,2,3:2:0:0:
195,261,66950,1,2,0:0:0:0:
244,252,67046,1,2,0:0:0:0:
286,243,67142,5,2,3:1:0:0:
286,243,67527,1,2,3:2:0:0:
286,243,67911,1,2,3:2:0:0:
197,26,68296,6,0,L|111:42,1,88,2|2,3:2|0:0,0:0:0:0:
227,176,68681,2,0,L|257:94,1,88,2|2,3:1|0:0,0:0:0:0:
81,126,69065,2,0,L|137:193,1,88,2|2,3:2|0:0,0:0:0:0:
197,26,69450,5,2,3:1:0:0:
197,26,69834,2,0,L|283:10,1,88,0|2,3:2|0:0,0:0:0:0:
227,176,70219,1,0,3:2:0:0:
227,176,70604,6,0,L|199:259,1,88,2|2,3:1|0:0,0:0:0:0:
316,159,70988,1,2,3:1:0:0:
374,222,71181,1,2,0:0:0:0:
169,108,71373,1,2,3:2:0:0:
140,192,71565,1,2,0:0:0:0:
344,73,71757,5,2,3:1:0:0:
344,73,72142,1,2,3:2:0:0:
344,73,72527,1,2,3:2:0:0:
404,139,72719,1,2,0:0:0:0:
227,176,72911,6,0,L|141:192,1,88,2|0,3:1|3:0,0:0:0:0:
81,126,73200,1,0,3:0:0:0:
81,126,73296,1,10,3:2:0:0:
316,159,73488,1,0,3:0:0:0:
316,159,73584,1,0,3:0:0:0:
316,159,73681,2,0,L|327:218,1,60.5000018463135,2|0,3:2|3:0,0:0:0:0:
344,73,73873,2,0,L|333:14,1,60.5000018463135,0|0,3:0|3:0,0:0:0:0:
404,139,74065,6,0,L|432:279,1,142.99999345398,6|0,3:0|0:0,0:0:0:0:
160,183,74450,2,0,L|269:91,1,142.99999345398,0|0,3:0|0:0,0:0:0:0:
323,370,74834,1,8,3:2:0:0:
188,323,75027,1,0,0:0:0:0:
404,139,75219,6,0,L|432:279,1,142.99999345398,2|0,3:2|0:0,0:0:0:0:
269,91,75604,2,0,L|404:139,1,142.99999345398,2|0,3:1|0:0,0:0:0:0:
160,183,75988,2,0,L|269:91,1,142.99999345398,10|0,3:2|0:0,0:0:0:0:
323,370,76373,6,0,L|188:323,1,142.99999345398,2|0,3:1|0:0,0:0:0:0:
25,135,76757,2,0,B|160:183|160:183|269:91,1,285.99998690796,2|8,3:2|3:2,0:0:0:0:
135,43,77334,1,2,0:0:0:0:
188,323,77527,5,2,3:2:0:0:
188,323,77623,1,2,0:0:0:0:
188,323,77719,1,2,0:0:0:0:
135,43,77911,1,2,3:1:0:0:
269,91,78104,1,2,0:0:0:0:
52,279,78296,1,10,3:1:0:0:
188,323,78488,1,2,0:0:0:0:
188,323,78584,1,0,0:0:0:0:
188,323,78681,6,0,L|160:182,1,142.99999345398,2|0,3:2|0:0,0:0:0:0:
432,278,79065,2,0,L|323:370,1,142.99999345398,0|0,3:0|0:0,0:0:0:0:
269,91,79450,1,8,3:2:0:0:
404,139,79642,1,0,0:0:0:0:
188,323,79834,6,0,L|160:182,1,142.99999345398,2|0,3:2|0:0,0:0:0:0:
432,278,80219,2,0,B|323:370|323:370|188:323,1,285.99998690796,2|8,3:1|3:2,0:0:0:0:
404,139,80796,1,2,0:0:0:0:
135,43,80988,6,0,L|160:182,1,142.99999345398,2|0,3:2|0:0,0:0:0:0:
404,139,81373,2,0,L|270:91,1,142.99999345398,0|0,3:0|0:0,0:0:0:0:
188,323,81757,2,0,L|297:231,1,142.99999345398,8|0,3:2|0:0,0:0:0:0:
25,135,82142,5,2,3:1:0:0:
135,43,82334,1,2,0:0:0:0:
188,323,82527,1,2,3:1:0:0:
52,279,82719,1,2,0:0:0:0:
270,91,82911,1,10,3:1:0:0:
297,231,83104,1,2,0:0:0:0:
297,231,83200,1,0,0:0:0:0:
297,231,83296,6,0,L|188:323,1,142.99999345398,2|0,3:1|0:0,0:0:0:0:
135,43,83681,2,0,L|270:91,1,142.99999345398,0|0,3:0|0:0,0:0:0:0:
52,279,84065,1,8,3:2:0:0:
25,135,84257,1,0,0:0:0:0:
297,231,84450,6,0,L|432:278,1,142.99999345398,2|0,3:2|0:0,0:0:0:0:
52,279,84834,2,0,B|188:323|188:323|297:231,1,285.99998690796,2|8,3:1|3:2,0:0:0:0:
135,43,85411,1,2,0:0:0:0:
135,43,85507,1,2,0:0:0:0:
135,43,85604,6,0,L|160:183,1,142.99999345398,2|0,3:1|0:0,0:0:0:0:
404,139,85988,2,0,L|269:91,1,142.99999345398,0|0,3:0|0:0,0:0:0:0:
188,323,86373,1,8,3:2:0:0:
297,231,86565,1,0,0:0:0:0:
135,43,86757,6,0,L|26:135,1,142.99999345398,2|0,3:2|0:0,0:0:0:0:
269,91,87142,2,0,L|135:43,1,142.99999345398,2|0,3:1|0:0,0:0:0:0:
297,231,87527,2,0,L|269:91,1,142.99999345398,10|0,3:2|0:0,0:0:0:0:
52,279,87911,6,0,B|188:323|188:323|297:231,1,285.99998690796,2|0,3:1|3:0,0:0:0:0:
135,43,88488,1,2,0:0:0:0:
135,43,88681,2,0,L|160:183,1,142.99999345398,8|0,3:2|0:0,0:0:0:0:
512,41,89065,6,0,B|378:-4|378:-4|268:92,1,285.99998690796,2|2,3:2|3:1,0:0:0:0:
432,278,89642,1,2,0:0:0:0:
432,278,89834,2,0,L|404:138,1,142.99999345398,8|0,3:2|0:0,0:0:0:0:
52,279,90219,6,0,L|188:323,1,142.99999345398,2|0,3:2|0:0,0:0:0:0:
135,43,90604,2,0,L|26:135,1,142.99999345398,0|0,3:0|0:0,0:0:0:0:
298,231,90988,1,8,3:2:0:0:
269,91,91181,1,2,0:0:0:0:
52,279,91373,5,2,3:1:0:0:
298,231,91565,1,0,3:0:0:0:
298,231,91661,1,0,3:0:0:0:
298,231,91757,1,10,3:2:0:0:
135,43,91950,1,2,3:2:0:0:
188,323,92142,1,10,3:2:0:0:
269,91,92334,1,0,3:0:0:0:
269,91,92431,1,0,3:0:0:0:
269,91,92527,5,2,3:1:0:0:
