osu file format v14

[General]
AudioFilename: audio.mp3
AudioLeadIn: 0
PreviewTime: 72623
Countdown: 0
SampleSet: Soft
StackLeniency: 0.4
Mode: 0
LetterboxInBreaks: 0
WidescreenStoryboard: 0

[Editor]
DistanceSpacing: 0.9
BeatDivisor: 4
GridSize: 4
TimelineZoom: 1.660001

[Metadata]
Title:Callback
TitleUnicode:Callback
Artist:Kurokotei
ArtistUnicode:黒皇帝
Creator:Cris-
Version:Easy
Source:osu!
Tags:Hazu- Featured Artist FA Mappers' Guild MG Mini-Pack Instrumental Electronic J-Core Into The Void Cut Version
BeatmapID:2447352
BeatmapSetID:1112375

[Difficulty]
HPDrainRate:3
CircleSize:3.2
OverallDifficulty:3
ApproachRate:4
SliderMultiplier:1
SliderTickRate:1

[Events]
//Background and Video events
0,0,"callback.jpg",0,0
//Break Periods
//Storyboard Layer 0 (Background)
//Storyboard Layer 1 (Fail)
//Storyboard Layer 2 (Pass)
//Storyboard Layer 3 (Foreground)
//Storyboard Layer 4 (Overlay)
//Storyboard Sound Samples

[TimingPoints]
18681,384.615384615385,3,2,1,55,1,0
18681,-100,3,2,1,55,0,0
37142,-100,3,2,1,65,0,0
46373,-100,3,2,1,70,0,0
50604,-100,3,2,6,70,0,0
50988,-100,3,2,1,70,0,0
55604,-100,3,2,1,65,0,0
64834,-100,3,2,1,70,0,0
73296,-100,3,2,1,75,0,0
74065,-100,3,2,1,80,0,1
92527,-100,3,2,1,80,0,0

[Colours]
Combo1 : 232,159,226
Combo2 : 225,89,137
Combo3 : 225,91,199
Combo4 : 112,164,241

[HitObjects]
280,212,18681,5,2,0:1:0:0:
216,280,19065,2,0,B|200:328|232:328|216:377,2,100,2|2|2,0:0|0:0|0:0,0:0:0:0:
156,212,20219,1,2,0:1:0:0:
156,212,20988,5,2,0:1:0:0:
216,144,21373,2,0,B|232:96|200:96|216:47,2,100,2|2|2,0:0|0:0|0:0,0:0:0:0:
280,212,22527,1,2,0:1:0:0:
280,212,23296,5,2,0:1:0:0:
340,144,23681,2,0,P|386:129|433:144,2,100,2|2|2,0:0|0:0|0:0,0:0:0:0:
280,212,24834,2,0,P|234:227|187:212,1,100,2|2,0:1|0:0,0:0:0:0:
124,144,25604,5,2,0:1:0:0:
64,212,25988,2,0,B|46:258|46:258|64:305,1,100,2|2,0:0|0:0,0:0:0:0:
124,376,26757,1,2,0:1:0:0:
184,305,27142,1,2,0:0:0:0:
184,305,27911,5,2,0:1:0:0:
240,376,28296,2,0,B|288:392|288:360|337:376,2,100,2|2|2,0:0|0:0|0:0,0:0:0:0:
184,305,29450,1,2,0:1:0:0:
184,305,30219,5,2,0:1:0:0:
240,234,30604,2,0,B|288:218|288:250|337:234,2,100,2|2|2,0:0|0:0|0:0,0:0:0:0:
184,305,31757,1,2,0:1:0:0:
184,305,32527,5,2,0:1:0:0:
128,234,32911,2,0,B|80:218|80:250|31:234,2,100,2|2|2,0:0|0:0|0:0,0:0:0:0:
184,305,34065,2,0,P|230:320|277:305,1,100,2|2,0:1|0:0,0:0:0:0:
336,234,34834,5,2,0:1:0:0:
277,164,35219,2,0,P|231:149|184:164,1,100,2|2,0:0|0:0,0:0:0:0:
128,234,35988,1,2,0:1:0:0:
68,164,36373,2,0,B|50:118|50:118|68:71,1,100,2|2,0:0|0:0,0:0:0:0:
128,0,37142,5,2,0:1:0:0:
184,71,37527,2,0,P|230:86|277:71,1,100,2|2,0:0|0:0,0:0:0:0:
338,0,38296,1,2,0:0:0:0:
396,71,38681,1,2,0:1:0:0:
396,71,39450,6,0,B|414:117|414:117|396:164,1,100,2|2,0:1|0:0,0:0:0:0:
338,232,40219,1,2,0:1:0:0:
276,164,40604,1,2,0:0:0:0:
216,232,40988,1,2,0:1:0:0:
216,232,41757,5,2,0:1:0:0:
276,300,42142,2,0,P|323:316|368:300,1,100,2|2,0:0|0:0,0:0:0:0:
432,232,42911,1,2,0:0:0:0:
369,164,43296,2,0,P|322:147|277:164,1,100,2|2,0:1|0:0,0:0:0:0:
216,232,44065,5,2,0:1:0:0:
152,165,44450,1,2,0:0:0:0:
216,100,44834,1,2,0:1:0:0:
277,164,45219,1,2,0:1:0:0:
336,96,45604,2,0,P|383:80|428:96,1,100,2|2,0:0|0:0,0:0:0:0:
492,165,46373,6,0,B|510:211|510:211|492:258,1,100,10|2,3:1|0:0,0:0:0:0:
428,324,47142,1,2,0:1:0:0:
364,258,47527,1,10,3:0:0:0:
304,324,47911,2,0,P|257:340|212:324,1,100,2|2,0:1|3:0,0:0:0:0:
147,258,48681,6,0,B|129:212|129:212|147:165,1,100,10|2,3:1|0:0,0:0:0:0:
212,100,49450,1,2,0:1:0:0:
276,167,49834,1,10,3:0:0:0:
336,100,50219,1,2,0:1:0:0:
276,32,50604,1,2,0:0:0:0:
212,100,50988,6,0,P|165:116|120:100,1,100,10|2,3:1|0:0,0:0:0:0:
60,32,51757,1,2,0:1:0:0:
0,100,52142,1,10,3:0:0:0:
60,168,52527,2,0,B|78:215|78:215|60:261,1,100,2|2,0:1|3:0,0:0:0:0:
14,340,53296,6,0,P|61:356|106:340,1,100,10|2,3:1|0:0,0:0:0:0:
168,272,54065,1,2,0:1:0:0:
228,340,54450,1,2,0:1:0:0:
288,272,54834,2,0,P|335:256|380:272,1,100,2|2,0:0|0:0,0:0:0:0:
444,340,55604,6,0,P|491:356|536:340,2,100,6|2|2,3:0|3:2|3:2,0:0:0:0:
381,272,56757,1,2,3:2:0:0:
444,204,57142,2,0,P|460:157|444:112,1,100,2|2,3:1|3:2,0:0:0:0:
380,44,57911,5,2,3:1:0:0:
320,112,58296,2,0,P|303:158|319:204,1,100,2|0,3:2|3:2,0:0:0:0:
381,272,59065,1,2,3:2:0:0:
320,340,59450,1,2,3:1:0:0:
260,272,59834,1,2,3:2:0:0:
200,340,60219,6,0,B|153:358|153:358|107:340,2,100,2|2|2,3:1|3:2|3:2,0:0:0:0:
260,272,61373,1,2,3:2:0:0:
320,340,61757,1,2,3:1:0:0:
381,272,62142,1,2,3:2:0:0:
320,205,62527,5,2,3:1:0:0:
260,272,62911,2,0,P|213:288|167:272,1,100,2|2,3:2|3:2,0:0:0:0:
106,205,63681,1,2,3:1:0:0:
44,272,64065,1,2,3:2:0:0:
106,339,64450,1,2,3:2:0:0:
167,272,64834,6,0,B|213:254|213:254|260:272,2,100,2|2|2,3:1|3:2|3:2,0:0:0:0:
106,339,65988,1,2,3:2:0:0:
44,272,66373,1,2,3:1:0:0:
106,205,66757,1,2,3:2:0:0:
167,272,67142,5,2,3:1:0:0:
228,205,67527,2,0,P|244:158|228:112,1,100,2|2,3:2|3:2,0:0:0:0:
167,44,68296,1,2,3:2:0:0:
106,112,68681,2,0,P|90:158|106:204,1,100,2|2,3:1|3:2,0:0:0:0:
167,272,69450,6,0,B|183:320|151:320|167:369,2,100,2|0|0,3:1|3:2|3:2,0:0:0:0:
228,205,70604,1,2,3:1:0:0:
289,272,70988,1,2,3:1:0:0:
351,205,71373,1,2,3:2:0:0:
289,138,71757,5,2,3:1:0:0:
228,205,72142,2,0,P|181:221|136:205,1,100,2|2,3:2|3:2,0:0:0:0:
72,138,72911,1,2,3:1:0:0:
135,69,73296,2,0,P|182:53|227:69,1,100,10|2,3:2|3:2,0:0:0:0:
289,138,74065,6,0,B|345:158|345:158|417:118|417:118|471:138,1,200,6|8,3:0|3:2,0:0:0:0:
424,216,75219,1,2,3:2:0:0:
471,292,75604,2,0,P|424:308|379:292,1,100,2|10,3:1|3:2,0:0:0:0:
316,224,76373,5,2,3:1:0:0:
256,292,76757,2,0,P|209:308|164:292,1,100,2|8,3:2|3:2,0:0:0:0:
102,223,77527,1,2,3:2:0:0:
38,290,77911,1,2,3:1:0:0:
102,355,78296,1,10,3:1:0:0:
163,292,78681,6,0,B|258:244|258:340|353:292,1,200,2|8,3:2|3:2,0:0:0:0:
417,225,79834,1,2,3:2:0:0:
353,160,80219,2,0,P|306:144|261:160,1,100,2|8,3:1|3:2,0:0:0:0:
196,225,80988,6,0,P|149:241|104:225,2,100,2|0|8,3:2|3:0|3:2,0:0:0:0:
260,160,82142,1,2,3:1:0:0:
324,225,82527,1,2,3:1:0:0:
260,292,82911,1,10,3:1:0:0:
196,225,83296,6,0,B|140:205|140:205|68:245|68:245|14:225,1,200,2|8,3:1|3:2,0:0:0:0:
60,145,84450,1,2,3:2:0:0:
14,69,84834,2,0,B|61:51|61:51|107:69,1,100,2|8,3:1|3:2,0:0:0:0:
172,138,85604,5,2,3:1:0:0:
234,69,85988,2,0,B|280:51|280:51|327:69,1,100,0|8,3:0|3:2,0:0:0:0:
389,138,86757,1,2,3:2:0:0:
451,70,87142,1,2,3:1:0:0:
389,3,87527,1,10,3:2:0:0:
327,69,87911,6,0,B|281:87|281:87|234:69,1,100,2|0,3:1|3:0,0:0:0:0:
168,3,88681,1,8,3:2:0:0:
104,69,89065,2,0,B|86:115|86:115|104:162,1,100,2|2,3:2|3:1,0:0:0:0:
172,224,89834,1,8,3:2:0:0:
236,158,90219,6,0,B|331:206|331:110|426:158,1,200,2|8,3:2|3:2,0:0:0:0:
488,226,91373,1,2,3:1:0:0:
426,293,91757,1,10,3:2:0:0:
364,227,92142,1,10,3:2:0:0:
426,158,92527,5,2,3:1:0:0:
