osu file format v14

[General]
AudioFilename: audio.mp3
AudioLeadIn: 0
PreviewTime: 147882
Countdown: 0
SampleSet: Normal
StackLeniency: 0.7
Mode: 3
LetterboxInBreaks: 0
SpecialStyle: 0
WidescreenStoryboard: 0

[Editor]
DistanceSpacing: 0.8
BeatDivisor: 4
GridSize: 16
TimelineZoom: 1.7

[Metadata]
Title:#include
TitleUnicode:#include
Artist:Kurokotei
ArtistUnicode:黒皇帝
Creator:eon
Version:Source Code
Source:
Tags:Hàltràny Industries HTRNY VOL.2 breakcore psychedelic electronica IDM Sayaka- dialgadu77
BeatmapID:2021660
BeatmapSetID:965816

[Difficulty]
HPDrainRate:9
CircleSize:4
OverallDifficulty:9
ApproachRate:5
SliderMultiplier:1.4
SliderTickRate:1

[Events]
//Background and Video events
0,0,"bg.jpg",0,0
//Break Periods
//Storyboard Layer 0 (Background)
//Storyboard Layer 1 (Fail)
//Storyboard Layer 2 (Pass)
//Storyboard Layer 3 (Foreground)
//Storyboard Sound Samples
Sample,147882,0,"wind.wav",70

[TimingPoints]
20750,405.405405405405,4,1,1,40,1,0
20750,-80,4,1,1,40,0,0
40209,324.324324324324,4,1,1,40,1,0
40209,-100,4,1,1,40,0,0
41506,405.405405405405,4,1,1,40,1,0
41506,-80,4,1,1,40,0,0
60965,324.324324324324,4,1,1,40,1,0
60965,-100,4,1,1,40,0,0
75235,324.324324324324,9,1,1,40,1,0
83991,324.324324324324,5,1,1,40,1,0
85612,324.324324324324,4,1,1,40,1,0
85612,-100,4,1,1,40,0,0
106044,-133.333333333333,4,1,1,40,0,0
106260,-57.1428571428571,4,1,1,40,0,0
106368,-100,4,1,1,40,0,0
147882,-100,4,1,1,40,0,1
181611,-100,4,1,1,40,0,0
223125,-100,4,1,1,40,0,1
223612,-500,4,1,1,40,0,1
223734,-29.4117647058824,4,1,1,40,0,1
223774,-100,4,1,1,40,0,1
224909,-500,4,1,1,40,0,1
225031,-29.4117647058824,4,1,1,40,0,1
225071,-100,4,1,1,40,0,1
226207,-500,4,1,1,40,0,1
226328,-29.4117647058824,4,1,1,40,0,1
226369,-100,4,1,1,40,0,1
227504,-500,4,1,1,40,0,1
227625,-29.4117647058824,4,1,1,40,0,1
227666,-100,4,1,1,40,0,1
228801,-500,4,1,1,40,0,1
228923,-29.4117647058824,4,1,1,40,0,1
228963,-100,4,1,1,40,0,1
230098,-500,4,1,1,40,0,1
230220,-29.4117647058824,4,1,1,40,0,1
230261,-100,4,1,1,40,0,1
231396,-500,4,1,1,40,0,1
231517,-29.4117647058824,4,1,1,40,0,1
231558,-100,4,1,1,40,0,1
232693,-500,4,1,1,40,0,1
232815,-29.4117647058824,4,1,1,40,0,1
232855,-100,4,1,1,40,0,1
233990,-500,4,1,1,40,0,1
234112,-29.4117647058824,4,1,1,40,0,1
234152,-100,4,1,1,40,0,1
235288,-500,4,1,1,40,0,1
235409,-29.4117647058824,4,1,1,40,0,1
235450,-100,4,1,1,40,0,1
236585,-500,4,1,1,40,0,1
236707,-29.4117647058824,4,1,1,40,0,1
236747,-100,4,1,1,40,0,1
237882,-500,4,1,1,40,0,1
238004,-29.4117647058824,4,1,1,40,0,1
238044,-100,4,1,1,40,0,1
239179,-500,4,1,1,40,0,1
239301,-29.4117647058824,4,1,1,40,0,1
239342,-100,4,1,1,40,0,1
240477,-500,4,1,1,40,0,1
240598,-29.4117647058824,4,1,1,40,0,1
240639,-100,4,1,1,40,0,1
241774,-500,4,1,1,40,0,1
241896,-29.4117647058824,4,1,1,40,0,1
241936,-100,4,1,1,40,0,1
243071,-500,4,1,1,40,0,1
243193,-29.4117647058824,4,1,1,40,0,1
243234,-100,4,1,1,40,0,1
243720,-200,4,1,1,40,0,1
243801,-66.6666666666667,4,1,1,40,0,1
243882,-100,4,1,1,40,0,0
264639,-100,4,1,1,40,0,1
265071,-200,4,1,1,40,0,1
265234,-33.3333333333333,4,1,1,40,0,1
265288,-100,4,1,1,40,0,1
266261,-200,4,1,1,40,0,1
266531,-33.3333333333333,4,1,1,40,0,1
266585,-100,4,1,1,40,0,1
267558,-200,4,1,1,40,0,1
267828,-33.3333333333333,4,1,1,40,0,1
267882,-100,4,1,1,40,0,1
268855,-200,4,1,1,40,0,1
269125,-33.3333333333333,4,1,1,40,0,1
269179,-100,4,1,1,40,0,1
270152,-200,4,1,1,40,0,1
270423,-33.3333333333333,4,1,1,40,0,1
270477,-100,4,1,1,40,0,1
271450,-200,4,1,1,40,0,1
271720,-33.3333333333333,4,1,1,40,0,1
271774,-100,4,1,1,40,0,1
272747,-200,4,1,1,40,0,1
273017,-33.3333333333333,4,1,1,40,0,1
273071,-100,4,1,1,40,0,1
274044,-200,4,1,1,40,0,1
274315,-33.3333333333333,4,1,1,40,0,1
274369,-100,4,1,1,40,0,1
275342,-200,4,1,1,40,0,1
275612,-33.3333333333333,4,1,1,40,0,1
275666,-100,4,1,1,40,0,1
276639,-200,4,1,1,40,0,1
276909,-33.3333333333333,4,1,1,40,0,1
276963,-100,4,1,1,40,0,1
277936,-200,4,1,1,40,0,1
278207,-33.3333333333333,4,1,1,40,0,1
278261,-100,4,1,1,40,0,1
279234,-200,4,1,1,40,0,1
279504,-33.3333333333333,4,1,1,40,0,1
279558,-100,4,1,1,40,0,1
280531,-200,4,1,1,40,0,1
280801,-33.3333333333333,4,1,1,40,0,1
280855,-100,4,1,1,40,0,1
281828,-200,4,1,1,40,0,1
282098,-33.3333333333333,4,1,1,40,0,1
282152,-100,4,1,1,40,0,1
283125,-200,4,1,1,40,0,1
283396,-33.3333333333333,4,1,1,40,0,1
283450,-100,4,1,1,40,0,1
284423,-200,4,1,1,40,0,1
284693,-33.3333333333333,4,1,1,40,0,1
284747,-100,4,1,1,40,0,1
285395,-100,4,1,1,40,0,0
295612,-133.333333333333,4,1,1,40,0,0
295734,-57.1428571428571,4,1,1,40,0,0
295774,-100,4,1,1,40,0,0
305828,-57.1428571428571,4,1,1,40,0,0
306071,-133.333333333333,4,1,1,40,0,0
306152,-100,4,1,1,40,0,0

[HitObjects]
64,192,20749,5,0,0:0:0:70:BaSS.wav
448,192,20749,1,0,0:0:0:70:finish.wav
320,192,20749,1,0,0:0:0:70:wind.wav
192,192,20885,1,0,0:0:0:70:psy.wav
320,192,21020,1,0,0:0:0:70:psy.wav
64,192,21155,1,0,0:0:0:70:BaSS.wav
448,192,21155,1,0,0:0:0:0:
192,192,21155,1,0,0:0:0:0:
320,192,21290,1,0,0:0:0:70:psy.wav
64,192,21425,1,0,0:0:0:70:psy.wav
192,192,21560,1,0,0:0:0:70:BaSS.wav
320,192,21560,1,0,0:0:0:0:
448,192,21560,1,0,0:0:0:0:
64,192,21695,1,0,0:0:0:70:psy.wav
192,192,21831,1,0,0:0:0:70:psy.wav
64,192,21966,1,0,0:0:0:70:BaSS.wav
320,192,21966,1,0,0:0:0:0:
448,192,21966,1,0,0:0:0:0:
192,192,22101,1,0,0:0:0:70:psy.wav
448,192,22236,1,0,0:0:0:70:psy.wav
320,192,22371,1,0,0:0:0:70:BaSS.wav
192,192,22371,1,0,0:0:0:0:
64,192,22371,1,0,0:0:0:0:
448,192,22506,1,0,0:0:0:70:psy.wav
320,192,22641,1,0,0:0:0:70:psy.wav
64,192,22777,1,0,0:0:0:70:BaSS.wav
192,192,22777,1,0,0:0:0:0:
448,192,22777,1,0,0:0:0:0:
320,192,22912,1,0,0:0:0:70:psy.wav
64,192,23047,1,0,0:0:0:70:psy.wav
448,192,23182,1,0,0:0:0:70:BaSS.wav
192,192,23182,1,0,0:0:0:0:
320,192,23182,1,0,0:0:0:0:
64,192,23317,1,0,0:0:0:70:psy.wav
192,192,23452,1,0,0:0:0:70:psy.wav
320,192,23587,1,0,0:0:0:70:BaSS.wav
448,192,23587,1,0,0:0:0:0:
64,192,23587,1,0,0:0:0:0:
192,192,23722,1,0,0:0:0:70:psy.wav
448,192,23858,1,0,0:0:0:70:psy.wav
320,192,23993,1,0,0:0:0:70:BaSS.wav
192,192,23993,1,0,0:0:0:0:
64,192,23993,1,0,0:0:0:0:
448,192,24128,1,0,0:0:0:70:psy.wav
320,192,24263,1,0,0:0:0:70:psy.wav
192,192,24398,1,0,0:0:0:70:BaSS.wav
64,192,24398,1,0,0:0:0:0:
448,192,24398,1,0,0:0:0:0:
320,192,24533,1,0,0:0:0:70:psy.wav
64,192,24668,1,0,0:0:0:70:psy.wav
320,192,24804,1,0,0:0:0:70:BaSS.wav
448,192,24804,1,0,0:0:0:0:
192,192,24804,1,0,0:0:0:0:
64,192,24939,1,0,0:0:0:70:psy.wav
192,192,25074,1,0,0:0:0:70:psy.wav
320,192,25209,1,0,0:0:0:70:BaSS.wav
448,192,25209,1,0,0:0:0:0:
64,192,25209,1,0,0:0:0:0:
192,192,25344,1,0,0:0:0:70:psy.wav
320,192,25479,1,0,0:0:0:70:psy.wav
192,192,25614,1,0,0:0:0:70:BaSS.wav
64,192,25614,1,0,0:0:0:0:
448,192,25614,1,0,0:0:0:0:
320,192,25749,1,0,0:0:0:70:psy.wav
64,192,25885,1,0,0:0:0:70:psy.wav
320,192,26020,1,0,0:0:0:70:BaSS.wav
448,192,26020,1,0,0:0:0:0:
192,192,26020,1,0,0:0:0:0:
64,192,26155,1,0,0:0:0:70:psy.wav
192,192,26290,1,0,0:0:0:70:psy.wav
448,192,26425,1,0,0:0:0:70:BaSS.wav
64,192,26425,1,0,0:0:0:0:
320,192,26425,1,0,0:0:0:0:
192,192,26560,1,0,0:0:0:70:psy.wav
448,192,26695,1,0,0:0:0:70:psy.wav
64,192,26831,1,0,0:0:0:70:BaSS.wav
192,192,26831,1,0,0:0:0:0:
320,192,26831,1,0,0:0:0:0:
448,192,26966,1,0,0:0:0:70:psy.wav
320,192,27101,1,0,0:0:0:70:psy.wav
448,192,27236,1,0,0:0:0:70:BaSS.wav
64,192,27236,1,0,0:0:0:0:
192,192,27236,1,0,0:0:0:0:
320,192,27371,1,0,0:0:0:70:psy.wav
64,192,27506,1,0,0:0:0:70:psy.wav
320,192,27641,1,0,0:0:0:70:BaSS.wav
448,192,27641,1,0,0:0:0:0:
192,192,27641,1,0,0:0:0:0:
64,192,27777,1,0,0:0:0:70:psy.wav
192,192,27912,1,0,0:0:0:70:psy.wav
320,192,28047,1,0,0:0:0:70:BaSS.wav
64,192,28047,1,0,0:0:0:0:
448,192,28047,1,0,0:0:0:0:
192,192,28182,1,0,0:0:0:70:psy.wav
320,192,28317,1,0,0:0:0:70:psy.wav
192,192,28452,1,0,0:0:0:70:BaSS.wav
448,192,28452,1,0,0:0:0:0:
64,192,28452,1,0,0:0:0:0:
320,192,28587,1,0,0:0:0:70:psy.wav
192,192,28722,1,0,0:0:0:70:psy.wav
64,192,28858,1,0,0:0:0:70:BaSS.wav
448,192,28858,1,0,0:0:0:0:
320,192,28858,1,0,0:0:0:0:
192,192,28993,1,0,0:0:0:70:psy.wav
64,192,29128,1,0,0:0:0:70:psy.wav
448,192,29263,1,0,0:0:0:70:BaSS.wav
192,192,29263,1,0,0:0:0:0:
320,192,29263,1,0,0:0:0:0:
64,192,29398,1,0,0:0:0:70:psy.wav
320,192,29533,1,0,0:0:0:70:psy.wav
64,192,29668,1,0,0:0:0:70:BaSS.wav
192,192,29668,1,0,0:0:0:0:
448,192,29668,1,0,0:0:0:0:
320,192,29804,1,0,0:0:0:70:psy.wav
192,192,29939,1,0,0:0:0:70:psy.wav
320,192,30074,1,0,0:0:0:70:BaSS.wav
64,192,30074,1,0,0:0:0:0:
448,192,30074,1,0,0:0:0:0:
192,192,30209,1,0,0:0:0:70:psy.wav
448,192,30344,1,0,0:0:0:70:psy.wav
320,192,30479,1,0,0:0:0:70:BaSS.wav
192,192,30479,1,0,0:0:0:0:
64,192,30479,1,0,0:0:0:0:
448,192,30614,1,0,0:0:0:70:psy.wav
64,192,30749,1,0,0:0:0:70:psy.wav
192,192,30885,1,0,0:0:0:70:BaSS.wav
448,192,30885,1,0,0:0:0:0:
320,192,30885,1,0,0:0:0:0:
64,192,31020,1,0,0:0:0:70:psy.wav
320,192,31155,1,0,0:0:0:70:psy.wav
64,192,31290,1,0,0:0:0:70:BaSS.wav
448,192,31290,1,0,0:0:0:0:
192,192,31290,1,0,0:0:0:0:
320,192,31425,1,0,0:0:0:70:psy.wav
192,192,31560,1,0,0:0:0:70:psy.wav
448,192,31695,1,0,0:0:0:70:BaSS.wav
64,192,31695,1,0,0:0:0:0:
320,192,31695,1,0,0:0:0:0:
192,192,31831,1,0,0:0:0:70:psy.wav
448,192,31966,1,0,0:0:0:70:psy.wav
320,192,32101,1,0,0:0:0:70:BaSS.wav
192,192,32101,1,0,0:0:0:0:
64,192,32101,1,0,0:0:0:0:
448,192,32236,1,0,0:0:0:70:psy.wav
192,192,32371,1,0,0:0:0:70:psy.wav
64,192,32506,1,0,0:0:0:70:BaSS.wav
320,192,32506,1,0,0:0:0:0:
448,192,32506,1,0,0:0:0:0:
192,192,32641,1,0,0:0:0:70:psy.wav
320,192,32777,1,0,0:0:0:70:psy.wav
192,192,32912,1,0,0:0:0:70:BaSS.wav
64,192,32912,1,0,0:0:0:0:
448,192,32912,1,0,0:0:0:0:
320,192,33047,1,0,0:0:0:70:psy.wav
64,192,33182,1,0,0:0:0:70:psy.wav
320,192,33317,1,0,0:0:0:70:BaSS.wav
448,192,33317,1,0,0:0:0:0:
192,192,33317,1,0,0:0:0:0:
64,192,33452,1,0,0:0:0:70:psy.wav
448,192,33587,1,0,0:0:0:70:psy.wav
320,192,33722,1,0,0:0:0:70:BaSS.wav
192,192,33722,1,0,0:0:0:0:
64,192,33722,1,0,0:0:0:0:
448,192,33858,1,0,0:0:0:70:psy.wav
320,192,33993,1,0,0:0:0:70:psy.wav
448,192,34128,1,0,0:0:0:70:BaSS.wav
192,192,34128,1,0,0:0:0:0:
64,192,34128,1,0,0:0:0:0:
320,192,34263,1,0,0:0:0:70:psy.wav
192,192,34398,1,0,0:0:0:70:psy.wav
320,192,34533,1,0,0:0:0:70:BaSS.wav
448,192,34533,1,0,0:0:0:0:
64,192,34533,1,0,0:0:0:0:
192,192,34668,1,0,0:0:0:70:psy.wav
320,192,34804,1,0,0:0:0:70:psy.wav
64,192,34939,1,0,0:0:0:70:BaSS.wav
448,192,34939,1,0,0:0:0:0:
192,192,34939,1,0,0:0:0:0:
320,192,35074,1,0,0:0:0:70:psy.wav
64,192,35209,1,0,0:0:0:70:psy.wav
448,192,35344,1,0,0:0:0:70:BaSS.wav
192,192,35344,1,0,0:0:0:0:
320,192,35344,1,0,0:0:0:0:
64,192,35479,1,0,0:0:0:70:psy.wav
192,192,35614,1,0,0:0:0:70:psy.wav
448,192,35749,1,0,0:0:0:70:BaSS.wav
320,192,35749,1,0,0:0:0:0:
64,192,35749,1,0,0:0:0:0:
192,192,35885,1,0,0:0:0:70:psy.wav
320,192,36020,1,0,0:0:0:70:psy.wav
448,192,36155,1,0,0:0:0:70:BaSS.wav
64,192,36155,1,0,0:0:0:0:
192,192,36155,1,0,0:0:0:0:
320,192,36290,1,0,0:0:0:70:psy.wav
192,192,36425,1,0,0:0:0:70:psy.wav
448,192,36560,1,0,0:0:0:70:BaSS.wav
320,192,36560,1,0,0:0:0:0:
64,192,36560,1,0,0:0:0:0:
192,192,36695,1,0,0:0:0:70:psy.wav
448,192,36831,1,0,0:0:0:70:psy.wav
320,192,36966,1,0,0:0:0:70:BaSS.wav
64,192,36966,1,0,0:0:0:0:
192,192,36966,1,0,0:0:0:0:
448,192,37101,1,0,0:0:0:70:psy.wav
320,192,37236,1,0,0:0:0:70:psy.wav
64,192,37371,1,0,0:0:0:70:BaSS.wav
192,192,37371,1,0,0:0:0:0:
448,192,37371,1,0,0:0:0:0:
320,192,37506,1,0,0:0:0:70:psy.wav
192,192,37641,5,0,0:0:0:70:psy.wav
64,192,37777,5,0,0:0:0:70:BaSS.wav
320,192,37777,1,0,0:0:0:0:
448,192,37777,1,0,0:0:0:0:
192,192,37912,1,0,0:0:0:70:psy.wav
448,192,38047,5,0,0:0:0:70:psy.wav
192,192,38182,5,0,0:0:0:70:BaSS.wav
64,192,38182,1,0,0:0:0:0:
320,192,38182,1,0,0:0:0:0:
448,192,38317,5,0,0:0:0:70:psy.wav
192,192,38452,1,0,0:0:0:70:psy.wav
64,192,38587,5,0,0:0:0:70:BaSS.wav
320,192,38587,1,0,0:0:0:0:
448,192,38587,1,0,0:0:0:0:
192,192,38722,1,0,0:0:0:70:psy.wav
320,192,38858,1,0,0:0:0:70:psy.wav
448,192,38858,1,0,0:0:0:70:BaSS.wav
192,192,38925,1,0,0:0:0:70:BaSS.wav
64,192,38925,1,0,0:0:0:0:
320,192,38993,1,0,0:0:0:70:BaSS.wav
448,192,38993,1,0,0:0:0:0:
64,192,39128,1,0,0:0:0:70:psy.wav
192,192,39128,1,0,0:0:0:70:BaSS.wav
320,192,39128,1,0,0:0:0:0:
448,192,39263,1,0,0:0:0:70:psy.wav
192,192,39263,1,0,0:0:0:70:BaSS.wav
64,192,39263,1,0,0:0:0:0:
448,192,39398,1,0,0:0:0:70:BaSS.wav
64,192,39398,1,0,0:0:0:0:
320,192,39398,1,0,0:0:0:0:
192,192,39533,1,0,0:0:0:70:psy.wav
448,192,39668,1,0,0:0:0:70:psy.wav
320,192,39668,1,0,0:0:0:70:BaSS.wav
64,192,39668,1,0,0:0:0:0:
64,192,39804,1,0,0:0:0:70:BaSS.wav
192,192,39804,1,0,0:0:0:0:
320,192,39871,1,0,0:0:0:70:BaSS.wav
448,192,39871,1,0,0:0:0:0:
192,192,39939,1,0,0:0:0:70:psy.wav
64,192,39939,1,0,0:0:0:70:BaSS.wav
448,192,40006,1,0,0:0:0:70:BaSS.wav
320,192,40057,1,0,0:0:0:70:BaSS.wav
192,192,40108,1,0,0:0:0:70:BaSS.wav
64,192,40158,1,0,0:0:0:70:BaSS.wav
320,192,40209,1,0,0:0:0:70:BaSS.wav
448,192,40209,1,0,0:0:0:0:
192,192,40290,1,0,0:0:0:0:
448,192,40371,1,0,0:0:0:0:
64,192,40452,1,0,0:0:0:0:
320,192,40533,1,0,0:0:0:70:BaSS.wav
192,192,40533,1,0,0:0:0:70:bup.wav
448,192,40587,1,0,0:0:0:0:
64,192,40641,1,0,0:0:0:0:
192,192,40695,1,0,0:0:0:0:
320,192,40776,1,0,0:0:0:0:
448,192,40857,1,0,0:0:0:70:BaSS.wav
64,192,40857,1,0,0:0:0:0:
192,192,40938,1,0,0:0:0:0:
320,192,41019,1,0,0:0:0:70:bup.wav
448,192,41019,1,0,0:0:0:0:
64,192,41100,1,0,0:0:0:0:
192,192,41181,1,0,0:0:0:70:BaSS.wav
448,192,41181,1,0,0:0:0:0:
320,192,41263,1,0,0:0:0:70:bup.wav
64,192,41263,1,0,0:0:0:0:
192,192,41344,1,0,0:0:0:0:
320,192,41425,1,0,0:0:0:0:
64,192,41506,1,0,0:0:0:70:finish.wav
448,192,41506,1,0,0:0:0:70:BaSS.wav
192,192,41506,1,0,0:0:0:70:wind.wav
64,192,41641,1,0,0:0:0:70:psy.wav
64,192,41776,1,0,0:0:0:70:psy.wav
192,192,41911,1,0,0:0:0:70:BaSS.wav
320,192,41911,1,0,0:0:0:0:
448,192,41911,1,0,0:0:0:0:
448,192,42046,1,0,0:0:0:70:psy.wav
448,192,42181,1,0,0:0:0:70:psy.wav
192,192,42316,1,0,0:0:0:70:BaSS.wav
64,192,42316,1,0,0:0:0:0:
320,192,42316,1,0,0:0:0:0:
320,192,42451,1,0,0:0:0:70:psy.wav
320,192,42587,1,0,0:0:0:70:psy.wav
448,192,42722,1,0,0:0:0:70:BaSS.wav
192,192,42722,1,0,0:0:0:0:
64,192,42722,1,0,0:0:0:0:
64,192,42857,1,0,0:0:0:70:psy.wav
64,192,42992,1,0,0:0:0:70:psy.wav
320,192,43127,1,0,0:0:0:70:BaSS.wav
192,192,43127,1,0,0:0:0:0:
448,192,43127,1,0,0:0:0:0:
320,192,43262,1,0,0:0:0:70:psy.wav
320,192,43397,1,0,0:0:0:70:psy.wav
192,192,43533,1,0,0:0:0:70:BaSS.wav
64,192,43533,1,0,0:0:0:0:
448,192,43533,1,0,0:0:0:0:
448,192,43668,1,0,0:0:0:70:psy.wav
448,192,43803,1,0,0:0:0:70:psy.wav
192,192,43938,1,0,0:0:0:70:BaSS.wav
64,192,43938,1,0,0:0:0:0:
320,192,43938,1,0,0:0:0:0:
64,192,44073,1,0,0:0:0:70:psy.wav
64,192,44208,1,0,0:0:0:70:psy.wav
192,192,44343,1,0,0:0:0:70:BaSS.wav
320,192,44343,1,0,0:0:0:0:
448,192,44343,1,0,0:0:0:0:
192,192,44478,1,0,0:0:0:70:psy.wav
192,192,44614,1,0,0:0:0:70:psy.wav
320,192,44749,1,0,0:0:0:70:BaSS.wav
448,192,44749,1,0,0:0:0:0:
64,192,44749,1,0,0:0:0:0:
320,192,44884,1,0,0:0:0:70:psy.wav
320,192,45019,1,0,0:0:0:70:psy.wav
192,192,45154,1,0,0:0:0:70:BaSS.wav
64,192,45154,1,0,0:0:0:0:
448,192,45154,1,0,0:0:0:0:
448,192,45289,1,0,0:0:0:70:psy.wav
448,192,45424,1,0,0:0:0:70:psy.wav
320,192,45560,1,0,0:0:0:70:BaSS.wav
192,192,45560,1,0,0:0:0:0:
64,192,45560,1,0,0:0:0:0:
64,192,45695,1,0,0:0:0:70:psy.wav
64,192,45830,1,0,0:0:0:70:psy.wav
320,192,45965,1,0,0:0:0:70:BaSS.wav
192,192,45965,1,0,0:0:0:0:
448,192,45965,1,0,0:0:0:0:
320,192,46100,1,0,0:0:0:70:psy.wav
320,192,46235,1,0,0:0:0:70:psy.wav
192,192,46370,1,0,0:0:0:70:BaSS.wav
448,192,46370,1,0,0:0:0:0:
64,192,46370,1,0,0:0:0:0:
192,192,46505,1,0,0:0:0:70:psy.wav
192,192,46641,1,0,0:0:0:70:psy.wav
64,192,46776,1,0,0:0:0:70:BaSS.wav
320,192,46776,1,0,0:0:0:0:
448,192,46776,1,0,0:0:0:0:
448,192,46911,1,0,0:0:0:70:psy.wav
448,192,47046,1,0,0:0:0:70:psy.wav
192,192,47181,1,0,0:0:0:70:BaSS.wav
64,192,47181,1,0,0:0:0:0:
320,192,47181,1,0,0:0:0:0:
192,192,47316,1,0,0:0:0:70:psy.wav
192,192,47451,1,0,0:0:0:70:psy.wav
64,192,47587,1,0,0:0:0:70:BaSS.wav
320,192,47587,1,0,0:0:0:0:
448,192,47587,1,0,0:0:0:0:
64,192,47722,1,0,0:0:0:70:psy.wav
64,192,47857,1,0,0:0:0:70:psy.wav
192,192,47992,1,0,0:0:0:70:BaSS.wav
320,192,47992,1,0,0:0:0:0:
448,192,47992,1,0,0:0:0:0:
448,192,48127,1,0,0:0:0:70:psy.wav
448,192,48262,1,0,0:0:0:70:psy.wav
320,192,48397,1,0,0:0:0:70:BaSS.wav
192,192,48397,1,0,0:0:0:0:
64,192,48397,1,0,0:0:0:0:
192,192,48533,1,0,0:0:0:70:psy.wav
192,192,48668,1,0,0:0:0:70:psy.wav
320,192,48803,1,0,0:0:0:70:BaSS.wav
448,192,48803,1,0,0:0:0:0:
64,192,48803,1,0,0:0:0:0:
320,192,48938,1,0,0:0:0:70:psy.wav
320,192,49073,1,0,0:0:0:70:psy.wav
192,192,49208,1,0,0:0:0:70:BaSS.wav
64,192,49208,1,0,0:0:0:0:
448,192,49208,1,0,0:0:0:0:
64,192,49343,1,0,0:0:0:70:psy.wav
64,192,49478,1,0,0:0:0:70:psy.wav
192,192,49614,1,0,0:0:0:70:BaSS.wav
320,192,49614,1,0,0:0:0:0:
448,192,49614,1,0,0:0:0:0:
448,192,49749,1,0,0:0:0:70:psy.wav
448,192,49884,1,0,0:0:0:70:psy.wav
320,192,50019,1,0,0:0:0:70:BaSS.wav
192,192,50019,1,0,0:0:0:0:
64,192,50019,1,0,0:0:0:0:
192,192,50154,1,0,0:0:0:70:psy.wav
192,192,50289,1,0,0:0:0:70:psy.wav
320,192,50424,1,0,0:0:0:70:BaSS.wav
448,192,50424,1,0,0:0:0:0:
64,192,50424,1,0,0:0:0:0:
320,192,50560,1,0,0:0:0:70:psy.wav
320,192,50695,1,0,0:0:0:70:psy.wav
192,192,50830,1,0,0:0:0:70:BaSS.wav
64,192,50830,1,0,0:0:0:0:
448,192,50830,1,0,0:0:0:0:
64,192,50965,1,0,0:0:0:70:psy.wav
64,192,51100,1,0,0:0:0:70:psy.wav
192,192,51235,1,0,0:0:0:70:BaSS.wav
448,192,51235,1,0,0:0:0:0:
320,192,51235,1,0,0:0:0:0:
448,192,51370,1,0,0:0:0:70:psy.wav
448,192,51505,1,0,0:0:0:70:psy.wav
192,192,51641,1,0,0:0:0:70:BaSS.wav
320,192,51641,1,0,0:0:0:0:
64,192,51641,1,0,0:0:0:0:
320,192,51776,1,0,0:0:0:70:psy.wav
320,192,51911,1,0,0:0:0:70:psy.wav
192,192,52046,1,0,0:0:0:70:BaSS.wav
64,192,52046,1,0,0:0:0:0:
448,192,52046,1,0,0:0:0:0:
192,192,52181,1,0,0:0:0:70:psy.wav
192,192,52316,1,0,0:0:0:70:psy.wav
320,192,52451,1,0,0:0:0:70:BaSS.wav
448,192,52451,1,0,0:0:0:0:
64,192,52451,1,0,0:0:0:0:
448,192,52587,1,0,0:0:0:70:psy.wav
448,192,52722,1,0,0:0:0:70:psy.wav
320,192,52857,1,0,0:0:0:70:BaSS.wav
192,192,52857,1,0,0:0:0:0:
64,192,52857,1,0,0:0:0:0:
64,192,52992,1,0,0:0:0:70:psy.wav
64,192,53127,1,0,0:0:0:70:psy.wav
192,192,53262,1,0,0:0:0:70:BaSS.wav
320,192,53262,1,0,0:0:0:0:
448,192,53262,1,0,0:0:0:0:
320,192,53397,1,0,0:0:0:70:psy.wav
320,192,53533,1,0,0:0:0:70:psy.wav
192,192,53668,1,0,0:0:0:70:BaSS.wav
64,192,53668,1,0,0:0:0:0:
448,192,53668,1,0,0:0:0:0:
448,192,53803,1,0,0:0:0:70:psy.wav
448,192,53938,1,0,0:0:0:70:psy.wav
320,192,54073,1,0,0:0:0:70:BaSS.wav
192,192,54073,1,0,0:0:0:0:
64,192,54073,1,0,0:0:0:0:
64,192,54208,1,0,0:0:0:70:psy.wav
64,192,54343,1,0,0:0:0:70:psy.wav
320,192,54478,1,0,0:0:0:70:BaSS.wav
192,192,54478,1,0,0:0:0:70:finish.wav
448,192,54478,1,0,0:0:0:0:
192,192,54614,1,0,0:0:0:70:psy.wav
192,192,54749,1,0,0:0:0:70:psy.wav
320,192,54884,1,0,0:0:0:70:BaSS.wav
448,192,54884,1,0,0:0:0:0:
64,192,54884,1,0,0:0:0:0:
320,192,55019,1,0,0:0:0:70:psy.wav
320,192,55154,1,0,0:0:0:70:psy.wav
64,192,55289,1,0,0:0:0:70:BaSS.wav
192,192,55289,1,0,0:0:0:0:
448,192,55289,1,0,0:0:0:0:
64,192,55424,1,0,0:0:0:70:psy.wav
64,192,55560,1,0,0:0:0:70:psy.wav
448,192,55695,1,0,0:0:0:70:BaSS.wav
320,192,55695,1,0,0:0:0:0:
192,192,55695,1,0,0:0:0:0:
448,192,55830,1,0,0:0:0:70:psy.wav
448,192,55965,1,0,0:0:0:70:psy.wav
192,192,56100,1,0,0:0:0:70:BaSS.wav
64,192,56100,1,0,0:0:0:0:
320,192,56100,1,0,0:0:0:0:
192,192,56235,1,0,0:0:0:70:psy.wav
192,192,56370,1,0,0:0:0:70:psy.wav
320,192,56505,1,0,0:0:0:70:BaSS.wav
448,192,56505,1,0,0:0:0:0:
64,192,56505,1,0,0:0:0:0:
320,192,56641,1,0,0:0:0:70:psy.wav
320,192,56776,1,0,0:0:0:70:psy.wav
448,192,56911,1,0,0:0:0:70:BaSS.wav
192,192,56911,1,0,0:0:0:0:
64,192,56911,1,0,0:0:0:0:
448,192,57046,1,0,0:0:0:70:psy.wav
448,192,57181,1,0,0:0:0:70:psy.wav
64,192,57316,1,0,0:0:0:70:BaSS.wav
320,192,57316,1,0,0:0:0:0:
192,192,57316,1,0,0:0:0:0:
64,192,57451,1,0,0:0:0:70:psy.wav
64,192,57587,1,0,0:0:0:70:psy.wav
192,192,57722,1,0,0:0:0:70:BaSS.wav
448,192,57722,1,0,0:0:0:0:
320,192,57722,1,0,0:0:0:0:
192,192,57857,1,0,0:0:0:70:psy.wav
192,192,57992,1,0,0:0:0:70:psy.wav
448,192,58127,1,0,0:0:0:70:BaSS.wav
64,192,58127,1,0,0:0:0:0:
320,192,58127,1,0,0:0:0:0:
320,192,58262,1,0,0:0:0:70:psy.wav
320,192,58397,1,0,0:0:0:70:psy.wav
192,192,58533,1,0,0:0:0:70:BaSS.wav
64,192,58533,1,0,0:0:0:0:
448,192,58533,1,0,0:0:0:0:
64,192,58668,1,0,0:0:0:70:psy.wav
64,192,58803,1,0,0:0:0:70:psy.wav
448,192,58938,1,0,0:0:0:70:BaSS.wav
192,192,58938,1,0,0:0:0:0:
320,192,58938,1,0,0:0:0:0:
192,192,59073,1,0,0:0:0:70:psy.wav
192,192,59208,1,0,0:0:0:70:psy.wav
448,192,59343,1,0,0:0:0:70:BaSS.wav
320,192,59343,1,0,0:0:0:0:
64,192,59343,1,0,0:0:0:0:
448,192,59478,1,0,0:0:0:70:psy.wav
448,192,59614,1,0,0:0:0:70:psy.wav
192,192,59749,1,0,0:0:0:70:BaSS.wav
64,192,59749,1,0,0:0:0:0:
320,192,59749,1,0,0:0:0:0:
192,192,59884,1,0,0:0:0:70:psy.wav
192,192,60019,1,0,0:0:0:70:psy.wav
320,192,60154,1,0,0:0:0:70:BaSS.wav
448,192,60154,1,0,0:0:0:0:
64,192,60154,1,0,0:0:0:0:
320,192,60289,1,0,0:0:0:70:psy.wav
320,192,60424,1,0,0:0:0:70:psy.wav
64,192,60560,1,0,0:0:0:70:BaSS.wav
192,192,60560,1,0,0:0:0:0:
448,192,60560,1,0,0:0:0:0:
64,192,60695,1,0,0:0:0:70:psy.wav
64,192,60830,1,0,0:0:0:70:psy.wav
192,192,60965,1,0,0:0:0:70:BaSS.wav
320,192,60965,1,0,0:0:0:70:finish.wav
448,192,60965,1,0,0:0:0:0:
64,192,61046,1,0,0:0:0:0:
192,192,61127,1,0,0:0:0:0:
320,192,61208,1,0,0:0:0:0:
64,192,61289,1,0,0:0:0:70:bup.wav
192,192,61329,1,0,0:0:0:70:bup.wav
448,192,61370,1,0,0:0:0:70:bup.wav
320,192,61410,1,0,0:0:0:70:bup.wav
192,192,61451,1,0,0:0:0:0:
448,192,61532,1,0,0:0:0:70:bup.wav
64,192,61613,1,0,0:0:0:0:
448,192,61694,1,0,0:0:0:70:bup.wav
64,192,61775,1,0,0:0:0:70:bup.wav
192,192,61816,1,0,0:0:0:70:bup.wav
320,192,61856,1,0,0:0:0:70:bup.wav
64,192,61897,1,0,0:0:0:70:bup.wav
192,192,61937,1,0,0:0:0:70:bup.wav
320,192,61978,1,0,0:0:0:70:bup.wav
448,192,62019,1,0,0:0:0:70:bup.wav
64,192,62100,1,0,0:0:0:0:
448,192,62140,1,0,0:0:0:70:bup.wav
320,192,62181,1,0,0:0:0:70:bup.wav
192,192,62221,1,0,0:0:0:70:bup.wav
448,192,62262,1,0,0:0:0:70:bup.wav
64,192,62262,1,0,0:0:0:0:
320,192,62343,1,0,0:0:0:0:
192,192,62424,1,0,0:0:0:70:bup.wav
64,192,62424,1,0,0:0:0:0:
320,192,62505,1,0,0:0:0:0:
448,192,62505,1,0,0:0:0:0:
192,192,62586,1,0,0:0:0:0:
448,192,62667,1,0,0:0:0:70:bup.wav
64,192,62667,1,0,0:0:0:0:
192,192,62748,1,0,0:0:0:0:
320,192,62748,1,0,0:0:0:0:
64,192,62829,1,0,0:0:0:0:
448,192,62910,1,0,0:0:0:70:bup.wav
320,192,62910,1,0,0:0:0:0:
64,192,62992,1,0,0:0:0:70:bup.wav
192,192,62992,1,0,0:0:0:0:
320,192,63073,1,0,0:0:0:70:bup.wav
448,192,63073,1,0,0:0:0:0:
192,192,63154,1,0,0:0:0:70:bup.wav
64,192,63154,1,0,0:0:0:0:
448,192,63235,1,0,0:0:0:70:bup.wav
320,192,63275,1,0,0:0:0:70:bup.wav
192,192,63316,1,0,0:0:0:70:bup.wav
64,192,63356,1,0,0:0:0:70:bup.wav
448,192,63397,1,0,0:0:0:70:bup.wav
320,192,63437,1,0,0:0:0:70:bup.wav
192,192,63478,1,0,0:0:0:70:bup.wav
64,192,63519,1,0,0:0:0:70:bup.wav
448,192,63559,1,0,0:0:0:0:
320,192,63640,1,0,0:0:0:70:bup.wav
64,192,63721,1,0,0:0:0:0:
192,192,63802,1,0,0:0:0:70:bup.wav
320,192,63883,1,0,0:0:0:70:bup.wav
448,192,63883,1,0,0:0:0:0:
64,192,63937,1,0,0:0:0:0:
192,192,63992,1,0,0:0:0:0:
448,192,64046,1,0,0:0:0:0:
320,192,64127,1,0,0:0:0:70:bup.wav
192,192,64208,1,0,0:0:0:0:
64,192,64289,1,0,0:0:0:70:bup.wav
448,192,64370,1,0,0:0:0:70:BaSS.wav
320,192,64410,1,0,0:0:0:70:BaSS.wav
192,192,64451,1,0,0:0:0:70:BaSS.wav
64,192,64492,1,0,0:0:0:70:BaSS.wav
448,192,64532,1,0,0:0:0:70:bup.wav
320,192,64573,1,0,0:0:0:70:bup.wav
64,192,64613,1,0,0:0:0:70:bup.wav
192,192,64654,1,0,0:0:0:70:bup.wav
448,192,64694,1,0,0:0:0:70:bup.wav
320,192,64775,1,0,0:0:0:70:bup.wav
64,192,64856,1,0,0:0:0:70:finish.wav
448,192,64856,1,0,0:0:0:70:BaSS.wav
192,192,64856,128,0,66154:0:0:0:70:wind.wav
64,192,66154,128,0,67451:0:0:0:0:
448,192,67451,128,0,68748:0:0:0:0:
320,192,68748,128,0,70046:0:0:0:0:
192,192,70046,128,0,71343:0:0:0:0:
448,192,71343,128,0,72640:0:0:0:0:
64,192,72640,128,0,73937:0:0:0:0:
320,192,73937,128,0,74586:0:0:0:0:
64,192,74586,128,0,75235:0:0:0:0:
192,192,75235,1,0,0:0:0:70:BaSS.wav
320,192,75235,1,0,0:0:0:0:
448,192,75235,1,0,0:0:0:70:finish.wav
64,192,75478,1,0,0:0:0:0:
448,192,75721,1,0,0:0:0:0:
320,192,75721,1,0,0:0:0:70:tick.wav
192,192,75721,1,0,0:0:0:0:
64,192,75964,1,0,0:0:0:0:
192,192,76207,1,0,0:0:0:0:
64,192,76451,1,0,0:0:0:70:tick.wav
320,192,76451,1,0,0:0:0:0:
448,192,76451,1,0,0:0:0:0:
192,192,76694,1,0,0:0:0:0:
448,192,76937,1,0,0:0:0:0:
320,192,77180,1,0,0:0:0:70:tick.wav
192,192,77180,1,0,0:0:0:0:
64,192,77180,1,0,0:0:0:0:
448,192,77424,1,0,0:0:0:0:
320,192,77667,1,0,0:0:0:0:
448,192,77910,1,0,0:0:0:0:
64,192,77910,1,0,0:0:0:70:tick.wav
192,192,77910,1,0,0:0:0:0:
320,192,78072,1,0,0:0:0:0:
192,192,78153,1,0,0:0:0:0:
64,192,78397,1,0,0:0:0:0:
192,192,78640,1,0,0:0:0:0:
448,192,78640,1,0,0:0:0:0:
320,192,78640,1,0,0:0:0:70:tick.wav
64,192,78883,1,0,0:0:0:0:
448,192,79126,1,0,0:0:0:0:
320,192,79370,1,0,0:0:0:70:tick.wav
192,192,79370,1,0,0:0:0:0:
64,192,79370,1,0,0:0:0:0:
448,192,79613,1,0,0:0:0:0:
320,192,79856,1,0,0:0:0:0:
448,192,80099,1,0,0:0:0:0:
192,192,80099,1,0,0:0:0:0:
64,192,80099,1,0,0:0:0:70:tick.wav
320,192,80343,1,0,0:0:0:0:
192,192,80586,1,0,0:0:0:0:
64,192,80829,1,0,0:0:0:0:
448,192,80829,1,0,0:0:0:70:tick.wav
320,192,80829,1,0,0:0:0:0:
192,192,80991,1,0,0:0:0:0:
320,192,81072,1,0,0:0:0:0:
448,192,81316,1,0,0:0:0:0:
320,192,81559,1,0,0:0:0:0:
64,192,81559,1,0,0:0:0:0:
192,192,81559,1,0,0:0:0:70:tick.wav
448,192,81802,1,0,0:0:0:0:
192,192,82045,1,0,0:0:0:0:
448,192,82289,1,0,0:0:0:0:
320,192,82289,1,0,0:0:0:70:tick.wav
64,192,82289,1,0,0:0:0:0:
192,192,82532,1,0,0:0:0:0:
320,192,82775,1,0,0:0:0:0:
192,192,83018,1,0,0:0:0:70:tick.wav
64,192,83018,1,0,0:0:0:0:
448,192,83018,1,0,0:0:0:0:
320,192,83262,1,0,0:0:0:0:
192,192,83505,1,0,0:0:0:0:
64,192,83748,1,0,0:0:0:0:
320,192,83748,1,0,0:0:0:0:
448,192,83748,1,0,0:0:0:70:tick.wav
192,192,83910,1,0,0:0:0:0:
448,192,83991,1,0,0:0:0:0:
320,192,84045,1,0,0:0:0:0:
64,192,84099,1,0,0:0:0:0:
192,192,84153,1,0,0:0:0:0:
448,192,84234,128,0,85612:0:0:0:0:
320,192,84234,1,0,0:0:0:0:
320,192,84497,1,0,0:0:0:0:
192,192,84497,1,0,0:0:0:70:tick.wav
64,192,84497,1,0,0:0:0:0:
192,192,84761,1,0,0:0:0:0:
64,192,85045,1,0,0:0:0:0:
64,192,85328,1,0,0:0:0:0:
192,192,85328,1,0,0:0:0:0:
320,192,85328,1,0,0:0:0:70:tick.wav
64,192,85612,1,0,0:0:0:70:finish.wav
192,192,85612,1,0,0:0:0:70:BaSS.wav
320,192,85612,1,0,0:0:0:70:wind.wav
448,192,85720,1,0,0:0:0:0:
192,192,85828,1,0,0:0:0:0:
320,192,85936,1,0,0:0:0:70:BaSS.wav
448,192,85936,1,0,0:0:0:0:
64,192,85936,1,0,0:0:0:0:
192,192,86044,1,0,0:0:0:0:
448,192,86152,1,0,0:0:0:0:
320,192,86260,1,0,0:0:0:0:
64,192,86368,1,0,0:0:0:0:
192,192,86476,1,0,0:0:0:0:
64,192,86584,1,0,0:0:0:70:BaSS.wav
320,192,86584,1,0,0:0:0:0:
448,192,86584,1,0,0:0:0:0:
192,192,86693,1,0,0:0:0:0:
448,192,86801,1,0,0:0:0:0:
64,192,86909,1,0,0:0:0:0:
320,192,87017,1,0,0:0:0:0:
192,192,87125,1,0,0:0:0:0:
320,192,87233,1,0,0:0:0:70:BaSS.wav
448,192,87233,1,0,0:0:0:0:
64,192,87233,1,0,0:0:0:0:
192,192,87341,1,0,0:0:0:0:
448,192,87449,1,0,0:0:0:0:
64,192,87557,1,0,0:0:0:0:
320,192,87666,1,0,0:0:0:0:
192,192,87774,1,0,0:0:0:0:
64,192,87882,1,0,0:0:0:70:BaSS.wav
448,192,87882,1,0,0:0:0:0:
320,192,87882,1,0,0:0:0:0:
192,192,87990,1,0,0:0:0:0:
448,192,88098,1,0,0:0:0:0:
320,192,88206,1,0,0:0:0:70:BaSS.wav
64,192,88206,1,0,0:0:0:0:
192,192,88206,1,0,0:0:0:0:
448,192,88314,1,0,0:0:0:0:
320,192,88422,1,0,0:0:0:0:
192,192,88530,1,0,0:0:0:70:BaSS.wav
64,192,88530,1,0,0:0:0:0:
448,192,88530,1,0,0:0:0:0:
320,192,88639,1,0,0:0:0:0:
192,192,88747,1,0,0:0:0:0:
64,192,88855,1,0,0:0:0:0:
320,192,88963,1,0,0:0:0:0:
448,192,89071,1,0,0:0:0:0:
192,192,89179,1,0,0:0:0:70:BaSS.wav
64,192,89179,1,0,0:0:0:0:
320,192,89179,1,0,0:0:0:0:
448,192,89287,1,0,0:0:0:0:
192,192,89395,1,0,0:0:0:0:
64,192,89503,1,0,0:0:0:0:
320,192,89612,1,0,0:0:0:0:
192,192,89720,1,0,0:0:0:0:
64,192,89828,1,0,0:0:0:70:BaSS.wav
320,192,89828,1,0,0:0:0:0:
448,192,89828,1,0,0:0:0:0:
192,192,89936,1,0,0:0:0:0:
64,192,90044,1,0,0:0:0:0:
320,192,90152,1,0,0:0:0:0:
192,192,90260,1,0,0:0:0:0:
64,192,90368,1,0,0:0:0:0:
320,192,90476,1,0,0:0:0:70:BaSS.wav
192,192,90476,1,0,0:0:0:0:
448,192,90476,1,0,0:0:0:0:
64,192,90584,1,0,0:0:0:0:
448,192,90693,1,0,0:0:0:0:
192,192,90801,1,0,0:0:0:0:
320,192,90909,1,0,0:0:0:0:
448,192,91017,1,0,0:0:0:0:
320,192,91125,1,0,0:0:0:70:BaSS.wav
192,192,91125,1,0,0:0:0:0:
64,192,91125,1,0,0:0:0:0:
448,192,91233,1,0,0:0:0:0:
64,192,91341,1,0,0:0:0:0:
320,192,91449,1,0,0:0:0:0:
192,192,91557,1,0,0:0:0:0:
64,192,91666,1,0,0:0:0:0:
320,192,91774,1,0,0:0:0:70:BaSS.wav
448,192,91774,1,0,0:0:0:0:
192,192,91774,1,0,0:0:0:0:
64,192,91882,1,0,0:0:0:0:
320,192,91990,1,0,0:0:0:0:
192,192,92098,1,0,0:0:0:70:BaSS.wav
64,192,92098,1,0,0:0:0:0:
448,192,92098,1,0,0:0:0:0:
320,192,92206,1,0,0:0:0:0:
192,192,92314,1,0,0:0:0:0:
64,192,92422,1,0,0:0:0:70:BaSS.wav
320,192,92422,1,0,0:0:0:0:
448,192,92422,1,0,0:0:0:0:
192,192,92530,1,0,0:0:0:0:
448,192,92639,1,0,0:0:0:0:
320,192,92747,1,0,0:0:0:0:
64,192,92855,1,0,0:0:0:0:
192,192,92963,1,0,0:0:0:0:
320,192,93071,1,0,0:0:0:70:BaSS.wav
448,192,93071,1,0,0:0:0:0:
64,192,93071,1,0,0:0:0:0:
192,192,93179,1,0,0:0:0:0:
320,192,93287,1,0,0:0:0:0:
448,192,93395,1,0,0:0:0:0:
192,192,93503,1,0,0:0:0:0:
64,192,93611,1,0,0:0:0:0:
320,192,93720,1,0,0:0:0:70:BaSS.wav
192,192,93720,1,0,0:0:0:0:
448,192,93720,1,0,0:0:0:0:
64,192,93828,1,0,0:0:0:0:
320,192,93936,1,0,0:0:0:0:
192,192,94044,1,0,0:0:0:0:
448,192,94152,1,0,0:0:0:0:
320,192,94260,1,0,0:0:0:0:
192,192,94368,1,0,0:0:0:70:BaSS.wav
64,192,94368,1,0,0:0:0:0:
448,192,94368,1,0,0:0:0:0:
320,192,94476,1,0,0:0:0:0:
192,192,94584,1,0,0:0:0:0:
64,192,94693,1,0,0:0:0:70:BaSS.wav
320,192,94693,1,0,0:0:0:0:
448,192,94693,1,0,0:0:0:0:
192,192,94801,1,0,0:0:0:0:
64,192,94909,1,0,0:0:0:0:
448,192,95017,1,0,0:0:0:70:BaSS.wav
320,192,95017,1,0,0:0:0:0:
192,192,95017,1,0,0:0:0:0:
64,192,95125,1,0,0:0:0:0:
448,192,95233,1,0,0:0:0:0:
320,192,95341,1,0,0:0:0:0:
64,192,95449,1,0,0:0:0:0:
192,192,95557,1,0,0:0:0:0:
64,192,95666,1,0,0:0:0:70:BaSS.wav
448,192,95666,1,0,0:0:0:0:
320,192,95666,1,0,0:0:0:0:
192,192,95774,1,0,0:0:0:0:
320,192,95882,1,0,0:0:0:0:
64,192,95990,1,0,0:0:0:70:BaSS.wav
192,192,95990,1,0,0:0:0:70:finish.wav
448,192,95990,1,0,0:0:0:0:
320,192,96098,1,0,0:0:0:0:
448,192,96206,1,0,0:0:0:0:
320,192,96314,1,0,0:0:0:70:BaSS.wav
64,192,96314,1,0,0:0:0:0:
192,192,96314,1,0,0:0:0:0:
448,192,96422,1,0,0:0:0:0:
192,192,96530,1,0,0:0:0:0:
448,192,96639,1,0,0:0:0:0:
192,192,96747,1,0,0:0:0:0:
448,192,96855,1,0,0:0:0:0:
320,192,96963,1,0,0:0:0:70:BaSS.wav
192,192,96963,1,0,0:0:0:0:
64,192,96963,1,0,0:0:0:0:
448,192,97071,1,0,0:0:0:0:
64,192,97179,1,0,0:0:0:0:
448,192,97287,1,0,0:0:0:0:
64,192,97395,1,0,0:0:0:0:
448,192,97503,1,0,0:0:0:0:
64,192,97611,1,0,0:0:0:70:BaSS.wav
192,192,97611,1,0,0:0:0:0:
320,192,97611,1,0,0:0:0:0:
448,192,97720,1,0,0:0:0:0:
64,192,97828,1,0,0:0:0:0:
448,192,97936,1,0,0:0:0:0:
64,192,98044,1,0,0:0:0:0:
448,192,98152,1,0,0:0:0:0:
320,192,98260,1,0,0:0:0:70:BaSS.wav
192,192,98260,1,0,0:0:0:0:
64,192,98260,1,0,0:0:0:0:
448,192,98368,1,0,0:0:0:0:
192,192,98476,1,0,0:0:0:0:
448,192,98584,1,0,0:0:0:70:BaSS.wav
320,192,98584,1,0,0:0:0:0:
64,192,98584,1,0,0:0:0:0:
192,192,98693,1,0,0:0:0:0:
64,192,98801,1,0,0:0:0:0:
192,192,98909,1,0,0:0:0:70:BaSS.wav
320,192,98909,1,0,0:0:0:0:
448,192,98909,1,0,0:0:0:0:
64,192,99017,1,0,0:0:0:0:
448,192,99125,1,0,0:0:0:0:
64,192,99233,1,0,0:0:0:0:
448,192,99341,1,0,0:0:0:0:
64,192,99449,1,0,0:0:0:0:
192,192,99557,1,0,0:0:0:70:BaSS.wav
320,192,99557,1,0,0:0:0:0:
448,192,99557,1,0,0:0:0:0:
64,192,99666,1,0,0:0:0:0:
320,192,99774,1,0,0:0:0:0:
64,192,99882,1,0,0:0:0:70:BaSS.wav
192,192,99882,1,0,0:0:0:0:
448,192,99882,1,0,0:0:0:0:
320,192,99990,1,0,0:0:0:0:
448,192,100098,1,0,0:0:0:0:
320,192,100206,1,0,0:0:0:70:BaSS.wav
192,192,100206,1,0,0:0:0:0:
64,192,100206,1,0,0:0:0:0:
448,192,100314,1,0,0:0:0:0:
64,192,100422,1,0,0:0:0:0:
448,192,100530,1,0,0:0:0:0:
64,192,100639,1,0,0:0:0:0:
448,192,100747,1,0,0:0:0:0:
320,192,100855,1,0,0:0:0:70:BaSS.wav
192,192,100855,1,0,0:0:0:0:
64,192,100855,1,0,0:0:0:0:
448,192,100963,1,0,0:0:0:0:
192,192,101071,1,0,0:0:0:0:
448,192,101179,1,0,0:0:0:0:
192,192,101287,1,0,0:0:0:0:
448,192,101395,1,0,0:0:0:0:
320,192,101503,1,0,0:0:0:70:BaSS.wav
192,192,101503,1,0,0:0:0:0:
64,192,101503,1,0,0:0:0:0:
448,192,101611,1,0,0:0:0:0:
320,192,101720,1,0,0:0:0:0:
448,192,101828,1,0,0:0:0:0:
320,192,101936,1,0,0:0:0:0:
448,192,102044,1,0,0:0:0:0:
320,192,102152,1,0,0:0:0:70:BaSS.wav
192,192,102152,1,0,0:0:0:0:
64,192,102152,1,0,0:0:0:0:
448,192,102260,1,0,0:0:0:0:
64,192,102368,1,0,0:0:0:0:
448,192,102476,1,0,0:0:0:70:BaSS.wav
192,192,102476,1,0,0:0:0:0:
320,192,102476,1,0,0:0:0:0:
64,192,102584,1,0,0:0:0:0:
192,192,102693,1,0,0:0:0:0:
64,192,102801,1,0,0:0:0:70:BaSS.wav
320,192,102801,1,0,0:0:0:0:
448,192,102801,1,0,0:0:0:0:
192,192,102909,1,0,0:0:0:0:
320,192,103017,1,0,0:0:0:0:
192,192,103125,1,0,0:0:0:0:
320,192,103233,1,0,0:0:0:0:
192,192,103341,1,0,0:0:0:0:
64,192,103449,1,0,0:0:0:70:BaSS.wav
320,192,103449,1,0,0:0:0:0:
448,192,103449,1,0,0:0:0:0:
192,192,103557,1,0,0:0:0:0:
448,192,103666,1,0,0:0:0:0:
192,192,103774,1,0,0:0:0:0:
448,192,103882,1,0,0:0:0:0:
192,192,103990,1,0,0:0:0:0:
448,192,104098,1,0,0:0:0:70:BaSS.wav
320,192,104098,1,0,0:0:0:0:
64,192,104098,1,0,0:0:0:0:
192,192,104206,1,0,0:0:0:0:
64,192,104314,1,0,0:0:0:0:
192,192,104422,1,0,0:0:0:0:
64,192,104530,1,0,0:0:0:0:
192,192,104639,1,0,0:0:0:0:
64,192,104747,1,0,0:0:0:70:BaSS.wav
320,192,104747,1,0,0:0:0:0:
448,192,104747,1,0,0:0:0:0:
192,192,104855,1,0,0:0:0:0:
448,192,104963,1,0,0:0:0:0:
192,192,105071,1,0,0:0:0:0:
448,192,105179,1,0,0:0:0:0:
192,192,105287,1,0,0:0:0:0:
448,192,105395,1,0,0:0:0:70:BaSS.wav
320,192,105395,1,0,0:0:0:0:
64,192,105395,1,0,0:0:0:0:
192,192,105503,1,0,0:0:0:0:
320,192,105611,1,0,0:0:0:0:
192,192,105720,1,0,0:0:0:0:
320,192,105828,1,0,0:0:0:0:
192,192,105936,1,0,0:0:0:0:
320,192,106044,1,0,0:0:0:70:BaSS.wav
448,192,106044,1,0,0:0:0:0:
64,192,106044,1,0,0:0:0:0:
64,192,106368,1,0,0:0:0:70:BaSS.wav
192,192,106368,1,0,0:0:0:70:finish.wav
448,192,106368,1,0,0:0:0:70:wind.wav
320,192,106530,1,0,0:0:0:0:
64,192,106693,1,0,0:0:0:70:bup.wav
448,192,106693,1,0,0:0:0:70:BaSS.wav
192,192,106693,1,0,0:0:0:0:
64,192,106855,1,0,0:0:0:70:BaSS.wav
320,192,106855,1,0,0:0:0:0:
192,192,106855,1,0,0:0:0:0:
320,192,107017,1,0,0:0:0:70:BaSS.wav
448,192,107017,1,0,0:0:0:0:
64,192,107098,1,0,0:0:0:70:bup.wav
192,192,107098,1,0,0:0:0:0:
320,192,107179,1,0,0:0:0:70:BaSS.wav
448,192,107179,1,0,0:0:0:70:bup.wav
192,192,107341,1,0,0:0:0:70:BaSS.wav
448,192,107341,1,0,0:0:0:0:
64,192,107341,1,0,0:0:0:0:
320,192,107503,1,0,0:0:0:0:
192,192,107666,1,0,0:0:0:70:BaSS.wav
64,192,107666,1,0,0:0:0:0:
448,192,107666,1,0,0:0:0:0:
320,192,107828,1,0,0:0:0:0:
64,192,107990,1,0,0:0:0:70:BaSS.wav
192,192,107990,1,0,0:0:0:70:bup.wav
448,192,107990,1,0,0:0:0:0:
320,192,108091,1,0,0:0:0:70:BaSS.wav
192,192,108091,1,0,0:0:0:0:
448,192,108193,1,0,0:0:0:70:BaSS.wav
320,192,108193,1,0,0:0:0:0:
64,192,108314,1,0,0:0:0:0:
192,192,108314,1,0,0:0:0:70:BaSS.wav
64,192,108476,1,0,0:0:0:0:
320,192,108476,1,0,0:0:0:70:BaSS.wav
448,192,108476,1,0,0:0:0:0:
192,192,108639,1,0,0:0:0:70:BaSS.wav
320,192,108639,1,0,0:0:0:0:
448,192,108639,1,0,0:0:0:0:
64,192,108801,1,0,0:0:0:0:
192,192,108963,1,0,0:0:0:70:BaSS.wav
64,192,108963,1,0,0:0:0:70:bup.wav
448,192,108963,1,0,0:0:0:0:
320,192,109125,1,0,0:0:0:70:BaSS.wav
192,192,109125,1,0,0:0:0:0:
448,192,109125,1,0,0:0:0:0:
64,192,109287,1,0,0:0:0:70:BaSS.wav
320,192,109287,1,0,0:0:0:0:
192,192,109368,1,0,0:0:0:70:bup.wav
448,192,109368,1,0,0:0:0:70:BaSS.wav
320,192,109449,1,0,0:0:0:70:bup.wav
64,192,109449,1,0,0:0:0:70:BaSS.wav
192,192,109611,1,0,0:0:0:70:BaSS.wav
64,192,109611,1,0,0:0:0:0:
448,192,109611,1,0,0:0:0:0:
320,192,109774,1,0,0:0:0:0:
192,192,109936,1,0,0:0:0:70:BaSS.wav
64,192,109936,1,0,0:0:0:0:
448,192,109936,1,0,0:0:0:0:
192,192,110098,1,0,0:0:0:0:
320,192,110260,1,0,0:0:0:70:bup.wav
448,192,110260,1,0,0:0:0:70:BaSS.wav
64,192,110260,1,0,0:0:0:0:
192,192,110422,1,0,0:0:0:70:BaSS.wav
64,192,110422,1,0,0:0:0:0:
320,192,110503,1,0,0:0:0:70:BaSS.wav
448,192,110503,1,0,0:0:0:0:
192,192,110584,1,0,0:0:0:70:BaSS.wav
64,192,110584,1,0,0:0:0:0:
320,192,110686,1,0,0:0:0:70:BaSS.wav
448,192,110686,1,0,0:0:0:0:
192,192,110787,1,0,0:0:0:70:BaSS.wav
320,192,110787,1,0,0:0:0:0:
192,192,110909,1,0,0:0:0:70:BaSS.wav
64,192,110909,1,0,0:0:0:0:
448,192,111071,1,0,0:0:0:70:bup.wav
320,192,111111,1,0,0:0:0:70:bup.wav
64,192,111152,1,0,0:0:0:70:bup.wav
192,192,111193,1,0,0:0:0:70:bup.wav
320,192,111233,1,0,0:0:0:70:bup.wav
448,192,111233,1,0,0:0:0:70:BaSS.wav
192,192,111395,1,0,0:0:0:0:
64,192,111557,1,0,0:0:0:70:bup.wav
320,192,111557,1,0,0:0:0:70:BaSS.wav
448,192,111557,1,0,0:0:0:0:
192,192,111720,1,0,0:0:0:0:
320,192,111801,1,0,0:0:0:0:
448,192,111882,1,0,0:0:0:70:BaSS.wav
192,192,111882,1,0,0:0:0:0:
64,192,111882,1,0,0:0:0:0:
320,192,112044,1,0,0:0:0:70:BaSS.wav
448,192,112044,1,0,0:0:0:0:
64,192,112044,1,0,0:0:0:0:
320,192,112206,1,0,0:0:0:70:BaSS.wav
64,192,112206,1,0,0:0:0:0:
192,192,112206,1,0,0:0:0:0:
448,192,112368,1,0,0:0:0:0:
320,192,112530,1,0,0:0:0:70:bup.wav
192,192,112530,1,0,0:0:0:70:BaSS.wav
448,192,112530,1,0,0:0:0:0:
64,192,112693,1,0,0:0:0:0:
192,192,112774,1,0,0:0:0:0:
448,192,112855,1,0,0:0:0:0:
320,192,112855,1,0,0:0:0:70:BaSS.wav
64,192,112956,1,0,0:0:0:70:BaSS.wav
192,192,112956,1,0,0:0:0:0:
320,192,113057,1,0,0:0:0:70:BaSS.wav
192,192,113057,1,0,0:0:0:0:
448,192,113179,1,0,0:0:0:0:
320,192,113179,1,0,0:0:0:70:BaSS.wav
192,192,113341,1,0,0:0:0:0:
320,192,113422,1,0,0:0:0:70:BaSS.wav
192,192,113463,1,0,0:0:0:70:BaSS.wav
64,192,113503,1,0,0:0:0:0:
448,192,113503,1,0,0:0:0:70:BaSS.wav
192,192,113666,1,0,0:0:0:0:
448,192,113828,1,0,0:0:0:0:
320,192,113828,1,0,0:0:0:70:BaSS.wav
64,192,113828,1,0,0:0:0:70:bup.wav
192,192,113990,1,0,0:0:0:0:
320,192,114071,1,0,0:0:0:0:
448,192,114152,1,0,0:0:0:0:
64,192,114152,1,0,0:0:0:70:BaSS.wav
192,192,114152,1,0,0:0:0:0:
448,192,114314,1,0,0:0:0:0:
320,192,114476,1,0,0:0:0:70:BaSS.wav
64,192,114476,1,0,0:0:0:0:
192,192,114476,1,0,0:0:0:0:
64,192,114639,1,0,0:0:0:70:BaSS.wav
448,192,114639,1,0,0:0:0:0:
320,192,114720,1,0,0:0:0:70:BaSS.wav
192,192,114720,1,0,0:0:0:0:
64,192,114801,1,0,0:0:0:70:bup.wav
448,192,114801,1,0,0:0:0:70:BaSS.wav
448,192,114963,1,0,0:0:0:70:BaSS.wav
192,192,114963,1,0,0:0:0:0:
320,192,115044,1,0,0:0:0:0:
64,192,115125,1,0,0:0:0:70:BaSS.wav
192,192,115125,1,0,0:0:0:0:
448,192,115287,1,0,0:0:0:70:BaSS.wav
320,192,115328,1,0,0:0:0:0:
64,192,115368,1,0,0:0:0:70:BaSS.wav
192,192,115368,1,0,0:0:0:0:
320,192,115449,1,0,0:0:0:70:BaSS.wav
448,192,115449,1,0,0:0:0:0:
192,192,115611,1,0,0:0:0:70:BaSS.wav
448,192,115611,1,0,0:0:0:0:
64,192,115611,1,0,0:0:0:0:
192,192,115774,1,0,0:0:0:70:bup.wav
320,192,115774,1,0,0:0:0:70:BaSS.wav
64,192,115774,1,0,0:0:0:0:
320,192,115936,1,0,0:0:0:70:BaSS.wav
448,192,115936,1,0,0:0:0:0:
192,192,116017,1,0,0:0:0:0:
448,192,116098,1,0,0:0:0:70:BaSS.wav
64,192,116098,1,0,0:0:0:0:
320,192,116179,1,0,0:0:0:70:bup.wav
192,192,116179,1,0,0:0:0:70:BaSS.wav
64,192,116260,1,0,0:0:0:70:BaSS.wav
448,192,116260,1,0,0:0:0:0:
320,192,116341,1,0,0:0:0:70:BaSS.wav
192,192,116422,1,0,0:0:0:70:bup.wav
64,192,116422,1,0,0:0:0:70:BaSS.wav
320,192,116503,1,0,0:0:0:70:bup.wav
448,192,116503,1,0,0:0:0:70:BaSS.wav
192,192,116584,1,0,0:0:0:70:bup.wav
64,192,116584,1,0,0:0:0:70:BaSS.wav
320,192,116666,1,0,0:0:0:70:bup.wav
448,192,116666,1,0,0:0:0:70:BaSS.wav
64,192,116747,1,0,0:0:0:70:finish.wav
192,192,116747,1,0,0:0:0:70:BaSS.wav
320,192,116963,1,0,0:0:0:0:
64,192,117179,1,0,0:0:0:70:bup.wav
320,192,117179,1,0,0:0:0:0:
448,192,117179,1,0,0:0:0:70:BaSS.wav
192,192,117395,1,0,0:0:0:70:BaSS.wav
64,192,117395,1,0,0:0:0:0:
448,192,117611,1,0,0:0:0:0:
320,192,117611,1,0,0:0:0:70:BaSS.wav
192,192,117720,1,0,0:0:0:70:bup.wav
448,192,117828,1,0,0:0:0:0:
192,192,117828,1,0,0:0:0:70:bup.wav
64,192,117828,1,0,0:0:0:0:
64,192,118044,1,0,0:0:0:0:
320,192,118044,1,0,0:0:0:70:BaSS.wav
192,192,118260,1,0,0:0:0:0:
448,192,118476,1,0,0:0:0:70:BaSS.wav
320,192,118476,1,0,0:0:0:70:bup.wav
64,192,118476,1,0,0:0:0:0:
192,192,118693,1,0,0:0:0:70:BaSS.wav
320,192,118693,1,0,0:0:0:0:
448,192,118909,1,0,0:0:0:0:
64,192,118909,1,0,0:0:0:70:BaSS.wav
192,192,119017,1,0,0:0:0:0:
448,192,119125,1,0,0:0:0:70:bup.wav
320,192,119125,1,0,0:0:0:70:BaSS.wav
64,192,119125,1,0,0:0:0:0:
320,192,119233,1,0,0:0:0:70:bup.wav
64,192,119341,1,0,0:0:0:0:
192,192,119341,1,0,0:0:0:70:BaSS.wav
448,192,119557,1,0,0:0:0:0:
64,192,119774,1,0,0:0:0:70:BaSS.wav
192,192,119774,1,0,0:0:0:70:bup.wav
448,192,119774,1,0,0:0:0:0:
320,192,119990,1,0,0:0:0:70:BaSS.wav
192,192,119990,1,0,0:0:0:0:
64,192,120206,1,0,0:0:0:0:
448,192,120206,1,0,0:0:0:70:BaSS.wav
192,192,120314,1,0,0:0:0:70:bup.wav
320,192,120422,1,0,0:0:0:0:
192,192,120422,1,0,0:0:0:0:
64,192,120422,1,0,0:0:0:70:bup.wav
448,192,120639,1,0,0:0:0:0:
320,192,120639,1,0,0:0:0:70:BaSS.wav
192,192,120855,1,0,0:0:0:0:
448,192,121071,1,0,0:0:0:0:
320,192,121071,1,0,0:0:0:70:BaSS.wav
64,192,121071,1,0,0:0:0:70:bup.wav
64,192,121287,1,0,0:0:0:0:
192,192,121287,1,0,0:0:0:70:BaSS.wav
448,192,121503,1,0,0:0:0:0:
320,192,121503,1,0,0:0:0:70:BaSS.wav
192,192,121611,1,0,0:0:0:0:
448,192,121720,1,0,0:0:0:70:bup.wav
320,192,121774,1,0,0:0:0:70:bup.wav
192,192,121828,1,0,0:0:0:70:bup.wav
64,192,121882,1,0,0:0:0:70:bup.wav
320,192,121936,1,0,0:0:0:70:BaSS.wav
448,192,121936,1,0,0:0:0:70:finish.wav
192,192,122098,1,0,0:0:0:0:
64,192,122260,1,0,0:0:0:70:bup.wav
320,192,122260,1,0,0:0:0:70:BaSS.wav
448,192,122260,1,0,0:0:0:0:
192,192,122422,1,0,0:0:0:70:BaSS.wav
64,192,122422,1,0,0:0:0:0:
448,192,122422,1,0,0:0:0:0:
448,192,122584,1,0,0:0:0:70:BaSS.wav
192,192,122584,1,0,0:0:0:0:
320,192,122666,1,0,0:0:0:70:bup.wav
64,192,122666,1,0,0:0:0:0:
192,192,122747,1,0,0:0:0:70:bup.wav
448,192,122747,1,0,0:0:0:0:
320,192,122909,1,0,0:0:0:70:BaSS.wav
192,192,122909,1,0,0:0:0:0:
64,192,122909,1,0,0:0:0:0:
448,192,123071,1,0,0:0:0:70:BaSS.wav
320,192,123071,1,0,0:0:0:0:
64,192,123071,1,0,0:0:0:0:
192,192,123233,1,0,0:0:0:70:BaSS.wav
320,192,123233,1,0,0:0:0:0:
448,192,123233,1,0,0:0:0:0:
64,192,123395,1,0,0:0:0:70:BaSS.wav
192,192,123395,1,0,0:0:0:0:
448,192,123476,1,0,0:0:0:70:bup.wav
320,192,123476,1,0,0:0:0:0:
192,192,123557,1,0,0:0:0:70:bup.wav
64,192,123557,1,0,0:0:0:70:BaSS.wav
320,192,123720,1,0,0:0:0:70:BaSS.wav
64,192,123720,1,0,0:0:0:0:
448,192,123720,1,0,0:0:0:0:
320,192,123882,1,0,0:0:0:70:BaSS.wav
448,192,123882,1,0,0:0:0:0:
192,192,123882,1,0,0:0:0:0:
64,192,124044,1,0,0:0:0:70:bup.wav
192,192,124044,1,0,0:0:0:0:
448,192,124044,1,0,0:0:0:0:
320,192,124206,1,0,0:0:0:70:BaSS.wav
192,192,124206,1,0,0:0:0:0:
64,192,124206,1,0,0:0:0:0:
448,192,124287,1,0,0:0:0:0:
320,192,124368,1,0,0:0:0:0:
192,192,124530,1,0,0:0:0:70:BaSS.wav
64,192,124530,1,0,0:0:0:0:
448,192,124611,1,0,0:0:0:70:BaSS.wav
320,192,124611,1,0,0:0:0:0:
192,192,124693,1,0,0:0:0:70:BaSS.wav
64,192,124693,1,0,0:0:0:0:
64,192,124855,1,0,0:0:0:70:bup.wav
320,192,124855,1,0,0:0:0:70:BaSS.wav
448,192,124855,1,0,0:0:0:0:
192,192,125017,1,0,0:0:0:70:BaSS.wav
448,192,125017,1,0,0:0:0:0:
320,192,125017,1,0,0:0:0:0:
64,192,125179,1,0,0:0:0:70:BaSS.wav
192,192,125179,1,0,0:0:0:0:
448,192,125179,1,0,0:0:0:0:
320,192,125341,1,0,0:0:0:70:bup.wav
64,192,125341,1,0,0:0:0:0:
192,192,125341,1,0,0:0:0:0:
448,192,125503,1,0,0:0:0:70:BaSS.wav
320,192,125503,1,0,0:0:0:0:
64,192,125584,1,0,0:0:0:70:BaSS.wav
192,192,125584,1,0,0:0:0:0:
448,192,125666,1,0,0:0:0:70:BaSS.wav
320,192,125706,1,0,0:0:0:70:BaSS.wav
64,192,125747,1,0,0:0:0:70:BaSS.wav
192,192,125787,1,0,0:0:0:70:BaSS.wav
448,192,125828,1,0,0:0:0:70:BaSS.wav
320,192,125828,1,0,0:0:0:0:
192,192,125990,5,0,0:0:0:70:BaSS.wav
64,192,125990,1,0,0:0:0:0:
448,192,125990,1,0,0:0:0:0:
320,192,126152,1,0,0:0:0:70:bup.wav
192,192,126152,1,0,0:0:0:70:BaSS.wav
64,192,126152,1,0,0:0:0:0:
320,192,126314,1,0,0:0:0:70:BaSS.wav
448,192,126314,1,0,0:0:0:0:
64,192,126314,1,0,0:0:0:0:
192,192,126395,1,0,0:0:0:70:bup.wav
448,192,126476,1,0,0:0:0:70:BaSS.wav
320,192,126476,1,0,0:0:0:0:
64,192,126557,1,0,0:0:0:70:bup.wav
192,192,126557,1,0,0:0:0:70:BaSS.wav
448,192,126639,1,0,0:0:0:70:BaSS.wav
320,192,126639,1,0,0:0:0:0:
192,192,126720,1,0,0:0:0:70:BaSS.wav
64,192,126720,1,0,0:0:0:0:
448,192,126801,1,0,0:0:0:70:bup.wav
320,192,126841,1,0,0:0:0:70:bup.wav
192,192,126882,1,0,0:0:0:70:bup.wav
64,192,126922,1,0,0:0:0:70:bup.wav
448,192,126963,1,0,0:0:0:70:bup.wav
320,192,127003,1,0,0:0:0:70:bup.wav
192,192,127044,1,0,0:0:0:70:bup.wav
64,192,127084,1,0,0:0:0:70:bup.wav
448,192,127125,1,0,0:0:0:70:BaSS.wav
320,192,127125,1,0,0:0:0:70:finish.wav
192,192,127287,1,0,0:0:0:70:psy.wav
320,192,127368,1,0,0:0:0:70:psy.wav
64,192,127611,1,0,0:0:0:70:psy.wav
192,192,127611,1,0,0:0:0:0:
448,192,127693,1,0,0:0:0:70:psy.wav
320,192,127936,1,0,0:0:0:70:psy.wav
448,192,128017,1,0,0:0:0:70:psy.wav
64,192,128098,1,0,0:0:0:0:
192,192,128098,1,0,0:0:0:0:
320,192,128260,1,0,0:0:0:70:psy.wav
192,192,128341,1,0,0:0:0:70:psy.wav
320,192,128422,1,0,0:0:0:70:BaSS.wav
448,192,128422,1,0,0:0:0:0:
64,192,128422,1,0,0:0:0:0:
64,192,128584,1,0,0:0:0:70:psy.wav
192,192,128584,1,0,0:0:0:0:
448,192,128666,1,0,0:0:0:70:psy.wav
320,192,128909,1,0,0:0:0:70:psy.wav
448,192,128990,1,0,0:0:0:70:psy.wav
192,192,129071,1,0,0:0:0:0:
64,192,129071,1,0,0:0:0:0:
448,192,129233,1,0,0:0:0:70:psy.wav
320,192,129314,1,0,0:0:0:70:psy.wav
64,192,129557,1,0,0:0:0:70:psy.wav
192,192,129557,1,0,0:0:0:0:
320,192,129639,1,0,0:0:0:70:psy.wav
192,192,129720,1,0,0:0:0:70:BaSS.wav
448,192,129720,1,0,0:0:0:0:
64,192,129720,1,0,0:0:0:0:
320,192,129882,1,0,0:0:0:70:psy.wav
64,192,129963,1,0,0:0:0:70:psy.wav
192,192,130044,1,0,0:0:0:0:
448,192,130044,1,0,0:0:0:0:
64,192,130206,1,0,0:0:0:70:psy.wav
192,192,130287,1,0,0:0:0:70:psy.wav
320,192,130530,1,0,0:0:0:70:psy.wav
448,192,130530,1,0,0:0:0:0:
64,192,130611,1,0,0:0:0:70:psy.wav
192,192,130855,1,0,0:0:0:70:psy.wav
320,192,130936,1,0,0:0:0:70:psy.wav
448,192,131017,1,0,0:0:0:70:BaSS.wav
64,192,131017,1,0,0:0:0:0:
192,192,131017,1,0,0:0:0:0:
320,192,131179,1,0,0:0:0:70:psy.wav
192,192,131260,1,0,0:0:0:70:psy.wav
320,192,131503,1,0,0:0:0:70:psy.wav
448,192,131584,1,0,0:0:0:70:psy.wav
64,192,131828,1,0,0:0:0:70:psy.wav
192,192,131909,1,0,0:0:0:70:psy.wav
64,192,132152,1,0,0:0:0:70:psy.wav
192,192,132233,1,0,0:0:0:70:psy.wav
320,192,132314,1,0,0:0:0:70:BaSS.wav
448,192,132314,1,0,0:0:0:0:
64,192,132314,1,0,0:0:0:0:
192,192,132476,1,0,0:0:0:70:psy.wav
448,192,132557,1,0,0:0:0:70:psy.wav
320,192,132801,1,0,0:0:0:70:psy.wav
192,192,132801,1,0,0:0:0:0:
448,192,132882,1,0,0:0:0:70:psy.wav
448,192,133125,1,0,0:0:0:70:psy.wav
64,192,133206,1,0,0:0:0:70:psy.wav
320,192,133287,1,0,0:0:0:0:
192,192,133287,1,0,0:0:0:0:
448,192,133449,1,0,0:0:0:70:psy.wav
320,192,133530,1,0,0:0:0:70:psy.wav
64,192,133611,1,0,0:0:0:70:BaSS.wav
192,192,133611,1,0,0:0:0:0:
448,192,133611,1,0,0:0:0:0:
320,192,133774,1,0,0:0:0:70:psy.wav
64,192,133774,1,0,0:0:0:0:
448,192,133855,1,0,0:0:0:70:psy.wav
448,192,134098,1,0,0:0:0:70:psy.wav
320,192,134179,1,0,0:0:0:70:psy.wav
64,192,134260,1,0,0:0:0:0:
192,192,134260,1,0,0:0:0:0:
448,192,134422,1,0,0:0:0:70:psy.wav
320,192,134503,1,0,0:0:0:70:psy.wav
64,192,134747,1,0,0:0:0:70:psy.wav
192,192,134747,1,0,0:0:0:0:
320,192,134828,1,0,0:0:0:70:psy.wav
64,192,134909,1,0,0:0:0:70:BaSS.wav
448,192,134909,1,0,0:0:0:0:
192,192,134909,1,0,0:0:0:0:
320,192,135071,1,0,0:0:0:70:psy.wav
192,192,135152,1,0,0:0:0:70:psy.wav
448,192,135233,1,0,0:0:0:0:
64,192,135233,1,0,0:0:0:0:
192,192,135395,1,0,0:0:0:70:psy.wav
64,192,135476,1,0,0:0:0:70:psy.wav
448,192,135720,1,0,0:0:0:70:psy.wav
64,192,135720,1,0,0:0:0:0:
320,192,135801,1,0,0:0:0:70:psy.wav
64,192,136044,1,0,0:0:0:70:psy.wav
192,192,136125,1,0,0:0:0:70:psy.wav
320,192,136206,1,0,0:0:0:70:BaSS.wav
448,192,136206,1,0,0:0:0:0:
64,192,136206,1,0,0:0:0:0:
192,192,136368,1,0,0:0:0:70:psy.wav
320,192,136449,1,0,0:0:0:70:psy.wav
64,192,136693,1,0,0:0:0:70:psy.wav
192,192,136774,1,0,0:0:0:70:psy.wav
64,192,137017,1,0,0:0:0:70:psy.wav
320,192,137098,1,0,0:0:0:70:psy.wav
448,192,137341,1,0,0:0:0:70:psy.wav
320,192,137422,1,0,0:0:0:70:psy.wav
64,192,137503,1,0,0:0:0:70:finish.wav
192,192,137503,1,0,0:0:0:70:BaSS.wav
448,192,137503,1,0,0:0:0:0:
320,192,137666,1,0,0:0:0:70:psy.wav
192,192,137747,1,0,0:0:0:70:psy.wav
192,192,137990,1,0,0:0:0:70:psy.wav
64,192,137990,1,0,0:0:0:0:
320,192,138071,1,0,0:0:0:70:psy.wav
448,192,138152,1,0,0:0:0:70:BaSS.wav
64,192,138152,1,0,0:0:0:0:
192,192,138152,1,0,0:0:0:0:
320,192,138314,1,0,0:0:0:70:psy.wav
448,192,138395,1,0,0:0:0:70:psy.wav
192,192,138476,1,0,0:0:0:0:
64,192,138476,1,0,0:0:0:0:
320,192,138639,1,0,0:0:0:70:psy.wav
192,192,138720,1,0,0:0:0:70:psy.wav
448,192,138801,1,0,0:0:0:70:BaSS.wav
320,192,138801,1,0,0:0:0:0:
64,192,138801,1,0,0:0:0:0:
192,192,138963,1,0,0:0:0:70:psy.wav
64,192,138963,1,0,0:0:0:0:
448,192,139044,1,0,0:0:0:70:psy.wav
448,192,139287,1,0,0:0:0:70:psy.wav
320,192,139368,1,0,0:0:0:70:psy.wav
192,192,139449,1,0,0:0:0:70:BaSS.wav
64,192,139449,1,0,0:0:0:0:
448,192,139449,1,0,0:0:0:0:
320,192,139611,1,0,0:0:0:70:psy.wav
192,192,139693,1,0,0:0:0:70:psy.wav
192,192,139936,1,0,0:0:0:70:psy.wav
64,192,139936,1,0,0:0:0:0:
320,192,140017,1,0,0:0:0:70:psy.wav
448,192,140098,1,0,0:0:0:70:BaSS.wav
64,192,140098,1,0,0:0:0:0:
192,192,140098,1,0,0:0:0:0:
320,192,140260,1,0,0:0:0:70:psy.wav
192,192,140341,1,0,0:0:0:70:psy.wav
448,192,140422,1,0,0:0:0:0:
64,192,140422,1,0,0:0:0:0:
192,192,140584,1,0,0:0:0:70:psy.wav
320,192,140666,1,0,0:0:0:70:psy.wav
192,192,140747,1,0,0:0:0:70:BaSS.wav
64,192,140747,1,0,0:0:0:0:
448,192,140747,1,0,0:0:0:0:
448,192,140909,1,0,0:0:0:70:psy.wav
64,192,140909,1,0,0:0:0:0:
320,192,140990,1,0,0:0:0:70:psy.wav
64,192,141233,1,0,0:0:0:70:psy.wav
192,192,141314,1,0,0:0:0:70:psy.wav
320,192,141395,1,0,0:0:0:70:BaSS.wav
448,192,141395,1,0,0:0:0:0:
64,192,141395,1,0,0:0:0:0:
192,192,141557,5,0,0:0:0:70:psy.wav
320,192,141639,1,0,0:0:0:70:psy.wav
64,192,141882,1,0,0:0:0:70:psy.wav
192,192,141963,1,0,0:0:0:70:psy.wav
320,192,142044,1,0,0:0:0:70:BaSS.wav
448,192,142044,1,0,0:0:0:0:
64,192,142044,1,0,0:0:0:0:
192,192,142206,1,0,0:0:0:70:psy.wav
320,192,142287,1,0,0:0:0:70:psy.wav
64,192,142530,1,0,0:0:0:70:psy.wav
192,192,142611,1,0,0:0:0:70:psy.wav
64,192,142693,5,0,0:0:0:70:BaSS.wav
320,192,142693,1,0,0:0:0:70:finish.wav
448,192,142693,1,0,0:0:0:0:
192,192,142855,1,0,0:0:0:70:psy.wav
320,192,142936,1,0,0:0:0:70:psy.wav
64,192,143017,1,0,0:0:0:70:BaSS.wav
192,192,143017,1,0,0:0:0:0:
448,192,143017,1,0,0:0:0:0:
320,192,143179,1,0,0:0:0:70:psy.wav
192,192,143260,1,0,0:0:0:70:psy.wav
448,192,143341,1,0,0:0:0:70:BaSS.wav
64,192,143341,1,0,0:0:0:0:
320,192,143341,1,0,0:0:0:0:
192,192,143503,1,0,0:0:0:70:psy.wav
320,192,143584,1,0,0:0:0:70:psy.wav
192,192,143666,1,0,0:0:0:70:BaSS.wav
64,192,143666,1,0,0:0:0:0:
448,192,143666,1,0,0:0:0:0:
320,192,143828,1,0,0:0:0:70:psy.wav
192,192,143909,1,0,0:0:0:70:psy.wav
64,192,143990,1,0,0:0:0:70:BaSS.wav
320,192,143990,1,0,0:0:0:70:finish.wav
448,192,143990,1,0,0:0:0:0:
192,192,144152,1,0,0:0:0:70:psy.wav
320,192,144233,1,0,0:0:0:70:psy.wav
64,192,144314,1,0,0:0:0:70:BaSS.wav
448,192,144314,1,0,0:0:0:0:
192,192,144314,1,0,0:0:0:0:
320,192,144476,1,0,0:0:0:70:psy.wav
64,192,144557,1,0,0:0:0:70:psy.wav
192,192,144639,1,0,0:0:0:70:BaSS.wav
448,192,144639,1,0,0:0:0:0:
320,192,144639,1,0,0:0:0:0:
64,192,144801,1,0,0:0:0:70:psy.wav
448,192,144882,1,0,0:0:0:70:psy.wav
64,192,144963,1,0,0:0:0:70:BaSS.wav
192,192,144963,1,0,0:0:0:0:
320,192,144963,1,0,0:0:0:0:
448,192,145125,1,0,0:0:0:70:psy.wav
320,192,145206,1,0,0:0:0:70:psy.wav
192,192,145287,1,0,0:0:0:70:BaSS.wav
64,192,145287,1,0,0:0:0:70:finish.wav
448,192,145287,1,0,0:0:0:0:
320,192,145449,1,0,0:0:0:70:BaSS.wav
192,192,145449,1,0,0:0:0:0:
64,192,145449,1,0,0:0:0:0:
64,192,145611,1,0,0:0:0:70:BaSS.wav
192,192,145611,1,0,0:0:0:0:
448,192,145611,1,0,0:0:0:0:
64,192,145774,1,0,0:0:0:70:BaSS.wav
192,192,145774,1,0,0:0:0:0:
320,192,145774,1,0,0:0:0:0:
320,192,145936,1,0,0:0:0:70:BaSS.wav
448,192,145936,1,0,0:0:0:70:finish.wav
64,192,145936,1,0,0:0:0:0:
320,192,146098,1,0,0:0:0:70:BaSS.wav
448,192,146098,1,0,0:0:0:0:
192,192,146098,1,0,0:0:0:0:
320,192,146260,1,0,0:0:0:70:BaSS.wav
448,192,146260,1,0,0:0:0:0:
64,192,146260,1,0,0:0:0:0:
320,192,146422,1,0,0:0:0:70:BaSS.wav
448,192,146422,1,0,0:0:0:0:
192,192,146422,1,0,0:0:0:0:
192,192,146584,1,0,0:0:0:70:BaSS.wav
64,192,146584,1,0,0:0:0:70:finish.wav
320,192,146666,1,0,0:0:0:70:BaSS.wav
448,192,146666,1,0,0:0:0:0:
64,192,146747,5,0,0:0:0:70:BaSS.wav
192,192,146747,1,0,0:0:0:0:
320,192,146828,1,0,0:0:0:70:BaSS.wav
448,192,146828,1,0,0:0:0:0:
192,192,146909,1,0,0:0:0:70:BaSS.wav
64,192,146909,1,0,0:0:0:0:
320,192,146990,1,0,0:0:0:70:BaSS.wav
448,192,146990,1,0,0:0:0:0:
192,192,147071,1,0,0:0:0:70:BaSS.wav
64,192,147071,1,0,0:0:0:0:
320,192,147152,1,0,0:0:0:70:BaSS.wav
448,192,147152,1,0,0:0:0:0:
64,192,147233,1,0,0:0:0:70:BaSS.wav
192,192,147274,1,0,0:0:0:70:BaSS.wav
320,192,147314,1,0,0:0:0:70:BaSS.wav
448,192,147355,1,0,0:0:0:70:BaSS.wav
64,192,147395,1,0,0:0:0:70:BaSS.wav
192,192,147436,1,0,0:0:0:70:BaSS.wav
320,192,147476,1,0,0:0:0:70:BaSS.wav
448,192,147517,1,0,0:0:0:70:BaSS.wav
64,192,147557,1,0,0:0:0:70:BaSS.wav
192,192,147598,1,0,0:0:0:70:BaSS.wav
448,192,147639,1,0,0:0:0:70:BaSS.wav
320,192,147679,1,0,0:0:0:70:BaSS.wav
64,192,147720,1,0,0:0:0:70:BaSS.wav
192,192,147760,1,0,0:0:0:70:BaSS.wav
448,192,147801,1,0,0:0:0:70:BaSS.wav
320,192,147841,1,0,0:0:0:70:BaSS.wav
64,192,147882,1,0,0:0:0:70:finish.wav
192,192,147882,1,0,0:0:0:70:BaSS.wav
448,192,147963,1,0,0:0:0:70:psy.wav
320,192,148044,1,0,0:0:0:70:psy.wav
192,192,148125,1,0,0:0:0:70:psy.wav
320,192,148206,1,0,0:0:0:70:BaSS.wav
64,192,148206,1,0,0:0:0:0:
448,192,148206,1,0,0:0:0:0:
192,192,148287,1,0,0:0:0:70:psy.wav
448,192,148368,1,0,0:0:0:70:psy.wav
64,192,148449,1,0,0:0:0:70:psy.wav
320,192,148530,1,0,0:0:0:70:BaSS.wav
448,192,148530,1,0,0:0:0:0:
192,192,148530,1,0,0:0:0:0:
64,192,148611,1,0,0:0:0:70:psy.wav
320,192,148693,1,0,0:0:0:70:psy.wav
448,192,148774,1,0,0:0:0:70:psy.wav
192,192,148855,1,0,0:0:0:70:BaSS.wav
64,192,148855,1,0,0:0:0:0:
320,192,148855,1,0,0:0:0:0:
448,192,148936,1,0,0:0:0:70:psy.wav
192,192,149017,1,0,0:0:0:70:psy.wav
320,192,149098,1,0,0:0:0:70:psy.wav
448,192,149179,1,0,0:0:0:70:BaSS.wav
192,192,149179,1,0,0:0:0:0:
64,192,149179,1,0,0:0:0:0:
320,192,149260,1,0,0:0:0:70:psy.wav
64,192,149341,1,0,0:0:0:70:psy.wav
192,192,149422,1,0,0:0:0:70:psy.wav
320,192,149503,1,0,0:0:0:70:BaSS.wav
448,192,149503,1,0,0:0:0:0:
64,192,149503,1,0,0:0:0:0:
192,192,149584,1,0,0:0:0:70:psy.wav
448,192,149666,1,0,0:0:0:70:psy.wav
320,192,149747,1,0,0:0:0:70:psy.wav
192,192,149828,1,0,0:0:0:70:BaSS.wav
64,192,149828,1,0,0:0:0:0:
448,192,149828,1,0,0:0:0:0:
320,192,149909,1,0,0:0:0:70:psy.wav
192,192,149990,1,0,0:0:0:70:psy.wav
64,192,150071,1,0,0:0:0:70:psy.wav
320,192,150152,1,0,0:0:0:70:BaSS.wav
448,192,150152,1,0,0:0:0:0:
192,192,150152,1,0,0:0:0:0:
64,192,150233,1,0,0:0:0:70:psy.wav
448,192,150314,1,0,0:0:0:70:psy.wav
320,192,150395,1,0,0:0:0:70:psy.wav
192,192,150476,1,0,0:0:0:70:BaSS.wav
64,192,150476,1,0,0:0:0:0:
448,192,150476,1,0,0:0:0:0:
320,192,150557,1,0,0:0:0:70:psy.wav
192,192,150639,1,0,0:0:0:70:psy.wav
64,192,150720,1,0,0:0:0:70:psy.wav
320,192,150801,1,0,0:0:0:70:BaSS.wav
448,192,150801,1,0,0:0:0:0:
192,192,150801,1,0,0:0:0:0:
64,192,150882,1,0,0:0:0:70:psy.wav
320,192,150963,1,0,0:0:0:70:psy.wav
192,192,151044,1,0,0:0:0:70:psy.wav
448,192,151125,1,0,0:0:0:70:BaSS.wav
320,192,151125,1,0,0:0:0:0:
64,192,151125,1,0,0:0:0:0:
192,192,151206,1,0,0:0:0:70:psy.wav
64,192,151287,1,0,0:0:0:70:psy.wav
320,192,151368,1,0,0:0:0:70:psy.wav
192,192,151449,1,0,0:0:0:70:BaSS.wav
64,192,151449,1,0,0:0:0:0:
448,192,151449,1,0,0:0:0:0:
320,192,151530,1,0,0:0:0:70:psy.wav
192,192,151611,1,0,0:0:0:70:psy.wav
448,192,151693,1,0,0:0:0:70:psy.wav
320,192,151774,1,0,0:0:0:70:BaSS.wav
192,192,151774,1,0,0:0:0:0:
64,192,151774,1,0,0:0:0:0:
448,192,151855,1,0,0:0:0:70:psy.wav
320,192,151936,1,0,0:0:0:70:psy.wav
64,192,152017,1,0,0:0:0:70:psy.wav
192,192,152098,1,0,0:0:0:70:BaSS.wav
320,192,152098,1,0,0:0:0:0:
448,192,152098,1,0,0:0:0:0:
64,192,152179,1,0,0:0:0:70:psy.wav
192,192,152260,1,0,0:0:0:70:psy.wav
448,192,152341,1,0,0:0:0:70:psy.wav
320,192,152422,1,0,0:0:0:70:BaSS.wav
192,192,152422,1,0,0:0:0:0:
64,192,152422,1,0,0:0:0:0:
448,192,152503,1,0,0:0:0:70:psy.wav
320,192,152584,1,0,0:0:0:70:psy.wav
192,192,152666,1,0,0:0:0:70:psy.wav
448,192,152747,1,0,0:0:0:70:BaSS.wav
320,192,152747,1,0,0:0:0:0:
192,192,152828,1,0,0:0:0:70:psy.wav
64,192,152828,1,0,0:0:0:70:BaSS.wav
448,192,152909,1,0,0:0:0:70:BaSS.wav
320,192,152949,1,0,0:0:0:70:BaSS.wav
192,192,152990,1,0,0:0:0:70:BaSS.wav
64,192,153030,1,0,0:0:0:70:BaSS.wav
448,192,153071,1,0,0:0:0:70:BaSS.wav
320,192,153071,1,0,0:0:0:70:finish.wav
192,192,153152,1,0,0:0:0:70:psy.wav
64,192,153233,1,0,0:0:0:70:psy.wav
320,192,153314,1,0,0:0:0:70:psy.wav
448,192,153395,1,0,0:0:0:70:BaSS.wav
192,192,153395,1,0,0:0:0:0:
64,192,153395,1,0,0:0:0:0:
320,192,153476,1,0,0:0:0:70:psy.wav
192,192,153557,1,0,0:0:0:70:psy.wav
64,192,153639,1,0,0:0:0:70:psy.wav
448,192,153720,1,0,0:0:0:70:BaSS.wav
320,192,153760,1,0,0:0:0:0:
192,192,153801,1,0,0:0:0:70:psy.wav
64,192,153841,1,0,0:0:0:0:
448,192,153882,1,0,0:0:0:70:psy.wav
320,192,153963,1,0,0:0:0:70:psy.wav
192,192,154044,1,0,0:0:0:70:BaSS.wav
64,192,154044,1,0,0:0:0:0:
448,192,154044,1,0,0:0:0:0:
320,192,154125,1,0,0:0:0:70:psy.wav
192,192,154206,1,0,0:0:0:70:psy.wav
448,192,154287,1,0,0:0:0:70:psy.wav
320,192,154368,1,0,0:0:0:70:BaSS.wav
192,192,154368,1,0,0:0:0:0:
64,192,154368,1,0,0:0:0:0:
448,192,154449,1,0,0:0:0:70:psy.wav
64,192,154530,1,0,0:0:0:70:psy.wav
192,192,154611,1,0,0:0:0:70:psy.wav
320,192,154693,1,0,0:0:0:70:BaSS.wav
448,192,154693,1,0,0:0:0:0:
64,192,154693,1,0,0:0:0:0:
192,192,154774,1,0,0:0:0:70:psy.wav
320,192,154855,1,0,0:0:0:70:psy.wav
448,192,154936,1,0,0:0:0:70:psy.wav
64,192,155017,1,0,0:0:0:70:BaSS.wav
192,192,155057,1,0,0:0:0:0:
320,192,155098,1,0,0:0:0:70:psy.wav
448,192,155139,1,0,0:0:0:0:
64,192,155179,1,0,0:0:0:70:psy.wav
192,192,155260,1,0,0:0:0:70:psy.wav
320,192,155341,1,0,0:0:0:70:BaSS.wav
448,192,155341,1,0,0:0:0:0:
64,192,155341,1,0,0:0:0:0:
192,192,155422,1,0,0:0:0:70:psy.wav
320,192,155503,1,0,0:0:0:70:psy.wav
64,192,155584,1,0,0:0:0:70:psy.wav
192,192,155666,1,0,0:0:0:70:BaSS.wav
320,192,155666,1,0,0:0:0:0:
448,192,155666,1,0,0:0:0:0:
64,192,155747,1,0,0:0:0:70:psy.wav
448,192,155828,1,0,0:0:0:70:psy.wav
320,192,155909,1,0,0:0:0:70:psy.wav
192,192,155990,1,0,0:0:0:70:BaSS.wav
64,192,155990,1,0,0:0:0:0:
448,192,155990,1,0,0:0:0:0:
320,192,156071,1,0,0:0:0:70:psy.wav
192,192,156152,1,0,0:0:0:70:psy.wav
64,192,156233,1,0,0:0:0:70:psy.wav
448,192,156314,1,0,0:0:0:70:BaSS.wav
320,192,156355,1,0,0:0:0:0:
64,192,156395,1,0,0:0:0:70:psy.wav
192,192,156436,1,0,0:0:0:0:
448,192,156476,1,0,0:0:0:70:psy.wav
320,192,156557,1,0,0:0:0:70:psy.wav
192,192,156639,1,0,0:0:0:70:BaSS.wav
64,192,156639,1,0,0:0:0:0:
448,192,156639,1,0,0:0:0:0:
320,192,156720,1,0,0:0:0:70:psy.wav
64,192,156801,1,0,0:0:0:70:psy.wav
192,192,156882,1,0,0:0:0:70:psy.wav
320,192,156963,1,0,0:0:0:70:BaSS.wav
448,192,156963,1,0,0:0:0:0:
64,192,156963,1,0,0:0:0:0:
192,192,157125,1,0,0:0:0:70:psy.wav
320,192,157206,1,0,0:0:0:70:psy.wav
192,192,157287,1,0,0:0:0:70:bup.wav
64,192,157287,1,0,0:0:0:0:
448,192,157287,1,0,0:0:0:0:
320,192,157449,1,0,0:0:0:70:psy.wav
64,192,157530,1,0,0:0:0:70:psy.wav
320,192,157611,1,0,0:0:0:0:
64,192,157693,1,0,0:0:0:0:
448,192,157774,1,0,0:0:0:70:bup.wav
320,192,157774,1,0,0:0:0:0:
192,192,157774,1,0,0:0:0:70:psy.wav
192,192,158017,1,0,0:0:0:70:bup.wav
64,192,158017,1,0,0:0:0:0:
448,192,158098,1,0,0:0:0:70:bup.wav
320,192,158139,1,0,0:0:0:70:bup.wav
64,192,158179,1,0,0:0:0:70:bup.wav
192,192,158220,1,0,0:0:0:70:bup.wav
320,192,158260,1,0,0:0:0:70:BaSS.wav
448,192,158260,1,0,0:0:0:70:finish.wav
64,192,158341,1,0,0:0:0:70:psy.wav
192,192,158422,1,0,0:0:0:70:psy.wav
448,192,158503,1,0,0:0:0:70:psy.wav
320,192,158584,1,0,0:0:0:70:BaSS.wav
192,192,158584,1,0,0:0:0:0:
64,192,158584,1,0,0:0:0:0:
448,192,158666,1,0,0:0:0:70:psy.wav
320,192,158747,1,0,0:0:0:70:psy.wav
192,192,158828,1,0,0:0:0:70:psy.wav
448,192,158909,1,0,0:0:0:70:BaSS.wav
64,192,158909,1,0,0:0:0:0:
320,192,158949,1,0,0:0:0:0:
192,192,158990,1,0,0:0:0:70:psy.wav
64,192,159030,1,0,0:0:0:0:
448,192,159071,1,0,0:0:0:70:psy.wav
320,192,159152,1,0,0:0:0:70:psy.wav
192,192,159233,1,0,0:0:0:70:BaSS.wav
64,192,159233,1,0,0:0:0:0:
448,192,159233,1,0,0:0:0:0:
320,192,159314,1,0,0:0:0:70:psy.wav
64,192,159395,1,0,0:0:0:70:psy.wav
192,192,159476,1,0,0:0:0:70:psy.wav
320,192,159557,1,0,0:0:0:70:BaSS.wav
448,192,159557,1,0,0:0:0:0:
64,192,159557,1,0,0:0:0:0:
192,192,159639,1,0,0:0:0:70:psy.wav
448,192,159720,1,0,0:0:0:70:psy.wav
192,192,159801,1,0,0:0:0:70:psy.wav
64,192,159882,1,0,0:0:0:70:BaSS.wav
448,192,159882,1,0,0:0:0:0:
320,192,159963,1,0,0:0:0:70:psy.wav
64,192,160044,1,0,0:0:0:70:psy.wav
320,192,160125,1,0,0:0:0:70:psy.wav
448,192,160206,1,0,0:0:0:70:BaSS.wav
64,192,160206,1,0,0:0:0:0:
192,192,160247,1,0,0:0:0:0:
320,192,160287,1,0,0:0:0:70:psy.wav
448,192,160328,1,0,0:0:0:0:
192,192,160368,1,0,0:0:0:70:psy.wav
64,192,160449,1,0,0:0:0:70:psy.wav
448,192,160530,1,0,0:0:0:70:BaSS.wav
320,192,160530,1,0,0:0:0:0:
192,192,160611,1,0,0:0:0:70:psy.wav
320,192,160693,1,0,0:0:0:70:psy.wav
192,192,160774,1,0,0:0:0:70:psy.wav
448,192,160855,1,0,0:0:0:70:BaSS.wav
64,192,160855,1,0,0:0:0:0:
320,192,160936,1,0,0:0:0:70:psy.wav
448,192,161017,1,0,0:0:0:70:psy.wav
320,192,161098,1,0,0:0:0:70:psy.wav
64,192,161179,1,0,0:0:0:70:BaSS.wav
192,192,161179,1,0,0:0:0:0:
448,192,161260,1,0,0:0:0:70:psy.wav
64,192,161341,1,0,0:0:0:70:psy.wav
448,192,161422,1,0,0:0:0:70:psy.wav
192,192,161503,1,0,0:0:0:70:BaSS.wav
64,192,161503,1,0,0:0:0:0:
320,192,161544,1,0,0:0:0:0:
448,192,161584,1,0,0:0:0:70:psy.wav
192,192,161625,1,0,0:0:0:0:
64,192,161666,1,0,0:0:0:70:psy.wav
320,192,161747,1,0,0:0:0:70:psy.wav
448,192,161828,1,0,0:0:0:70:BaSS.wav
192,192,161828,1,0,0:0:0:0:
64,192,161909,1,0,0:0:0:70:psy.wav
448,192,161990,1,0,0:0:0:70:psy.wav
64,192,162071,1,0,0:0:0:70:psy.wav
320,192,162152,1,0,0:0:0:70:BaSS.wav
448,192,162152,1,0,0:0:0:0:
192,192,162152,1,0,0:0:0:0:
64,192,162233,1,0,0:0:0:70:psy.wav
192,192,162314,1,0,0:0:0:70:psy.wav
320,192,162395,1,0,0:0:0:70:psy.wav
448,192,162476,1,0,0:0:0:70:BaSS.wav
64,192,162476,1,0,0:0:0:0:
192,192,162476,1,0,0:0:0:0:
320,192,162557,1,0,0:0:0:70:psy.wav
64,192,162639,1,0,0:0:0:70:psy.wav
192,192,162720,1,0,0:0:0:70:psy.wav
448,192,162801,1,0,0:0:0:70:BaSS.wav
320,192,162801,1,0,0:0:0:0:
192,192,162841,1,0,0:0:0:0:
64,192,162882,1,0,0:0:0:70:psy.wav
320,192,162922,1,0,0:0:0:0:
448,192,162963,1,0,0:0:0:70:psy.wav
192,192,163044,1,0,0:0:0:70:psy.wav
320,192,163125,1,0,0:0:0:70:BaSS.wav
448,192,163125,1,0,0:0:0:0:
64,192,163125,1,0,0:0:0:0:
192,192,163206,1,0,0:0:0:70:psy.wav
64,192,163287,1,0,0:0:0:70:psy.wav
320,192,163368,1,0,0:0:0:70:psy.wav
64,192,163449,1,0,0:0:0:70:BaSS.wav
192,192,163449,1,0,0:0:0:0:
448,192,163449,1,0,0:0:0:0:
320,192,163530,1,0,0:0:0:70:psy.wav
192,192,163611,1,0,0:0:0:70:psy.wav
64,192,163693,1,0,0:0:0:70:psy.wav
320,192,163774,1,0,0:0:0:70:BaSS.wav
448,192,163774,1,0,0:0:0:0:
192,192,163774,1,0,0:0:0:0:
64,192,163855,1,0,0:0:0:70:psy.wav
320,192,163936,1,0,0:0:0:70:psy.wav
192,192,164017,1,0,0:0:0:70:psy.wav
448,192,164098,1,0,0:0:0:70:BaSS.wav
64,192,164098,1,0,0:0:0:0:
320,192,164139,1,0,0:0:0:0:
192,192,164179,1,0,0:0:0:70:psy.wav
64,192,164220,1,0,0:0:0:0:
448,192,164260,1,0,0:0:0:70:psy.wav
320,192,164341,1,0,0:0:0:70:psy.wav
192,192,164422,1,0,0:0:0:70:BaSS.wav
64,192,164422,1,0,0:0:0:0:
448,192,164422,1,0,0:0:0:0:
320,192,164503,1,0,0:0:0:70:psy.wav
64,192,164584,1,0,0:0:0:70:psy.wav
192,192,164666,1,0,0:0:0:70:psy.wav
320,192,164747,1,0,0:0:0:70:BaSS.wav
448,192,164747,1,0,0:0:0:0:
64,192,164747,1,0,0:0:0:0:
192,192,164828,1,0,0:0:0:70:psy.wav
448,192,164909,1,0,0:0:0:70:psy.wav
192,192,164990,1,0,0:0:0:70:psy.wav
448,192,165071,1,0,0:0:0:70:BaSS.wav
320,192,165071,1,0,0:0:0:0:
64,192,165152,1,0,0:0:0:70:psy.wav
320,192,165233,1,0,0:0:0:70:psy.wav
64,192,165314,1,0,0:0:0:70:psy.wav
448,192,165395,1,0,0:0:0:70:BaSS.wav
320,192,165395,1,0,0:0:0:0:
192,192,165436,1,0,0:0:0:0:
64,192,165476,1,0,0:0:0:70:psy.wav
448,192,165517,1,0,0:0:0:0:
320,192,165557,1,0,0:0:0:70:psy.wav
192,192,165639,1,0,0:0:0:70:psy.wav
64,192,165720,1,0,0:0:0:70:BaSS.wav
448,192,165720,1,0,0:0:0:0:
320,192,165801,1,0,0:0:0:70:psy.wav
64,192,165882,1,0,0:0:0:70:psy.wav
320,192,165963,1,0,0:0:0:70:psy.wav
192,192,166044,1,0,0:0:0:70:BaSS.wav
448,192,166044,1,0,0:0:0:0:
64,192,166125,1,0,0:0:0:70:psy.wav
448,192,166206,1,0,0:0:0:70:psy.wav
64,192,166287,1,0,0:0:0:70:psy.wav
320,192,166368,1,0,0:0:0:70:BaSS.wav
448,192,166368,1,0,0:0:0:0:
192,192,166449,1,0,0:0:0:70:psy.wav
320,192,166530,1,0,0:0:0:70:psy.wav
192,192,166611,1,0,0:0:0:70:psy.wav
448,192,166693,1,0,0:0:0:70:BaSS.wav
64,192,166693,1,0,0:0:0:0:
320,192,166733,1,0,0:0:0:0:
192,192,166774,1,0,0:0:0:70:psy.wav
64,192,166814,1,0,0:0:0:0:
448,192,166855,1,0,0:0:0:70:psy.wav
320,192,166936,1,0,0:0:0:70:psy.wav
192,192,167017,1,0,0:0:0:70:BaSS.wav
64,192,167017,1,0,0:0:0:0:
448,192,167098,1,0,0:0:0:70:psy.wav
192,192,167179,1,0,0:0:0:70:psy.wav
448,192,167260,1,0,0:0:0:70:psy.wav
320,192,167341,1,0,0:0:0:70:BaSS.wav
64,192,167341,1,0,0:0:0:0:
192,192,167341,1,0,0:0:0:0:
448,192,167422,1,0,0:0:0:70:psy.wav
320,192,167503,1,0,0:0:0:70:psy.wav
192,192,167584,1,0,0:0:0:70:psy.wav
64,192,167666,1,0,0:0:0:70:BaSS.wav
320,192,167666,1,0,0:0:0:0:
448,192,167666,1,0,0:0:0:0:
192,192,167747,1,0,0:0:0:70:psy.wav
448,192,167828,1,0,0:0:0:70:psy.wav
320,192,167909,1,0,0:0:0:70:psy.wav
192,192,167990,1,0,0:0:0:70:BaSS.wav
64,192,167990,1,0,0:0:0:0:
320,192,168071,1,0,0:0:0:70:psy.wav
448,192,168071,1,0,0:0:0:70:BaSS.wav
64,192,168111,1,0,0:0:0:0:
192,192,168152,1,0,0:0:0:70:psy.wav
448,192,168233,1,0,0:0:0:70:psy.wav
320,192,168233,1,0,0:0:0:70:BaSS.wav
192,192,168314,1,0,0:0:0:70:BaSS.wav
64,192,168314,1,0,0:0:0:0:
320,192,168395,1,0,0:0:0:70:psy.wav
64,192,168476,1,0,0:0:0:70:BaSS.wav
192,192,168517,1,0,0:0:0:70:BaSS.wav
448,192,168557,1,0,0:0:0:70:BaSS.wav
320,192,168598,1,0,0:0:0:70:BaSS.wav
64,192,168639,1,0,0:0:0:70:finish.wav
192,192,168639,1,0,0:0:0:70:BaSS.wav
448,192,168720,1,0,0:0:0:70:psy.wav
320,192,168801,1,0,0:0:0:70:psy.wav
192,192,168882,1,0,0:0:0:70:psy.wav
64,192,168963,1,0,0:0:0:70:bup.wav
320,192,168963,1,0,0:0:0:70:BaSS.wav
448,192,168963,1,0,0:0:0:0:
192,192,169044,1,0,0:0:0:70:psy.wav
448,192,169125,1,0,0:0:0:70:psy.wav
320,192,169206,1,0,0:0:0:70:psy.wav
192,192,169287,1,0,0:0:0:70:BaSS.wav
64,192,169287,1,0,0:0:0:0:
448,192,169368,1,0,0:0:0:70:psy.wav
64,192,169449,1,0,0:0:0:70:psy.wav
320,192,169449,1,0,0:0:0:70:BaSS.wav
192,192,169530,1,0,0:0:0:70:psy.wav
320,192,169611,1,0,0:0:0:70:bup.wav
448,192,169611,1,0,0:0:0:70:BaSS.wav
64,192,169611,1,0,0:0:0:0:
192,192,169693,1,0,0:0:0:70:psy.wav
448,192,169774,1,0,0:0:0:70:psy.wav
64,192,169855,1,0,0:0:0:70:psy.wav
192,192,169936,1,0,0:0:0:70:BaSS.wav
320,192,169936,1,0,0:0:0:0:
448,192,170017,1,0,0:0:0:70:psy.wav
64,192,170098,1,0,0:0:0:70:psy.wav
192,192,170179,1,0,0:0:0:70:psy.wav
320,192,170260,1,0,0:0:0:70:BaSS.wav
64,192,170260,1,0,0:0:0:70:bup.wav
448,192,170260,1,0,0:0:0:0:
192,192,170341,1,0,0:0:0:70:psy.wav
320,192,170422,1,0,0:0:0:70:psy.wav
64,192,170503,1,0,0:0:0:70:psy.wav
448,192,170584,1,0,0:0:0:70:BaSS.wav
192,192,170584,1,0,0:0:0:0:
320,192,170666,1,0,0:0:0:70:psy.wav
64,192,170747,1,0,0:0:0:70:BaSS.wav
192,192,170787,1,0,0:0:0:70:BaSS.wav
320,192,170828,1,0,0:0:0:70:BaSS.wav
448,192,170868,1,0,0:0:0:70:BaSS.wav
192,192,170909,1,0,0:0:0:70:BaSS.wav
64,192,170909,1,0,0:0:0:70:bup.wav
320,192,170990,1,0,0:0:0:70:psy.wav
448,192,171071,1,0,0:0:0:70:psy.wav
192,192,171152,1,0,0:0:0:70:psy.wav
64,192,171152,1,0,0:0:0:70:bup.wav
448,192,171233,1,0,0:0:0:70:BaSS.wav
320,192,171233,1,0,0:0:0:0:
64,192,171314,1,0,0:0:0:70:psy.wav
320,192,171395,1,0,0:0:0:70:psy.wav
192,192,171476,1,0,0:0:0:70:psy.wav
320,192,171557,1,0,0:0:0:70:BaSS.wav
448,192,171557,1,0,0:0:0:70:bup.wav
64,192,171557,1,0,0:0:0:0:
192,192,171639,1,0,0:0:0:70:psy.wav
448,192,171720,1,0,0:0:0:70:psy.wav
320,192,171801,1,0,0:0:0:70:psy.wav
64,192,171882,1,0,0:0:0:70:BaSS.wav
448,192,171882,1,0,0:0:0:0:
192,192,171963,1,0,0:0:0:70:psy.wav
320,192,172044,1,0,0:0:0:70:psy.wav
64,192,172044,1,0,0:0:0:70:BaSS.wav
192,192,172125,1,0,0:0:0:70:psy.wav
448,192,172206,1,0,0:0:0:70:BaSS.wav
64,192,172206,1,0,0:0:0:70:bup.wav
320,192,172206,1,0,0:0:0:0:
192,192,172287,1,0,0:0:0:70:psy.wav
448,192,172368,1,0,0:0:0:70:psy.wav
320,192,172449,1,0,0:0:0:70:psy.wav
192,192,172530,1,0,0:0:0:70:BaSS.wav
64,192,172530,1,0,0:0:0:0:
448,192,172611,1,0,0:0:0:70:psy.wav
320,192,172693,1,0,0:0:0:70:psy.wav
192,192,172774,1,0,0:0:0:70:psy.wav
320,192,172855,1,0,0:0:0:70:BaSS.wav
448,192,172855,1,0,0:0:0:70:bup.wav
64,192,172855,1,0,0:0:0:0:
192,192,172936,1,0,0:0:0:70:psy.wav
448,192,173017,1,0,0:0:0:70:psy.wav
320,192,173098,1,0,0:0:0:70:psy.wav
192,192,173179,1,0,0:0:0:70:BaSS.wav
64,192,173179,1,0,0:0:0:0:
320,192,173260,1,0,0:0:0:70:psy.wav
64,192,173341,1,0,0:0:0:70:BaSS.wav
192,192,173382,1,0,0:0:0:70:BaSS.wav
448,192,173422,1,0,0:0:0:70:BaSS.wav
320,192,173463,1,0,0:0:0:70:BaSS.wav
64,192,173503,1,0,0:0:0:70:BaSS.wav
192,192,173503,1,0,0:0:0:70:bup.wav
320,192,173584,1,0,0:0:0:70:psy.wav
448,192,173584,1,0,0:0:0:70:bup.wav
192,192,173666,1,0,0:0:0:70:psy.wav
64,192,173666,1,0,0:0:0:70:bup.wav
320,192,173747,1,0,0:0:0:70:psy.wav
448,192,173747,1,0,0:0:0:70:bup.wav
192,192,173828,1,0,0:0:0:70:finish.wav
64,192,173828,1,0,0:0:0:70:BaSS.wav
448,192,173909,1,0,0:0:0:70:psy.wav
320,192,173990,1,0,0:0:0:70:psy.wav
192,192,174071,1,0,0:0:0:70:psy.wav
64,192,174152,1,0,0:0:0:70:bup.wav
448,192,174152,1,0,0:0:0:70:BaSS.wav
320,192,174152,1,0,0:0:0:0:
192,192,174233,1,0,0:0:0:70:psy.wav
448,192,174314,1,0,0:0:0:70:psy.wav
64,192,174395,1,0,0:0:0:70:psy.wav
320,192,174476,1,0,0:0:0:70:BaSS.wav
192,192,174476,1,0,0:0:0:0:
448,192,174557,1,0,0:0:0:70:psy.wav
320,192,174639,1,0,0:0:0:70:psy.wav
64,192,174639,1,0,0:0:0:70:BaSS.wav
192,192,174720,1,0,0:0:0:70:psy.wav
448,192,174801,1,0,0:0:0:70:bup.wav
320,192,174801,1,0,0:0:0:70:BaSS.wav
64,192,174801,1,0,0:0:0:0:
192,192,174882,1,0,0:0:0:70:psy.wav
448,192,174963,1,0,0:0:0:70:psy.wav
320,192,175044,1,0,0:0:0:70:psy.wav
448,192,175125,1,0,0:0:0:70:BaSS.wav
64,192,175125,1,0,0:0:0:0:
192,192,175206,1,0,0:0:0:70:psy.wav
64,192,175287,1,0,0:0:0:70:psy.wav
320,192,175368,1,0,0:0:0:70:psy.wav
192,192,175449,1,0,0:0:0:70:BaSS.wav
64,192,175449,1,0,0:0:0:70:bup.wav
448,192,175449,1,0,0:0:0:0:
320,192,175530,1,0,0:0:0:70:psy.wav
192,192,175611,1,0,0:0:0:70:psy.wav
448,192,175693,1,0,0:0:0:70:psy.wav
320,192,175774,1,0,0:0:0:70:BaSS.wav
64,192,175774,1,0,0:0:0:0:
192,192,175855,1,0,0:0:0:70:psy.wav
448,192,175936,1,0,0:0:0:70:psy.wav
320,192,175976,1,0,0:0:0:70:BaSS.wav
192,192,176017,1,0,0:0:0:70:psy.wav
64,192,176057,1,0,0:0:0:70:BaSS.wav
320,192,176098,1,0,0:0:0:70:BaSS.wav
448,192,176098,1,0,0:0:0:70:bup.wav
192,192,176179,1,0,0:0:0:70:psy.wav
64,192,176260,1,0,0:0:0:70:psy.wav
320,192,176341,1,0,0:0:0:70:psy.wav
192,192,176341,1,0,0:0:0:70:bup.wav
64,192,176422,1,0,0:0:0:70:BaSS.wav
448,192,176422,1,0,0:0:0:0:
320,192,176503,1,0,0:0:0:70:psy.wav
192,192,176584,1,0,0:0:0:70:psy.wav
64,192,176666,1,0,0:0:0:70:psy.wav
320,192,176747,1,0,0:0:0:70:BaSS.wav
192,192,176747,1,0,0:0:0:70:bup.wav
448,192,176747,1,0,0:0:0:0:
64,192,176828,1,0,0:0:0:70:psy.wav
448,192,176909,1,0,0:0:0:70:psy.wav
320,192,176990,1,0,0:0:0:70:psy.wav
64,192,177071,1,0,0:0:0:70:BaSS.wav
448,192,177071,1,0,0:0:0:0:
192,192,177152,1,0,0:0:0:70:psy.wav
64,192,177233,1,0,0:0:0:70:psy.wav
320,192,177233,1,0,0:0:0:70:BaSS.wav
192,192,177314,1,0,0:0:0:70:psy.wav
320,192,177395,1,0,0:0:0:70:BaSS.wav
64,192,177395,1,0,0:0:0:70:bup.wav
448,192,177395,1,0,0:0:0:0:
192,192,177476,1,0,0:0:0:70:psy.wav
448,192,177557,1,0,0:0:0:70:psy.wav
64,192,177639,1,0,0:0:0:70:psy.wav
192,192,177720,1,0,0:0:0:70:BaSS.wav
320,192,177720,1,0,0:0:0:0:
64,192,177801,1,0,0:0:0:70:psy.wav
448,192,177801,1,0,0:0:0:70:BaSS.wav
192,192,177882,1,0,0:0:0:70:psy.wav
320,192,177882,1,0,0:0:0:70:BaSS.wav
448,192,177963,1,0,0:0:0:70:psy.wav
192,192,178044,1,0,0:0:0:70:BaSS.wav
64,192,178044,1,0,0:0:0:70:bup.wav
448,192,178125,1,0,0:0:0:70:psy.wav
320,192,178125,1,0,0:0:0:70:BaSS.wav
64,192,178206,1,0,0:0:0:70:psy.wav
192,192,178287,1,0,0:0:0:70:bup.wav
320,192,178287,1,0,0:0:0:70:BaSS.wav
64,192,178368,1,0,0:0:0:70:BaSS.wav
448,192,178368,1,0,0:0:0:0:
192,192,178409,1,0,0:0:0:70:BaSS.wav
320,192,178449,1,0,0:0:0:70:BaSS.wav
448,192,178490,1,0,0:0:0:70:BaSS.wav
64,192,178530,1,0,0:0:0:70:psy.wav
192,192,178530,1,0,0:0:0:70:BaSS.wav
448,192,178611,1,0,0:0:0:70:psy.wav
320,192,178611,1,0,0:0:0:70:BaSS.wav
64,192,178693,1,0,0:0:0:70:bup.wav
192,192,178733,1,0,0:0:0:70:bup.wav
448,192,178774,1,0,0:0:0:70:bup.wav
320,192,178814,1,0,0:0:0:70:bup.wav
64,192,178855,1,0,0:0:0:70:bup.wav
192,192,178895,1,0,0:0:0:70:bup.wav
448,192,178936,1,0,0:0:0:70:bup.wav
320,192,178976,1,0,0:0:0:70:bup.wav
192,192,179017,1,0,0:0:0:70:BaSS.wav
64,192,179017,1,0,0:0:0:70:finish.wav
448,192,179118,1,0,0:0:0:0:
64,192,179220,1,0,0:0:0:0:
448,192,179341,1,0,0:0:0:0:
64,192,179443,1,0,0:0:0:0:
448,192,179544,1,0,0:0:0:0:
320,192,179666,1,0,0:0:0:0:
192,192,179767,1,0,0:0:0:0:
320,192,179868,1,0,0:0:0:0:
192,192,179990,1,0,0:0:0:0:
320,192,180091,1,0,0:0:0:0:
192,192,180193,1,0,0:0:0:0:
64,192,180314,1,0,0:0:0:0:
320,192,180416,1,0,0:0:0:0:
64,192,180517,1,0,0:0:0:0:
320,192,180639,1,0,0:0:0:0:
64,192,180740,1,0,0:0:0:0:
320,192,180841,1,0,0:0:0:0:
448,192,180963,1,0,0:0:0:0:
192,192,181064,1,0,0:0:0:0:
448,192,181166,1,0,0:0:0:0:
192,192,181287,1,0,0:0:0:0:
448,192,181389,1,0,0:0:0:0:
192,192,181490,1,0,0:0:0:0:
448,192,181611,1,0,0:0:0:70:BaSS.wav
320,192,181611,1,0,0:0:0:70:finish.wav
64,192,181611,128,0,186801:0:0:0:70:wind.wav
320,192,186801,1,0,0:0:0:0:
448,192,186801,128,0,191990:0:0:0:0:
192,192,186882,1,0,0:0:0:0:
64,192,186963,1,0,0:0:0:0:
192,192,187125,1,0,0:0:0:0:
320,192,187206,1,0,0:0:0:0:
64,192,187287,1,0,0:0:0:0:
64,192,187449,1,0,0:0:0:0:
192,192,187530,1,0,0:0:0:0:
320,192,187611,1,0,0:0:0:0:
192,192,187774,1,0,0:0:0:0:
64,192,187855,1,0,0:0:0:0:
320,192,187936,1,0,0:0:0:0:
320,192,188098,1,0,0:0:0:0:
192,192,188179,1,0,0:0:0:0:
64,192,188260,1,0,0:0:0:0:
192,192,188422,1,0,0:0:0:0:
64,192,188503,1,0,0:0:0:0:
320,192,188584,1,0,0:0:0:0:
64,192,188747,1,0,0:0:0:0:
192,192,188828,1,0,0:0:0:0:
320,192,188909,1,0,0:0:0:0:
64,192,189071,1,0,0:0:0:0:
320,192,189152,1,0,0:0:0:0:
192,192,189233,1,0,0:0:0:0:
320,192,189395,1,0,0:0:0:0:
192,192,189476,1,0,0:0:0:0:
64,192,189557,1,0,0:0:0:0:
192,192,189720,1,0,0:0:0:0:
64,192,189801,1,0,0:0:0:0:
320,192,189882,1,0,0:0:0:0:
64,192,190044,1,0,0:0:0:0:
192,192,190125,1,0,0:0:0:0:
320,192,190206,1,0,0:0:0:0:
192,192,190368,1,0,0:0:0:0:
64,192,190449,1,0,0:0:0:0:
320,192,190530,1,0,0:0:0:0:
64,192,190693,1,0,0:0:0:0:
320,192,190774,1,0,0:0:0:0:
192,192,190855,1,0,0:0:0:0:
320,192,191017,1,0,0:0:0:0:
192,192,191098,1,0,0:0:0:0:
64,192,191179,1,0,0:0:0:0:
64,192,191341,1,0,0:0:0:0:
192,192,191422,1,0,0:0:0:0:
320,192,191503,1,0,0:0:0:0:
192,192,191666,1,0,0:0:0:0:
64,192,191747,1,0,0:0:0:0:
320,192,191828,1,0,0:0:0:0:
64,192,191990,128,0,197179:0:0:0:0:
448,192,197179,128,0,202368:0:0:0:0:
320,192,197179,1,0,0:0:0:0:
192,192,197260,1,0,0:0:0:0:
64,192,197341,1,0,0:0:0:0:
192,192,197503,1,0,0:0:0:0:
320,192,197584,1,0,0:0:0:0:
64,192,197666,1,0,0:0:0:0:
64,192,197828,1,0,0:0:0:0:
192,192,197909,1,0,0:0:0:0:
320,192,197990,1,0,0:0:0:0:
192,192,198152,1,0,0:0:0:0:
320,192,198233,1,0,0:0:0:0:
64,192,198314,1,0,0:0:0:0:
64,192,198476,1,0,0:0:0:0:
192,192,198557,1,0,0:0:0:0:
320,192,198639,1,0,0:0:0:0:
192,192,198801,1,0,0:0:0:0:
320,192,198882,1,0,0:0:0:0:
64,192,198963,1,0,0:0:0:0:
320,192,199125,1,0,0:0:0:0:
192,192,199206,1,0,0:0:0:0:
64,192,199287,1,0,0:0:0:0:
320,192,199449,1,0,0:0:0:0:
64,192,199530,1,0,0:0:0:0:
192,192,199611,1,0,0:0:0:0:
192,192,199774,1,0,0:0:0:0:
320,192,199855,1,0,0:0:0:0:
64,192,199936,1,0,0:0:0:0:
320,192,200098,1,0,0:0:0:0:
192,192,200179,1,0,0:0:0:0:
64,192,200260,1,0,0:0:0:0:
64,192,200422,1,0,0:0:0:0:
192,192,200503,1,0,0:0:0:0:
320,192,200584,1,0,0:0:0:0:
64,192,200747,1,0,0:0:0:0:
320,192,200828,1,0,0:0:0:0:
192,192,200909,1,0,0:0:0:0:
320,192,201071,1,0,0:0:0:0:
192,192,201152,1,0,0:0:0:0:
64,192,201233,1,0,0:0:0:0:
192,192,201395,1,0,0:0:0:0:
64,192,201476,1,0,0:0:0:0:
320,192,201557,1,0,0:0:0:0:
64,192,201720,1,0,0:0:0:0:
192,192,201801,1,0,0:0:0:0:
320,192,201882,1,0,0:0:0:0:
192,192,202044,1,0,0:0:0:0:
64,192,202125,1,0,0:0:0:0:
320,192,202206,1,0,0:0:0:0:
64,192,202368,128,0,207557:0:0:0:0:
320,192,202368,1,0,0:0:0:70:finish.wav
192,192,202368,1,0,0:0:0:70:BaSS.wav
448,192,202530,1,0,0:0:0:0:
192,192,202693,1,0,0:0:0:0:
320,192,202855,1,0,0:0:0:0:
448,192,203017,1,0,0:0:0:70:tick.wav
192,192,203017,1,0,0:0:0:0:
320,192,203179,1,0,0:0:0:0:
448,192,203341,1,0,0:0:0:0:
192,192,203503,1,0,0:0:0:0:
448,192,203666,1,0,0:0:0:0:
192,192,203828,1,0,0:0:0:0:
320,192,203990,1,0,0:0:0:0:
448,192,204152,1,0,0:0:0:0:
320,192,204314,1,0,0:0:0:70:tick.wav
192,192,204314,1,0,0:0:0:0:
448,192,204476,1,0,0:0:0:0:
192,192,204639,1,0,0:0:0:0:
448,192,204801,1,0,0:0:0:0:
320,192,204963,1,0,0:0:0:0:
192,192,205125,1,0,0:0:0:0:
448,192,205287,1,0,0:0:0:0:
320,192,205449,1,0,0:0:0:0:
192,192,205611,1,0,0:0:0:70:tick.wav
448,192,205611,1,0,0:0:0:0:
320,192,205774,1,0,0:0:0:0:
192,192,205936,1,0,0:0:0:0:
448,192,206098,1,0,0:0:0:0:
192,192,206260,1,0,0:0:0:0:
320,192,206422,1,0,0:0:0:0:
448,192,206584,1,0,0:0:0:0:
192,192,206747,1,0,0:0:0:0:
320,192,206909,1,0,0:0:0:70:tick.wav
448,192,206909,1,0,0:0:0:0:
192,192,207071,1,0,0:0:0:0:
448,192,207233,1,0,0:0:0:0:
320,192,207395,1,0,0:0:0:0:
192,192,207557,1,0,0:0:0:0:
448,192,207557,128,0,212747:0:0:0:0:
320,192,207639,1,0,0:0:0:0:
64,192,207720,1,0,0:0:0:0:
320,192,207882,1,0,0:0:0:0:
192,192,207963,1,0,0:0:0:0:
64,192,208044,1,0,0:0:0:0:
320,192,208206,1,0,0:0:0:70:tick.wav
192,192,208206,1,0,0:0:0:0:
64,192,208287,1,0,0:0:0:0:
320,192,208368,1,0,0:0:0:0:
64,192,208530,1,0,0:0:0:0:
192,192,208611,1,0,0:0:0:0:
320,192,208693,1,0,0:0:0:0:
192,192,208855,1,0,0:0:0:0:
64,192,208936,1,0,0:0:0:0:
320,192,209017,1,0,0:0:0:0:
192,192,209179,1,0,0:0:0:0:
320,192,209260,1,0,0:0:0:0:
64,192,209341,1,0,0:0:0:0:
192,192,209503,1,0,0:0:0:70:tick.wav
64,192,209503,1,0,0:0:0:0:
320,192,209584,1,0,0:0:0:0:
192,192,209666,1,0,0:0:0:0:
320,192,209828,1,0,0:0:0:0:
64,192,209909,1,0,0:0:0:0:
192,192,209990,1,0,0:0:0:0:
192,192,210152,1,0,0:0:0:0:
64,192,210233,1,0,0:0:0:0:
320,192,210314,1,0,0:0:0:0:
64,192,210476,1,0,0:0:0:0:
192,192,210557,1,0,0:0:0:0:
320,192,210639,1,0,0:0:0:0:
320,192,210801,1,0,0:0:0:70:tick.wav
64,192,210801,1,0,0:0:0:0:
192,192,210882,1,0,0:0:0:0:
64,192,210963,1,0,0:0:0:0:
320,192,211125,1,0,0:0:0:0:
64,192,211206,1,0,0:0:0:0:
192,192,211287,1,0,0:0:0:0:
320,192,211449,1,0,0:0:0:0:
192,192,211530,1,0,0:0:0:0:
64,192,211611,1,0,0:0:0:0:
192,192,211774,1,0,0:0:0:0:
64,192,211855,1,0,0:0:0:0:
320,192,211936,1,0,0:0:0:0:
192,192,212098,1,0,0:0:0:70:tick.wav
64,192,212098,1,0,0:0:0:0:
320,192,212179,1,0,0:0:0:0:
192,192,212260,1,0,0:0:0:0:
64,192,212422,1,0,0:0:0:0:
192,192,212503,1,0,0:0:0:0:
320,192,212584,1,0,0:0:0:0:
192,192,212747,5,0,0:0:0:70:BaSS.wav
64,192,212747,1,0,0:0:0:0:
320,192,212747,1,0,0:0:0:70:finish.wav
448,192,212909,1,0,0:0:0:0:
64,192,213071,1,0,0:0:0:0:
320,192,213233,1,0,0:0:0:0:
448,192,213395,1,0,0:0:0:0:
192,192,213395,1,0,0:0:0:70:tick.wav
320,192,213557,1,0,0:0:0:0:
64,192,213720,1,0,0:0:0:70:BaSS.wav
192,192,213720,1,0,0:0:0:0:
448,192,213720,1,0,0:0:0:0:
320,192,213882,1,0,0:0:0:0:
64,192,214044,1,0,0:0:0:0:
448,192,214206,1,0,0:0:0:0:
192,192,214368,1,0,0:0:0:0:
320,192,214530,1,0,0:0:0:0:
448,192,214693,1,0,0:0:0:0:
64,192,214693,1,0,0:0:0:70:tick.wav
64,192,214855,1,0,0:0:0:70:BaSS.wav
320,192,214855,1,0,0:0:0:0:
192,192,214855,1,0,0:0:0:0:
320,192,215017,1,0,0:0:0:0:
448,192,215179,1,0,0:0:0:70:BaSS.wav
192,192,215179,1,0,0:0:0:0:
64,192,215179,1,0,0:0:0:0:
448,192,215341,1,0,0:0:0:70:BaSS.wav
192,192,215341,1,0,0:0:0:0:
64,192,215341,1,0,0:0:0:0:
320,192,215503,1,0,0:0:0:0:
192,192,215666,1,0,0:0:0:0:
448,192,215828,1,0,0:0:0:0:
64,192,215990,1,0,0:0:0:0:
320,192,215990,1,0,0:0:0:70:tick.wav
192,192,216152,1,0,0:0:0:0:
448,192,216314,1,0,0:0:0:70:BaSS.wav
320,192,216314,1,0,0:0:0:0:
64,192,216314,1,0,0:0:0:0:
192,192,216476,1,0,0:0:0:0:
448,192,216639,1,0,0:0:0:0:
64,192,216801,1,0,0:0:0:0:
320,192,216963,1,0,0:0:0:0:
192,192,217125,1,0,0:0:0:0:
448,192,217287,1,0,0:0:0:70:tick.wav
64,192,217287,1,0,0:0:0:0:
320,192,217449,1,0,0:0:0:70:BaSS.wav
448,192,217449,1,0,0:0:0:0:
192,192,217449,1,0,0:0:0:0:
320,192,217611,1,0,0:0:0:0:
192,192,217774,1,0,0:0:0:70:BaSS.wav
64,192,217774,1,0,0:0:0:0:
448,192,217774,1,0,0:0:0:0:
192,192,217936,1,0,0:0:0:70:BaSS.wav
448,192,217936,1,0,0:0:0:70:finish.wav
64,192,217936,1,0,0:0:0:0:
320,192,218017,1,0,0:0:0:0:
192,192,218098,1,0,0:0:0:0:
64,192,218260,1,0,0:0:0:0:
192,192,218341,1,0,0:0:0:0:
320,192,218422,1,0,0:0:0:0:
448,192,218584,1,0,0:0:0:70:tick.wav
64,192,218584,1,0,0:0:0:0:
320,192,218666,1,0,0:0:0:0:
192,192,218747,1,0,0:0:0:0:
64,192,218909,1,0,0:0:0:70:BaSS.wav
320,192,218909,1,0,0:0:0:0:
448,192,218909,1,0,0:0:0:0:
192,192,218990,1,0,0:0:0:0:
64,192,219071,1,0,0:0:0:0:
320,192,219233,1,0,0:0:0:0:
448,192,219314,1,0,0:0:0:0:
192,192,219395,1,0,0:0:0:0:
320,192,219557,1,0,0:0:0:0:
192,192,219639,1,0,0:0:0:0:
64,192,219720,1,0,0:0:0:0:
320,192,219882,1,0,0:0:0:70:tick.wav
448,192,219882,1,0,0:0:0:0:
192,192,219963,1,0,0:0:0:0:
320,192,220044,1,0,0:0:0:70:BaSS.wav
448,192,220044,1,0,0:0:0:0:
64,192,220044,1,0,0:0:0:0:
192,192,220206,1,0,0:0:0:0:
320,192,220287,1,0,0:0:0:0:
192,192,220368,1,0,0:0:0:70:BaSS.wav
448,192,220368,1,0,0:0:0:0:
64,192,220368,1,0,0:0:0:0:
448,192,220530,1,0,0:0:0:70:BaSS.wav
320,192,220530,1,0,0:0:0:70:finish.wav
64,192,220530,128,0,221179:0:0:0:0:
192,192,220693,1,0,0:0:0:0:
320,192,220855,1,0,0:0:0:0:
448,192,221017,1,0,0:0:0:0:
192,192,221179,128,0,221503:0:0:0:70:finish.wav
320,192,221179,1,0,0:0:0:70:BaSS.wav
448,192,221179,1,0,0:0:0:0:
64,192,221341,1,0,0:0:0:0:
64,192,221503,1,0,0:0:0:70:BaSS.wav
448,192,221503,1,0,0:0:0:0:
320,192,221503,128,0,221828:0:0:0:0:
192,192,221666,1,0,0:0:0:0:
64,192,221828,1,0,0:0:0:70:BaSS.wav
192,192,221828,1,0,0:0:0:70:finish.wav
448,192,221828,128,0,222152:0:0:0:0:
320,192,221990,5,0,0:0:0:0:
64,192,222152,1,0,0:0:0:0:
192,192,222314,1,0,0:0:0:70:BaSS.wav
448,192,222314,1,0,0:0:0:0:
320,192,222395,1,0,0:0:0:70:BaSS.wav
64,192,222395,1,0,0:0:0:0:
192,192,222476,1,0,0:0:0:70:finish.wav
448,192,222476,1,0,0:0:0:70:BaSS.wav
320,192,222639,1,0,0:0:0:70:BaSS.wav
448,192,222639,1,0,0:0:0:0:
64,192,222639,1,0,0:0:0:0:
192,192,222801,1,0,0:0:0:0:
448,192,222963,1,0,0:0:0:70:BaSS.wav
320,192,222963,1,0,0:0:0:0:
64,192,222963,1,0,0:0:0:0:
64,192,223125,5,0,0:0:0:70:BaSS.wav
320,192,223125,1,0,0:0:0:70:
448,192,223125,1,0,0:0:0:0:
448,192,223287,1,0,0:0:0:70:psy.wav
448,192,223449,1,0,0:0:0:70:psy.wav
448,192,223611,1,0,0:0:0:70:psy.wav
64,192,223774,1,0,0:0:0:70:snare.wav
192,192,223774,1,0,0:0:0:0:
320,192,223774,1,0,0:0:0:0:
192,192,223936,1,0,0:0:0:70:psy.wav
192,192,224098,1,0,0:0:0:70:psy.wav
192,192,224260,1,0,0:0:0:70:psy.wav
320,192,224422,1,0,0:0:0:70:BaSS.wav
448,192,224422,1,0,0:0:0:0:
64,192,224422,1,0,0:0:0:0:
64,192,224584,1,0,0:0:0:70:psy.wav
64,192,224747,1,0,0:0:0:70:psy.wav
64,192,224909,1,0,0:0:0:70:psy.wav
192,192,225071,1,0,0:0:0:70:snare.wav
448,192,225071,1,0,0:0:0:0:
320,192,225071,1,0,0:0:0:0:
320,192,225233,1,0,0:0:0:70:psy.wav
320,192,225395,1,0,0:0:0:70:psy.wav
320,192,225557,1,0,0:0:0:70:psy.wav
192,192,225720,1,0,0:0:0:70:BaSS.wav
64,192,225720,1,0,0:0:0:0:
448,192,225720,1,0,0:0:0:70:tick.wav
192,192,225882,1,0,0:0:0:70:psy.wav
192,192,226044,1,0,0:0:0:70:psy.wav
448,192,226044,1,0,0:0:0:70:tick.wav
192,192,226206,1,0,0:0:0:70:psy.wav
320,192,226206,1,0,0:0:0:70:tick.wav
64,192,226368,1,0,0:0:0:70:snare.wav
320,192,226368,1,0,0:0:0:0:
448,192,226368,1,0,0:0:0:0:
448,192,226530,1,0,0:0:0:70:psy.wav
448,192,226693,1,0,0:0:0:70:psy.wav
192,192,226693,1,0,0:0:0:70:tick.wav
448,192,226855,1,0,0:0:0:70:psy.wav
192,192,227017,1,0,0:0:0:70:BaSS.wav
320,192,227017,1,0,0:0:0:0:
64,192,227017,1,0,0:0:0:0:
192,192,227179,1,0,0:0:0:70:psy.wav
448,192,227179,1,0,0:0:0:70:tick.wav
192,192,227341,1,0,0:0:0:70:psy.wav
192,192,227503,1,0,0:0:0:70:psy.wav
64,192,227666,1,0,0:0:0:70:snare.wav
448,192,227666,1,0,0:0:0:0:
320,192,227666,1,0,0:0:0:0:
320,192,227828,1,0,0:0:0:70:psy.wav
320,192,227990,1,0,0:0:0:70:psy.wav
320,192,228152,1,0,0:0:0:70:psy.wav
64,192,228314,1,0,0:0:0:70:BaSS.wav
192,192,228314,1,0,0:0:0:0:
448,192,228314,1,0,0:0:0:0:
448,192,228476,1,0,0:0:0:70:psy.wav
448,192,228639,1,0,0:0:0:70:psy.wav
448,192,228801,1,0,0:0:0:70:psy.wav
192,192,228963,1,0,0:0:0:70:snare.wav
64,192,228963,1,0,0:0:0:0:
320,192,228963,1,0,0:0:0:0:
64,192,229125,1,0,0:0:0:70:psy.wav
64,192,229287,1,0,0:0:0:70:psy.wav
64,192,229449,1,0,0:0:0:70:psy.wav
192,192,229611,1,0,0:0:0:70:BaSS.wav
320,192,229611,1,0,0:0:0:0:
448,192,229611,1,0,0:0:0:0:
448,192,229774,1,0,0:0:0:70:psy.wav
448,192,229936,1,0,0:0:0:70:psy.wav
448,192,230098,1,0,0:0:0:70:psy.wav
320,192,230260,1,0,0:0:0:70:snare.wav
192,192,230260,1,0,0:0:0:0:
64,192,230260,1,0,0:0:0:0:
64,192,230422,1,0,0:0:0:70:psy.wav
64,192,230584,1,0,0:0:0:70:psy.wav
64,192,230747,1,0,0:0:0:70:psy.wav
320,192,230909,1,0,0:0:0:70:BaSS.wav
448,192,230909,1,0,0:0:0:0:
192,192,230909,1,0,0:0:0:70:tick.wav
320,192,231071,1,0,0:0:0:70:psy.wav
320,192,231233,1,0,0:0:0:70:psy.wav
448,192,231233,1,0,0:0:0:70:tick.wav
320,192,231395,1,0,0:0:0:70:psy.wav
64,192,231395,1,0,0:0:0:70:tick.wav
448,192,231557,1,0,0:0:0:70:snare.wav
192,192,231557,1,0,0:0:0:0:
64,192,231557,1,0,0:0:0:0:
192,192,231720,1,0,0:0:0:70:psy.wav
320,192,231720,1,0,0:0:0:70:tick.wav
192,192,231882,1,0,0:0:0:70:psy.wav
448,192,231882,1,0,0:0:0:70:tick.wav
192,192,232044,1,0,0:0:0:70:psy.wav
320,192,232206,1,0,0:0:0:70:BaSS.wav
64,192,232206,1,0,0:0:0:0:
448,192,232206,1,0,0:0:0:0:
448,192,232368,1,0,0:0:0:70:psy.wav
192,192,232368,1,0,0:0:0:70:tick.wav
448,192,232530,1,0,0:0:0:70:psy.wav
448,192,232693,1,0,0:0:0:70:psy.wav
192,192,232855,1,0,0:0:0:70:snare.wav
320,192,232855,1,0,0:0:0:0:
64,192,232855,1,0,0:0:0:0:
320,192,233017,1,0,0:0:0:70:psy.wav
320,192,233179,1,0,0:0:0:70:psy.wav
320,192,233341,1,0,0:0:0:70:psy.wav
64,192,233503,1,0,0:0:0:70:BaSS.wav
192,192,233503,1,0,0:0:0:0:
448,192,233503,1,0,0:0:0:0:
64,192,233666,1,0,0:0:0:70:psy.wav
64,192,233828,1,0,0:0:0:70:psy.wav
64,192,233990,1,0,0:0:0:70:psy.wav
192,192,234152,1,0,0:0:0:70:snare.wav
320,192,234152,1,0,0:0:0:0:
448,192,234152,1,0,0:0:0:0:
448,192,234314,1,0,0:0:0:70:psy.wav
448,192,234476,1,0,0:0:0:70:psy.wav
448,192,234639,1,0,0:0:0:70:psy.wav
192,192,234801,1,0,0:0:0:70:BaSS.wav
64,192,234801,1,0,0:0:0:0:
320,192,234801,1,0,0:0:0:0:
192,192,234963,1,0,0:0:0:70:psy.wav
192,192,235125,1,0,0:0:0:70:psy.wav
192,192,235287,1,0,0:0:0:70:psy.wav
320,192,235449,1,0,0:0:0:70:snare.wav
448,192,235449,1,0,0:0:0:0:
64,192,235449,1,0,0:0:0:0:
320,192,235611,1,0,0:0:0:70:psy.wav
320,192,235774,1,0,0:0:0:70:psy.wav
320,192,235936,1,0,0:0:0:70:psy.wav
448,192,236098,1,0,0:0:0:70:BaSS.wav
192,192,236098,1,0,0:0:0:0:
64,192,236098,1,0,0:0:0:70:tick.wav
448,192,236260,1,0,0:0:0:70:psy.wav
448,192,236422,1,0,0:0:0:70:psy.wav
64,192,236422,1,0,0:0:0:70:tick.wav
448,192,236584,1,0,0:0:0:70:psy.wav
192,192,236584,1,0,0:0:0:70:tick.wav
64,192,236747,1,0,0:0:0:70:snare.wav
320,192,236747,1,0,0:0:0:0:
192,192,236747,1,0,0:0:0:0:
64,192,236909,1,0,0:0:0:70:psy.wav
64,192,237071,1,0,0:0:0:70:psy.wav
448,192,237071,1,0,0:0:0:70:tick.wav
64,192,237233,1,0,0:0:0:70:psy.wav
320,192,237395,1,0,0:0:0:70:BaSS.wav
448,192,237395,1,0,0:0:0:0:
192,192,237395,1,0,0:0:0:0:
320,192,237557,1,0,0:0:0:70:psy.wav
64,192,237557,1,0,0:0:0:70:tick.wav
320,192,237720,1,0,0:0:0:70:psy.wav
320,192,237882,1,0,0:0:0:70:psy.wav
64,192,238044,1,0,0:0:0:70:snare.wav
192,192,238044,1,0,0:0:0:0:
448,192,238044,1,0,0:0:0:0:
64,192,238206,1,0,0:0:0:70:psy.wav
64,192,238368,1,0,0:0:0:70:psy.wav
64,192,238530,1,0,0:0:0:70:psy.wav
448,192,238693,1,0,0:0:0:70:BaSS.wav
192,192,238693,1,0,0:0:0:0:
320,192,238693,1,0,0:0:0:0:
448,192,238855,1,0,0:0:0:70:psy.wav
448,192,239017,1,0,0:0:0:70:psy.wav
448,192,239179,1,0,0:0:0:70:psy.wav
192,192,239341,1,0,0:0:0:70:snare.wav
64,192,239341,1,0,0:0:0:0:
320,192,239341,1,0,0:0:0:0:
192,192,239503,1,0,0:0:0:70:psy.wav
192,192,239666,1,0,0:0:0:70:psy.wav
192,192,239828,1,0,0:0:0:70:psy.wav
320,192,239990,1,0,0:0:0:70:BaSS.wav
64,192,239990,1,0,0:0:0:0:
448,192,239990,1,0,0:0:0:0:
320,192,240152,1,0,0:0:0:70:psy.wav
320,192,240314,1,0,0:0:0:70:psy.wav
320,192,240476,1,0,0:0:0:70:psy.wav
64,192,240639,1,0,0:0:0:70:snare.wav
192,192,240639,1,0,0:0:0:0:
448,192,240639,1,0,0:0:0:0:
64,192,240801,1,0,0:0:0:70:psy.wav
64,192,240963,1,0,0:0:0:70:psy.wav
64,192,241125,1,0,0:0:0:70:psy.wav
192,192,241287,1,0,0:0:0:70:BaSS.wav
320,192,241287,1,0,0:0:0:0:
448,192,241287,1,0,0:0:0:70:tick.wav
192,192,241449,1,0,0:0:0:70:psy.wav
192,192,241611,1,0,0:0:0:70:psy.wav
448,192,241611,1,0,0:0:0:70:tick.wav
192,192,241774,1,0,0:0:0:70:psy.wav
320,192,241774,1,0,0:0:0:70:tick.wav
448,192,241936,1,0,0:0:0:70:snare.wav
64,192,241936,1,0,0:0:0:0:
320,192,241936,1,0,0:0:0:0:
448,192,242098,1,0,0:0:0:70:psy.wav
192,192,242098,1,0,0:0:0:70:tick.wav
448,192,242260,1,0,0:0:0:70:psy.wav
320,192,242260,1,0,0:0:0:70:tick.wav
448,192,242422,1,0,0:0:0:70:psy.wav
320,192,242584,1,0,0:0:0:70:BaSS.wav
192,192,242584,1,0,0:0:0:0:
64,192,242584,1,0,0:0:0:0:
320,192,242747,1,0,0:0:0:70:psy.wav
448,192,242747,1,0,0:0:0:70:tick.wav
320,192,242909,1,0,0:0:0:70:psy.wav
320,192,243071,1,0,0:0:0:70:psy.wav
192,192,243233,1,0,0:0:0:70:snare.wav
448,192,243233,1,0,0:0:0:0:
64,192,243233,1,0,0:0:0:0:
192,192,243395,1,0,0:0:0:70:psy.wav
192,192,243557,1,0,0:0:0:70:psy.wav
192,192,243720,1,0,0:0:0:70:psy.wav
448,192,243882,1,0,0:0:0:70:BaSS.wav
320,192,243882,1,0,0:0:0:70:finish.wav
64,192,243882,1,0,0:0:0:70:wind.wav
192,192,243990,1,0,0:0:0:70:psy.wav
448,192,244044,1,0,0:0:0:0:
320,192,244098,1,0,0:0:0:70:psy.wav
64,192,244206,1,0,0:0:0:0:
192,192,244314,1,0,0:0:0:70:psy.wav
448,192,244368,1,0,0:0:0:70:BaSS.wav
320,192,244368,1,0,0:0:0:0:
64,192,244422,1,0,0:0:0:70:psy.wav
192,192,244530,1,0,0:0:0:70:bup.wav
320,192,244530,1,0,0:0:0:70:psy.wav
448,192,244530,1,0,0:0:0:0:
64,192,244639,1,0,0:0:0:70:psy.wav
192,192,244693,1,0,0:0:0:0:
448,192,244747,1,0,0:0:0:70:psy.wav
64,192,244855,1,0,0:0:0:70:psy.wav
448,192,245017,1,0,0:0:0:0:
64,192,245071,1,0,0:0:0:70:psy.wav
320,192,245179,1,0,0:0:0:70:BaSS.wav
192,192,245179,1,0,0:0:0:70:psy.wav
64,192,245287,1,0,0:0:0:70:psy.wav
448,192,245341,1,0,0:0:0:0:
192,192,245395,1,0,0:0:0:70:psy.wav
320,192,245503,1,0,0:0:0:0:
448,192,245611,1,0,0:0:0:70:psy.wav
64,192,245666,1,0,0:0:0:70:BaSS.wav
192,192,245666,1,0,0:0:0:0:
320,192,245720,1,0,0:0:0:70:psy.wav
192,192,245828,1,0,0:0:0:70:bup.wav
448,192,245828,1,0,0:0:0:70:psy.wav
64,192,245828,1,0,0:0:0:0:
320,192,245936,1,0,0:0:0:70:psy.wav
192,192,245990,1,0,0:0:0:0:
64,192,246044,1,0,0:0:0:70:psy.wav
448,192,246152,1,0,0:0:0:70:psy.wav
64,192,246314,1,0,0:0:0:0:
192,192,246368,1,0,0:0:0:70:psy.wav
320,192,246476,1,0,0:0:0:70:BaSS.wav
448,192,246476,1,0,0:0:0:0:
64,192,246584,1,0,0:0:0:70:psy.wav
192,192,246639,1,0,0:0:0:0:
448,192,246693,1,0,0:0:0:70:psy.wav
64,192,246801,1,0,0:0:0:0:
448,192,246909,1,0,0:0:0:70:psy.wav
320,192,246963,1,0,0:0:0:70:BaSS.wav
192,192,246963,1,0,0:0:0:0:
64,192,247017,1,0,0:0:0:70:psy.wav
192,192,247125,1,0,0:0:0:70:bup.wav
448,192,247125,1,0,0:0:0:70:psy.wav
320,192,247125,1,0,0:0:0:0:
64,192,247233,1,0,0:0:0:70:psy.wav
192,192,247287,1,0,0:0:0:0:
320,192,247341,1,0,0:0:0:70:psy.wav
64,192,247449,1,0,0:0:0:70:psy.wav
448,192,247611,1,0,0:0:0:0:
320,192,247666,1,0,0:0:0:70:psy.wav
192,192,247774,1,0,0:0:0:70:BaSS.wav
64,192,247774,1,0,0:0:0:70:psy.wav
448,192,247882,1,0,0:0:0:70:psy.wav
320,192,247936,1,0,0:0:0:0:
64,192,247990,1,0,0:0:0:70:psy.wav
192,192,248098,1,0,0:0:0:0:
320,192,248206,1,0,0:0:0:70:psy.wav
64,192,248260,1,0,0:0:0:70:BaSS.wav
448,192,248260,1,0,0:0:0:0:
192,192,248314,1,0,0:0:0:70:psy.wav
320,192,248422,1,0,0:0:0:70:bup.wav
64,192,248422,1,0,0:0:0:70:psy.wav
448,192,248422,1,0,0:0:0:0:
192,192,248530,1,0,0:0:0:70:psy.wav
320,192,248584,1,0,0:0:0:0:
448,192,248639,1,0,0:0:0:70:psy.wav
64,192,248747,1,0,0:0:0:70:psy.wav
192,192,248909,1,0,0:0:0:0:
64,192,248963,1,0,0:0:0:70:psy.wav
320,192,249071,1,0,0:0:0:70:BaSS.wav
448,192,249071,1,0,0:0:0:70:psy.wav
192,192,249179,1,0,0:0:0:70:psy.wav
64,192,249233,1,0,0:0:0:0:
320,192,249287,1,0,0:0:0:70:psy.wav
448,192,249395,1,0,0:0:0:0:
64,192,249503,1,0,0:0:0:70:psy.wav
320,192,249557,1,0,0:0:0:70:BaSS.wav
192,192,249557,1,0,0:0:0:0:
448,192,249611,1,0,0:0:0:70:psy.wav
320,192,249720,1,0,0:0:0:70:psy.wav
192,192,249720,1,0,0:0:0:70:bup.wav
64,192,249720,1,0,0:0:0:0:
448,192,249828,1,0,0:0:0:70:psy.wav
192,192,249882,1,0,0:0:0:0:
320,192,249936,1,0,0:0:0:70:psy.wav
64,192,250044,1,0,0:0:0:70:psy.wav
320,192,250206,1,0,0:0:0:0:
192,192,250260,1,0,0:0:0:70:psy.wav
64,192,250368,1,0,0:0:0:70:psy.wav
448,192,250368,1,0,0:0:0:70:BaSS.wav
320,192,250476,1,0,0:0:0:70:psy.wav
192,192,250530,1,0,0:0:0:0:
64,192,250584,1,0,0:0:0:70:psy.wav
448,192,250693,1,0,0:0:0:0:
320,192,250801,1,0,0:0:0:70:psy.wav
192,192,250855,1,0,0:0:0:70:BaSS.wav
64,192,250855,1,0,0:0:0:0:
448,192,250909,1,0,0:0:0:70:psy.wav
64,192,251017,1,0,0:0:0:70:psy.wav
192,192,251017,1,0,0:0:0:70:bup.wav
320,192,251017,1,0,0:0:0:0:
448,192,251125,1,0,0:0:0:70:psy.wav
320,192,251179,1,0,0:0:0:0:
192,192,251233,1,0,0:0:0:70:psy.wav
64,192,251341,1,0,0:0:0:70:psy.wav
320,192,251503,1,0,0:0:0:0:
192,192,251557,1,0,0:0:0:70:psy.wav
320,192,251666,1,0,0:0:0:70:BaSS.wav
448,192,251666,1,0,0:0:0:0:
64,192,251774,1,0,0:0:0:70:psy.wav
192,192,251828,1,0,0:0:0:0:
448,192,251882,1,0,0:0:0:70:psy.wav
320,192,251990,1,0,0:0:0:0:
192,192,252098,1,0,0:0:0:70:psy.wav
64,192,252152,1,0,0:0:0:70:BaSS.wav
448,192,252152,1,0,0:0:0:0:
320,192,252206,1,0,0:0:0:70:psy.wav
192,192,252314,1,0,0:0:0:70:bup.wav
64,192,252314,1,0,0:0:0:70:psy.wav
448,192,252314,1,0,0:0:0:0:
320,192,252422,1,0,0:0:0:70:psy.wav
192,192,252476,1,0,0:0:0:0:
448,192,252530,1,0,0:0:0:70:psy.wav
64,192,252639,1,0,0:0:0:70:psy.wav
448,192,252801,1,0,0:0:0:0:
192,192,252855,1,0,0:0:0:70:psy.wav
320,192,252963,1,0,0:0:0:70:BaSS.wav
64,192,252963,1,0,0:0:0:70:psy.wav
448,192,253071,1,0,0:0:0:70:psy.wav
192,192,253125,1,0,0:0:0:0:
320,192,253179,1,0,0:0:0:70:psy.wav
192,192,253287,1,0,0:0:0:0:
64,192,253395,1,0,0:0:0:70:psy.wav
448,192,253449,1,0,0:0:0:70:BaSS.wav
320,192,253449,1,0,0:0:0:0:
192,192,253530,1,0,0:0:0:70:BaSS.wav
64,192,253530,1,0,0:0:0:0:
320,192,253611,1,0,0:0:0:70:bup.wav
448,192,253611,1,0,0:0:0:70:psy.wav
192,192,253720,1,0,0:0:0:70:psy.wav
64,192,253774,1,0,0:0:0:0:
320,192,253828,1,0,0:0:0:70:psy.wav
448,192,253936,1,0,0:0:0:70:psy.wav
192,192,253936,1,0,0:0:0:70:bup.wav
64,192,253936,1,0,0:0:0:0:
320,192,254044,1,0,0:0:0:70:psy.wav
192,192,254098,1,0,0:0:0:0:
64,192,254152,1,0,0:0:0:70:psy.wav
320,192,254179,1,0,0:0:0:70:bup.wav
448,192,254179,1,0,0:0:0:0:
64,192,254260,1,0,0:0:0:70:BaSS.wav
192,192,254260,1,0,0:0:0:70:psy.wav
448,192,254368,1,0,0:0:0:70:psy.wav
320,192,254422,1,0,0:0:0:0:
192,192,254476,1,0,0:0:0:70:psy.wav
64,192,254584,1,0,0:0:0:0:
448,192,254693,1,0,0:0:0:70:psy.wav
320,192,254747,1,0,0:0:0:70:BaSS.wav
192,192,254747,1,0,0:0:0:0:
64,192,254801,1,0,0:0:0:70:psy.wav
320,192,254909,1,0,0:0:0:70:psy.wav
448,192,254909,1,0,0:0:0:70:bup.wav
192,192,254909,1,0,0:0:0:0:
64,192,255017,1,0,0:0:0:70:psy.wav
192,192,255071,1,0,0:0:0:0:
448,192,255125,1,0,0:0:0:70:psy.wav
320,192,255233,1,0,0:0:0:70:psy.wav
192,192,255395,1,0,0:0:0:0:
448,192,255449,1,0,0:0:0:70:psy.wav
64,192,255557,1,0,0:0:0:70:BaSS.wav
320,192,255557,1,0,0:0:0:70:psy.wav
192,192,255666,1,0,0:0:0:70:psy.wav
448,192,255720,1,0,0:0:0:0:
64,192,255774,1,0,0:0:0:70:psy.wav
192,192,255882,1,0,0:0:0:0:
320,192,255990,1,0,0:0:0:70:psy.wav
448,192,256044,1,0,0:0:0:70:BaSS.wav
64,192,256044,1,0,0:0:0:0:
192,192,256098,1,0,0:0:0:70:psy.wav
320,192,256206,1,0,0:0:0:70:psy.wav
448,192,256206,1,0,0:0:0:70:bup.wav
64,192,256206,1,0,0:0:0:0:
192,192,256314,1,0,0:0:0:70:psy.wav
320,192,256368,1,0,0:0:0:0:
448,192,256422,1,0,0:0:0:70:psy.wav
64,192,256530,1,0,0:0:0:70:psy.wav
448,192,256693,1,0,0:0:0:0:
192,192,256747,1,0,0:0:0:70:psy.wav
64,192,256855,1,0,0:0:0:70:BaSS.wav
320,192,256855,1,0,0:0:0:70:psy.wav
192,192,256963,1,0,0:0:0:70:psy.wav
448,192,257017,1,0,0:0:0:0:
320,192,257071,1,0,0:0:0:70:psy.wav
64,192,257179,1,0,0:0:0:0:
192,192,257287,1,0,0:0:0:70:psy.wav
448,192,257341,1,0,0:0:0:70:BaSS.wav
64,192,257341,1,0,0:0:0:0:
320,192,257395,1,0,0:0:0:70:psy.wav
192,192,257503,1,0,0:0:0:70:psy.wav
448,192,257503,1,0,0:0:0:70:bup.wav
64,192,257503,1,0,0:0:0:0:
320,192,257611,1,0,0:0:0:70:psy.wav
192,192,257666,1,0,0:0:0:0:
448,192,257720,1,0,0:0:0:70:psy.wav
320,192,257828,1,0,0:0:0:70:psy.wav
448,192,257990,1,0,0:0:0:0:
192,192,258044,1,0,0:0:0:70:psy.wav
64,192,258152,1,0,0:0:0:70:BaSS.wav
320,192,258152,1,0,0:0:0:70:psy.wav
192,192,258260,1,0,0:0:0:70:psy.wav
320,192,258314,1,0,0:0:0:0:
448,192,258368,1,0,0:0:0:70:psy.wav
64,192,258476,1,0,0:0:0:0:
192,192,258584,1,0,0:0:0:70:psy.wav
448,192,258639,1,0,0:0:0:70:BaSS.wav
320,192,258639,1,0,0:0:0:0:
64,192,258693,1,0,0:0:0:70:psy.wav
320,192,258801,1,0,0:0:0:70:psy.wav
192,192,258801,1,0,0:0:0:70:bup.wav
448,192,258801,1,0,0:0:0:0:
64,192,258909,1,0,0:0:0:70:psy.wav
192,192,258963,1,0,0:0:0:0:
448,192,259017,1,0,0:0:0:70:psy.wav
320,192,259125,1,0,0:0:0:70:psy.wav
192,192,259287,1,0,0:0:0:0:
448,192,259341,1,0,0:0:0:70:psy.wav
64,192,259449,1,0,0:0:0:70:psy.wav
320,192,259449,1,0,0:0:0:70:BaSS.wav
448,192,259557,1,0,0:0:0:70:psy.wav
192,192,259611,1,0,0:0:0:0:
64,192,259666,1,0,0:0:0:70:psy.wav
320,192,259774,1,0,0:0:0:0:
448,192,259882,1,0,0:0:0:70:psy.wav
192,192,259936,1,0,0:0:0:70:BaSS.wav
64,192,259936,1,0,0:0:0:0:
320,192,259990,1,0,0:0:0:70:psy.wav
64,192,260098,1,0,0:0:0:70:bup.wav
448,192,260098,1,0,0:0:0:70:psy.wav
192,192,260098,1,0,0:0:0:0:
320,192,260206,1,0,0:0:0:70:psy.wav
192,192,260260,1,0,0:0:0:0:
64,192,260314,1,0,0:0:0:70:psy.wav
448,192,260422,1,0,0:0:0:70:psy.wav
64,192,260584,1,0,0:0:0:0:
192,192,260639,1,0,0:0:0:70:psy.wav
320,192,260747,1,0,0:0:0:70:psy.wav
448,192,260747,1,0,0:0:0:70:BaSS.wav
64,192,260855,1,0,0:0:0:70:psy.wav
448,192,260909,1,0,0:0:0:0:
320,192,260963,1,0,0:0:0:70:psy.wav
192,192,261071,1,0,0:0:0:0:
448,192,261179,1,0,0:0:0:70:psy.wav
64,192,261233,1,0,0:0:0:70:BaSS.wav
320,192,261233,1,0,0:0:0:0:
192,192,261287,1,0,0:0:0:70:psy.wav
448,192,261395,1,0,0:0:0:70:bup.wav
320,192,261395,1,0,0:0:0:70:psy.wav
64,192,261395,1,0,0:0:0:0:
192,192,261503,1,0,0:0:0:70:psy.wav
320,192,261557,1,0,0:0:0:0:
448,192,261611,1,0,0:0:0:70:psy.wav
64,192,261720,1,0,0:0:0:70:psy.wav
320,192,261882,1,0,0:0:0:0:
448,192,261936,1,0,0:0:0:70:psy.wav
192,192,262044,1,0,0:0:0:70:BaSS.wav
64,192,262044,1,0,0:0:0:70:psy.wav
448,192,262152,1,0,0:0:0:70:psy.wav
320,192,262206,1,0,0:0:0:0:
64,192,262260,1,0,0:0:0:70:psy.wav
192,192,262368,1,0,0:0:0:0:
320,192,262476,1,0,0:0:0:70:psy.wav
448,192,262530,1,0,0:0:0:70:BaSS.wav
64,192,262530,1,0,0:0:0:0:
192,192,262584,1,0,0:0:0:70:psy.wav
320,192,262693,1,0,0:0:0:70:psy.wav
448,192,262693,1,0,0:0:0:70:bup.wav
64,192,262693,1,0,0:0:0:0:
192,192,262801,1,0,0:0:0:70:psy.wav
320,192,262855,1,0,0:0:0:0:
448,192,262909,1,0,0:0:0:70:psy.wav
64,192,263017,1,0,0:0:0:70:psy.wav
192,192,263179,1,0,0:0:0:0:
320,192,263233,1,0,0:0:0:70:psy.wav
64,192,263341,1,0,0:0:0:70:BaSS.wav
448,192,263341,1,0,0:0:0:70:psy.wav
320,192,263449,1,0,0:0:0:70:psy.wav
192,192,263503,1,0,0:0:0:0:
64,192,263557,1,0,0:0:0:70:psy.wav
448,192,263666,1,0,0:0:0:0:
320,192,263774,1,0,0:0:0:70:psy.wav
192,192,263828,1,0,0:0:0:70:BaSS.wav
64,192,263828,1,0,0:0:0:0:
320,192,263909,1,0,0:0:0:70:BaSS.wav
448,192,263909,1,0,0:0:0:0:
64,192,263990,1,0,0:0:0:70:bup.wav
192,192,264030,1,0,0:0:0:70:bup.wav
448,192,264071,1,0,0:0:0:70:bup.wav
320,192,264111,1,0,0:0:0:70:bup.wav
64,192,264152,1,0,0:0:0:70:bup.wav
192,192,264193,1,0,0:0:0:70:bup.wav
448,192,264233,1,0,0:0:0:70:bup.wav
320,192,264274,1,0,0:0:0:70:bup.wav
64,192,264314,1,0,0:0:0:70:bup.wav
192,192,264355,1,0,0:0:0:70:bup.wav
448,192,264395,1,0,0:0:0:70:bup.wav
320,192,264436,1,0,0:0:0:70:bup.wav
64,192,264476,1,0,0:0:0:70:bup.wav
192,192,264517,1,0,0:0:0:70:bup.wav
448,192,264557,1,0,0:0:0:70:bup.wav
320,192,264598,1,0,0:0:0:70:bup.wav
192,192,264639,1,0,0:0:0:70:finish.wav
64,192,264639,1,0,0:0:0:70:BaSS.wav
64,192,264855,1,0,0:0:0:70:psy.wav
64,192,265287,1,0,0:0:0:70:snare.wav
192,192,265287,1,0,0:0:0:0:
320,192,265287,1,0,0:0:0:0:
448,192,265287,1,0,0:0:0:0:
320,192,265503,1,0,0:0:0:70:psy.wav
320,192,265828,1,0,0:0:0:70:psy.wav
192,192,265936,1,0,0:0:0:70:BaSS.wav
64,192,265936,1,0,0:0:0:0:
320,192,265936,1,0,0:0:0:0:
320,192,266152,1,0,0:0:0:70:psy.wav
448,192,266584,1,0,0:0:0:70:snare.wav
320,192,266584,1,0,0:0:0:0:
192,192,266584,1,0,0:0:0:0:
64,192,266584,1,0,0:0:0:0:
192,192,266801,1,0,0:0:0:70:psy.wav
192,192,267125,1,0,0:0:0:70:psy.wav
192,192,267233,1,0,0:0:0:70:BaSS.wav
64,192,267233,1,0,0:0:0:0:
448,192,267233,1,0,0:0:0:0:
192,192,267449,1,0,0:0:0:70:psy.wav
64,192,267882,1,0,0:0:0:70:snare.wav
320,192,267882,1,0,0:0:0:0:
448,192,267882,1,0,0:0:0:0:
192,192,267882,1,0,0:0:0:0:
64,192,268098,1,0,0:0:0:70:psy.wav
64,192,268422,1,0,0:0:0:70:psy.wav
64,192,268530,1,0,0:0:0:70:BaSS.wav
320,192,268530,1,0,0:0:0:0:
448,192,268530,1,0,0:0:0:0:
64,192,268747,1,0,0:0:0:70:psy.wav
320,192,269179,1,0,0:0:0:70:snare.wav
448,192,269179,1,0,0:0:0:0:
192,192,269179,1,0,0:0:0:0:
64,192,269179,1,0,0:0:0:0:
448,192,269395,1,0,0:0:0:70:psy.wav
448,192,269720,1,0,0:0:0:70:psy.wav
64,192,269828,1,0,0:0:0:70:BaSS.wav
320,192,269828,1,0,0:0:0:0:
448,192,269828,1,0,0:0:0:0:
448,192,270044,1,0,0:0:0:70:psy.wav
320,192,270476,1,0,0:0:0:70:snare.wav
448,192,270476,1,0,0:0:0:0:
192,192,270476,1,0,0:0:0:0:
64,192,270476,1,0,0:0:0:0:
320,192,270693,1,0,0:0:0:70:psy.wav
320,192,271017,1,0,0:0:0:70:psy.wav
64,192,271125,1,0,0:0:0:70:BaSS.wav
448,192,271125,1,0,0:0:0:0:
320,192,271125,1,0,0:0:0:0:
320,192,271341,1,0,0:0:0:70:psy.wav
64,192,271774,1,0,0:0:0:70:snare.wav
192,192,271774,1,0,0:0:0:0:
320,192,271774,1,0,0:0:0:0:
448,192,271774,1,0,0:0:0:0:
192,192,271990,1,0,0:0:0:70:psy.wav
192,192,272314,1,0,0:0:0:70:psy.wav
192,192,272422,1,0,0:0:0:70:BaSS.wav
64,192,272422,1,0,0:0:0:0:
320,192,272422,1,0,0:0:0:0:
192,192,272639,1,0,0:0:0:70:psy.wav
448,192,273071,1,0,0:0:0:70:snare.wav
320,192,273071,1,0,0:0:0:0:
192,192,273071,1,0,0:0:0:0:
64,192,273071,1,0,0:0:0:0:
448,192,273287,1,0,0:0:0:70:psy.wav
448,192,273611,1,0,0:0:0:70:psy.wav
192,192,273720,1,0,0:0:0:70:BaSS.wav
64,192,273720,1,0,0:0:0:0:
448,192,273720,1,0,0:0:0:0:
448,192,273936,1,0,0:0:0:70:psy.wav
320,192,274368,1,0,0:0:0:70:snare.wav
192,192,274368,1,0,0:0:0:0:
64,192,274368,1,0,0:0:0:0:
448,192,274368,1,0,0:0:0:0:
192,192,274584,1,0,0:0:0:70:psy.wav
192,192,274909,1,0,0:0:0:70:psy.wav
64,192,275017,1,0,0:0:0:70:BaSS.wav
192,192,275017,1,0,0:0:0:70:finish.wav
448,192,275017,1,0,0:0:0:0:
192,192,275233,1,0,0:0:0:70:psy.wav
64,192,275666,1,0,0:0:0:70:snare.wav
448,192,275666,1,0,0:0:0:0:
192,192,275666,1,0,0:0:0:0:
320,192,275666,1,0,0:0:0:0:
448,192,275882,1,0,0:0:0:70:psy.wav
448,192,276206,1,0,0:0:0:70:psy.wav
320,192,276314,1,0,0:0:0:70:BaSS.wav
192,192,276314,1,0,0:0:0:0:
448,192,276314,1,0,0:0:0:0:
448,192,276530,1,0,0:0:0:70:psy.wav
192,192,276963,1,0,0:0:0:70:snare.wav
320,192,276963,1,0,0:0:0:0:
64,192,276963,1,0,0:0:0:0:
448,192,276963,1,0,0:0:0:0:
192,192,277179,1,0,0:0:0:70:psy.wav
192,192,277503,1,0,0:0:0:70:psy.wav
192,192,277611,1,0,0:0:0:70:BaSS.wav
320,192,277611,1,0,0:0:0:0:
448,192,277611,1,0,0:0:0:0:
192,192,277828,1,0,0:0:0:70:psy.wav
320,192,278260,1,0,0:0:0:70:snare.wav
448,192,278260,1,0,0:0:0:0:
192,192,278260,1,0,0:0:0:0:
64,192,278260,1,0,0:0:0:0:
448,192,278476,1,0,0:0:0:70:psy.wav
448,192,278801,1,0,0:0:0:70:psy.wav
320,192,278909,1,0,0:0:0:70:BaSS.wav
448,192,278909,1,0,0:0:0:0:
64,192,278909,1,0,0:0:0:0:
448,192,279125,1,0,0:0:0:70:psy.wav
64,192,279557,1,0,0:0:0:70:snare.wav
448,192,279557,1,0,0:0:0:0:
192,192,279557,1,0,0:0:0:0:
320,192,279557,1,0,0:0:0:0:
64,192,279774,1,0,0:0:0:70:psy.wav
64,192,280098,1,0,0:0:0:70:psy.wav
192,192,280206,1,0,0:0:0:70:BaSS.wav
64,192,280206,1,0,0:0:0:0:
448,192,280206,1,0,0:0:0:0:
64,192,280422,1,0,0:0:0:70:psy.wav
192,192,280855,1,0,0:0:0:70:snare.wav
320,192,280855,1,0,0:0:0:0:
64,192,280855,1,0,0:0:0:0:
448,192,280855,1,0,0:0:0:0:
320,192,281071,1,0,0:0:0:70:psy.wav
320,192,281395,1,0,0:0:0:70:psy.wav
448,192,281503,128,0,285395:0:0:0:70:BaSS.wav
320,192,281503,1,0,0:0:0:0:
64,192,281503,1,0,0:0:0:0:
320,192,281720,1,0,0:0:0:70:psy.wav
320,192,282152,1,0,0:0:0:70:snare.wav
192,192,282152,1,0,0:0:0:0:
64,192,282152,1,0,0:0:0:0:
192,192,282368,1,0,0:0:0:70:psy.wav
192,192,282693,1,0,0:0:0:70:psy.wav
192,192,282801,1,0,0:0:0:70:BaSS.wav
64,192,282801,1,0,0:0:0:0:
192,192,283017,1,0,0:0:0:70:psy.wav
320,192,283449,1,0,0:0:0:70:snare.wav
192,192,283449,1,0,0:0:0:0:
64,192,283449,1,0,0:0:0:0:
320,192,283666,1,0,0:0:0:70:psy.wav
320,192,283990,1,0,0:0:0:70:psy.wav
320,192,284098,1,0,0:0:0:70:BaSS.wav
192,192,284098,1,0,0:0:0:0:
320,192,284314,1,0,0:0:0:70:psy.wav
64,192,284747,1,0,0:0:0:70:snare.wav
192,192,284747,1,0,0:0:0:0:
320,192,284747,1,0,0:0:0:0:
64,192,284963,1,0,0:0:0:70:psy.wav
64,192,285287,1,0,0:0:0:70:psy.wav
192,192,285395,1,0,0:0:0:70:BaSS.wav
320,192,285395,128,0,285557:0:0:0:70:finish.wav
64,192,285395,1,0,0:0:0:0:
448,192,285557,1,0,0:0:0:0:
64,192,285720,1,0,0:0:0:0:
192,192,285882,128,0,286044:0:0:0:0:
320,192,286044,1,0,0:0:0:70:tick.wav
448,192,286044,1,0,0:0:0:0:
192,192,286206,1,0,0:0:0:0:
448,192,286368,128,0,286530:0:0:0:0:
64,192,286530,1,0,0:0:0:0:
320,192,286693,128,0,286855:0:0:0:0:
448,192,286855,1,0,0:0:0:0:
64,192,287017,1,0,0:0:0:0:
192,192,287179,128,0,287341:0:0:0:0:
448,192,287341,1,0,0:0:0:0:
320,192,287341,1,0,0:0:0:70:tick.wav
192,192,287503,1,0,0:0:0:0:
448,192,287666,128,0,287828:0:0:0:0:
64,192,287828,1,0,0:0:0:0:
320,192,287990,128,0,288152:0:0:0:0:
448,192,288152,1,0,0:0:0:0:
320,192,288314,1,0,0:0:0:0:
192,192,288476,128,0,288639:0:0:0:0:
448,192,288639,1,0,0:0:0:0:
320,192,288639,1,0,0:0:0:70:tick.wav
64,192,288801,1,0,0:0:0:0:
448,192,288963,128,0,289125:0:0:0:0:
192,192,289125,1,0,0:0:0:0:
320,192,289287,128,0,289449:0:0:0:0:
448,192,289449,1,0,0:0:0:0:
64,192,289611,1,0,0:0:0:0:
192,192,289774,128,0,289936:0:0:0:0:
320,192,289936,1,0,0:0:0:70:tick.wav
448,192,289936,1,0,0:0:0:0:
192,192,290098,1,0,0:0:0:0:
448,192,290260,128,0,290422:0:0:0:0:
64,192,290422,1,0,0:0:0:0:
320,192,290584,128,0,290747:0:0:0:0:
192,192,290747,1,0,0:0:0:0:
448,192,290909,1,0,0:0:0:0:
192,192,291071,128,0,291233:0:0:0:0:
320,192,291233,1,0,0:0:0:70:tick.wav
448,192,291233,1,0,0:0:0:0:
192,192,291395,1,0,0:0:0:0:
448,192,291557,128,0,291720:0:0:0:0:
64,192,291720,1,0,0:0:0:0:
320,192,291882,128,0,292044:0:0:0:0:
448,192,292044,1,0,0:0:0:0:
64,192,292206,1,0,0:0:0:0:
192,192,292368,128,0,292530:0:0:0:0:
320,192,292530,1,0,0:0:0:70:tick.wav
448,192,292530,1,0,0:0:0:0:
192,192,292693,1,0,0:0:0:0:
448,192,292855,128,0,293017:0:0:0:0:
64,192,293017,1,0,0:0:0:0:
320,192,293179,128,0,293341:0:0:0:0:
448,192,293341,1,0,0:0:0:0:
64,192,293503,1,0,0:0:0:0:
192,192,293666,128,0,293828:0:0:0:0:
320,192,293828,1,0,0:0:0:70:tick.wav
448,192,293828,1,0,0:0:0:0:
192,192,293990,1,0,0:0:0:0:
448,192,294152,128,0,294314:0:0:0:0:
64,192,294314,1,0,0:0:0:0:
320,192,294476,128,0,294639:0:0:0:0:
448,192,294639,1,0,0:0:0:0:
64,192,294801,1,0,0:0:0:0:
192,192,294963,128,0,295125:0:0:0:0:
320,192,295125,1,0,0:0:0:70:tick.wav
448,192,295125,1,0,0:0:0:0:
192,192,295287,1,0,0:0:0:0:
448,192,295449,128,0,295611:0:0:0:0:
64,192,295611,1,0,0:0:0:0:
448,192,295774,1,0,0:0:0:70:finish.wav
320,192,295774,128,0,295936:0:0:0:70:tick.wav
192,192,295774,1,0,0:0:0:70:BaSS.wav
192,192,296260,128,0,296422:0:0:0:70:tick.wav
448,192,296747,128,0,296909:0:0:0:70:tick.wav
320,192,297071,128,0,297233:0:0:0:70:tick.wav
192,192,297071,128,0,297233:0:0:0:0:
192,192,297557,128,0,297720:0:0:0:70:tick.wav
64,192,297557,128,0,297720:0:0:0:0:
448,192,298044,128,0,298206:0:0:0:0:
320,192,298044,128,0,298206:0:0:0:70:tick.wav
192,192,298368,128,0,298530:0:0:0:70:tick.wav
320,192,298368,128,0,298530:0:0:0:0:
64,192,298368,128,0,298530:0:0:0:0:
64,192,298855,128,0,299017:0:0:0:0:
192,192,298855,128,0,299017:0:0:0:70:tick.wav
448,192,298855,128,0,299017:0:0:0:0:
320,192,299341,128,0,299503:0:0:0:70:tick.wav
448,192,299341,128,0,299503:0:0:0:0:
192,192,299341,128,0,299503:0:0:0:0:
192,192,299666,128,0,299828:0:0:0:70:tick.wav
320,192,299666,128,0,299828:0:0:0:0:
64,192,299666,128,0,299828:0:0:0:0:
448,192,300152,128,0,300314:0:0:0:0:
192,192,300152,128,0,300314:0:0:0:70:tick.wav
64,192,300152,128,0,300314:0:0:0:0:
320,192,300639,128,0,300801:0:0:0:70:tick.wav
192,192,300639,128,0,300801:0:0:0:0:
448,192,300639,128,0,300801:0:0:0:0:
320,192,300963,128,0,301125:0:0:0:0:
192,192,300963,128,0,301125:0:0:0:70:tick.wav
64,192,301449,128,0,301611:0:0:0:0:
192,192,301449,128,0,301611:0:0:0:70:tick.wav
448,192,301936,128,0,302098:0:0:0:0:
320,192,301936,128,0,302098:0:0:0:70:tick.wav
192,192,302260,128,0,302422:0:0:0:70:tick.wav
320,192,302260,128,0,302422:0:0:0:0:
192,192,302747,128,0,302909:0:0:0:70:tick.wav
64,192,302747,128,0,302909:0:0:0:0:
320,192,303233,128,0,303395:0:0:0:70:tick.wav
448,192,303233,128,0,303395:0:0:0:0:
320,192,303557,128,0,303720:0:0:0:70:tick.wav
192,192,304044,128,0,304206:0:0:0:70:tick.wav
448,192,304530,128,0,304693:0:0:0:70:tick.wav
320,192,304855,128,0,305017:0:0:0:70:tick.wav
192,192,305341,128,0,305503:0:0:0:70:tick.wav
320,192,305828,128,0,306152:0:0:0:70:tick.wav
448,192,305828,128,0,306152:0:0:0:0:
