osu file format v14

[General]
AudioFilename: audio.mp3
AudioLeadIn: 0
PreviewTime: 47652
Countdown: 0
SampleSet: Soft
StackLeniency: 0.4
Mode: 0
LetterboxInBreaks: 0
WidescreenStoryboard: 0

[Editor]
Bookmarks: 68795
DistanceSpacing: 1.2
BeatDivisor: 6
GridSize: 32
TimelineZoom: 1.8

[Metadata]
Title:Zangeroku
TitleUnicode:懺悔録
Artist:Kuroki Nagisa
ArtistUnicode:黒木渚
Creator:Shurelia
Version:Remorse
Source:デモンズゲート 帝都審神大戦 ~東京黙示録編~ 音楽大全
Tags:Demon's Gate: Teito Shinshin Taisen ~Tokyo Mokushiroku-hen~ Ongaku Zenshuu Japanese Video Game ending ED LMT collab BlastTheKidd
BeatmapID:2533173
BeatmapSetID:1217492

[Difficulty]
HPDrainRate:6.5
CircleSize:4.5
OverallDifficulty:7.8
ApproachRate:8.6
SliderMultiplier:1.99999990463257
SliderTickRate:1

[Events]
//Background and Video events
0,0,"kurokibg.jpg",0,0
//Break Periods
2,165005,177718
//Storyboard Layer 0 (Background)
//Storyboard Layer 1 (Fail)
//Storyboard Layer 2 (Pass)
//Storyboard Layer 3 (Foreground)
//Storyboard Layer 4 (Overlay)
//Storyboard Sound Samples

[TimingPoints]
224,857.142857142857,2,2,1,40,1,0
224,-66.6666666666667,2,2,1,40,0,0
7081,-55.5555555555556,2,2,1,40,0,0
20795,-55.5555555555556,2,2,1,45,0,0
27652,-66.6666666666667,2,2,1,40,0,0
33866,-66.6666666666667,2,2,1,5,0,0
33938,-66.6666666666667,2,2,1,40,0,0
34152,-66.6666666666667,2,2,1,5,0,0
34223,-66.6666666666667,2,2,1,40,0,0
34509,-83.3333333333333,2,2,1,45,0,0
36080,-83.3333333333333,2,2,1,5,0,0
36223,-83.3333333333333,2,2,1,45,0,0
36937,-83.3333333333333,2,2,1,5,0,0
37081,-83.3333333333333,2,2,1,45,0,0
37795,-83.3333333333333,2,2,1,5,0,0
37938,-83.3333333333333,2,2,1,47,0,0
39509,-83.3333333333333,2,2,1,5,0,0
39652,-83.3333333333333,2,2,1,47,0,0
40366,-83.3333333333333,2,2,1,5,0,0
40509,-83.3333333333333,2,2,1,47,0,0
41223,-83.3333333333333,2,2,1,5,0,0
41366,-83.3333333333333,2,2,1,45,0,0
42937,-83.3333333333333,2,2,1,5,0,0
43081,-83.3333333333333,2,2,1,45,0,0
43795,-83.3333333333333,2,2,1,5,0,0
43938,-83.3333333333333,2,2,1,48,0,0
44652,-83.3333333333333,2,2,1,5,0,0
44795,-83.3333333333333,2,2,1,50,0,0
45652,-83.3333333333333,2,2,1,54,0,0
46366,-83.3333333333333,2,2,1,5,0,0
46509,-83.3333333333333,2,2,1,60,0,0
48151,-83.3333333333333,2,2,1,5,0,0
48223,-41.6666666666667,2,2,1,65,0,1
49938,-38.4615384615385,2,2,1,65,0,1
51652,-41.6666666666667,2,2,1,65,0,1
54223,-40,2,2,1,65,0,1
54509,-38.4615384615385,2,2,1,65,0,1
54795,-37.037037037037,2,2,1,65,0,1
55081,-41.6666666666667,2,2,1,65,0,1
56795,-38.4615384615385,2,2,1,65,0,1
58509,-41.6666666666667,2,2,1,65,0,1
60509,-40,2,2,1,65,0,1
60795,-38.4615384615385,2,2,1,65,0,1
61081,-40,2,2,1,65,0,1
61366,-41.6666666666667,2,2,1,65,0,1
61652,-43.4782608695652,2,2,1,65,0,1
61938,-43.4782608695652,2,2,1,67,0,1
62509,-41.6666666666667,2,2,1,67,0,1
62795,-41.6666666666667,2,2,1,69,0,1
63009,-41.6666666666667,2,2,1,5,0,1
63081,-41.6666666666667,2,2,1,69,0,1
63652,-41.6666666666667,2,2,1,71,0,1
63938,-40,2,2,1,71,0,1
64509,-40,2,2,1,74,0,1
64723,-40,2,2,1,5,0,1
64795,-40,2,2,1,74,0,1
65366,-40,2,2,1,65,0,1
65652,-38.4615384615385,2,2,1,65,0,1
65938,-37.037037037037,2,2,1,65,0,1
66223,-35.7142857142857,2,2,1,70,0,1
66509,-38.4615384615385,2,2,1,70,0,1
66795,-40,2,2,1,70,0,1
67081,-40,2,2,1,75,0,1
67294,-40,2,2,1,5,0,1
67366,-40,2,2,1,75,0,1
67938,-200,2,2,1,75,0,0
68366,-200,2,2,2,5,0,0
68795,-200,2,2,1,55,0,0
69081,-66.6666666666667,2,2,1,55,0,0
70223,-200,2,2,1,55,0,0
70795,-66.6666666666667,2,2,1,55,0,0
71938,-200,2,2,1,55,0,0
72509,-66.6666666666667,2,2,1,55,0,0
73652,-200,2,2,1,55,0,0
75652,-55.5555555555556,2,2,1,55,0,0
89366,-55.5555555555556,2,2,1,60,0,0
95366,-45.4545454545455,2,2,1,60,0,0
95652,-55.5555555555556,2,2,1,60,0,0
96223,-55.5555555555556,2,2,1,55,0,0
103081,-55.5555555555556,2,2,1,50,0,0
105652,-55.5555555555556,2,2,1,57,0,0
106509,-55.5555555555556,2,2,1,52,0,0
109938,-55.5555555555556,2,2,1,56,0,0
112509,-45.4545454545455,2,2,1,58,0,0
112795,-55.5555555555556,2,2,1,58,0,0
113366,-55.5555555555556,2,2,1,62,0,0
114223,-55.5555555555556,2,2,1,65,0,0
115080,-55.5555555555556,2,2,1,68,0,0
115938,-55.5555555555556,2,2,1,70,0,0
116795,-40,2,2,1,75,0,1
117652,-33.3333333333333,2,2,1,75,0,1
119366,-28.5714285714286,2,2,1,75,0,1
121938,-55.5555555555556,2,2,1,75,0,1
123081,-100,2,2,1,75,0,1
123652,-40,2,2,1,75,0,1
124509,-33.3333333333333,2,2,1,75,0,1
126223,-28.5714285714286,2,2,1,75,0,1
128652,-28.5714285714286,2,2,1,5,0,1
128795,-55.5555555555556,2,2,1,75,0,1
129938,-100,2,2,1,75,0,1
130509,-55.5555555555556,2,2,1,70,0,1
131366,-55.5555555555556,2,2,1,74,0,1
132223,-45.4545454545455,2,2,1,78,0,1
133081,-45.4545454545455,2,2,1,82,0,1
133938,-33.3333333333333,2,2,1,85,0,1
134795,-33.3333333333333,2,2,1,80,0,1
135652,-33.3333333333333,2,2,1,85,0,1
136509,-66.6666666666667,2,2,1,85,0,0
137366,863.309352517986,2,2,1,40,1,0
137366,-66.6666666666667,2,2,1,70,0,0
138229,-66.6666666666667,2,2,1,75,0,0
139092,857.142857142857,2,2,1,40,1,0
139092,-66.6666666666667,2,2,1,80,0,0
139949,-66.6666666666667,2,2,1,85,0,0
140806,-66.6666666666667,2,2,1,70,0,0
141663,-66.6666666666667,2,2,1,75,0,0
142520,-66.6666666666667,2,2,1,80,0,0
143377,-66.6666666666667,2,2,1,85,0,0
144234,-28.5714285714286,2,2,1,75,0,1
144306,-28.5714285714286,2,2,1,75,0,0
145092,-28.5714285714286,2,2,1,80,0,0
145949,-28.5714285714286,2,2,1,85,0,0
146806,-28.5714285714286,2,2,1,90,0,0
147663,-26.6666666666667,2,2,1,75,0,0
148520,-26.6666666666667,2,2,1,80,0,0
149377,-25,2,2,1,85,0,0
150234,-25,2,2,1,90,0,0
151092,-40,2,2,1,90,0,0
151377,-40,2,2,1,55,0,0
154377,-40,2,2,1,5,0,0
154520,-40,2,2,1,55,0,0
157949,-40,2,2,1,60,0,0
163092,-40,2,2,1,65,0,0
163949,-40,2,2,1,70,0,0
164020,-35.7142857142857,2,2,1,70,0,0
164806,-35.7142857142857,2,2,1,55,0,0
178520,-50,2,2,1,65,0,0
178806,-66.6666666666667,2,2,1,65,0,0
179377,-66.6666666666667,2,2,1,70,0,0
179663,-35.7142857142857,2,2,1,75,0,1
180092,-35.7142857142857,2,2,1,75,0,0
180234,-35.7142857142857,2,2,1,70,0,1
181949,-33.3333333333333,2,2,1,70,0,1
183663,-35.7142857142857,2,2,1,70,0,1
188806,-33.3333333333333,2,2,1,70,0,1
190520,-35.7142857142857,2,2,1,70,0,1
193949,-35.7142857142857,2,2,1,65,0,1
194806,-34.4827586206897,2,2,1,71,0,1
195663,-34.4827586206897,2,2,1,78,0,1
196520,-33.3333333333333,2,2,1,84,0,1
197377,-32.258064516129,2,2,1,65,0,1
197949,-30.3030303030303,2,2,1,65,0,1
198234,-31.25,2,2,1,73,0,1
198520,-32.258064516129,2,2,1,73,0,1
198806,-33.3333333333333,2,2,1,63,0,1
199092,-32.258064516129,2,2,1,80,0,1
199949,-32.258064516129,2,2,1,70,0,0
200806,-55.5555555555556,2,2,1,55,0,0
202520,-35.7142857142857,2,2,1,85,0,1
203092,-35.7142857142857,2,2,1,75,0,1
203377,-31.25,2,2,1,90,0,1
203663,-31.25,2,2,1,75,0,0

[Colours]
Combo1 : 255,128,64
Combo2 : 245,234,3

[HitObjects]
9,347,224,6,0,P|21:324|27:300,1,50.2999995088578,0|0,3:0|2:0,2:0:0:0:
85,210,509,1,0,2:3:0:0:
169,228,795,1,0,2:3:0:0:
260,329,1081,6,0,P|250:305|248:280,1,50.2999995088578,0|0,3:0|2:0,2:0:0:0:
170,182,1366,1,0,2:0:0:0:
85,206,1652,1,0,2:0:0:0:
9,300,1938,6,0,P|20:277|26:253,1,50.2999995088578,0|0,3:0|2:0,2:0:0:0:
86,164,2224,1,0,2:0:0:0:
170,182,2509,1,0,2:0:0:0:
260,286,2795,6,0,P|250:262|248:237,1,50.2999995088578,0|0,3:0|2:0,2:0:0:0:
171,140,3081,1,0,2:0:0:0:
86,164,3366,1,0,2:0:0:0:
9,253,3652,6,0,P|20:230|26:206,1,50.2999995088578,0|0,3:0|2:0,2:0:0:0:
91,124,3938,1,0,2:0:0:0:
175,142,4223,1,0,2:0:0:0:
260,243,4509,6,0,P|250:219|248:194,1,50.2999995088578,0|0,3:0|2:0,2:0:0:0:
170,89,4795,1,0,2:0:0:0:
85,113,5081,1,0,2:0:0:0:
9,206,5366,6,0,P|20:183|26:159,1,50.2999995088578,0|0,3:0|2:0,2:0:0:0:
86,71,5652,1,0,2:0:0:0:
170,89,5938,1,0,2:0:0:0:
260,200,6223,6,0,P|250:176|248:151,1,50.2999995088578,0|0,3:0|2:0,2:0:0:0:
194,13,6509,1,0,2:0:0:0:
115,45,6795,1,0,2:0:0:0:
295,84,7081,6,0,B|352:58|326:3|326:3|326:23,1,120.29999060154,2|0,3:2|2:0,2:0:0:0:
282,95,7652,1,2,2:0:0:0:
431,160,7938,6,0,P|433:189|440:218,1,59.9999953079226,2|0,3:2|2:0,2:0:0:0:
485,320,8223,1,0,2:0:0:0:
470,314,8509,1,2,2:0:0:0:
427,148,8795,6,0,B|417:87|417:87|447:136,1,120.29999060154,2|0,3:2|2:0,2:0:0:0:
507,209,9366,1,2,2:0:0:0:
349,167,9652,6,0,P|321:160|291:157,1,60.3599952907565,2|0,3:2|2:0,2:0:0:0:
196,206,9938,1,0,2:0:0:0:
184,198,10223,1,0,2:0:0:0:
95,285,10509,6,0,P|37:283|2:238,1,120.29999060154,2|0,3:2|2:0,2:0:0:0:
113,271,11081,1,2,2:0:0:0:
284,321,11366,6,0,P|265:344|237:354,1,60.3599952907565,2|0,3:2|2:0,2:0:0:0:
277,171,11652,1,0,2:0:0:0:
291,157,11938,1,2,2:0:0:0:
380,255,12223,6,0,P|438:246|495:263,2,120.089990611553,2|0|2,3:2|2:0|2:0,2:0:0:0:
123,367,13081,5,2,3:2:0:0:
106,326,13366,1,0,2:0:0:0:
108,279,13652,1,0,2:0:0:0:
175,122,13938,6,0,P|138:82|93:112,1,120.29999060154,2|0,3:2|2:0,2:0:0:0:
249,100,14509,2,0,P|279:103|308:95,1,60.3599952907565,2|0,2:0|2:0,2:0:0:0:
430,8,14795,5,2,3:2:0:0:
358,158,15081,1,0,2:0:0:0:
427,172,15366,1,2,2:0:0:0:
329,296,15652,6,0,P|327:326|314:353,1,60.3599952907565,2|0,3:2|2:0,2:0:0:0:
260,306,15938,2,0,P|213:341|154:344,1,120.29999060154,0|0,2:0|2:0,2:0:0:0:
7,205,16509,5,2,3:2:0:0:
48,209,16795,1,0,2:0:0:0:
92,213,17081,1,0,2:0:0:0:
163,96,17366,6,0,P|151:70|149:40,1,60.3599952907565,2|0,3:2|2:0,2:0:0:0:
110,145,17652,1,0,2:0:0:0:
235,221,17938,1,2,2:0:0:0:
49,354,18223,6,0,P|97:320|155:306,1,120.29999060154,2|0,3:2|2:0,2:0:0:0:
381,350,18795,2,0,P|410:355|440:355,1,60.3599952907565,2|0,2:0|2:0,2:0:0:0:
220,377,19081,5,2,3:2:0:0:
299,237,19366,1,0,2:3:0:0:
241,115,19652,1,2,2:0:0:0:
275,14,19938,6,0,P|274:28|273:43,1,30.1799976453782,2|0,3:2|2:0,2:0:0:0:
240,115,20223,6,0,P|241:129|242:144,1,30.1799976453782,0|0,3:0|2:0,2:0:0:0:
301,237,20509,6,0,P|300:252|299:267,1,30.1799976453782,2|0,3:0|2:0,2:0:0:0:
143,383,20795,6,0,B|90:364|111:310|111:310|170:315|162:365,1,180.239985912324,2|0,3:1|2:0,2:0:0:0:
72,231,21366,2,0,P|67:202|50:165,1,60.3599952907565,2|0,3:2|2:0,2:0:0:0:
20,78,21652,1,2,3:2:0:0:
16,38,21938,1,0,3:0:0:0:
25,0,22223,1,2,3:2:0:0:
165,138,22509,5,2,3:1:0:0:
219,186,22795,1,0,3:0:0:0:
292,195,23081,1,2,3:2:0:0:
371,11,23366,1,2,3:2:0:0:
393,79,23652,1,0,3:0:0:0:
452,123,23938,1,0,3:0:0:0:
361,190,24223,6,0,B|354:218|370:279|406:309|431:296|440:229|398:234,1,180.239985912324,2|0,3:1|2:0,2:0:0:0:
457,345,24795,2,0,P|481:363|509:374,1,60.3599952907565,2|0,3:2|2:0,2:0:0:0:
288,313,25081,1,2,3:2:0:0:
243,366,25366,1,0,3:0:0:0:
177,383,25652,1,2,3:2:0:0:
4,384,25938,5,2,3:1:0:0:
77,360,26223,1,0,3:0:0:0:
139,294,26509,1,2,3:2:0:0:
292,249,26795,2,0,P|293:234|295:219,1,30.1799976453782,2|0,3:2|2:0,2:0:0:0:
432,318,27081,1,2,3:0:0:0:
506,384,27366,1,0,3:0:0:0:
508,213,27652,6,0,P|498:236|497:261,1,50.2999995088578,2|0,3:2|2:0,2:0:0:0:
424,106,27938,1,0,2:0:0:0:
340,124,28223,1,2,2:0:0:0:
237,196,28509,6,0,P|244:219|247:244,1,50.2999995088578,2|0,3:2|2:0,2:0:0:0:
339,78,28795,1,0,2:0:0:0:
424,102,29081,1,2,2:0:0:0:
502,186,29366,6,0,P|490:207|486:232,1,50.2999995088578,2|0,3:2|2:0,2:0:0:0:
423,60,29652,1,0,2:0:0:0:
339,78,29938,1,2,2:0:0:0:
237,162,30223,6,0,P|244:185|246:210,1,50.2999995088578,2|0,3:2|2:0,2:0:0:0:
338,36,30509,1,0,2:0:0:0:
423,60,30795,1,0,2:0:0:0:
230,79,31081,6,0,P|206:82|182:76,1,50.2999995088578,2|0,3:2|2:0,2:0:0:0:
40,24,31366,1,0,2:0:0:0:
32,6,31652,1,2,2:0:0:0:
39,164,31938,6,0,P|25:200|9:164,1,100.249999034405,2|0,3:2|2:0,2:0:0:0:
1,273,32509,1,2,2:0:0:0:
116,379,32795,5,2,3:2:0:0:
116,232,33081,1,0,2:0:0:0:
128,213,33366,1,2,2:0:0:0:
384,172,33652,6,0,P|346:169|310:160,1,75.0999992799759,2|0,3:2|2:0,2:0:0:0:
300,127,33938,6,0,P|262:129|226:137,1,75.0999992799759,2|0,3:0|2:0,2:0:0:0:
212,142,34223,6,0,P|187:140|162:137,1,50.2999995088578,2|0,3:2|2:0,2:0:0:0:
35,17,34509,6,0,B|180:-9|316:113|466:45,1,440.119999994278,2|0,3:2|2:0,2:0:0:0:
473,5,36223,2,0,P|470:104|496:200,1,200.359999982834,2|0,2:0|2:0,2:0:0:0:
483,161,37081,2,0,P|400:109|301:103,1,200.079999996185,2|0,2:0|2:0,2:0:0:0:
331,130,37938,6,0,B|169:179|48:78|48:78|78:130|53:213,1,440.119999994278,2|0,3:2|2:0,2:0:0:0:
56,251,39652,2,0,P|130:187|228:178,1,200.079999996185,2|0,2:0|2:0,2:0:0:0:
260,202,40509,2,0,B|284:254|241:292|241:292|294:282|320:338,1,199.999984359742,2|0,3:2|2:0,2:0:0:0:
260,371,41366,6,0,B|339:263|458:384|458:384|530:309|494:193,1,439.999965591432,2|0,3:2|2:0,2:0:0:0:
496,175,43081,2,0,P|399:155|303:125,1,200.079999996185,2|0,2:0|2:0,2:0:0:0:
298,85,43938,2,0,P|395:65|491:35,1,200.079999996185,2|0,2:0|2:0,2:0:0:0:
461,7,44795,6,0,B|317:-30|168:105|31:25,1,440.119999994278,2|0,3:2|2:0,2:0:0:0:
40,56,46509,6,0,P|41:65|42:75,1,20.1199984302521,2|0,3:1|2:0,2:0:0:0:
90,247,46795,2,0,P|128:269|140:292,1,40.2399968605043,0|0,3:2|2:0,2:0:0:0:
242,345,47081,2,0,P|248:363|252:383,1,40.2399968605043,0|0,3:0|2:0,2:0:0:0:
277,200,47366,2,0,P|295:206|311:218,1,40.2399968605043,10|0,3:2|2:0,2:0:0:0:
405,269,47652,5,2,3:1:0:0:
405,269,47723,2,0,P|393:211|375:153,1,120.439999979019,0|0,2:0|2:0,2:0:0:0:
365,117,48223,6,0,P|220:57|64:85,1,320.799999961853,6|0,3:2|3:2,2:0:0:0:
47,208,49081,2,0,P|192:268|348:240,1,320.239999988556,2|0,3:2|3:2,2:0:0:0:
359,72,49938,6,0,P|202:8|36:50,1,346.926634254775,2|0,3:2|3:2,2:0:0:0:
27,285,50795,2,0,P|186:346|351:302,1,346.926634254775,2|0,3:2|3:2,2:0:0:0:
194,208,51652,6,0,P|274:197|353:185,1,160.399999980926,6|0,3:2|3:2,2:0:0:0:
353,185,52223,1,0,3:2:0:0:
102,156,52509,2,0,P|247:94|406:100,1,320.239999988556,2|0,3:2|3:2,2:0:0:0:
384,338,53366,6,0,P|308:363|229:377,1,160.399999980926,2|0,3:2|3:2,2:0:0:0:
229,377,53938,1,0,3:2:0:0:
81,333,54223,2,0,P|39:330|0:318,1,83.8333293358485,2|0,3:0|2:0,2:0:0:0:
218,231,54509,2,0,P|261:228|303:218,1,87.1866585419978,0|0,3:2|2:0,2:0:0:0:
89,153,54795,2,0,P|44:149|0:139,1,90.5399960260392,2|0,3:2|2:0,2:0:0:0:
321,43,55081,6,0,B|422:150|384:235|384:235|389:184|348:141,1,319.999974975587,6|0,3:2|3:2,2:0:0:0:
197,77,55938,2,0,B|124:149|203:274|203:274|265:229|291:220,1,319.999974975587,2|0,3:2|3:2,2:0:0:0:
61,248,56795,6,0,B|144:306|177:367|177:367|273:313|346:319,1,346.666634267173,2|0,3:2|3:2,2:0:0:0:
500,195,57652,2,0,B|449:163|495:67|392:52|363:35|363:35|366:42|366:42|336:82|262:92,1,346.666634267173,2|0,3:2|3:2,2:0:0:0:
167,282,58509,6,0,P|154:245|167:208,1,80.4799937210086,6|0,3:2|2:0,2:0:0:0:
199,131,58795,2,0,P|224:101|263:93,1,80.4799937210086,0|0,3:2|2:0,2:0:0:0:
354,120,59081,2,0,P|390:133|411:167,1,80.4799937210086,0|0,3:2|2:0,2:0:0:0:
325,356,59366,6,0,P|300:279|280:202,1,160.39998746872,2|0,3:2|3:2,2:0:0:0:
280,202,59938,1,0,3:2:0:0:
483,343,60223,6,0,P|481:303|472:264,1,80.4799937210086,2|0,3:0|2:0,2:0:0:0:
450,150,60509,2,0,P|435:109|415:72,1,83.8333293358485,0|0,3:2|2:0,2:0:0:0:
262,16,60795,2,0,P|218:7|175:9,1,87.1866585419978,0|0,3:0|2:0,2:0:0:0:
65,41,61081,6,0,P|30:64|2:95,1,83.3333293596904,2|0,3:2|2:0,2:0:0:0:
0,193,61366,2,0,P|3:231|35:253,1,79.9999937438968,0|0,3:2|2:0,2:0:0:0:
90,312,61652,2,0,P|105:343|134:325,1,76.6666644732158,0|0,3:2|2:0,2:0:0:0:
364,366,61938,5,6,3:2:0:0:
236,292,62223,1,0,3:2:0:0:
389,371,62509,2,0,P|428:367|468:362,1,80.4799937210086,0|0,3:2|2:0,2:0:0:0:
313,276,62795,2,0,P|306:216|310:156,1,120.159990608216,2|0,3:2|2:0,2:0:0:0:
408,160,63081,2,0,P|368:159|332:142,1,80.4799937210086,0|0,3:2|2:0,2:0:0:0:
231,11,63366,2,0,P|270:12|306:29,1,80.4799937210086,0|0,3:2|2:0,2:0:0:0:
238,265,63652,5,2,3:2:0:0:
238,265,63938,2,0,P|233:223|220:177,1,83.8333293358485,0|0,3:2|2:0,2:0:0:0:
71,140,64223,2,0,P|59:180|55:221,1,83.8333293358485,0|0,3:2|2:0,2:0:0:0:
176,351,64509,2,0,P|237:364|299:358,1,125.166660698255,2|0,3:2|2:0,2:0:0:0:
336,268,64795,2,0,P|323:307|323:348,1,83.8333293358485,0|0,3:2|2:0,2:0:0:0:
478,238,65081,2,0,P|478:197|465:158,1,83.8333293358485,0|0,3:2|2:0,2:0:0:0:
215,22,65366,6,0,P|173:18|131:17,1,83.8333293358485,6|0,3:2|2:0,2:0:0:0:
4,147,65652,2,0,P|12:189|20:231,1,87.1866585419978,0|0,3:2|2:0,2:0:0:0:
115,366,65938,2,0,P|159:370|204:370,1,90.5399960260392,0|0,3:2|2:0,2:0:0:0:
444,233,66223,2,0,P|434:187|422:142,1,94.5466593100233,2|0,3:0|2:0,2:0:0:0:
310,28,66509,6,0,P|266:24|223:21,1,87.1866585419978,0|0,3:2|2:0,2:0:0:0:
112,159,66795,2,0,P|120:199|128:240,1,83.8333293358485,0|0,3:2|2:0,2:0:0:0:
351,372,67081,5,2,3:1:0:0:
350,372,67152,2,0,P|392:366|433:359,1,83.8333293358485,0|0,2:0|2:0,2:0:0:0:
444,343,67366,2,0,P|439:302|438:260,1,83.8333293358485,0|0,3:2|2:0,2:0:0:0:
485,103,67652,2,0,P|477:62|468:21,1,83.8333293358485,0|0,3:0|2:0,2:0:0:0:
53,56,67938,6,0,B|48:57|33:51|33:51|54:64|71:82|71:117,1,100.0166618975,2|4,3:2|3:0,2:0:0:0:
43,203,69081,6,0,B|54:195|71:200|79:222|103:215,1,50.2999995088577,0|0,3:2|2:0,2:0:0:0:
130,279,69366,2,0,B|159:267|184:282|201:304|242:289,1,100.249999034405,0|8,3:2|3:2,2:0:0:0:
366,336,69938,5,0,3:2:0:0:
366,336,70223,2,0,P|368:321|372:299,1,33.4166650732358,0|8,3:2|3:2,2:0:0:0:
469,153,70795,6,0,P|444:153|449:188,1,50.2999995088577,0|0,3:2|2:0,2:0:0:0:
373,201,71081,2,0,B|355:214|313:197|280:163|305:132,1,100.249999034405,0|8,3:2|3:2,2:0:0:0:
176,112,71652,5,0,3:2:0:0:
176,112,71938,2,0,P|149:105|136:100,1,33.4166650732358,0|4,3:2|3:0,2:0:0:0:
260,53,72509,6,0,P|285:50|326:44,1,50.2999995088577,0|0,3:2|2:0,2:0:0:0:
366,89,72795,2,0,P|376:118|457:106,1,100.249999034405,0|8,3:2|3:2,2:0:0:0:
492,17,73366,5,0,3:2:0:0:
492,17,73652,2,0,P|489:37|486:53,1,33.4166650732358,0|8,3:2|3:2,2:0:0:0:
512,167,74223,5,0,3:2:0:0:
498,207,74366,1,2,2:0:0:0:
491,249,74509,1,0,3:2:0:0:
489,292,74652,1,2,2:0:0:0:
497,334,74795,1,10,3:2:0:0:
414,376,75081,5,0,3:2:0:0:
325,380,75366,1,2,3:2:0:0:
240,351,75652,2,0,P|199:347|-1:331,1,240.179981223107,4|0,3:0|3:2,2:0:0:0:
97,260,76509,2,0,P|143:263|189:271,1,60.3599952907564,8|0,3:2|2:0,2:0:0:0:
126,187,76795,2,0,P|93:210|13:170,1,120.29999060154,0|0,3:2|3:2,2:0:0:0:
89,111,77366,2,0,B|128:97|176:103|205:159|283:168|329:136,1,240.179981223107,8|0,3:2|3:2,2:0:0:0:
370,59,78223,5,8,3:2:0:0:
446,162,78509,1,0,3:2:0:0:
424,204,78652,1,0,2:0:0:0:
413,246,78795,1,0,3:2:0:0:
428,342,79081,5,4,3:0:0:0:
306,375,79366,1,0,3:2:0:0:
215,283,79652,1,0,3:2:0:0:
287,173,79938,2,0,P|281:135|267:31,2,120.089990611553,8|0|0,3:2|3:2|3:2,2:0:0:0:
6,261,80795,5,8,3:2:0:0:
98,340,81081,1,0,3:2:0:0:
145,175,81366,1,0,3:2:0:0:
34,28,81652,1,8,3:2:0:0:
15,114,81938,5,0,3:2:0:0:
62,122,82081,1,2,2:0:0:0:
109,103,82223,1,0,3:2:0:0:
171,63,82366,1,2,2:0:0:0:
247,75,82509,6,0,P|251:147|256:232,1,120.29999060154,4|0,3:0|3:2,2:0:0:0:
331,239,83081,1,0,3:2:0:0:
117,222,83366,6,0,P|65:244|-12:285,1,120.29999060154,8|0,3:2|3:2,2:0:0:0:
208,278,83938,1,0,3:2:0:0:
373,158,84223,6,0,P|388:77|398:33,1,120.29999060154,8|0,3:2|3:2,2:0:0:0:
314,0,84795,1,0,3:2:0:0:
511,112,85081,5,8,3:2:0:0:
456,204,85366,1,0,3:2:0:0:
447,250,85509,1,0,2:0:0:0:
450,301,85652,1,0,3:2:0:0:
331,362,85938,6,0,P|281:361|184:346,1,120.29999060154,4|0,3:0|3:2,2:0:0:0:
118,327,86509,1,0,3:2:0:0:
225,131,86795,6,0,P|291:110|348:100,1,120.29999060154,8|0,3:2|3:2,2:0:0:0:
145,94,87366,1,0,3:2:0:0:
4,167,87652,6,0,P|27:245|43:307,1,120.29999060154,8|0,3:2|3:2,2:0:0:0:
3,368,88223,1,0,3:2:0:0:
138,252,88509,5,8,3:2:0:0:
179,234,88652,1,2,3:2:0:0:
225,231,88795,1,0,3:2:0:0:
264,237,88938,1,2,2:0:0:0:
299,261,89081,1,0,3:2:0:0:
482,110,89366,6,0,B|473:76|390:58|310:73|246:139|245:167|245:167|290:139|353:126|409:166|432:229|392:308|299:300|284:235,1,600.239953067782,6|0,3:0|3:2,2:0:0:0:
129,360,91081,6,0,B|87:278|125:209|168:204|168:204|149:211|132:252,1,240.179981223107,10|0,3:2|3:2,2:0:0:0:
128,131,91938,2,0,B|86:213|124:282|167:287|167:287|148:280|131:239,1,240.179981223107,10|0,3:2|3:2,2:0:0:0:
133,245,92795,6,0,B|103:278|63:280|63:280|128:281|199:226|249:179|360:180|428:208|428:208|402:200|339:183|286:218,1,600.239953067782,6|0,3:0|3:2,2:0:0:0:
208,54,94509,6,0,B|213:38|172:42|172:42|184:70|214:80|258:78|283:69|300:55|300:55|286:68|284:110,1,240.179981223107,10|0,3:2|3:2,2:0:0:0:
206,157,95366,2,0,B|198:154|188:154|188:154|219:141|244:176,1,73.7733320535024,10|0,3:2|2:0,2:0:0:0:
274,184,95652,2,0,P|283:193|298:250,1,60.3599952907565,2|0,3:0|2:0,2:0:0:0:
289,270,95938,1,0,3:2:0:0:
402,153,96223,6,0,P|436:135|529:105,1,120.29999060154,4|0,3:0|3:2,2:0:0:0:
347,86,96795,1,0,3:2:0:0:
190,220,97081,6,0,P|174:254|155:350,1,120.29999060154,8|0,3:2|3:2,2:0:0:0:
77,372,97652,1,0,3:2:0:0:
308,308,97938,6,0,P|364:331|443:369,1,120.29999060154,8|0,3:2|3:2,2:0:0:0:
503,322,98509,1,0,3:2:0:0:
337,185,98795,2,0,B|299:160|241:174|188:252|94:221,1,240.179981223107,8|0,3:2|3:2,2:0:0:0:
22,119,99652,5,4,3:0:0:0:
126,99,99938,1,0,3:2:0:0:
225,79,100223,1,0,3:2:0:0:
336,185,100509,2,0,P|361:278|494:273,1,240.179981223107,8|0,3:2|3:2,2:0:0:0:
227,191,101366,6,0,P|208:255|194:327,1,120.29999060154,8|0,3:2|3:2,2:0:0:0:
278,356,101938,1,0,3:2:0:0:
111,284,102223,2,0,P|133:208|-8:153,1,240.179981223107,8|2,3:2|3:0,2:0:0:0:
280,107,103081,6,0,B|251:96|229:115|229:115|258:25|397:76|331:222|255:270|255:270|335:226|387:252|408:293|467:300|500:267,1,600.239953067782,4|0,3:0|3:2,2:0:0:0:
239,372,104795,6,0,B|215:318|142:284|73:294|73:294|110:300|147:347,1,240.179981223107,8|0,3:2|3:2,2:0:0:0:
126,177,105652,2,0,B|160:224|153:304|110:358|110:358|123:324|101:268,1,240.179981223107,8|0,3:2|3:2,2:0:0:0:
258,232,106509,6,0,B|269:198|310:193|341:199|341:199|288:173|214:204|199:264|217:295|265:345|265:345|200:288|170:281|117:287|111:318|83:326|25:312,1,600.239953067782,4|0,3:0|3:2,2:0:0:0:
69,220,108223,6,0,B|47:232|0:135|94:59|94:59|70:84|76:120,1,240.179981223107,8|0,3:2|3:2,2:0:0:0:
152,155,109081,1,8,3:2:0:0:
237,196,109366,1,0,3:2:0:0:
280,204,109509,1,0,2:0:0:0:
326,191,109652,1,0,3:2:0:0:
422,102,109938,6,0,B|423:67|438:41|438:41|419:52|391:93|381:179|408:231|430:257|430:257|414:218|422:162,1,360.059971844674,4|8,3:0|3:2,2:0:0:0:
310,139,111081,2,0,B|310:131|304:122|304:122|311:126|323:143|327:177|316:198|312:203|312:203|313:193|310:170,1,120.29999060154,0|0,3:2|3:2,2:0:0:0:
161,110,111652,6,0,B|143:96|113:92|113:92|148:79|200:92|236:125|246:166|223:239,1,240.179981223107,8|0,3:2|3:2,2:0:0:0:
114,221,112509,2,0,B|126:192|152:182|152:182|138:200|152:227,1,73.7733320535024,8|0,3:2|2:0,2:0:0:0:
190,260,112795,2,0,P|168:275|134:324,1,60.3599952907565,0|0,3:2|2:0,2:0:0:0:
152,340,113081,1,0,3:2:0:0:
67,380,113366,6,0,B|106:286|252:279|310:323|310:323|264:304|206:329,2,360.059971844674,4|8|8,3:0|3:2|3:2,2:0:0:0:
464,140,115652,5,0,3:2:0:0:
464,140,115938,1,10,3:1:0:0:
418,126,116081,1,0,3:2:0:0:
358,144,116223,1,2,3:1:0:0:
303,189,116366,1,0,2:0:0:0:
231,220,116509,1,2,3:1:0:0:
150,220,116652,1,0,2:0:0:0:
67,188,116795,6,0,B|53:181|32:181|16:186|16:186|85:136|212:177|266:278,1,333.583317426841,6|0,3:1|3:2,2:0:0:0:
257,264,117652,2,0,B|272:284|256:311|256:311|236:259|267:109|355:78,1,300.399997119903,10|0,3:1|2:0,2:0:0:0:
450,21,118223,1,0,3:2:0:0:
249,140,118509,6,0,B|236:127|209:123|185:120|185:120|216:110|335:127|392:231|393:258|393:258|362:201|296:177,1,400.299996170998,10|0,3:1|3:2,2:0:0:0:
354,210,119366,2,0,B|362:170|380:148|397:133|397:133|354:136|309:205|298:270|331:392|433:405,1,350.466653292974,10|0,3:1|2:0,2:0:0:0:
429,324,119938,1,0,3:2:0:0:
429,324,120223,6,0,B|443:313|500:302|500:302|445:292|347:344|238:376|182:305|220:294,1,350.466653292974,6|0,3:1|2:0,2:0:0:0:
164,294,120795,2,0,P|145:278|20:278,1,117.366662182808,0|0,3:2|2:0,2:0:0:0:
88,339,121081,2,0,B|157:350|222:291|297:217|345:261,1,233.916657737891,10|0,3:2|3:2,2:0:0:0:
378,250,121509,1,0,2:0:0:0:
374,255,121581,1,0,2:0:0:0:
370,260,121652,1,0,3:2:0:0:
401,157,121938,6,0,B|396:141|358:130|311:163|311:163|319:137|285:115|285:115|287:95|267:65|267:65|318:97|322:112|339:151|336:215|335:219|324:233,1,360.059971844674,10|10,3:1|3:2,2:0:0:0:
274,236,123081,2,0,P|257:242|234:227,1,33.5333317343395,0|0,3:2|2:0,2:0:0:0:
343,257,123366,2,0,P|348:261|356:294,1,33.5333317343395,2|0,3:0|2:0,2:0:0:0:
438,347,123652,6,0,B|455:347|473:351|496:361|496:361|464:318|397:316|364:329|364:329|363:345|363:345|316:329|262:335|234:373,1,333.583317426841,6|0,3:1|3:2,2:0:0:0:
254,353,124509,2,0,B|282:345|230:252|128:310|110:363|110:363|107:342|107:342|91:362|73:386|16:364,1,300.399997119903,10|0,3:1|2:0,2:0:0:0:
0,294,125081,1,0,3:2:0:0:
285,194,125366,6,0,B|316:170|279:134|157:136|157:219|157:219|141:205|141:205|116:221|69:211|29:171|34:132|34:132|48:151|81:142,1,400.299996170998,10|0,3:1|3:2,2:0:0:0:
52,143,126223,2,0,B|67:148|74:164|74:164|84:134|71:109|35:91,1,117.366662182808,10|0,3:1|2:0,2:0:0:0:
129,26,126509,2,0,B|113:20|106:4|106:4|96:34|109:59|145:77,1,117.366662182808,0|0,3:2|2:0,2:0:0:0:
373,17,126795,2,0,B|378:4|391:-2|391:-2|366:-10|345:1|322:43,1,117.366662182808,0|0,3:2|2:0,2:0:0:0:
256,70,127081,6,0,B|274:109|261:148|239:188|239:188|253:194|253:194|197:274|205:318|235:346|235:346|257:323|228:289,1,350.466653292974,6|0,3:1|2:0,2:0:0:0:
201,228,127652,2,0,B|190:205|146:205|125:235|125:235|150:222|164:225,1,117.366662182808,0|0,3:2|2:0,2:0:0:0:
270,243,127938,2,0,B|318:219|388:238|411:292|411:292|420:246|380:180|209:162|211:260|193:280|35:314|26:250|50:201,1,583.56664440314,10|0,3:1|2:0,2:0:0:0:
39,138,128795,6,0,B|49:117|95:106|129:145|129:145|141:134|141:134|169:139|179:154|210:156|236:147|236:147|213:143|201:132,1,240.179981223107,10|0,3:1|3:2,2:0:0:0:
216,141,129652,1,10,3:1:0:0:
272,209,129938,6,0,P|294:196|287:176,1,33.5333317343395,0|0,3:2|2:0,2:0:0:0:
307,122,130223,2,0,L|300:79,1,33.5333317343395,2|0,3:0|2:0,2:0:0:0:
228,67,130509,6,0,B|257:41|347:89|428:141|483:112,1,240.179981223107,6|0,3:1|3:2,2:0:0:0:
448,47,131224,1,0,2:0:0:0:
444,41,131295,1,0,2:0:0:0:
437,35,131366,2,0,B|408:28|375:42|298:129|284:171|204:146,1,240.179981223107,10|0,3:1|3:2,2:0:0:0:
200,239,132223,6,0,B|189:229|170:227|170:227|201:212|247:231|271:272|297:330|363:320|363:320|334:313|307:286,1,293.553328287443,10|0,3:1|3:2,2:0:0:0:
206,309,133081,2,0,B|205:314|176:322|176:322|242:331|268:273|292:232|338:213|369:228|369:228|350:230|339:240,1,293.553328287443,10|0,3:1|3:2,2:0:0:0:
302,159,133795,5,0,2:0:0:0:
300,152,133866,1,0,2:0:0:0:
301,146,133938,2,0,B|310:137|336:132|336:132|296:119|249:132|197:181|197:181|193:164|193:164|174:209|110:244|51:250|7:197,1,400.299996170998,6|0,3:1|3:2,2:0:0:0:
78,98,134795,6,0,B|71:88|48:86|48:86|81:79|118:99|126:121,1,100.599999017715,10|0,3:2|2:0,2:0:0:0:
165,149,135081,2,0,B|181:151|194:174|194:174|197:160|197:160|208:182|240:196,1,100.599999017715,0|0,3:2|2:0,2:0:0:0:
330,234,135366,2,0,B|337:244|360:246|360:246|327:253|290:233|282:211,1,100.599999017715,0|0,3:2|2:0,2:0:0:0:
296,223,135581,1,0,2:0:0:0:
295,217,135652,6,0,P|313:260|340:333,1,100.599999017715,10|0,3:1|2:0,2:0:0:0:
346,377,135938,2,0,P|318:334|258:273,1,100.599999017715,0|0,3:2|2:0,2:0:0:0:
148,219,136223,2,0,P|190:262|232:319,1,100.599999017715,0|0,3:2|2:0,2:0:0:0:
197,327,136509,2,0,P|169:286|58:119,1,200.149998085498,10|2,3:1|1:3,2:0:0:0:
12,41,137366,5,4,1:0:0:0:
54,12,137509,1,0,2:0:0:0:
97,8,137652,1,0,3:2:0:0:
135,25,137797,1,0,2:0:0:0:
151,48,137941,1,0,3:2:0:0:
152,68,138085,1,0,2:0:0:0:
141,74,138229,5,8,1:0:0:0:
168,60,138373,1,0,2:0:0:0:
209,64,138517,1,0,3:2:0:0:
252,92,138660,1,0,2:0:0:0:
300,109,138804,1,0,3:2:0:0:
343,98,138948,1,0,2:0:0:0:
392,50,139092,5,8,1:0:0:0:
426,75,139234,1,0,2:0:0:0:
465,82,139377,1,0,3:2:0:0:
497,63,139520,1,0,2:0:0:0:
506,48,139663,1,0,3:2:0:0:
502,36,139806,1,0,2:0:0:0:
494,32,139949,5,8,1:0:0:0:
466,60,140092,1,0,0:0:0:0:
458,99,140234,1,0,3:2:0:0:
484,142,140377,1,0,2:0:0:0:
501,194,140520,1,0,3:2:0:0:
488,250,140663,1,0,2:0:0:0:
414,222,140806,5,4,1:0:0:0:
423,221,140949,1,0,2:0:0:0:
421,213,141092,1,0,3:2:0:0:
376,219,141234,1,0,2:0:0:0:
346,247,141377,1,0,3:2:0:0:
350,294,141520,1,0,2:0:0:0:
271,286,141663,5,8,1:0:0:0:
278,289,141806,1,0,2:0:0:0:
279,278,141949,1,0,3:2:0:0:
260,240,142092,1,0,2:0:0:0:
214,224,142234,1,0,3:2:0:0:
172,243,142377,1,0,2:0:0:0:
114,288,142520,5,8,1:0:0:0:
105,296,142663,1,0,2:0:0:0:
100,286,142806,1,0,3:2:0:0:
56,274,142949,5,0,2:0:0:0:
83,227,143092,1,0,3:2:0:0:
76,177,143234,1,0,2:0:0:0:
39,120,143377,5,8,1:0:0:0:
31,118,143520,1,0,2:0:0:0:
32,126,143663,1,0,3:2:0:0:
79,171,143806,5,0,2:0:0:0:
84,236,143949,1,0,3:2:0:0:
66,301,144092,1,0,2:0:0:0:
26,360,144234,6,0,B|22:352|-2:349|-2:349|35:319|116:327|137:376,1,175.233326646487,4|0,1:0|2:0,2:0:0:0:
122,356,144520,2,0,B|128:364|126:378|126:378|102:360|99:320|134:299,1,117.366662182808,10|0,3:0|2:0,2:0:0:0:
244,170,144806,2,0,B|247:160|260:154|260:154|257:184|224:207|188:188,1,117.366662182808,8|0,3:0|2:0,2:0:0:0:
184,95,145092,5,8,1:0:0:0:
138,63,145234,1,0,2:0:0:0:
108,59,145377,1,2,1:3:0:0:
85,65,145520,1,0,2:0:0:0:
133,90,145663,1,0,1:0:0:0:
194,92,145806,1,0,2:0:0:0:
254,54,145949,6,0,B|275:43|342:72|362:111|402:94|402:94|377:92|348:66,1,175.233326646487,8|0,1:0|2:0,2:0:0:0:
377,91,146234,2,0,B|360:87|314:117|337:164|361:162|361:162|345:146,1,117.366662182808,10|0,3:0|2:0,2:0:0:0:
471,373,146520,2,0,B|482:360|479:305|426:301|417:324|417:324|438:317,1,117.366662182808,8|0,3:0|2:0,2:0:0:0:
477,242,146806,5,8,1:0:0:0:
435,232,146949,1,0,2:0:0:0:
382,253,147092,1,2,1:3:0:0:
331,300,147234,1,0,2:0:0:0:
259,305,147377,1,0,1:0:0:0:
188,283,147520,5,0,2:0:0:0:
189,276,147592,1,0,2:0:0:0:
195,282,147663,2,0,B|235:266|292:311|313:365|340:379|372:369|367:344,1,187.749995517731,4|0,1:0|2:0,2:0:0:0:
353,360,147949,2,0,B|343:345|294:342|262:382|261:379|219:370,1,125.749996984005,10|0,3:0|2:0,2:0:0:0:
119,227,148234,5,8,3:0:0:0:
82,201,148377,1,0,2:0:0:0:
45,182,148520,2,0,B|35:184|18:182|18:182|71:206|89:177|89:177|95:182|95:182|113:164|143:155|180:173,1,187.749995517731,8|0,1:0|2:0,2:0:0:0:
166,171,148806,2,0,B|184:171|215:190|215:190|213:167|191:145|152:140|133:146,1,125.749996984005,2|0,1:3|2:0,2:0:0:0:
352,43,149092,5,0,1:0:0:0:
427,94,149234,1,0,2:0:0:0:
422,85,149306,1,0,2:0:0:0:
431,82,149377,2,0,B|446:78|462:83|462:83|438:61|396:63|364:108|280:87,1,200.266657117208,8|0,1:0|2:0,2:0:0:0:
291,88,149663,2,0,B|284:82|262:82|262:82|292:58|336:75|343:136|294:145,1,134.133326937358,10|0,3:0|2:0,2:0:0:0:
290,313,149949,5,8,3:0:0:0:
281,306,150020,1,0,2:0:0:0:
270,303,150092,1,0,2:0:0:0:
260,304,150163,1,0,2:0:0:0:
249,307,150234,2,0,B|242:311|221:310|221:310|262:328|308:297|303:257|299:214|267:201,1,199.999990463257,8|0,1:0|2:0,2:0:0:0:
264,202,150520,2,0,B|254:198|235:209|235:209|276:235|294:245|338:213,1,134.133326937358,2|0,1:3|2:0,2:0:0:0:
481,253,150806,5,2,1:0:0:0:
478,262,150877,1,0,2:0:0:0:
484,271,150949,1,0,2:0:0:0:
483,280,151020,1,0,2:0:0:0:
480,293,151092,6,0,B|381:69|173:110|173:110|249:115|277:136,1,499.999976158142,4|8,3:2|3:2,2:0:0:0:
445,366,152306,2,0,P|362:357|279:344,1,167.083325366179,0|0,2:0|2:0,2:0:0:0:
77,246,152806,5,10,3:2:0:0:
89,256,152877,2,0,B|106:254|115:273|115:273|159:239|318:247|318:247|340:319|387:162|351:100|351:100|354:119|351:111,1,458.749978125095,0|10,2:0|3:2,2:0:0:0:
446,157,153806,2,0,P|389:10|232:10,1,333.583317426841,0|0,2:0|2:0,2:0:0:0:
178,99,154520,5,4,3:0:0:0:
174,109,154592,2,0,B|195:146|200:125|200:125|273:186|248:235|208:330|100:321|56:324|13:273|40:243|40:243|41:263|54:268,1,458.749978125095,0|8,2:0|3:2,2:0:0:0:
47,18,155663,5,0,2:0:0:0:
54,27,155734,2,0,P|133:39|174:108,1,167.083325366179,0|0,2:0|2:0,2:0:0:0:
250,217,156234,5,10,3:2:0:0:
243,225,156306,2,0,B|257:242|257:242|265:224|327:201|344:119|344:119|368:163|413:152|413:152|390:135|393:127,1,291.666652758916,0|0,2:0|2:0,2:0:0:0:
503,278,157092,5,10,3:2:0:0:
490,288,157163,2,0,P|428:283|372:310,1,125.166660698255,0|0,2:0|3:0,2:0:0:0:
321,353,157520,1,2,2:0:0:0:
246,358,157663,1,0,3:2:0:0:
165,337,157806,1,2,2:0:0:0:
109,274,157949,1,4,3:2:0:0:
109,274,158234,5,2,2:0:0:0:
98,174,158377,1,0,3:0:0:0:
86,74,158520,1,2,2:0:0:0:
362,79,158806,5,10,3:2:0:0:
364,89,158877,2,0,P|332:142|306:199,1,125.166660698255,0|0,2:0|2:0,2:0:0:0:
495,12,159377,1,2,2:0:0:0:
401,230,159663,5,10,3:2:0:0:
410,238,159734,2,0,P|397:295|339:309,1,125.166660698255,0|0,2:0|2:0,2:0:0:0:
150,27,160199,2,0,P|179:82|196:142,1,125.166660698255,2|0,2:0|2:0,2:0:0:0:
58,26,160734,2,0,P|67:108|74:191,1,167.083325366179,2|0,2:0|2:0,2:0:0:0:
84,346,161234,1,2,2:0:0:0:
159,373,161377,6,0,P|233:336|312:357,1,167.083325366179,4|0,3:0|2:0,2:0:0:0:
449,277,161949,1,0,2:0:0:0:
467,212,162092,1,0,2:0:0:0:
458,126,162234,1,8,3:2:0:0:
449,122,162306,2,0,P|369:147|288:168,1,167.083325366179,0|0,2:0|2:0,2:0:0:0:
191,190,162877,1,0,2:0:0:0:
6,6,163092,5,10,3:2:0:0:
8,16,163163,1,0,2:0:0:0:
48,174,163449,1,0,2:0:0:0:
147,337,163734,1,0,2:0:0:0:
420,340,163949,1,10,3:2:0:0:
434,323,164020,6,0,B|507:169|373:41|196:93|237:267|329:279|319:80,1,513.333293190004,0|2,2:0|3:2,2:0:0:0:
426,28,178377,5,2,2:0:0:0:
426,37,178449,1,0,2:0:0:0:
427,47,178520,2,0,P|429:80|432:113,1,67.0666634686788,0|0,3:2|2:0,2:0:0:0:
439,181,178806,2,0,P|440:205|441:230,1,50.2999995088578,0|0,3:2|2:0,2:0:0:0:
444,267,179092,5,0,3:2:0:0:
448,346,179306,5,0,2:0:0:0:
449,355,179377,1,2,2:0:0:0:
368,371,179592,5,0,3:0:0:0:
351,374,179663,2,0,P|327:377|304:376,6,46.7288852365283,2|0|0|0|0|0|0,2:1|2:0|2:0|2:0|2:0|2:0|2:0,2:0:0:0:
512,325,180234,6,0,P|327:347|146:305,1,373.613304124833,6|0,3:2|3:2,2:0:0:0:
345,64,181092,2,0,P|333:156|325:249,1,187.133318713506,10|0,3:2|3:2,2:0:0:0:
325,249,181663,1,0,3:2:0:0:
512,41,181949,6,0,P|314:19|122:70,1,400.299996170998,10|0,3:2|3:2,2:0:0:0:
353,321,182806,2,0,P|344:221|326:123,1,200.499998068809,10|0,3:2|3:2,2:0:0:0:
326,123,183377,1,0,3:2:0:0:
190,201,183663,6,0,B|182:189|158:189|158:189|223:144|339:304|444:189|444:189|427:192|416:196,1,373.613304124833,6|0,3:0|3:2,2:0:0:0:
501,149,184520,2,0,B|454:170|369:147|383:56,1,187.786652015686,10|0,3:2|3:2,2:0:0:0:
316,16,185092,2,0,P|269:12|223:7,1,93.8933260078433,0|0,3:2|2:0,2:0:0:0:
95,60,185377,5,10,3:2:0:0:
206,92,185520,1,0,2:0:0:0:
215,90,185592,1,0,2:0:0:0:
224,88,185663,1,0,3:2:0:0:
292,131,185806,1,0,2:0:0:0:
281,146,185877,2,0,P|236:136|135:143,1,140.186655709585,0|0,2:0|2:0,2:0:0:0:
45,221,186234,6,0,P|60:254|70:287,1,69.9999945259097,10|0,3:2|2:0,2:0:0:0:
143,288,186449,2,0,P|152:254|156:220,1,69.9999945259097,0|0,3:2|2:0,2:0:0:0:
247,226,186663,2,0,P|241:315|164:362,1,186.666652069092,2|0,3:2|2:0,2:0:0:0:
39,357,187092,6,0,B|9:203|37:85|37:85|41:137|89:164|89:164|88:163,1,373.613304124833,4|0,3:0|3:2,2:0:0:0:
318,94,187949,2,0,P|227:73|135:83,1,187.133318713506,10|0,3:2|3:2,2:0:0:0:
135,83,188520,1,0,3:2:0:0:
280,299,188806,6,0,P|324:123|502:159,1,400.299996170998,10|0,3:2|3:2,2:0:0:0:
280,299,189663,2,0,P|184:275|87:294,1,200.499998068809,10|0,3:2|3:2,2:0:0:0:
86,294,190234,1,0,3:2:0:0:
404,338,190520,6,0,P|398:291|389:245,1,93.8933260078433,4|0,3:0|2:0,2:0:0:0:
365,180,190806,2,0,P|337:142|306:107,1,93.8933260078433,0|0,3:2|2:0,2:0:0:0:
255,57,191092,2,0,P|218:27|179:1,1,93.8933260078433,0|0,3:2|2:0,2:0:0:0:
418,336,191377,6,0,P|412:289|403:243,1,93.8933260078433,10|0,3:2|2:0,2:0:0:0:
379,178,191663,2,0,P|351:140|320:105,1,93.8933260078433,0|0,3:2|2:0,2:0:0:0:
269,55,191949,2,0,P|232:25|193:0,1,93.8933260078433,0|0,3:2|2:0,2:0:0:0:
59,104,192234,6,0,P|153:107|245:121,2,186.806652062416,10|0|0,3:2|3:2|3:0,2:0:0:0:
312,258,193092,2,0,P|322:303|332:349,1,93.8933260078433,10|0,3:2|2:0,2:0:0:0:
157,253,193377,2,0,P|189:286|220:321,1,93.8933260078433,0|0,3:2|2:0,2:0:0:0:
73,342,193663,2,0,P|117:355|162:369,1,93.8933260078433,2|0,3:0|2:0,2:0:0:0:
17,193,193949,6,0,P|22:146|29:100,1,93.8933260078433,14|0,1:0|2:0,2:0:0:0:
120,32,194234,2,0,P|165:24|212:19,1,93.8933260078433,0|0,3:2|2:0,2:0:0:0:
309,77,194520,2,0,P|316:122|321:169,1,93.8933260078433,0|0,3:2|3:0,2:0:0:0:
323,181,194734,1,0,3:0:0:0:
328,196,194806,6,0,P|416:206|446:122,1,193.816663324833,14|0,1:0|3:2,2:0:0:0:
381,48,195234,1,0,2:0:0:0:
291,60,195377,2,0,P|242:64|194:65,1,97.2466649796168,0|0,3:2|2:0,2:0:0:0:
26,286,195663,6,0,P|58:320|105:324,1,97.2466649796168,14|0,1:0|2:0,2:0:0:0:
193,247,195949,2,0,P|181:200|168:153,1,97.2466649796168,0|0,3:2|2:0,2:0:0:0:
100,59,196234,2,0,P|52:63|20:97,1,97.2466649796168,0|0,3:2|3:0,2:0:0:0:
21,124,196449,1,0,3:0:0:0:
21,145,196520,6,0,P|100:203|130:296,1,200.499998068809,14|0,1:0|3:2,2:0:0:0:
260,295,196949,1,0,2:0:0:0:
254,365,197092,2,0,P|303:369|353:372,1,100.599999017715,0|0,3:2|3:0,2:0:0:0:
367,365,197306,1,0,3:0:0:0:
387,354,197377,6,0,P|399:303|419:256,1,103.953329164823,6|0,3:0|2:0,2:0:0:0:
495,148,197663,2,0,P|482:97|462:50,1,103.953329164823,0|0,3:2|2:0,2:0:0:0:
310,68,197949,2,0,P|343:111|383:149,1,110.659995772362,0|0,3:2|2:0,2:0:0:0:
199,15,198234,2,0,P|146:22|95:38,1,107.306661549886,10|0,3:2|2:0,2:0:0:0:
75,291,198520,2,0,P|87:240|106:192,1,103.953329164823,0|0,3:2|2:0,2:0:0:0:
296,222,198806,2,0,P|305:272|310:321,1,100.599999017715,0|0,3:2|3:0,2:0:0:0:
304,336,199020,1,0,3:0:0:0:
291,353,199092,6,0,P|187:359|84:367,1,207.183325030804,14|0,1:2|3:2,2:0:0:0:
69,355,199449,1,0,2:0:0:0:
56,338,199520,1,0,3:0:0:0:
15,258,199663,2,0,P|14:206|14:154,1,103.953329164823,2|0,3:0|2:0,2:0:0:0:
464,62,199949,1,10,3:2:0:0:
464,62,200806,6,0,P|455:121|451:181,1,120.29999060154,4|0,3:0|2:0,2:0:0:0:
465,275,201377,1,0,2:0:0:0:
403,348,201663,2,0,P|343:353|283:361,1,120.29999060154,10|0,3:2|3:2,2:0:0:0:
188,370,202234,1,0,3:2:0:0:
40,198,202377,5,0,2:0:0:0:
29,171,202449,1,0,2:0:0:0:
20,143,202520,2,0,P|11:97|0:51,1,93.8933260078433,14|0,1:2|2:0,2:0:0:0:
252,182,202806,2,0,P|263:227|272:273,1,93.8933260078433,4|0,3:0|2:0,2:0:0:0:
488,111,203092,2,0,P|497:65|509:20,1,93.8933260078433,4|0,3:0|2:0,2:0:0:0:
361,333,203377,2,0,P|269:375|183:320,1,213.866656468709,6|8,1:0|3:0,2:0:0:0:
