osu file format v14

[General]
AudioFilename: audio.mp3
AudioLeadIn: 0
PreviewTime: 47652
Countdown: 0
SampleSet: Soft
StackLeniency: 0.4
Mode: 0
LetterboxInBreaks: 0
WidescreenStoryboard: 1

[Editor]
Bookmarks: 68795
DistanceSpacing: 1
BeatDivisor: 3
GridSize: 32
TimelineZoom: 0.9999998

[Metadata]
Title:Zangeroku
TitleUnicode:懺悔録
Artist:Kuroki Nagisa
ArtistUnicode:黒木渚
Creator:Shurelia
Version:Normal
Source:デモンズゲート 帝都審神大戦 ~東京黙示録編~ 音楽大全
Tags:Demon's Gate: Teito Shinshin Taisen ~Tokyo Mokushiroku-hen~ Ongaku Zenshuu Japanese Video Game ending ED LMT collab BlastTheKidd
BeatmapID:2533172
BeatmapSetID:1217492

[Difficulty]
HPDrainRate:5
CircleSize:3.5
OverallDifficulty:4
ApproachRate:5.5
SliderMultiplier:2.59999990463257
SliderTickRate:1

[Events]
//Background and Video events
0,0,"kurokibg.jpg",0,0
//Break Periods
2,68795,74452
2,164795,173881
//Storyboard Layer 0 (Background)
//Storyboard Layer 1 (Fail)
//Storyboard Layer 2 (Pass)
//Storyboard Layer 3 (Foreground)
//Storyboard Layer 4 (Overlay)
//Storyboard Sound Samples

[TimingPoints]
224,857.142857142857,2,2,1,40,1,0
20795,-100,2,2,1,45,0,0
27652,-100,2,2,1,40,0,0
34509,-100,2,2,1,45,0,0
37938,-100,2,2,1,47,0,0
41366,-100,2,2,1,45,0,0
43938,-100,2,2,1,48,0,0
44795,-100,2,2,1,50,0,0
45652,-100,2,2,1,54,0,0
46509,-100,2,2,1,60,0,0
48223,-100,2,2,1,65,0,1
61938,-100,2,2,1,67,0,1
62795,-100,2,2,1,69,0,1
63652,-100,2,2,1,71,0,1
64509,-100,2,2,1,74,0,1
65366,-100,2,2,1,65,0,1
66223,-100,2,2,1,70,0,1
67081,-100,2,2,1,75,0,1
67938,-100,2,2,1,75,0,0
75652,-100,2,2,1,55,0,0
89366,-100,2,2,1,60,0,0
96223,-100,2,2,1,55,0,0
103081,-100,2,2,1,50,0,0
105652,-100,2,2,1,57,0,0
106509,-100,2,2,1,52,0,0
109938,-100,2,2,1,56,0,0
112509,-100,2,2,1,58,0,0
113366,-100,2,2,1,62,0,0
114223,-100,2,2,1,65,0,0
115081,-100,2,2,1,68,0,0
115938,-100,2,2,1,70,0,0
116795,-100,2,2,1,75,0,1
130509,-100,2,2,1,70,0,1
131366,-100,2,2,1,74,0,1
132223,-100,2,2,1,78,0,1
133080,-100,2,2,1,82,0,1
133938,-100,2,2,1,85,0,1
134795,-100,2,2,1,80,0,1
135652,-100,2,2,1,85,0,1
136509,-100,2,2,1,85,0,0
137366,863.309352517986,2,2,1,70,1,0
138229,-100,2,2,1,75,0,0
139092,857.142857142857,2,2,1,80,1,0
139949,-100,2,2,1,85,0,0
140806,-100,2,2,1,70,0,0
141663,-100,2,2,1,75,0,0
142520,-100,2,2,1,80,0,0
143377,-100,2,2,1,85,0,0
144234,-100,2,2,1,75,0,1
144520,-100,2,2,1,75,0,0
145092,-100,2,2,1,80,0,0
145949,-100,2,2,1,85,0,0
146806,-100,2,2,1,90,0,0
147663,-100,2,2,1,75,0,0
148520,-100,2,2,1,80,0,0
149377,-100,2,2,1,85,0,0
150234,-100,2,2,1,90,0,0
151949,-100,2,2,1,55,0,0
157949,-100,2,2,1,60,0,0
163092,-100,2,2,1,65,0,0
163949,-100,2,2,1,70,0,0
178520,-100,2,2,1,65,0,0
180234,-100,2,2,1,70,0,1
193949,-100,2,2,1,65,0,1
194806,-100,2,2,1,71,0,1
195663,-100,2,2,1,78,0,1
196520,-100,2,2,1,84,0,1
197377,-100,2,2,1,65,0,1
198234,-100,2,2,1,73,0,1
198806,-100,2,2,1,63,0,1
199092,-100,2,2,1,80,0,1
199949,-100,2,2,1,80,0,0
200806,-100,2,2,1,55,0,0
202520,-100,2,2,1,85,0,1
203092,-100,2,2,1,75,0,1
203377,-100,2,2,1,90,0,1
203663,-100,2,2,1,90,0,0

[Colours]
Combo1 : 255,128,64
Combo2 : 245,234,3

[HitObjects]
4,361,224,6,0,P|132:346|254:301,1,260.129990458489,0|0,3:0|3:0,2:0:0:0:
325,252,1366,1,0,2:0:0:0:
325,252,1652,1,0,2:0:0:0:
400,292,1938,6,0,P|392:173|274:170,1,260.129990458489,0|0,3:0|3:0,2:0:0:0:
203,217,3081,1,0,2:0:0:0:
203,217,3366,1,0,2:0:0:0:
169,136,3652,6,0,B|98:114|18:106|18:106|56:107|119:79,1,260.129990458489,0|0,3:0|3:0,2:0:0:0:
195,37,4795,1,0,2:0:0:0:
195,37,5081,1,0,2:0:0:0:
287,68,5366,6,0,B|360:84|465:59|465:59|416:97|419:121,1,260.129990458489,0|0,3:0|3:0,2:0:0:0:
442,205,6509,1,0,2:0:0:0:
442,205,6795,1,0,2:0:0:0:
357,183,7081,6,0,P|370:268|378:354,1,173.419993638993,2|2,3:2|2:0,2:0:0:0:
290,360,7938,2,0,P|247:355|204:349,1,86.7099968194961,2|0,3:2|2:0,2:0:0:0:
119,332,8509,1,2,2:0:0:0:
39,367,8795,2,0,P|31:280|19:194,1,173.419993638993,2|2,3:2|2:0,2:0:0:0:
4,109,9652,1,2,3:2:0:0:
222,0,10509,6,0,P|214:42|210:85,1,86.7099968194961,2|0,3:2|2:0,2:0:0:0:
260,156,11081,1,2,2:0:0:0:
193,210,11366,2,0,P|194:253|199:296,1,86.7099968194961,2|0,3:2|3:2,2:0:0:0:
248,366,11938,1,2,2:0:0:0:
312,309,12223,2,0,P|356:313|399:316,2,86.7099968194961,2|0|2,3:2|2:0|2:0,2:0:0:0:
265,235,13081,1,2,3:2:0:0:
439,42,13938,6,0,P|433:128|436:215,1,173.333326975505,2|2,3:2|2:0,2:0:0:0:
368,269,14795,2,0,P|372:312|376:355,1,86.7099968194961,2|0,3:2|2:0,2:0:0:0:
295,324,15366,1,2,2:0:0:0:
222,276,15652,2,0,P|217:232|213:189,1,86.7099968194961,2|0,3:2|2:0,2:0:0:0:
277,131,16223,1,0,2:0:0:0:
338,69,16509,1,2,3:2:0:0:
86,144,17366,6,0,P|44:153|1:156,2,86.7099968194961,2|0|2,3:2|2:0|2:0,2:0:0:0:
145,207,18223,2,0,P|137:250|131:293,1,86.7099968194961,2|0,3:2|2:0,2:0:0:0:
145,379,18795,1,2,2:0:0:0:
231,372,19081,2,0,P|274:369|317:364,1,86.7099968194961,2|0,3:2|2:3,2:0:0:0:
399,337,19652,1,2,2:0:0:0:
478,301,19938,1,2,3:2:0:0:
413,43,20795,6,0,P|376:66|335:80,1,86.7099968194961,2|0,3:1|2:0,2:0:0:0:
248,78,21366,1,2,3:2:0:0:
167,46,21652,1,2,3:2:0:0:
86,79,21938,1,0,3:0:0:0:
64,162,22223,1,2,3:2:0:0:
116,230,22509,2,0,B|100:321|111:372|111:372|116:349|123:344,1,173.419993638993,2|2,3:1|3:2,2:0:0:0:
206,319,23366,1,2,3:2:0:0:
461,366,24223,6,0,B|459:313|467:279,1,86.7099968194961,2|0,3:1|2:0,2:0:0:0:
476,194,24795,1,2,3:2:0:0:
481,107,25081,1,2,3:2:0:0:
409,57,25366,1,0,3:0:0:0:
322,62,25652,1,2,3:2:0:0:
275,135,25938,2,0,P|284:221|290:307,1,173.419993638993,2|2,3:1|3:2,2:0:0:0:
204,316,26795,1,2,3:2:0:0:
155,63,27652,6,0,P|112:69|68:72,1,86.7099968194961,2|0,3:2|2:0,2:0:0:0:
18,143,28223,1,2,2:0:0:0:
87,192,28509,2,0,P|105:277|100:363,1,173.419993638993,2|2,3:2|2:0,2:0:0:0:
14,375,29366,2,0,P|-4:290|1:204,1,173.419993638993,2|2,3:2|2:0,2:0:0:0:
38,125,30223,1,2,3:2:0:0:
292,69,31081,6,0,P|335:65|378:59,1,86.7099968194961,2|0,3:2|2:0,2:0:0:0:
453,16,31652,1,2,2:0:0:0:
490,95,31938,2,0,P|460:176|466:262,1,173.419993638993,2|2,3:2|2:0,2:0:0:0:
472,349,32795,2,0,P|387:330|301:329,1,173.419993638993,2|2,3:2|2:0,2:0:0:0:
214,338,33652,1,2,3:2:0:0:
128,319,33938,1,2,3:0:0:0:
94,239,34223,1,2,3:2:0:0:
91,152,34509,6,0,P|235:13|398:129,1,433.54998409748,2|0,3:2|2:0,2:0:0:0:
331,184,36223,2,0,P|248:205|162:197,1,173.419993638993,2|0,2:0|2:0,2:0:0:0:
162,110,37081,2,0,B|146:89|62:102|56:186|72:210,1,173.419993638992,2|0,2:0|2:0,2:0:0:0:
104,291,37938,6,0,B|174:332|286:341|407:266|407:266|342:254|326:193,1,433.54998409748,2|0,3:2|2:0,2:0:0:0:
411,177,39652,2,0,P|419:98|341:86,1,173.419993638993,2|0,2:0|2:0,2:0:0:0:
261,117,40509,2,0,P|175:120|103:74,1,173.419993638993,2|0,3:2|2:0,2:0:0:0:
43,11,41366,6,0,B|61:111|25:254|25:254|61:190|92:181,1,346.839987277984,2|0,3:2|2:0,2:0:0:0:
157,239,42795,1,0,2:0:0:0:
202,312,43081,6,0,P|245:311|288:307,1,86.7099968194961,2|0,2:0|2:0,2:0:0:0:
373,289,43652,1,0,2:0:0:0:
315,224,43938,6,0,P|271:223|228:219,1,86.7099968194961,2|0,2:0|2:0,2:0:0:0:
144,201,44509,1,0,2:0:0:0:
203,137,44795,6,0,P|246:136|289:132,1,86.7099968194961,2|0,3:2|2:0,2:0:0:0:
374,114,45366,1,0,2:0:0:0:
314,51,45652,6,0,P|270:50|227:46,1,86.7099968194961,0|0,2:0|2:0,2:0:0:0:
143,28,46223,1,0,2:0:0:0:
56,26,46509,6,0,P|59:69|62:113,1,86.7099968194961,2|0,3:1|3:2,2:0:0:0:
30,194,47081,1,0,3:0:0:0:
115,184,47366,2,0,P|111:227|108:270,1,86.7099968194961,10|2,3:2|3:1,2:0:0:0:
263,347,48223,6,0,P|315:280|399:273,1,173.419993638993,6|0,3:2|3:2,2:0:0:0:
471,323,49081,2,0,P|435:245|459:164,1,173.419993638993,2|0,3:2|3:2,2:0:0:0:
453,77,49938,2,0,P|376:40|294:61,1,173.419993638993,2|0,3:2|3:2,2:0:0:0:
245,132,50795,2,0,P|165:159|88:123,1,173.419993638993,2|0,3:2|3:2,2:0:0:0:
46,198,51652,5,6,3:2:0:0:
104,358,52223,1,0,3:2:0:0:
172,304,52509,2,0,P|214:298|258:296,1,86.7099968194961,2|0,3:2|2:0,2:0:0:0:
335,336,53081,1,0,3:2:0:0:
392,271,53366,6,0,P|341:202|261:172,1,173.419993638993,2|0,3:2|3:2,2:0:0:0:
183,211,54223,2,0,P|139:215|96:218,1,86.7099968194961,2|0,3:0|3:2,2:0:0:0:
95,44,55081,6,0,P|180:26|267:28,1,173.419993638993,6|0,3:2|3:2,2:0:0:0:
337,76,55938,2,0,P|412:40|481:84,1,173.419993638993,2|0,3:2|3:2,2:0:0:0:
409,132,56795,2,0,B|350:207|425:288,1,173.419993638993,2|0,3:2|3:2,2:0:0:0:
480,352,57652,2,0,P|401:323|318:343,1,173.419993638993,2|0,3:2|3:2,2:0:0:0:
254,282,58509,6,0,P|258:239|261:196,2,86.7099968194961,6|0|0,3:2|3:2|3:2,2:0:0:0:
188,338,59366,2,0,P|101:342|15:353,1,173.419993638993,2|0,3:2|3:2,2:0:0:0:
37,269,60223,2,0,P|50:227|56:184,1,86.7099968194961,2|0,3:0|3:2,2:0:0:0:
33,100,60795,1,0,3:0:0:0:
63,18,61081,2,0,P|103:31|146:39,1,86.7099968194961,2|0,3:2|3:2,2:0:0:0:
314,75,61938,6,0,P|353:58|392:38,1,86.7099968194961,6|0,3:2|3:2,2:0:0:0:
457,103,62509,1,0,3:2:0:0:
457,103,62795,2,0,P|460:146|450:188,1,86.7099968194961,2|0,3:2|3:2,2:0:0:0:
369,210,63366,1,0,3:2:0:0:
369,210,63652,5,2,3:2:0:0:
429,271,63938,1,0,3:2:0:0:
383,344,64223,1,0,3:2:0:0:
321,282,64509,2,0,B|234:288|183:287|183:287|210:298|215:304,1,173.419993638993,2|0,3:2|3:2,2:0:0:0:
149,361,65366,6,0,P|106:355|63:347,1,86.7099968194961,6|0,3:2|3:2,2:0:0:0:
42,263,65938,1,0,3:2:0:0:
25,178,66223,2,0,B|19:139|26:58|26:58|40:107|48:106,1,173.419993638993,2|0,3:0|3:2,2:0:0:0:
122,61,67081,6,0,P|208:55|295:51,1,173.419993638993,2|0,3:1|3:0,2:0:0:0:
379,71,67938,1,2,3:2:0:0:
17,32,75652,5,4,3:0:0:0:
17,32,76223,1,0,3:2:0:0:
59,106,76509,2,0,P|54:150|51:193,1,86.7099968194961,8|0,3:2|3:2,2:0:0:0:
66,279,77081,1,0,3:2:0:0:
124,341,77366,2,0,P|208:318|294:323,1,173.419993638993,8|0,3:2|3:2,2:0:0:0:
361,378,78223,2,0,P|347:301|424:294,1,173.419993638993,8|0,3:2|3:2,2:0:0:0:
493,346,79081,6,0,P|504:304|505:260,1,86.7099968194961,4|0,3:0|3:2,2:0:0:0:
436,205,79652,1,0,3:2:0:0:
349,206,79938,2,0,P|338:164|336:120,1,86.7099968194961,8|0,3:2|3:2,2:0:0:0:
423,118,80509,1,0,3:2:0:0:
379,44,80795,6,0,P|336:37|294:26,2,86.7099968194961,8|0|0,3:2|3:2|3:2,2:0:0:0:
339,121,81652,1,8,3:2:0:0:
302,378,82509,6,0,P|259:369|216:365,1,86.7099968194961,4|0,3:0|3:2,2:0:0:0:
135,333,83081,1,0,3:2:0:0:
54,365,83366,2,0,P|47:322|37:280,1,86.7099968194961,8|0,3:2|3:2,2:0:0:0:
65,197,83938,1,0,3:2:0:0:
7,132,84223,2,0,P|20:53|100:54,1,173.419993638993,8|0,3:2|3:2,2:0:0:0:
170,106,85081,1,8,3:2:0:0:
417,24,85938,6,0,P|408:67|405:110,1,86.7099968194961,4|0,3:0|3:2,2:0:0:0:
431,193,86509,1,0,3:2:0:0:
393,271,86795,2,0,P|401:313|404:356,1,86.7099968194961,8|0,3:2|3:2,2:0:0:0:
323,325,87366,1,0,3:2:0:0:
236,315,87652,2,0,B|187:297|112:323|112:323|145:305|149:295,1,173.419993638993,8|0,3:2|3:2,2:0:0:0:
181,214,88509,1,8,3:2:0:0:
368,35,89366,6,0,P|412:34|455:30,2,86.7099968194961,6|0|0,3:0|2:0|2:0,2:0:0:0:
283,17,90223,2,0,P|239:13|196:12,1,86.7099968194961,8|0,2:0|2:0,2:0:0:0:
112,33,90795,1,0,3:2:0:0:
43,86,91081,2,0,P|23:47|1:9,2,86.7099968194961,10|0|0,3:2|2:0|3:2,2:0:0:0:
39,172,91938,1,10,3:2:0:0:
231,346,92795,6,0,P|224:303|215:260,2,86.7099968194961,6|0|0,3:0|2:0|2:0,2:0:0:0:
317,356,93652,2,0,P|360:352|403:347,1,86.7099968194961,8|0,2:0|2:0,2:0:0:0:
488,361,94223,1,0,3:2:0:0:
454,280,94509,2,0,P|423:199|438:115,1,173.419993638993,10|0,3:2|3:2,2:0:0:0:
485,42,95366,1,10,3:2:0:0:
226,16,96223,6,0,P|226:59|228:102,1,86.7099968194961,4|0,3:0|3:2,2:0:0:0:
225,189,96795,1,0,3:2:0:0:
303,151,97081,2,0,P|303:194|305:237,1,86.7099968194961,8|0,3:2|3:2,2:0:0:0:
302,324,97652,1,0,3:2:0:0:
220,295,97938,2,0,P|135:311|65:361,1,173.419993638993,8|0,3:2|3:2,2:0:0:0:
9,295,98795,1,8,3:2:0:0:
31,36,99652,6,0,P|73:44|115:55,1,86.7099968194961,4|0,3:0|3:2,2:0:0:0:
190,99,100223,2,0,P|232:90|274:79,1,86.7099968194961,0|8,3:2|3:2,2:0:0:0:
437,18,101081,1,0,3:2:0:0:
436,18,101366,2,0,P|424:103|449:185,1,173.593326965969,8|0,3:2|3:2,2:0:0:0:
483,260,102223,1,8,3:2:0:0:
243,361,103081,6,0,B|304:253|131:153|265:58|265:58|200:45|171:17,1,433.333317438762,4|0,3:0|3:2,2:0:0:0:
141,97,104795,2,0,B|114:64|62:43|24:74|25:118|71:126,1,173.419993638993,8|0,3:2|3:2,2:0:0:0:
135,184,105652,2,0,B|168:211|188:262|158:301|113:299|105:254,1,173.419993638993,8|0,3:2|3:2,2:0:0:0:
27,217,106509,6,0,B|8:283|48:334|48:334|136:407|264:316|264:316|289:337|329:352,1,433.54998409748,4|0,3:0|3:2,2:0:0:0:
385,286,108223,2,0,B|347:207|363:175|429:170|435:216,1,173.419993638993,8|0,3:2|3:2,2:0:0:0:
476,292,109081,2,0,P|473:205|476:118,1,173.419993638993,8|0,3:2|3:2,2:0:0:0:
425,49,109938,6,0,B|368:117|264:144|121:-44|26:77,1,433.54998409748,4|0,3:0|3:2,2:0:0:0:
99,122,111652,2,0,P|109:165|113:208,1,86.7099968194961,8|0,3:2|2:0,2:0:0:0:
126,294,112223,1,0,3:2:0:0:
126,294,112509,2,0,P|168:303|211:307,1,86.7099968194961,8|0,3:2|3:2,2:0:0:0:
296,287,113081,1,0,3:2:0:0:
296,287,113366,6,0,P|286:244|282:201,1,86.7099968194961,4|0,3:0|2:0,2:0:0:0:
305,117,113938,1,0,2:0:0:0:
346,41,114223,2,0,P|389:46|433:49,2,86.7099968194961,8|0|0,3:2|2:0|2:0,2:0:0:0:
259,43,115081,1,8,3:2:0:0:
87,70,115652,1,0,3:2:0:0:
87,70,115938,2,0,P|105:152|64:227,1,173.419993638993,10|2,3:1|3:1,2:0:0:0:
34,309,116795,6,0,P|101:255|186:243,1,173.419993638993,6|0,3:1|3:2,2:0:0:0:
263,284,117652,2,0,P|347:278|408:218,1,173.419993638993,10|0,3:1|3:2,2:0:0:0:
492,198,118509,2,0,P|408:184|355:118,1,173.419993638993,10|0,3:1|3:2,2:0:0:0:
326,35,119366,2,0,P|255:-1|206:61,1,173.419993638993,10|0,3:1|3:2,2:0:0:0:
264,125,120223,5,6,3:1:0:0:
193,283,120795,1,0,3:2:0:0:
193,283,121081,2,0,P|109:292|50:233,1,173.419993638993,10|0,3:2|3:2,2:0:0:0:
57,145,121938,2,0,P|60:101|65:58,1,86.7099968194961,10|0,3:1|2:0,2:0:0:0:
145,24,122509,1,0,2:0:0:0:
221,65,122795,2,0,P|264:60|306:49,1,86.7099968194961,10|0,3:2|3:2,2:0:0:0:
477,22,123652,6,0,P|414:81|394:164,1,173.419993638993,6|0,3:1|3:2,2:0:0:0:
461,219,124509,2,0,B|472:271|455:346|455:346|453:314|442:302,1,173.419993638993,10|0,3:1|3:2,2:0:0:0:
369,349,125366,2,0,P|283:362|196:361,1,173.419993638993,10|0,3:1|3:2,2:0:0:0:
189,275,126223,2,0,P|152:204|76:229,1,173.419993638993,10|0,3:1|3:2,2:0:0:0:
17,293,127081,6,0,P|22:335|26:379,2,86.7099968194961,6|0|0,3:1|2:0|3:2,2:0:0:0:
76,228,127938,2,0,P|70:185|63:142,1,86.7099968194961,10|0,3:1|2:0,2:0:0:0:
29,62,128509,1,0,2:0:0:0:
97,8,128795,2,0,P|178:38|264:31,1,173.419993638993,10|0,3:1|3:2,2:0:0:0:
349,13,129652,1,10,3:1:0:0:
486,231,130509,6,0,P|358:234|252:306,1,260.129990458489,6|10,3:1|3:1,2:0:0:0:
5,222,132223,2,0,P|107:167|45:69,1,260.129990458489,10|10,3:1|3:1,2:0:0:0:
300,19,133938,6,0,P|289:61|282:104,1,86.7099968194961,6|0,3:1|2:0,2:0:0:0:
249,183,134509,1,0,3:2:0:0:
316,237,134795,2,0,P|326:278|333:321,1,86.7099968194961,10|0,3:2|3:2,2:0:0:0:
246,320,135366,1,0,3:2:0:0:
168,356,135652,2,0,P|82:348|4:384,1,173.419993638993,10|0,3:1|3:2,2:0:0:0:
0,298,136509,1,10,3:1:0:0:
21,39,137366,6,0,P|108:39|195:37,1,173.487160303197,4|0,1:0|3:2,2:0:0:0:
201,123,138229,2,0,P|243:113|285:104,1,86.7446634848914,8|0,1:0|3:2,2:0:0:0:
368,79,138804,1,0,3:2:0:0:
440,30,139092,2,0,P|392:100|391:186,1,173.369541259891,8|0,1:0|3:2,2:0:0:0:
448,251,139949,1,8,1:0:0:0:
211,358,140806,6,0,P|124:361|41:339,1,173.37666030725,4|0,1:0|3:2,2:0:0:0:
49,253,141663,2,0,P|92:246|134:235,1,86.7099968194962,8|0,1:0|3:2,2:0:0:0:
214,201,142234,1,0,3:2:0:0:
280,255,142520,2,0,P|342:203|408:249,1,173.37666030725,8|0,1:0|3:2,2:0:0:0:
431,333,143377,1,8,1:0:0:0:
426,73,144234,5,4,1:0:0:0:
425,73,144520,2,0,P|383:65|341:53,1,86.7099968194962,10|8,3:0|3:0,2:0:0:0:
261,32,145092,1,8,1:0:0:0:
261,32,145377,2,0,P|220:45|178:52,1,86.7099968194962,2|0,1:3|1:0,2:0:0:0:
94,66,145949,1,8,1:0:0:0:
94,66,146234,2,0,P|101:108|106:151,1,86.7099968194961,10|8,3:0|3:0,2:0:0:0:
31,196,146806,1,8,1:0:0:0:
31,196,147092,2,0,B|31:231|39:295|37:274,1,86.7099968194962,2|0,1:3|1:0,2:0:0:0:
87,345,147663,5,4,1:0:0:0:
172,358,147949,2,0,P|213:347|256:343,1,86.7099968194962,10|8,3:0|3:0,2:0:0:0:
342,358,148520,1,8,1:0:0:0:
427,363,148806,2,0,P|467:353|472:312,1,86.7099968194962,2|0,1:3|1:0,2:0:0:0:
415,247,149377,1,8,1:0:0:0:
341,200,149663,2,0,P|336:159|371:138,1,86.7099968194962,10|8,3:0|3:0,2:0:0:0:
457,150,150234,1,8,1:0:0:0:
465,63,150520,2,0,P|468:23|429:15,1,86.7099968194962,2|2,1:3|1:0,2:0:0:0:
348,47,151092,5,4,3:2:0:0:
88,43,151949,1,8,3:2:0:0:
45,298,152806,2,0,P|157:245|259:315,1,260.129990458488,10|10,3:2|3:2,2:0:0:0:
440,135,154520,2,0,B|405:162|335:117|335:117|387:56|463:58,1,260.129990458488,4|8,3:0|3:2,2:0:0:0:
491,317,156234,6,0,P|408:340|322:329,1,173.37666030725,10|0,3:2|2:0,2:0:0:0:
257,272,157092,2,0,P|171:266|94:304,1,173.37666030725,10|0,3:2|3:2,2:0:0:0:
40,372,157949,5,4,3:2:0:0:
51,112,158806,2,0,P|54:70|87:44,1,86.7099968194962,10|0,3:2|2:0,2:0:0:0:
162,88,159377,1,2,2:0:0:0:
239,49,159663,2,0,P|324:62|400:24,1,173.37666030725,10|0,3:2|2:0,2:0:0:0:
474,70,160520,1,8,3:2:0:0:
229,159,161377,6,0,B|140:176|117:211|117:211|173:206|239:256,1,260.129990458488,4|8,3:0|3:2,2:0:0:0:
477,361,163092,6,0,P|472:317|468:274,1,86.7099968194962,10|0,3:2|2:0,2:0:0:0:
406,214,163663,1,0,2:0:0:0:
463,148,163949,1,10,3:2:0:0:
256,192,175092,12,0,178520,3:2:0:0:
175,92,180234,6,0,P|215:169|223:255,1,173.37666030725,6|0,3:2|3:2,2:0:0:0:
140,228,181092,2,0,P|157:310|234:343,1,173.073326985042,10|0,3:2|3:2,2:0:0:0:
304,292,181949,2,0,P|390:282|476:275,1,173.37666030725,10|0,3:2|3:2,2:0:0:0:
489,189,182806,2,0,P|431:133|368:182,1,173.37666030725,10|0,3:2|3:2,2:0:0:0:
282,170,183663,5,6,3:0:0:0:
137,74,184234,1,0,3:2:0:0:
137,74,184520,2,0,P|70:127|29:203,1,173.37666030725,10|0,3:2|3:2,3:0:0:0:
16,289,185377,2,0,P|59:300|99:316,1,86.7099968194962,10|0,3:2|3:2,2:0:0:0:
169,367,185949,1,0,2:0:0:0:
240,318,186234,2,0,P|283:324|327:327,1,86.7099968194962,10|0,3:2|3:2,2:0:0:0:
398,168,187092,6,0,P|366:91|287:63,1,173.073326985042,4|0,3:0|3:2,2:0:0:0:
221,119,187949,2,0,P|140:147|56:128,1,173.37666030725,10|0,3:2|3:2,2:0:0:0:
23,208,188806,2,0,P|66:282|99:363,1,173.37666030725,10|0,3:2|3:2,2:0:0:0:
185,365,189663,2,0,P|217:284|261:209,1,173.37666030725,10|0,3:2|3:2,2:0:0:0:
188,161,190520,6,0,P|146:172|103:176,2,86.7099968194962,4|0|0,3:0|3:2|3:2,2:0:0:0:
203,75,191377,2,0,P|245:65|288:61,1,86.7099968194962,10|0,3:2|3:2,2:0:0:0:
369,94,191949,1,0,3:2:0:0:
427,30,192234,2,0,P|419:116|420:202,1,173.37666030725,10|0,3:2|3:0,2:0:0:0:
446,286,193092,1,10,3:2:0:0:
193,346,193949,6,0,P|150:352|106:352,2,86.7099968194962,14|0|0,1:0|3:2|3:2,2:0:0:0:
180,260,194806,2,0,P|118:203|124:119,1,173.37666030725,14|0,1:0|3:2,2:0:0:0:
168,45,195663,2,0,P|243:5|325:29,1,173.37666030725,14|0,1:0|3:2,2:0:0:0:
333,115,196520,2,0,P|334:202|337:289,1,173.37666030725,14|0,1:0|3:2,2:0:0:0:
413,328,197377,6,0,P|447:300|483:276,1,86.7099968194962,6|0,3:0|3:2,2:0:0:0:
488,189,197949,1,0,3:2:0:0:
475,103,198234,2,0,P|439:77|402:55,1,86.7099968194962,10|0,3:2|3:2,2:0:0:0:
322,20,198806,1,0,3:2:0:0:
239,59,199092,2,0,B|162:122|63:70|63:70|86:111|75:137,1,259.826657136282,14|10,1:2|3:2,2:0:0:0:
285,292,200806,6,0,P|288:335|288:378,2,86.7099968194962,4|0|0,3:0|2:0|2:0,2:0:0:0:
236,220,201663,2,0,P|226:134|243:49,1,173.37666030725,10|0,3:2|3:2,2:0:0:0:
327,27,202520,5,14,1:2:0:0:
400,72,202806,1,4,3:0:0:0:
416,157,203092,1,4,3:0:0:0:
411,242,203377,2,0,P|411:286|414:329,1,86.7099968194962,6|8,1:0|3:0,2:0:0:0:
