osu file format v14

[General]
AudioFilename: audio.mp3
AudioLeadIn: 0
PreviewTime: 184611
Countdown: 0
SampleSet: Soft
StackLeniency: 0.9
Mode: 0
LetterboxInBreaks: 0
WidescreenStoryboard: 1

[Editor]
Bookmarks: 15008,27640,52903,63955,68692,93955,119219,131850,144482,160271,163429,169745,180797,187113,212376,225008,237640,288166
DistanceSpacing: 1
BeatDivisor: 4
GridSize: 4
TimelineZoom: 1.6

[Metadata]
Title:Caldera
TitleUnicode:カルデラ
Artist:Kuroki Nagisa
ArtistUnicode:黒木渚
Creator:Yudragen
Version:Melt my sorrow
Source:
Tags:karudera chaoticred japanese rock burial ground
BeatmapID:3577524
BeatmapSetID:1666827

[Difficulty]
HPDrainRate:6
CircleSize:4.1
OverallDifficulty:7
ApproachRate:8.6
SliderMultiplier:1.4
SliderTickRate:1

[Events]
//Background and Video events
0,0,"d6939ed7-4ec8-4daf-b136-44ad43c43a35.jpg",0,0
//Break Periods
//Storyboard Layer 0 (Background)
//Storyboard Layer 1 (Fail)
//Storyboard Layer 2 (Pass)
//Storyboard Layer 3 (Foreground)
//Storyboard Layer 4 (Overlay)
//Storyboard Sound Samples

[TimingPoints]
766,394.736842105263,4,2,1,35,1,0
2343,-117.647058823529,4,2,1,35,0,0
5699,-117.647058823529,4,2,1,5,0,0
6093,-117.647058823529,4,2,1,35,0,0
8857,-117.647058823529,4,2,1,5,0,0
9251,-117.647058823529,4,2,1,35,0,0
9646,-117.647058823529,4,2,1,5,0,0
10040,-117.647058823529,4,2,1,35,0,0
12014,-117.647058823529,4,2,1,5,0,0
12408,-117.647058823529,4,2,1,35,0,0
14975,-105.263157894737,4,2,1,40,0,0
24646,-105.263157894737,4,2,1,5,0,0
25238,-105.263157894737,4,2,1,40,0,0
27607,-100,4,2,1,45,0,0
28692,-100,4,2,1,5,0,0
28791,-100,4,2,1,45,0,0
52870,-90.9090909090909,4,2,1,55,0,0
63922,-200,4,2,1,45,0,0
64120,-200,4,2,1,5,0,0
68463,-200,4,2,1,45,0,0
68659,-83.3333333333333,4,2,1,65,0,0
93922,-86.9565217391304,4,2,1,60,0,0
119200,394.736842105263,4,2,1,45,1,0
119200,-105.263157894737,4,2,1,45,0,0
130239,394.736842105263,4,2,1,45,1,0
130239,-105.263157894737,4,2,1,45,0,0
131817,394.736842105263,4,2,1,45,1,0
131817,-100,4,2,1,45,0,0
142871,413.793103448276,4,2,1,45,1,0
143698,392.156862745098,4,2,1,45,1,0
144456,394.736842105263,4,2,1,35,1,0
144456,-125,4,2,1,35,0,0
160240,388.349514563107,4,2,1,60,1,0
160240,-74.0740740740741,4,2,1,60,0,0
161987,404.721753794267,4,2,1,60,1,0
163201,394.736842105263,4,2,1,60,1,0
163201,-74.0740740740741,4,2,1,60,0,0
163396,-86.9565217391304,4,2,1,60,0,0
163397,394.736842105263,4,2,1,60,1,0
163397,-86.9565217391304,4,2,1,60,0,0
169712,-90.9090909090909,4,2,1,55,0,0
180764,413.793103448276,4,2,1,35,1,0
180764,-125,4,2,1,35,0,0
180970,-125,4,2,1,5,0,0
181384,-133.333333333333,4,2,1,33,0,0
181554,-125,4,2,1,5,0,0
182005,357.142857142857,4,2,1,31,1,0
182005,-183.150183150183,4,2,1,31,0,0
182146,-125,4,2,1,5,0,0
182540,394.736842105263,4,2,1,28,1,0
182540,-200,4,2,1,28,0,0
182738,-125,4,2,1,5,0,0
183133,-250,4,2,1,26,0,0
183921,394.736842105263,4,2,1,26,1,0
183921,-250,4,2,1,26,0,0
184118,-250,4,2,1,5,0,0
185499,-250,4,2,1,26,0,0
185896,-100,4,2,1,50,0,0
187079,394.736842105263,4,2,1,65,1,0
187079,-83.3333333333333,4,2,1,65,0,0
212342,-111.111111111111,4,2,1,45,0,0
223197,-95.2380952380952,4,2,1,45,0,0
224973,-83.3333333333333,4,2,1,60,0,0
231289,-74.0740740740741,4,2,1,65,0,0
237605,-64.5161290322581,4,3,1,75,0,1
261289,-64.5161290322581,4,3,1,75,0,0
262868,-62.5,4,3,1,85,0,1
288131,-68.9655172413793,4,3,1,70,0,0
299282,-68.9655172413793,4,3,1,5,0,0
299383,-68.9655172413793,4,3,1,70,0,0
299875,-68.9655172413793,4,3,1,5,0,0
299975,394.736842105263,4,3,1,70,1,0
299975,-68.9655172413793,4,3,1,70,0,0
311817,394.736842105263,4,3,1,70,1,0
311817,-68.9655172413793,4,3,1,60,0,0
322869,-80,4,3,1,60,0,0
323671,476.190476190476,4,3,1,60,1,0
324135,606.060606060605,4,3,1,60,1,0
324741,606.060606060605,4,3,1,60,1,0
324741,-200,4,3,1,60,0,0
324843,-250,4,2,1,5,0,0

[Colours]
Combo1 : 98,221,114
Combo2 : 245,65,65
Combo3 : 138,227,57
Combo4 : 236,77,101

[HitObjects]
377,46,2344,6,0,P|378:81|400:188,1,119.000002269745,2|2,3:0|0:0,0:0:0:0:
315,312,3134,1,2,3:0:0:0:
315,312,3430,2,0,P|261:295|244:247,1,104.125001986027,2|2,0:0|0:0,0:0:0:0:
243,254,3923,6,0,L|257:331,1,59.5000011348725,0|0,3:0|0:0,0:0:0:0:
163,255,4318,2,0,L|189:119,2,119.000002269745,2|2|0,3:0|0:0|3:0,0:0:0:0:
140,359,5305,5,2,0:0:0:0:
66,377,5502,2,0,P|25:354|42:223,1,178.500003404617,2|0,3:0|0:0,0:0:0:0:
53,156,6292,2,0,P|81:161|144:181,1,89.2500017023087,2|2,3:2|0:0,0:0:0:0:
268,359,6884,2,0,P|281:351|339:336,1,59.5000011348725,2|0,3:2|3:0,0:0:0:0:
411,189,7279,5,0,3:0:0:0:
385,258,7476,2,0,P|348:246|326:215,1,59.5000011348725,2|0,3:0|0:0,0:0:0:0:
259,243,7871,2,0,P|257:189|326:138,1,119.000002269745,2|0,3:2|3:0,0:0:0:0:
459,36,8463,5,2,0:0:0:0:
432,110,8660,2,0,B|382:114|360:78|363:76|369:72|331:19|284:29,1,178.500003404617,0|2,3:0|0:0,0:0:0:0:
225,85,9450,2,0,P|152:103|35:134,1,178.500003404617,2|2,3:0|0:0,0:0:0:0:
129,72,10239,5,0,3:0:0:0:
40,146,10437,2,0,P|46:116|49:87,1,59.5000011348725,0|2,3:0|3:0,0:0:0:0:
38,348,11029,2,0,P|60:296|130:289,1,119.000002269745,0|0,3:0|3:0,0:0:0:0:
186,245,11621,1,2,0:0:0:0:
168,352,11818,6,0,P|160:262|128:98,1,238.00000453949,0|2,3:0|3:0,0:0:0:0:
389,210,13200,1,0,3:0:0:0:
357,137,13397,1,0,3:0:0:0:
389,210,13594,1,0,3:0:0:0:
452,162,13792,2,0,P|455:101|471:30,2,119.000002269745,2|0|0,3:0|3:0|3:0,0:0:0:0:
292,248,14779,5,2,0:0:0:0:
364,354,14976,2,0,P|335:352|306:327,1,66.4999982242585,0|0,1:0|0:0,0:0:0:0:
176,269,15371,2,0,P|191:210|202:120,1,132.999996448517,2|2,3:2|3:1,0:0:0:0:
380,189,16062,2,0,P|365:131|359:72,1,99.7499973363877,2|2,0:2|3:2,0:0:0:0:
323,21,16555,5,2,3:0:0:0:
360,91,16752,1,0,3:0:0:0:
424,49,16950,2,0,P|454:32|498:14,1,66.4999982242585,2|0,3:0|0:0,0:0:0:0:
343,197,17344,2,0,B|269:173|315:156|227:126,1,132.999996448517,2|0,3:2|3:0,0:0:0:0:
232,127,17937,6,0,L|220:212,1,66.4999982242585,2|2,3:2|3:0,0:0:0:0:
116,152,18529,2,0,P|70:147|40:233,1,132.999996448517,2|2,3:2|0:1,0:0:0:0:
174,336,19219,2,0,P|188:309|138:261,1,99.7499973363877,2|2,0:0|3:2,0:0:0:0:
174,336,19713,5,2,3:0:0:0:
238,198,19910,1,0,3:0:0:0:
296,260,20108,2,0,P|300:306|308:337,1,66.4999982242585,0|2,3:0|0:0,0:0:0:0:
420,289,20502,2,0,P|446:244|425:153,1,132.999996448517,2|0,0:2|3:0,0:0:0:0:
240,93,21094,6,0,P|202:100|155:106,1,66.4999982242585,2|2,0:0|3:0,0:0:0:0:
334,177,21884,1,2,0:0:0:0:
278,233,22081,2,0,P|177:211|129:202,1,132.999996448517,2|0,0:1|0:0,0:0:0:0:
52,200,22673,2,0,P|65:246|75:287,1,66.4999982242585,2|2,3:2|3:0,0:0:0:0:
167,318,23068,2,0,P|158:350|149:382,1,66.4999982242585,2|0,0:2|0:0,0:0:0:0:
307,241,23660,2,0,P|294:166|282:82,1,132.999996448517,2|0,3:2|3:0,0:0:0:0:
498,152,24252,5,2,0:0:0:0:
510,80,24450,2,0,B|488:27|439:4|374:7|341:59|355:116|385:131|420:135|447:110,1,265.999992897034,2|2,3:0|0:2,0:0:0:0:
256,31,25831,2,0,P|207:53|179:62,1,66.4999982242585,0|2,3:0|3:0,0:0:0:0:
207,130,26226,1,0,3:0:0:0:
94,21,26423,6,0,P|108:93|122:173,1,132.999996448517,4|4,3:2|1:3,0:0:0:0:
54,213,27015,1,4,3:0:0:0:
175,292,27213,1,8,3:0:0:0:
111,327,27410,1,0,3:0:0:0:
93,20,27608,6,0,P|75:85|11:102,1,140,2|0,1:2|3:2,0:0:0:0:
0,26,28200,1,2,0:0:0:0:
198,70,28397,2,0,P|251:56|324:41,1,105,8|0,1:2|0:0,0:0:0:0:
314,56,28792,1,2,3:0:0:0:
445,119,28989,2,0,P|434:85|425:51,1,70,2|4,0:0|1:3,0:0:0:0:
425,51,29384,5,2,0:0:0:0:
506,103,29581,1,2,3:2:0:0:
462,191,29779,1,2,3:2:0:0:
285,206,29976,1,8,1:2:0:0:
426,295,30173,1,2,3:2:0:0:
354,348,30371,2,0,P|346:285|333:186,1,140,2|4,3:2|1:3,0:0:0:0:
65,218,31160,6,0,P|59:271|52:304,1,70,2|2,3:2|0:0,0:0:0:0:
180,87,31555,1,8,1:2:0:0:
106,46,31752,2,0,P|63:61|17:72,1,70,2|0,3:2|3:0,0:0:0:0:
39,67,32147,1,2,0:0:0:0:
173,211,32344,5,4,1:3:0:0:
242,164,32542,1,2,0:0:0:0:
169,121,32739,2,0,P|125:125|68:227,1,140,2|8,3:2|1:2,0:0:0:0:
332,112,33529,1,2,3:0:0:0:
207,33,33923,6,0,P|221:103|231:200,1,140,4|0,1:3|3:0,0:0:0:0:
273,241,34515,1,2,3:2:0:0:
456,304,34713,2,0,B|484:225|439:246|461:162,1,140,8|0,1:2|3:0,0:0:0:0:
315,30,35305,5,2,0:0:0:0:
370,157,35502,2,0,P|377:116|387:72,1,70,4|0,1:3|0:0,0:0:0:0:
227,101,35897,2,0,P|219:66|213:32,1,70,0|2,3:0|0:0,0:0:0:0:
254,338,36292,1,8,1:2:0:0:
193,221,36489,1,2,3:2:0:0:
303,181,36687,1,2,3:0:0:0:
275,252,36884,1,0,3:0:0:0:
193,221,37081,6,0,P|144:205|62:181,1,105,4|0,1:3|0:0,0:0:0:0:
81,200,37476,2,0,P|51:172|15:172,1,70,2|0,3:2|0:0,0:0:0:0:
263,29,37871,2,0,P|197:46|172:109,1,140,8|0,1:2|3:0,0:0:0:0:
347,246,38463,5,2,0:2:0:0:
403,102,38660,2,0,P|412:177|423:238,1,105,4|0,1:3|0:0,0:0:0:0:
432,219,39055,2,0,P|423:266|419:300,1,70,2|0,3:2|0:0,0:0:0:0:
188,216,39450,2,0,B|95:241|161:260|40:291,1,140,8|2,1:2|3:0,0:0:0:0:
67,283,40042,1,0,3:0:0:0:
323,360,40239,5,4,1:2:0:0:
323,360,40634,2,0,P|311:311|297:279,1,70,2|2,3:2|0:0,0:0:0:0:
425,260,41029,2,0,P|436:208|474:127,1,140,8|0,1:2|3:0,0:0:0:0:
399,84,41621,1,2,0:0:0:0:
281,209,41818,6,0,P|228:183|225:84,1,140,4|0,1:3|3:0,0:0:0:0:
281,71,42410,1,2,0:0:0:0:
129,167,42608,2,0,B|140:72|172:133|179:28,1,140,8|2,1:2|3:0,0:0:0:0:
46,298,43397,6,0,P|33:235|3:149,1,140,4|0,1:3|3:0,0:0:0:0:
9,163,43989,1,2,0:2:0:0:
153,274,44187,1,8,1:2:0:0:
166,195,44384,1,2,3:2:0:0:
70,257,44581,1,2,3:0:0:0:
109,368,44779,1,2,3:2:0:0:
246,371,44976,6,0,P|257:330|271:299,1,70,4|0,1:3|3:0,0:0:0:0:
222,109,45371,2,0,P|172:136|113:149,1,105,2|0,3:0|0:0,0:0:0:0:
111,158,45765,2,0,B|223:184|169:199|265:217,1,140,8|0,1:2|3:0,0:0:0:0:
512,75,46358,5,2,3:2:0:0:
512,75,46456,1,2,3:2:0:0:
512,75,46555,2,0,P|463:77|417:122,1,105,4|0,1:3|0:0,0:0:0:0:
418,130,46950,1,2,3:2:0:0:
342,216,47147,2,0,P|333:182|325:148,1,70,2|8,0:0|1:2,0:0:0:0:
325,148,47542,1,2,0:0:0:0:
359,328,47739,2,0,P|328:312|271:292,1,70,2|0,3:2|0:0,0:0:0:0:
164,200,48134,5,4,1:3:0:0:
164,200,48331,1,0,3:0:0:0:
99,341,48529,2,0,P|89:301|72:258,1,70,2|2,3:0|0:0,0:0:0:0:
30,49,48923,1,8,1:2:0:0:
92,100,49121,1,2,3:2:0:0:
11,82,49318,1,2,3:2:0:0:
112,73,49515,1,2,0:2:0:0:
5,210,49713,6,0,P|38:190|84:182,1,70,4|0,1:3|0:0,0:0:0:0:
207,73,50108,2,0,P|254:79|348:147,1,140,2|8,3:2|1:2,0:0:0:0:
331,126,50700,1,2,0:0:0:0:
197,249,50897,2,0,P|210:212|214:169,1,70,2|0,3:0|0:0,0:0:0:0:
377,58,51292,5,4,1:3:0:0:
298,238,51489,1,4,1:3:0:0:
139,74,51687,1,4,1:3:0:0:
274,121,51884,5,8,3:0:0:0:
208,331,52081,1,8,1:2:0:0:
274,121,52476,5,8,1:2:0:0:
208,331,52673,1,8,1:2:0:0:
38,148,52871,6,0,L|174:105,1,115.50000352478,4|0,1:2|0:0,0:0:0:0:
190,74,53265,2,0,L|167:214,1,115.50000352478,6|0,1:3|0:0,0:0:0:0:
195,230,53660,1,8,1:2:0:0:
365,362,54055,5,2,0:0:0:0:
365,362,54252,1,2,3:2:0:0:
512,222,54450,2,0,L|399:277,1,115.50000352478,6|0,1:3|0:0,0:0:0:0:
371,257,54844,2,0,L|406:118,1,115.50000352478,6|0,1:3|0:0,0:0:0:0:
429,121,55239,2,0,L|272:54,1,154.000004699707,8|0,1:2|0:0,0:0:0:0:
61,344,56029,6,0,L|34:224,1,115.50000352478,6|0,1:3|0:0,0:0:0:0:
68,201,56423,2,0,L|179:259,1,115.50000352478,6|0,1:3|0:0,0:0:0:0:
211,236,56818,1,8,1:2:0:0:
257,6,57213,5,2,0:0:0:0:
257,6,57410,1,2,0:0:0:0:
152,81,57608,2,0,L|291:130,1,115.50000352478,6|0,1:3|0:0,0:0:0:0:
292,93,58002,2,0,L|330:236,1,115.50000352478,6|0,1:3|0:0,0:0:0:0:
297,244,58397,1,8,1:2:0:0:
373,288,58594,1,2,0:0:0:0:
373,288,58693,1,2,0:0:0:0:
373,288,58792,2,0,P|407:260|459:253,1,77.0000023498536,2|2,3:2|3:2,0:0:0:0:
511,24,59187,6,0,L|479:163,1,115.50000352478,6|0,1:3|0:0,0:0:0:0:
512,175,59581,2,0,L|382:114,1,115.50000352478,6|0,1:3|0:0,0:0:0:0:
385,89,59976,2,0,L|209:143,1,154.000004699707,8|0,1:2|3:0,0:0:0:0:
237,134,60568,1,2,3:0:0:0:
148,29,60765,6,0,L|120:163,1,115.50000352478,6|0,1:3|0:0,0:0:0:0:
140,175,61160,2,0,L|22:125,1,115.50000352478,6|0,1:3|0:0,0:0:0:0:
7,150,61555,2,0,L|26:238,2,77.0000023498536,8|0|2,1:2|3:2|0:3,0:2:0:0:
153,256,62147,5,2,0:0:0:0:
246,334,62344,2,0,P|239:275|224:198,1,115.50000352478,6|0,1:3|0:0,0:0:0:0:
293,264,62739,2,0,P|299:201|315:128,1,115.50000352478,6|0,1:3|0:0,0:0:0:0:
288,103,63134,1,8,1:2:0:0:
447,63,63331,1,4,1:3:0:0:
408,136,63529,1,0,1:0:0:0:
259,12,63726,1,0,1:0:0:0:
147,206,63923,6,0,B|196:293|324:305|448:213|466:69|401:17|315:-13|213:13|149:156|225:263|342:216|424:181|439:233|453:322|394:357,1,805,4|0,1:2|3:0,0:0:0:0:
386,371,68562,5,0,3:0:0:0:
386,371,68660,2,0,L|368:272,1,83.9999974365235,4|0,1:2|0:0,0:0:0:0:
262,181,69055,2,0,P|223:197|167:219,1,83.9999974365235,0|0,1:0|0:2,0:2:0:0:
326,37,69450,2,0,P|386:60|394:175,1,167.999994873047,12|2,1:2|3:2,0:2:0:0:
257,276,70042,5,0,1:0:0:0:
198,130,70239,1,2,1:3:0:0:
277,189,70437,1,2,3:2:0:0:
174,327,70634,1,2,3:0:0:0:
340,266,70831,1,2,1:2:0:0:
172,216,71029,2,0,P|121:230|61:246,1,83.9999974365235,8|0,1:2|0:0,0:0:0:0:
271,365,71423,1,2,3:0:0:0:
375,191,71621,5,2,3:2:0:0:
375,191,71719,1,2,3:2:0:0:
375,191,71818,2,0,P|352:117|341:33,1,125.999996154785,4|0,1:3|0:0,0:0:0:0:
320,44,72213,1,2,1:2:0:0:
176,257,72410,2,0,P|190:215|196:160,1,83.9999974365235,2|8,0:0|1:2,0:0:0:0:
499,367,73002,1,2,3:2:0:0:
448,304,73200,2,0,P|412:301|372:344,1,83.9999974365235,2|2,1:2|3:0,0:0:0:0:
500,213,73594,5,0,1:0:0:0:
376,330,73792,2,0,P|371:282|359:247,1,83.9999974365235,2|0,3:2|1:0,0:0:0:0:
477,122,74187,2,0,P|492:79|498:40,1,83.9999974365235,8|0,1:2|0:0,0:0:0:0:
264,248,74581,1,2,3:2:0:0:
364,149,74779,5,2,3:1:0:0:
364,149,74877,1,2,3:1:0:0:
364,149,74976,2,0,P|292:149|256:47,2,167.999994873047,4|0|8,1:3|1:0|1:2,0:0:0:0:
85,241,76160,2,0,P|93:197|104:148,1,83.9999974365235,2|2,3:0|1:2,0:0:0:0:
31,119,76555,6,0,P|79:62|132:63,1,125.999996154785,2|0,3:2|3:2,0:0:0:0:
153,91,76950,1,2,1:2:0:0:
277,0,77147,1,0,1:0:0:0:
220,191,77344,2,0,P|266:192|317:259,1,125.999996154785,8|0,1:2|0:0,0:0:0:0:
303,284,77739,1,2,3:2:0:0:
460,63,78035,5,2,3:1:0:0:
460,63,78134,2,0,P|445:127|442:167,1,83.9999974365235,4|0,1:3|0:0,0:0:0:0:
100,214,78529,2,0,P|115:150|118:110,1,83.9999974365235,0|0,1:3|0:0,0:0:0:0:
359,129,78923,2,0,P|266:150|183:174,1,167.999994873047,8|2,1:2|3:0,0:0:0:0:
258,115,79515,5,0,1:0:0:0:
351,241,79713,2,0,P|426:246|465:159,2,167.999994873047,2|2|8,3:0|0:0|1:2,0:0:0:0:
164,55,80700,1,0,1:0:0:0:
334,165,80897,1,8,1:2:0:0:
207,261,81094,5,2,3:1:0:0:
207,261,81193,1,2,3:1:0:0:
207,261,81292,2,0,P|174:218|180:180,1,83.9999974365235,4|0,1:2|0:0,0:0:0:0:
359,7,81687,2,0,P|401:57|396:130,1,125.999996154785,0|0,1:0|0:0,0:0:0:0:
373,145,82081,2,0,P|330:124|265:107,1,83.9999974365235,8|0,1:2|0:0,0:0:0:0:
80,84,82476,1,2,3:0:0:0:
153,50,82673,1,2,1:2:0:0:
69,215,82871,5,2,3:2:0:0:
156,255,83068,2,0,L|136:185,1,41.9999987182618,0|0,1:0|3:0,0:0:0:0:
178,183,83265,1,2,3:0:0:0:
84,309,83463,1,2,1:2:0:0:
284,346,83660,2,0,P|337:323|405:301,1,125.999996154785,8|0,1:2|0:0,0:0:0:0:
418,282,84055,1,2,3:0:0:0:
469,350,84252,1,2,3:2:0:0:
212,199,84450,6,0,B|219:93|258:154|266:43,1,167.999994873047,0|0,1:3|1:0,0:0:0:0:
316,210,85042,2,0,P|327:275|339:320,1,83.9999974365235,2|8,0:0|1:2,0:0:0:0:
97,66,85634,1,2,3:0:0:0:
44,128,85831,2,0,P|27:185|62:233,1,83.9999974365235,2|0,1:2|1:0,0:0:0:0:
277,341,86226,5,2,1:3:0:0:
185,278,86423,1,2,3:0:0:0:
341,230,86621,1,0,1:0:0:0:
144,355,86818,2,0,P|134:284|110:203,1,125.999996154785,8|0,1:2|0:0,0:0:0:0:
141,202,87213,1,2,3:0:0:0:
81,138,87410,1,2,3:1:0:0:
294,52,87608,6,0,P|282:92|277:134,1,83.9999974365235,4|0,1:2|0:0,0:0:0:0:
47,304,88002,2,0,P|35:263|30:221,1,83.9999974365235,0|0,1:2|0:0,0:0:0:0:
306,245,88397,2,0,B|419:282|356:291|487:330,1,167.999994873047,8|2,1:2|3:0,0:0:0:0:
455,319,88989,1,0,1:0:0:0:
375,343,89187,5,2,3:0:0:0:
479,175,89384,1,4,1:3:0:0:
381,115,89581,1,2,3:0:0:0:
402,261,89779,1,0,1:0:0:0:
498,64,89976,2,0,P|439:46|352:14,1,125.999996154785,8|0,1:2|0:0,0:0:0:0:
337,47,90371,2,0,P|266:67|235:76,1,83.9999974365235,2|0,3:1|0:0,0:0:0:0:
86,222,90765,6,0,P|35:193|57:84,1,167.999994873047,4|0,1:3|1:0,0:0:0:0:
365,339,91555,2,0,P|416:310|394:201,1,167.999994873047,8|2,1:2|3:0,0:0:0:0:
191,285,92344,5,0,1:0:0:0:
242,364,92542,1,0,1:0:0:0:
308,174,92739,1,8,1:2:0:0:
121,194,92937,1,2,1:2:0:0:
343,251,93134,5,8,1:2:0:0:
203,204,93331,1,2,3:1:0:0:
171,78,93529,1,0,1:0:0:0:
224,2,93726,1,4,3:0:0:0:
171,78,93923,6,0,P|135:92|88:106,1,80.5000015354157,4|0,1:2|3:0,0:0:0:0:
126,186,94318,2,0,P|164:170|201:159,1,80.5000015354157,0|0,1:2|3:0,0:0:0:0:
435,69,94713,1,8,1:2:0:0:
435,69,94910,1,2,3:2:0:0:
355,21,95108,2,0,P|350:64|338:111,1,80.5000015354157,2|2,3:0|1:2,0:0:0:0:
322,326,95502,5,2,3:0:0:0:
452,214,95700,1,0,1:2:0:0:
452,214,95897,1,0,3:0:0:0:
341,216,96094,2,0,L|361:276,1,40.2500007677078,0|0,1:0|3:0,0:0:0:0:
386,275,96292,1,10,1:2:0:0:
260,232,96489,1,2,3:2:0:0:
389,355,96687,2,0,P|309:369|259:393,1,120.750002303124,2|0,3:1|0:0,0:0:0:0:
234,372,97081,6,0,P|204:337|208:292,1,80.5000015354157,4|0,1:3|0:0,0:0:0:0:
132,235,97476,2,0,P|102:270|106:315,1,80.5000015354157,0|0,1:3|0:0,0:0:0:0:
335,190,97871,1,10,1:2:0:0:
292,123,98068,2,0,P|247:140|196:149,1,80.5000015354157,2|2,3:2|3:0,0:0:0:0:
215,147,98463,6,0,P|224:95|231:47,1,80.5000015354157,2|2,1:2|3:0,0:0:0:0:
303,264,98858,1,0,1:3:0:0:
429,216,99055,2,0,P|420:163|413:115,1,80.5000015354157,2|0,3:2|3:2,0:0:0:0:
182,238,99450,2,0,P|138:251|88:267,1,80.5000015354157,8|0,1:2|0:0,0:0:0:0:
334,384,99844,2,0,P|366:351|358:304,1,80.5000015354157,2|2,1:1|0:0,0:2:0:0:
127,79,100239,6,0,P|136:122|145:165,1,80.5000015354157,4|0,1:2|0:0,0:0:0:0:
296,167,100634,1,0,1:0:0:0:
296,167,100831,1,0,3:0:0:0:
162,325,101029,2,0,B|61:291|140:281|7:241,1,161.000003070831,8|2,1:2|3:0,0:0:0:0:
25,247,101621,1,2,1:2:0:0:
207,171,101818,5,2,3:0:0:0:
207,171,101917,1,0,3:0:0:0:
207,171,102015,2,0,P|161:182|118:193,1,80.5000015354157,8|0,1:3|3:0,0:0:0:0:
100,122,102410,1,0,1:0:0:0:
327,47,102608,2,0,P|319:90|311:130,1,80.5000015354157,8|2,1:2|3:2,0:0:0:0:
444,305,103002,2,0,P|485:261|479:204,1,120.750002303124,2|0,3:1|0:0,0:0:0:0:
449,197,103397,5,4,1:3:0:0:
449,197,103594,1,0,3:0:0:0:
352,316,103792,1,0,1:0:0:0:
352,316,103989,1,0,3:0:0:0:
91,212,104187,5,8,1:2:0:0:
244,202,104384,1,2,3:2:0:0:
275,326,104581,1,2,3:0:0:0:
215,384,104779,1,2,1:2:0:0:
160,247,104976,5,2,3:0:0:0:
315,160,105173,1,2,1:1:0:0:
171,25,105371,2,0,P|146:49|146:103,1,80.5000015354157,4|0,3:0|0:0,0:0:0:0:
188,122,105667,1,0,1:0:0:0:
188,122,105765,2,0,L|241:96,1,40.2500007677078,12|0,1:3|0:0,0:0:0:0:
262,31,105963,1,4,1:3:0:0:
403,282,106160,2,0,P|415:221|431:150,1,120.750002303124,8|0,1:2|0:0,0:0:0:0:
402,124,106555,5,4,1:2:0:0:
445,57,106752,1,0,3:0:0:0:
309,137,106950,2,0,P|266:156|243:205,1,80.5000015354157,0|2,1:2|3:2,0:0:0:0:
247,182,107246,1,2,3:2:0:0:
247,182,107344,1,8,1:2:0:0:
383,253,107542,1,2,3:2:0:0:
271,301,107739,2,0,P|201:277|171:273,1,80.5000015354157,2|0,3:0|1:0,0:0:0:0:
113,354,108134,5,0,1:0:0:0:
194,275,108331,2,0,P|223:313|212:368,1,80.5000015354157,0|0,1:0|3:0,0:0:0:0:
53,282,108726,1,0,1:0:0:0:
161,178,108923,2,0,P|168:130|187:40,1,120.750002303124,8|0,1:2|0:0,0:0:0:0:
152,33,109318,2,0,P|106:52|55:63,1,80.5000015354157,2|0,3:2|3:0,0:0:0:0:
249,201,109713,5,0,1:0:0:0:
346,167,109910,1,0,3:0:0:0:
324,56,110108,1,0,1:0:0:0:
215,99,110305,1,0,3:0:0:0:
346,167,110502,2,0,P|405:181|455:205,1,80.5000015354157,8|2,1:2|0:0,0:0:0:0:
453,109,110897,1,2,3:0:0:0:
270,235,111094,5,0,1:0:0:0:
184,182,111292,2,0,P|164:148|174:105,1,80.5000015354157,2|0,3:0|1:0,0:0:0:0:
171,109,111687,1,2,3:0:0:0:
350,185,111884,1,0,1:0:0:0:
137,254,112081,5,8,1:2:0:0:
367,104,112279,1,10,1:3:0:0:
253,45,112476,2,0,P|262:95|266:130,1,80.5000015354157,2|0,3:2|1:2,0:0:0:0:
38,265,112871,6,0,P|49:199|141:175,1,161.000003070831,4|0,1:2|1:0,0:0:0:0:
232,330,113463,1,2,3:2:0:0:
232,330,113562,1,2,3:2:0:0:
232,330,113660,2,0,P|191:339|148:355,1,80.5000015354157,8|2,1:2|0:0,0:0:0:0:
240,148,114055,2,0,P|270:191|257:247,1,80.5000015354157,2|2,3:0|1:2,0:0:0:0:
270,217,114450,5,2,3:0:0:0:
304,23,114647,1,4,1:3:0:0:
340,104,114844,1,2,3:0:0:0:
152,171,115042,1,0,1:0:0:0:
152,171,115140,1,2,0:0:0:0:
152,171,115239,1,8,1:2:0:0:
336,268,115437,1,2,1:2:0:0:
254,136,115634,2,0,P|243:188|238:222,1,80.5000015354157,2|2,3:0|0:2,0:0:0:0:
415,349,116029,5,0,1:0:0:0:
415,349,116226,1,0,3:0:0:0:
341,296,116423,1,0,1:0:0:0:
464,246,116621,1,0,3:0:0:0:
279,370,116818,2,0,P|243:322|246:277,1,80.5000015354157,8|0,1:2|3:0,0:0:0:0:
395,180,117213,1,0,1:0:0:0:
236,131,117410,5,0,3:2:0:0:
236,131,117509,1,2,1:2:0:0:
236,131,117608,2,0,L|251:198,1,40.2500007677078,8|0,1:2|0:0,0:0:0:0:
273,201,117805,1,0,1:0:0:0:
358,81,118002,1,0,1:0:0:0:
461,236,118200,1,4,1:3:0:0:
512,101,118397,2,0,L|471:112,1,40.2500007677078,8|0,1:2|3:0,0:0:0:0:
377,170,118594,1,0,1:3:0:0:
377,170,118693,1,2,1:2:0:0:
377,170,118792,2,0,L|336:159,1,40.2500007677078,0|0,1:0|3:0,0:0:0:0:
279,90,118989,2,0,L|238:101,1,40.2500007677078,2|0,3:2|3:0,0:0:0:0:
171,68,119200,6,0,P|163:120|159:151,1,66.4999982242585,4|0,1:3|0:0,0:0:0:0:
72,133,119594,2,0,P|85:193|99:278,1,132.999996448517,4|8,1:3|1:2,0:0:0:0:
180,280,120186,2,0,P|213:268|287:330,1,132.999996448517,0|0,1:0|1:0,0:0:0:0:
209,367,120778,6,0,P|166:377|127:390,1,66.4999982242585,4|0,1:3|0:0,0:0:0:0:
264,227,121173,2,0,P|307:237|346:250,1,66.4999982242585,4|0,1:3|0:0,0:0:0:0:
145,249,121568,1,8,1:2:0:0:
145,249,121765,2,0,P|139:172|125:99,1,132.999996448517,0|0,1:0|1:0,0:0:0:0:
212,73,122357,6,0,P|198:31|106:23,2,132.999996448517,4|4|8,1:3|1:3|1:2,0:0:0:0:
146,127,123344,2,0,P|112:114|68:105,1,66.4999982242585,0|0,1:0|0:0,0:0:0:0:
82,107,123739,1,2,1:2:0:0:
245,207,123936,6,0,P|294:184|360:168,1,99.7499973363877,4|0,1:3|0:0,0:0:0:0:
359,153,124331,2,0,P|347:224|341:303,1,132.999996448517,4|8,1:3|1:2,0:0:0:0:
426,303,124923,2,0,P|431:236|443:171,1,132.999996448517,0|0,1:3|1:2,0:0:0:0:
495,102,125515,6,0,P|477:75|426:66,1,66.4999982242585,4|0,1:3|0:0,0:0:0:0:
381,15,125910,2,0,P|335:19|282:104,1,132.999996448517,4|8,1:3|1:2,0:0:0:0:
204,104,126502,2,0,P|216:169|222:260,1,132.999996448517,0|0,1:0|1:0,0:0:0:0:
153,293,127094,6,0,P|93:267|72:263,1,66.4999982242585,4|0,1:3|0:0,0:0:0:0:
307,200,127489,2,0,P|312:232|321:264,1,66.4999982242585,4|0,1:3|0:0,0:0:0:0:
167,163,127884,1,8,1:2:0:0:
167,163,128081,2,0,P|182:113|255:99,1,132.999996448517,0|0,1:0|1:0,0:0:0:0:
325,44,128673,6,0,P|372:63|439:84,1,99.7499973363877,4|0,1:3|0:0,0:0:0:0:
437,64,129068,2,0,P|458:144|469:176,1,99.7499973363877,4|0,1:3|0:0,0:0:0:0:
448,184,129463,1,8,1:2:0:0:
383,237,129660,2,0,P|341:216|310:205,1,66.4999982242585,0|0,1:0|0:0,0:0:0:0:
322,209,130055,1,0,1:0:0:0:
159,331,130239,5,2,1:3:0:0:
188,244,130436,1,0,1:0:0:0:
159,331,130633,1,2,1:3:0:0:
188,244,130831,1,2,1:2:0:0:
241,370,131028,5,8,1:2:0:0:
77,270,131225,1,0,1:0:0:0:
332,187,131423,1,8,1:2:0:0:
139,70,131620,1,8,1:2:0:0:
269,256,131817,6,0,P|295:293|355:302,1,105,4|0,1:2|0:0,0:0:0:0:
373,314,132211,1,4,1:3:0:0:
426,248,132409,2,0,P|413:212|405:171,1,70,2|8,3:0|1:2,0:0:0:0:
242,156,132803,2,0,P|261:111|272:20,1,140,2|2,1:2|3:2,0:0:0:0:
362,49,133395,6,0,B|445:72|390:95|492:119,1,140,4|4,1:3|1:3,0:0:0:0:
481,116,133988,1,2,0:0:0:0:
338,186,134185,1,8,1:2:0:0:
399,246,134382,2,0,P|436:234|477:222,1,70,0|2,1:0|0:0,0:0:0:0:
320,337,134777,5,2,3:2:0:0:
243,300,134974,2,0,P|226:271|239:222,1,70,4|0,1:3|3:0,0:0:0:0:
321,123,135369,1,4,1:3:0:0:
137,202,135567,1,2,3:2:0:0:
137,202,135665,1,2,3:2:0:0:
137,202,135764,1,8,1:2:0:0:
191,122,135961,2,0,P|137:103|104:89,1,70,2|0,1:2|3:0,0:0:0:0:
125,98,136356,1,2,1:2:0:0:
285,13,136553,6,0,P|293:67|311:166,2,140,4|4|8,1:3|1:3|1:2,0:0:0:0:
392,47,137540,2,0,P|383:84|381:106,2,35,0|2|0,1:0|0:0|3:0,0:0:0:0:
228,230,137935,5,2,1:2:0:0:
294,278,138132,2,0,P|320:264|368:248,1,70,4|0,1:3|0:0,0:0:0:0:
455,335,138527,2,0,P|477:306|473:260,1,70,4|0,1:3|0:0,0:0:0:0:
382,143,138922,1,8,1:2:0:0:
382,143,139119,2,0,P|326:125|236:89,1,140,2|0,1:2|1:0,0:0:0:0:
36,91,139711,5,4,1:3:0:0:
114,116,139909,2,0,P|109:82|102:48,1,70,2|4,0:0|1:3,0:0:0:0:
210,202,140303,2,0,P|244:206|278:214,1,70,2|8,3:2|1:2,0:0:0:0:
86,233,140698,2,0,P|68:279|56:386,1,140,2|2,1:2|1:2,0:0:0:0:
248,380,141290,6,0,P|231:318|152:342,2,140,4|4|8,1:3|1:3|1:2,0:0:0:0:
85,369,142277,2,0,P|32:336|52:256,1,140,0|0,1:0|1:0,0:0:0:0:
147,130,142869,5,4,1:3:0:0:
155,214,143077,1,2,1:2:0:0:
253,264,143284,1,8,1:2:0:0:
278,150,143491,1,2,1:2:0:0:
387,122,143698,1,8,1:2:0:0:
356,200,143894,1,2,1:2:0:0:
420,258,144090,1,2,1:2:0:0:
497,246,144286,1,0,1:2:0:0:
420,258,144456,6,0,P|430:172|443:68,1,168,4|2,1:2|1:2,0:0:0:0:
364,54,145245,2,0,P|352:136|342:216,1,140,4|0,1:3|0:0,0:0:0:0:
333,201,145837,1,2,1:2:0:0:
257,240,146034,6,0,P|252:212|250:184,1,56,0|2,1:0|0:0,0:0:0:0:
164,164,146429,1,2,1:2:0:0:
144,238,146627,1,2,1:2:0:0:
164,164,146824,2,0,P|166:191|170:219,1,56,4|2,1:3|0:0,0:0:0:0:
87,257,147219,2,0,P|79:203|74:144,1,112,2|4,1:2|1:3,0:0:0:0:
294,45,148008,6,0,P|268:54|247:91,1,56,2|0,1:2|1:0,0:0:0:0:
301,133,148403,1,4,1:3:0:0:
371,103,148600,2,0,P|411:109|440:174,1,112,2|0,3:0|3:0,3:0:0:0:
440,168,149192,6,0,P|445:139|454:102,2,56,4|2|2,1:3|0:0|0:0,0:0:0:0:
362,213,149784,1,0,1:0:0:0:
429,257,149982,1,4,1:3:0:0:
362,213,150179,1,0,1:0:0:0:
429,257,150377,1,0,1:0:0:0:
197,368,150771,6,0,P|209:296|213:238,1,112,4|0,1:3|3:0,0:0:0:0:
158,196,151363,1,0,1:0:0:0:
277,125,151561,2,0,P|223:110|173:84,1,112,4|0,1:3|3:0,0:0:0:0:
101,105,152153,1,0,1:0:0:0:
222,262,152350,6,0,P|304:229|325:223,1,84,4|0,1:3|0:0,0:0:0:0:
309,218,152745,1,2,3:2:0:0:
383,249,152942,1,2,1:2:0:0:
400,142,153140,2,0,P|392:110|384:76,2,56,4|0|0,1:3|1:0|1:0,0:0:0:0:
400,142,153732,1,2,0:0:0:0:
267,135,153929,6,0,P|256:114|258:64,1,56,4|0,1:3|0:0,0:0:0:0:
161,134,154324,2,0,P|124:144|89:158,1,56,0|0,1:0|1:0,0:0:0:0:
238,237,154719,2,0,P|270:246|301:269,2,56,4|0|0,1:3|1:0|1:0,0:0:0:0:
238,237,155311,1,2,0:0:0:0:
113,350,155508,6,0,P|123:312|125:286,1,56,4|0,1:3|1:0,0:0:0:0:
313,174,155903,2,0,P|303:136|301:110,1,56,0|0,1:3|0:0,0:0:0:0:
185,235,156298,2,0,P|197:197|199:157,2,56,4|0|2,1:3|1:0|1:2,0:0:0:0:
229,301,156890,1,2,0:0:0:0:
202,98,157087,5,4,1:2:0:0:
84,189,157482,2,0,P|48:200|11:222,1,56,2|0,0:0|1:0,0:0:0:0:
160,245,157877,2,0,B|246:266|176:268|281:293,1,112,4|2,1:3|0:0,0:0:0:0:
279,210,158469,1,2,1:2:0:0:
335,349,158666,6,0,P|342:300|357:227,1,112,4|2,1:3|3:2,0:0:0:0:
354,238,159258,1,0,1:0:0:0:
302,181,159456,1,2,1:2:0:0:
394,148,159653,1,0,1:0:0:0:
257,72,159850,1,0,1:0:0:0:
399,16,160048,1,0,1:0:0:0:
241,275,160240,5,6,1:3:0:0:
175,35,160434,1,2,1:1:0:0:
182,325,161016,5,6,1:3:0:0:
319,63,161210,1,2,1:1:0:0:
269,356,161793,5,6,1:3:0:0:
251,0,161987,1,2,1:1:0:0:
174,197,163201,6,0,P|152:187|122:178,1,47.2500001802444,2|0,3:2|3:0,0:0:0:0:
109,197,163398,2,0,P|192:183|281:134,1,161.000003070831,4|2,1:2|3:2,0:0:0:0:
336,191,163989,1,0,1:0:0:0:
433,125,164186,2,0,P|449:86|440:38,1,80.5000015354157,4|2,1:3|0:0,0:0:0:0:
365,5,164581,2,0,P|349:44|358:92,1,80.5000015354157,2|0,1:2|1:0,0:0:0:0:
423,261,164975,6,0,P|468:242|511:227,2,80.5000015354157,0|0|0,1:0|0:3|3:0,0:0:0:0:
296,319,165568,1,2,1:2:0:0:
327,233,165765,1,4,1:3:0:0:
319,315,165962,1,2,1:2:0:0:
273,226,166160,1,0,1:0:0:0:
361,166,166357,1,2,1:2:0:0:
173,261,166554,6,0,P|187:222|205:155,1,80.5000015354157,4|0,1:3|0:0,0:0:0:0:
108,168,166949,2,0,P|101:126|80:69,1,80.5000015354157,2|0,3:2|1:0,0:0:0:0:
160,27,167344,1,4,1:3:0:0:
240,2,167541,1,0,1:3:0:0:
291,66,167739,1,0,1:0:0:0:
368,90,167936,1,4,1:3:0:0:
453,159,168133,5,6,1:3:0:0:
501,71,168331,1,0,1:0:0:0:
413,4,168528,1,0,1:0:0:0:
453,159,168725,1,2,1:3:0:0:
198,105,168923,5,8,1:2:0:0:
295,190,169120,1,0,1:0:0:0:
466,77,169318,1,8,1:2:0:0:
224,242,169515,1,8,1:2:0:0:
493,291,169712,6,0,L|469:168,1,115.50000352478,4|0,1:2|0:0,0:0:0:0:
504,145,170107,2,0,L|377:91,1,115.50000352478,4|0,1:3|0:0,0:0:0:0:
375,53,170502,1,8,1:2:0:0:
149,165,170897,5,2,0:0:0:0:
149,165,171094,1,2,0:0:0:0:
210,254,171291,2,0,L|64:229,1,115.50000352478,4|0,1:3|0:0,0:0:0:0:
67,261,171686,2,0,L|20:121,1,115.50000352478,4|0,1:3|0:0,0:0:0:0:
0,136,172081,2,0,L|163:78,1,154.000004699707,8|2,1:2|3:0,0:0:0:0:
145,84,172673,1,0,3:0:0:0:
309,6,172870,6,0,L|284:152,1,115.50000352478,4|0,1:3|0:0,0:0:0:0:
266,157,173265,2,0,L|401:109,1,115.50000352478,4|0,1:3|0:0,0:0:0:0:
410,147,173660,1,8,1:2:0:0:
296,328,174054,5,2,0:0:0:0:
296,328,174252,1,2,0:0:0:0:
405,379,174449,2,0,L|374:253,1,115.50000352478,4|0,1:3|0:0,0:0:0:0:
415,242,174844,2,0,L|302:183,1,115.50000352478,4|0,1:3|0:0,0:0:0:0:
268,212,175239,1,8,1:2:0:0:
440,120,175436,1,8,1:2:0:0:
440,120,175535,1,2,3:2:0:0:
440,120,175633,1,2,3:2:0:0:
348,62,175831,1,4,1:3:0:0:
344,259,176028,5,4,1:3:0:0:
362,148,176225,1,0,1:0:0:0:
256,80,176423,1,4,1:3:0:0:
141,120,176620,1,2,1:2:0:0:
295,199,176818,2,0,P|256:212|199:232,1,77.0000023498536,8|0,1:2|3:0,0:0:0:0:
199,258,177114,1,0,3:0:0:0:
199,258,177212,2,0,P|178:248|154:239,2,38.5000011749268,2|0|0,3:2|0:0|1:0,0:0:0:0:
50,333,177607,6,0,L|29:204,1,115.50000352478,4|0,1:3|0:0,0:0:0:0:
0,201,178002,2,0,L|84:78,1,115.50000352478,4|0,1:3|0:0,0:0:0:0:
107,84,178397,2,0,L|22:40,2,77.0000023498536,8|0|2,1:2|3:0|3:0,0:0:0:0:
218,207,178989,5,2,3:2:0:0:
232,284,179186,2,0,P|298:263|342:211,1,115.50000352478,4|0,1:3|0:0,0:0:0:0:
358,274,179581,2,0,P|424:295|468:347,1,115.50000352478,4|0,1:3|0:0,0:0:0:0:
505,313,179975,1,8,1:2:0:0:
438,194,180173,1,0,1:0:0:0:
511,148,180370,1,4,1:3:0:0:
367,290,180568,1,4,1:3:0:0:
224,148,180764,6,0,B|232:56|264:104|270:13,1,140,4|0,1:2|0:0,0:0:0:0:
234,5,181384,2,0,P|203:24|135:49,1,105.000004005432,2|0,0:0|0:0,0:0:0:0:
325,112,182005,2,0,P|357:124|395:159,1,76.4400025660401,2|0,0:0|0:0,0:0:0:0:
148,234,182540,2,0,P|130:167|125:156,1,70,2|0,0:0|0:0,0:0:0:0:
255,203,183132,1,2,0:0:0:0:
255,203,183527,5,2,0:0:0:0:
275,288,183724,1,2,0:1:0:0:
350,286,183921,2,0,P|414:290|446:157,1,224,2|0,3:2|0:0,0:0:0:0:
197,71,185895,5,8,1:2:0:0:
306,143,186093,1,0,1:0:0:0:
303,133,186158,1,0,1:0:0:0:
300,123,186224,1,0,1:0:0:0:
297,113,186290,1,8,1:2:0:0:
216,207,186487,1,4,1:3:0:0:
258,9,186685,1,8,1:3:0:0:
258,9,187079,6,0,P|213:26|153:37,1,83.9999974365235,4|0,1:2|0:0,0:0:0:0:
283,154,187473,2,0,P|299:209|309:269,1,83.9999974365235,0|0,1:0|0:0,0:0:0:0:
441,121,187868,2,0,P|492:101|497:-8,1,167.999994873047,8|2,1:2|3:0,0:0:0:0:
363,88,188460,5,0,1:0:0:0:
442,248,188657,1,2,1:3:0:0:
512,200,188855,1,2,3:2:0:0:
337,191,189052,1,2,3:0:0:0:
424,331,189250,1,2,1:2:0:0:
280,264,189447,2,0,P|229:278|169:294,1,83.9999974365235,8|0,1:2|0:0,0:0:0:0:
267,150,189842,1,2,3:0:0:0:
288,351,190039,5,2,3:2:0:0:
288,351,190138,1,2,3:2:0:0:
288,351,190236,2,0,P|224:335|94:305,1,167.999994873047,4|2,3:3|3:2,3:0:0:0:
344,193,190829,2,0,P|379:230|361:292,1,83.9999974365235,2|8,0:0|1:2,0:0:0:0:
76,153,191421,1,2,3:0:0:0:
132,90,191618,2,0,P|156:83|225:57,1,83.9999974365235,2|0,1:2|3:0,0:0:0:0:
360,179,192013,5,4,1:3:0:0:
274,9,192210,1,2,3:2:0:0:
363,58,192407,1,0,1:0:0:0:
242,230,192605,2,0,P|259:155|265:118,1,83.9999974365235,8|0,1:2|0:0,0:0:0:0:
421,129,193000,1,2,3:0:0:0:
319,297,193197,5,2,3:1:0:0:
319,297,193296,1,2,3:1:0:0:
319,297,193394,2,0,P|349:347|439:343,1,125.999996154785,4|0,1:3|0:0,0:0:0:0:
461,379,193789,2,0,P|444:308|435:232,1,125.999996154785,0|0,1:0|0:0,0:0:0:0:
472,231,194184,2,0,P|480:168|494:133,1,83.9999974365235,8|0,1:2|0:0,0:0:0:0:
486,148,194579,1,2,3:0:0:0:
469,71,194776,1,2,1:2:0:0:
310,189,194973,5,2,3:0:0:0:
379,139,195171,1,2,3:0:0:0:
379,139,195269,1,2,3:2:0:0:
379,139,195368,1,2,3:2:0:0:
250,102,195565,1,2,1:2:0:0:
337,311,195763,2,0,P|381:295|438:275,1,83.9999974365235,8|0,1:2|0:0,0:0:0:0:
198,203,196157,2,0,P|180:240|214:302,1,83.9999974365235,2|0,3:0|3:0,0:0:0:0:
227,285,196454,5,2,3:1:0:0:
227,285,196552,2,0,B|215:177|177:258|175:118,2,167.999994873047,4|0|8,1:3|1:0|1:2,0:0:0:0:
206,362,197539,1,2,3:2:0:0:
242,192,197736,1,2,3:0:0:0:
310,241,197934,2,0,P|318:294|335:335,1,83.9999974365235,0|2,1:0|3:0,0:0:0:0:
214,273,198329,5,0,1:0:0:0:
383,152,198526,2,0,P|407:105|395:24,1,125.999996154785,4|0,1:3|0:0,0:0:0:0:
369,17,198921,1,8,1:2:0:0:
301,133,199118,1,0,1:0:0:0:
469,78,199315,1,8,1:2:0:0:
301,133,199513,1,2,0:0:0:0:
422,267,199710,6,0,P|380:244|323:240,1,83.9999974365235,4|0,1:2|0:0,0:0:0:0:
136,109,200105,2,0,P|189:48|271:51,1,167.999994873047,0|8,1:0|1:2,0:0:0:0:
124,271,200894,1,2,1:2:0:0:
62,322,201092,1,2,3:0:0:0:
128,371,201289,5,2,3:0:0:0:
61,213,201486,1,0,1:0:0:0:
218,301,201684,1,2,3:2:0:0:
281,241,201881,2,0,P|286:200|298:147,1,83.9999974365235,2|8,1:2|1:2,0:0:0:0:
294,158,202177,1,0,3:0:0:0:
294,158,202276,1,0,3:0:0:0:
388,311,202473,1,2,3:0:0:0:
291,377,202671,1,2,3:2:0:0:
374,198,202868,6,0,B|422:197|459:231|440:250|470:280|518:286,1,167.999994873047,4|0,1:3|1:0,0:0:0:0:
262,374,203460,1,2,0:0:0:0:
275,297,203657,2,0,P|263:226|247:183,1,83.9999974365235,10|0,1:2|0:2,0:0:0:0:
193,307,204052,1,2,3:0:0:0:
349,230,204250,2,0,P|362:176|364:133,1,83.9999974365235,2|2,1:2|3:0,0:0:0:0:
314,82,204644,5,4,1:3:0:0:
447,22,204842,1,2,3:2:0:0:
469,118,205039,1,0,1:0:0:0:
316,0,205236,2,0,P|250:12|214:67,1,125.999996154785,8|0,1:2|0:0,0:0:0:0:
187,68,205631,1,2,3:0:0:0:
246,124,205829,1,2,3:2:0:0:
61,205,206026,6,0,P|77:152|79:104,1,83.9999974365235,4|0,1:2|0:0,0:0:0:0:
323,166,206421,2,0,P|344:213|314:268,1,83.9999974365235,0|0,1:2|0:0,0:0:0:0:
149,276,206815,2,0,B|235:307|170:307|259:336,1,125.999996154785,8|0,1:2|0:0,0:0:0:0:
279,356,207210,2,0,P|323:340|363:328,1,83.9999974365235,2|0,3:0|1:0,0:0:0:0:
358,329,207605,5,2,3:0:0:0:
261,181,207802,1,4,1:3:0:0:
331,100,208000,1,2,3:0:0:0:
389,231,208197,1,0,1:0:0:0:
167,307,208394,2,0,P|175:266|188:194,1,83.9999974365235,8|0,1:2|0:0,0:0:0:0:
106,13,208789,2,0,P|56:32|52:128,1,125.999996154785,2|0,3:0|0:0,0:0:0:0:
69,130,209184,5,4,1:3:0:0:
350,22,209579,1,0,1:0:0:0:
10,275,209973,1,8,1:2:0:0:
400,384,210368,1,0,1:0:0:0:
159,181,210664,5,4,1:3:0:0:
159,181,210763,1,10,1:3:0:0:
331,269,210960,1,8,1:2:0:0:
220,125,211157,1,0,1:0:0:0:
394,69,211355,1,4,1:3:0:0:
246,217,211552,5,8,1:2:0:0:
299,50,211750,1,0,1:0:0:0:
442,159,211947,1,2,1:2:0:0:
337,145,212144,1,4,1:3:0:0:
382,117,212342,6,0,P|389:187|400:267,1,125.999996154785,4|0,1:2|1:0,0:0:0:0:
346,302,212934,1,2,0:0:0:0:
462,370,213131,1,8,1:2:0:0:
462,370,213329,2,0,P|454:341|447:296,1,62.9999980773926,2|0,0:2|0:0,0:0:0:0:
228,212,213723,5,10,1:1:0:0:
228,212,214315,1,0,3:0:0:0:
262,140,214513,1,0,3:0:0:0:
274,353,214710,1,8,1:2:0:0:
274,353,215105,2,0,L|199:327,1,62.9999980773926,0|0,3:0|3:0,0:0:0:0:
133,375,215500,6,0,P|112:340|113:310,1,62.9999980773926,4|2,1:3|0:0,0:0:0:0:
159,255,215894,1,2,1:0:0:0:
159,255,216092,1,2,3:2:0:0:
50,170,216289,1,8,1:2:0:0:
115,121,216486,2,0,P|150:136|192:147,1,62.9999980773926,2|0,0:0|3:0,0:0:0:0:
315,274,216881,6,0,B|231:292|275:305|179:333,1,125.999996154785,10|0,1:0|0:0,0:0:0:0:
132,370,217473,1,0,3:0:0:0:
105,299,217671,1,0,3:0:0:0:
264,384,217868,1,8,1:2:0:0:
325,241,218065,2,0,P|295:252|265:261,1,62.9999980773926,0|0,1:0|3:0,0:0:0:0:
264,261,218460,1,0,1:0:0:0:
421,354,218657,6,0,P|431:282|441:211,1,125.999996154785,6|0,1:3|1:0,0:0:0:0:
387,165,219250,1,2,3:2:0:0:
507,78,219447,1,8,1:2:0:0:
507,78,219644,2,0,P|502:124|494:159,1,62.9999980773926,2|0,0:0|3:0,0:0:0:0:
228,212,220039,5,10,1:0:0:0:
228,212,220631,1,0,3:0:0:0:
258,284,220829,1,0,3:0:0:0:
286,68,221026,1,8,1:2:0:0:
286,68,221421,2,0,L|361:42,1,62.9999980773926,0|0,3:0|3:0,0:0:0:0:
419,104,221815,6,0,P|433:130|428:184,1,62.9999980773926,0|2,1:0|0:0,0:0:0:0:
364,217,222210,1,0,1:0:0:0:
364,217,222407,1,2,3:2:0:0:
454,309,222605,1,8,1:2:0:0:
315,379,222802,1,2,1:2:0:0:
147,258,223000,1,4,1:3:0:0:
256,152,223197,6,0,P|243:248|231:309,1,146.999995513916,4|0,1:2|1:0,0:0:0:0:
375,202,223789,2,0,P|362:106|350:45,1,146.999995513916,8|0,1:2|1:0,0:0:0:0:
262,33,224381,1,0,1:0:0:0:
262,33,224480,1,0,1:0:0:0:
262,33,224579,1,0,1:0:0:0:
235,65,224677,1,0,1:0:0:0:
192,86,224776,1,0,1:0:0:0:
142,77,224875,1,0,1:0:0:0:
105,41,224973,5,4,1:2:0:0:
225,190,225171,2,0,L|166:209,1,41.9999987182618,2|0,3:0|3:0,0:0:0:0:
159,186,225368,1,0,1:3:0:0:
279,84,225565,1,2,3:1:0:0:
279,84,225664,1,0,3:0:0:0:
279,84,225763,2,0,L|298:147,1,41.9999987182618,0|0,1:0|3:0,0:0:0:0:
366,184,225960,1,2,3:0:0:0:
366,184,226059,1,0,3:0:0:0:
366,184,226157,2,0,L|385:121,1,41.9999987182618,2|0,1:0|3:0,0:0:0:0:
455,104,226355,5,2,3:0:0:0:
455,104,226454,1,0,3:0:0:0:
455,104,226552,2,0,P|480:63|460:14,1,83.9999974365235,0|2,1:0|3:1,0:0:0:0:
288,151,226947,2,0,P|277:191|262:213,1,41.9999987182618,0|0,1:0|0:0,0:0:0:0:
287,215,227144,1,2,3:0:0:0:
438,256,227342,2,0,P|399:271|363:294,1,83.9999974365235,2|2,1:1|3:0,0:0:0:0:
389,174,227736,1,0,1:0:0:0:
389,174,227835,1,0,3:0:0:0:
389,174,227934,1,2,3:0:0:0:
238,333,228131,6,0,P|249:288|252:270,1,41.9999987182618,0|0,1:0|3:0,0:0:0:0:
192,229,228329,1,2,3:0:0:0:
192,229,228427,1,0,3:0:0:0:
192,229,228526,2,0,P|187:208|181:188,1,41.9999987182618,0|0,1:0|3:0,0:0:0:0:
182,104,228723,2,0,P|161:110|141:114,1,41.9999987182618,2|0,3:1|3:0,0:0:0:0:
40,179,228921,1,0,1:0:0:0:
56,175,229019,1,0,3:0:0:0:
72,179,229118,1,2,3:0:0:0:
84,190,229217,1,0,3:0:0:0:
90,204,229315,2,0,L|76:256,1,41.9999987182618,2|0,1:0|3:0,0:0:0:0:
42,265,229513,1,2,3:2:0:0:
133,336,229710,6,0,L|171:320,1,41.9999987182618,0|0,1:0|3:0,0:0:0:0:
269,318,229907,2,0,L|250:386,1,41.9999987182618,2|0,3:1|3:0,0:0:0:0:
210,243,230105,2,0,L|189:189,1,41.9999987182618,0|0,1:0|3:0,0:0:0:0:
210,173,230302,1,2,0:0:0:0:
364,278,230500,5,2,1:2:0:0:
197,97,230697,1,2,3:0:0:0:
448,57,230894,1,4,1:3:0:0:
341,196,231092,5,2,3:0:0:0:
329,170,231190,1,0,3:0:0:0:
352,145,231289,2,0,L|428:177,1,47.2500001802444,6|0,1:0|0:0,0:0:0:0:
478,242,231486,1,2,3:0:0:0:
478,242,231585,1,0,3:0:0:0:
478,242,231684,2,0,L|414:262,1,47.2500001802444,8|0,1:2|0:0,0:0:0:0:
319,334,231881,2,0,P|331:290|346:232,1,94.5000003604889,2|0,3:1|1:0,0:0:0:0:
257,195,232177,1,0,3:0:0:0:
233,178,232276,1,2,3:0:0:0:
200,186,232375,1,0,3:0:0:0:
187,210,232473,2,0,P|200:253|204:274,1,47.2500001802444,10|0,1:0|0:0,0:0:0:0:
347,161,232671,2,0,P|352:138|361:117,1,47.2500001802444,2|0,3:0|0:0,0:0:0:0:
299,48,232868,5,0,1:0:0:0:
299,48,232967,1,0,3:0:0:0:
299,48,233065,2,0,P|252:66|200:80,1,94.5000003604889,2|8,3:1|1:2,0:0:0:0:
140,136,233361,1,0,3:0:0:0:
113,130,233460,1,2,3:0:0:0:
95,109,233559,1,0,3:0:0:0:
95,81,233657,2,0,P|105:53|110:22,1,47.2500001802444,2|0,1:0|3:0,0:0:0:0:
233,168,233855,1,2,3:0:0:0:
233,168,233954,1,0,3:0:0:0:
233,168,234052,2,0,P|238:190|250:218,1,47.2500001802444,10|0,1:1|3:0,0:0:0:0:
174,271,234250,2,0,P|155:261|118:254,1,47.2500001802444,0|0,0:0|3:0,0:0:0:0:
247,212,234447,6,0,P|314:218|340:316,1,141.750000540733,6|0,1:2|0:0,0:0:0:0:
418,325,234842,2,0,P|437:266|468:218,1,94.5000003604889,8|2,1:2|3:0,0:0:0:0:
427,155,235138,1,0,1:0:0:0:
401,169,235236,2,0,P|393:133|378:105,1,47.2500001802444,0|0,1:3|0:0,0:0:0:0:
428,13,235434,1,0,1:0:0:0:
463,5,235532,1,0,1:0:0:0:
485,30,235631,2,0,P|472:69|470:88,1,47.2500001802444,8|0,1:2|0:0,0:0:0:0:
302,106,235828,6,0,B|261:116|200:85|242:55|190:20|136:32,1,189.000000720978,4|0,1:2|1:0,0:0:0:0:
57,227,236421,2,0,P|1:193|27:112,1,141.750000540733,8|0,1:2|1:0,0:0:0:0:
69,89,236815,2,0,P|61:119|55:148,1,47.2500001802444,2|0,1:2|0:0,0:0:0:0:
130,281,237013,1,2,1:2:0:0:
159,261,237111,2,0,P|166:229|176:193,1,47.2500001802444,4|0,1:3|1:2,0:0:0:0:
242,41,237309,1,0,1:0:0:0:
193,33,237407,1,2,1:2:0:0:
158,73,237506,1,0,1:0:0:0:
179,118,237605,6,0,P|246:134|315:149,1,108.500000827789,4|2,1:2|3:0,0:0:0:0:
377,219,237901,1,0,3:0:0:0:
412,200,238000,2,0,B|445:157|445:157|407:91,1,108.500000827789,10|2,1:2|3:0,0:0:0:0:
370,9,238296,1,0,3:0:0:0:
347,37,238394,2,0,L|284:54,1,54.2500004138947,2|0,1:2|0:0,0:0:0:0:
218,137,238592,1,2,3:0:0:0:
193,102,238690,2,0,L|124:79,1,54.2500004138947,2|8,3:2|1:2,0:0:0:0:
61,14,238888,1,0,3:0:0:0:
33,34,238986,2,0,L|64:174,1,108.500000827789,2|4,3:1|1:3,0:0:0:0:
7,384,239381,6,0,L|26:314,1,54.2500004138947,2|0,3:0|3:0,0:0:0:0:
1,258,239578,2,0,P|60:250|94:356,1,162.750001241684,8|0,1:2|3:0,0:0:0:0:
186,377,239973,2,0,P|231:377|265:313,1,108.500000827789,2|2,1:2|3:0,0:0:0:0:
335,279,240269,1,0,3:0:0:0:
311,255,240368,2,0,P|300:213|293:180,1,54.2500004138947,8|0,1:2|0:0,0:0:0:0:
208,200,240565,2,0,P|219:158|226:125,1,54.2500004138947,2|0,3:1|0:0,0:0:0:0:
286,16,240763,5,0,1:0:0:0:
331,11,240861,1,0,3:0:0:0:
367,39,240960,1,2,3:0:0:0:
378,81,241059,1,0,3:0:0:0:
359,123,241157,2,0,L|277:94,2,54.2500004138947,8|0|2,1:2|3:0|0:0,0:0:0:0:
508,234,241552,2,0,B|534:285|534:285|503:327,1,108.500000827789,2|0,1:2|3:2,0:0:0:0:
424,368,241849,2,0,L|408:316,1,54.2500004138947,2|8,3:2|1:2,0:0:0:0:
421,208,242046,1,0,3:0:0:0:
394,233,242144,2,0,P|346:255|310:288,1,54.2500004138947,2|0,3:1|0:0,0:0:0:0:
295,329,242342,6,0,B|221:304|279:293|187:270,1,108.500000827789,0|2,1:0|3:0,0:0:0:0:
126,317,242638,1,0,3:0:0:0:
98,339,242736,2,0,P|113:261|118:212,1,108.500000827789,8|2,1:2|3:2,0:0:0:0:
256,16,243131,2,0,P|291:35|330:41,1,54.2500004138947,2|0,1:2|3:0,0:0:0:0:
286,125,243328,1,0,3:0:0:0:
271,153,243427,2,0,P|238:173|213:204,1,54.2500004138947,2|8,3:2|1:2,0:0:0:0:
193,99,243625,1,0,3:0:0:0:
162,84,243723,2,0,P|161:44|147:8,1,54.2500004138947,2|0,3:1|3:0,0:0:0:0:
329,8,243921,6,0,P|339:101|360:174,1,162.750001241684,4|0,1:2|3:0,0:0:0:0:
294,221,244315,2,0,P|280:275|283:309,1,54.2500004138947,8|0,1:2|0:0,0:0:0:0:
364,271,244513,2,0,P|381:311|407:340,1,54.2500004138947,2|0,3:2|0:0,0:0:0:0:
300,353,244710,2,0,P|242:362|192:387,1,108.500000827789,2|2,1:2|3:0,0:0:0:0:
133,333,245006,2,0,P|101:314|53:303,1,54.2500004138947,2|8,3:2|1:2,0:0:0:0:
31,237,245203,1,0,3:0:0:0:
5,254,245302,2,0,P|-6:304|-17:324,1,54.2500004138947,2|0,3:1|3:0,0:0:0:0:
150,242,245500,6,0,B|133:127|95:215|93:54,1,162.750001241684,2|0,1:2|3:0,0:0:0:0:
144,20,245894,2,0,P|170:40|230:57,1,54.2500004138947,8|0,1:2|3:0,0:0:0:0:
302,151,246092,1,2,3:0:0:0:
273,131,246190,1,0,3:0:0:0:
272,101,246289,2,0,P|293:84|317:71,1,54.2500004138947,2|0,1:2|0:0,0:0:0:0:
390,11,246486,2,0,P|437:74|436:151,1,108.500000827789,2|8,3:2|1:2,0:0:0:0:
398,173,246782,1,0,3:0:0:0:
410,198,246881,2,0,P|390:242|372:261,1,54.2500004138947,2|0,3:1|3:0,0:0:0:0:
378,338,247078,6,0,P|331:319|245:298,1,108.500000827789,4|2,1:3|3:0,0:0:0:0:
275,303,247375,1,0,3:0:0:0:
275,303,247473,2,0,L|255:191,1,108.500000827789,8|2,1:2|3:0,0:0:0:0:
188,154,247769,1,0,3:0:0:0:
169,139,247868,2,0,B|149:92|149:92|201:13,1,108.500000827789,0|2,1:0|3:0,0:0:0:0:
257,68,248164,1,0,3:0:0:0:
273,85,248263,2,0,P|300:102|352:125,1,54.2500004138947,8|0,1:2|0:0,0:0:0:0:
183,238,248460,2,0,P|112:258|63:294,1,108.500000827789,2|4,3:0|1:3,0:0:0:0:
83,276,248855,5,2,3:0:0:0:
324,380,249052,2,0,P|272:363|230:329,1,108.500000827789,8|2,1:2|3:0,0:0:0:0:
279,256,249348,1,0,3:0:0:0:
301,267,249447,2,0,P|281:217|270:164,1,108.500000827789,2|2,1:2|3:0,0:0:0:0:
359,164,249743,2,0,P|358:138|373:85,1,54.2500004138947,2|8,3:2|1:2,0:0:0:0:
286,82,249940,1,0,3:0:0:0:
268,64,250039,2,0,P|263:37|264:10,1,54.2500004138947,2|0,3:1|3:2,0:0:0:0:
166,71,250236,6,0,P|115:91|70:120,1,108.500000827789,4|2,1:2|3:0,0:0:0:0:
41,206,250532,1,0,3:0:0:0:
63,226,250631,2,0,P|91:236|133:265,1,54.2500004138947,10|0,1:2|3:0,0:0:0:0:
218,264,250828,1,2,3:0:0:0:
236,292,250927,1,0,3:0:0:0:
228,320,251026,2,0,P|190:333|157:351,1,54.2500004138947,0|0,1:0|3:0,0:0:0:0:
52,384,251223,2,0,P|72:330|79:300,1,54.2500004138947,2|0,3:2|3:0,0:0:0:0:
180,167,251421,1,8,1:2:0:0:
180,167,251519,1,0,3:0:0:0:
180,167,251618,2,0,P|236:164|277:236,1,108.500000827789,2|0,3:1|1:0,0:0:0:0:
483,383,252013,6,0,L|466:296,1,54.2500004138947,2|0,3:0|0:0,0:0:0:0:
408,276,252210,2,0,B|378:229|378:229|416:170,1,108.500000827789,8|2,1:2|3:0,0:0:0:0:
455,111,252506,1,0,3:0:0:0:
434,90,252605,2,0,P|401:99|350:114,1,54.2500004138947,2|0,1:2|0:0,0:0:0:0:
298,153,252802,1,0,3:0:0:0:
279,182,252901,2,0,P|246:172|195:158,1,54.2500004138947,2|8,3:2|1:2,0:0:0:0:
226,166,253098,1,0,3:0:0:0:
226,166,253197,2,0,P|193:117|230:58,1,108.500000827789,2|0,3:1|1:3,0:0:0:0:
288,8,253493,5,0,3:0:0:0:
288,8,253592,1,2,3:0:0:0:
288,8,253690,1,0,3:0:0:0:
288,8,253789,2,0,L|301:75,1,54.2500004138947,8|0,1:2|3:0,0:0:0:0:
144,125,253986,2,0,P|133:187|113:261,1,108.500000827789,2|0,3:1|1:0,0:0:0:0:
178,310,254282,1,0,3:0:0:0:
209,292,254381,2,0,P|221:239|231:185,1,108.500000827789,2|8,3:0|1:2,0:0:0:0:
310,150,254677,1,0,3:0:0:0:
327,180,254776,2,0,P|364:193|412:215,1,54.2500004138947,2|0,3:1|3:0,0:0:0:0:
355,277,254973,6,0,P|329:266|304:258,1,54.2500004138947,0|0,1:0|3:0,0:0:0:0:
223,286,255171,2,0,P|201:329|264:385,1,108.500000827789,2|8,3:0|1:2,0:0:0:0:
461,315,255565,2,0,P|452:290|441:237,1,54.2500004138947,2|0,3:0|3:0,0:0:0:0:
470,157,255763,2,0,P|419:176|366:189,1,108.500000827789,2|2,1:2|3:0,0:0:0:0:
266,207,256059,2,0,P|275:182|286:129,1,54.2500004138947,2|8,3:2|1:2,0:0:0:0:
331,27,256256,1,0,3:0:0:0:
354,45,256355,2,0,P|360:71|369:96,1,54.2500004138947,2|0,3:1|3:2,0:0:0:0:
199,109,256552,6,0,P|135:101|98:13,1,162.750001241684,4|0,1:2|0:0,0:0:0:0:
164,0,256947,2,0,L|150:64,1,54.2500004138947,8|0,1:2|3:0,0:0:0:0:
43,130,257144,1,2,3:0:0:0:
43,130,257243,1,0,3:0:0:0:
43,130,257342,2,0,B|11:177|11:177|37:235,1,108.500000827789,2|2,1:2|3:0,0:0:0:0:
111,285,257638,1,2,3:2:0:0:
136,269,257736,2,0,L|118:200,1,54.2500004138947,8|0,1:2|3:0,0:0:0:0:
235,259,257934,5,2,3:1:0:0:
270,291,258032,1,0,3:0:0:0:
260,332,258131,2,0,L|182:364,1,54.2500004138947,0|0,1:0|3:0,0:0:0:0:
301,184,258328,2,0,L|443:232,1,108.500000827789,2|8,3:2|1:2,0:0:0:0:
413,384,258723,2,0,P|397:356|402:321,1,54.2500004138947,2|0,3:2|3:0,0:0:0:0:
489,331,258921,2,0,P|490:304|504:281,1,54.2500004138947,0|0,1:2|3:0,0:0:0:0:
426,196,259118,1,2,3:0:0:0:
426,196,259217,1,0,3:0:0:0:
426,196,259315,2,0,P|396:205|352:215,1,54.2500004138947,8|0,1:2|3:0,0:0:0:0:
372,116,259513,2,0,P|346:110|319:102,1,54.2500004138947,2|0,3:1|3:0,0:0:0:0:
199,180,259710,5,0,1:0:0:0:
156,164,259809,1,0,3:0:0:0:
136,125,259907,1,2,3:0:0:0:
153,83,260006,1,0,3:0:0:0:
193,67,260105,2,0,L|208:131,1,54.2500004138947,8|0,1:2|3:0,0:0:0:0:
296,190,260302,2,0,L|279:262,1,54.2500004138947,2|0,3:2|3:0,0:0:0:0:
204,345,260500,1,0,1:0:0:0:
161,356,260598,1,0,3:0:0:0:
120,340,260697,1,2,3:0:0:0:
104,299,260796,1,0,3:0:0:0:
123,259,260894,2,0,P|150:268|184:280,1,54.2500004138947,8|0,1:2|3:0,0:0:0:0:
287,384,261092,2,0,P|312:376|338:368,1,54.2500004138947,2|0,3:0|3:0,0:0:0:0:
439,267,261289,6,0,P|448:232|434:195,1,54.2500004138947,2|0,1:2|3:0,0:0:0:0:
313,204,261486,2,0,P|285:214|235:227,1,54.2500004138947,2|0,3:2|3:0,0:0:0:0:
286,86,261684,2,0,P|277:51|291:14,1,54.2500004138947,10|0,1:2|3:0,0:0:0:0:
493,55,261881,1,2,3:0:0:0:
480,102,261980,1,0,1:0:0:0:
439,108,262078,2,0,P|408:95|361:85,1,54.2500004138947,2|0,1:2|1:0,0:0:0:0:
187,41,262276,5,2,1:2:0:0:
141,59,262375,1,0,1:0:0:0:
118,102,262473,1,8,1:2:0:0:
123,150,262572,1,0,1:0:0:0:
149,190,262671,1,2,1:1:0:0:
196,202,262769,1,0,1:0:0:0:
244,190,262868,6,0,P|296:174|372:264,1,168,4|0,1:2|0:0,0:0:0:0:
323,324,263263,2,0,P|287:335|244:353,1,56,10|0,1:2|3:0,0:0:0:0:
166,372,263460,2,0,P|175:345|183:318,1,56,2|0,3:0|3:0,0:0:0:0:
98,151,263657,1,2,1:2:0:0:
56,157,263756,1,0,3:0:0:0:
32,196,263855,1,2,3:0:0:0:
47,240,263954,2,0,P|79:248|114:264,1,56,2|8,3:2|1:2,0:0:0:0:
215,206,264151,1,0,3:0:0:0:
231,175,264250,2,0,P|257:164|284:158,1,56,2|0,3:1|3:2,0:0:0:0:
384,63,264447,6,0,P|430:91|436:144,1,112,4|2,1:3|3:0,0:0:0:0:
469,224,264743,1,0,3:0:0:0:
484,250,264842,2,0,P|419:269|350:301,1,112,8|2,1:2|3:0,0:0:0:0:
256,336,265138,1,0,3:0:0:0:
278,356,265236,2,0,P|290:307|300:267,1,56,2|0,1:2|0:0,0:0:0:0:
209,225,265434,1,2,3:0:0:0:
188,245,265532,2,0,P|177:202|161:166,1,56,2|8,0:2|1:2,0:0:0:0:
301,160,265730,1,0,3:0:0:0:
322,180,265829,2,0,P|333:137|349:101,1,56,2|0,0:1|0:2,0:0:0:0:
270,23,266026,6,0,B|200:45|252:55|145:83,1,112,0|2,1:3|0:0,0:0:0:0:
95,142,266322,1,0,0:0:0:0:
61,116,266421,2,0,P|74:57|75:43,1,56,8|0,1:2|0:0,0:0:0:0:
202,171,266618,2,0,P|206:198|214:225,1,56,2|0,0:0|0:0,0:0:0:0:
38,372,266815,2,0,P|-3:333|29:253,1,112,2|0,1:0|0:0,0:0:0:0:
63,229,267111,2,0,L|131:260,1,56,2|8,0:2|1:2,0:0:0:0:
214,350,267309,1,0,0:0:0:0:
255,377,267407,1,2,0:1:0:0:
304,365,267506,1,0,0:0:0:0:
325,319,267605,6,0,B|346:266|346:266|314:221,1,112,0|2,1:0|0:0,0:0:0:0:
257,135,267901,1,0,0:0:0:0:
239,166,268000,2,0,L|173:190,1,56,8|0,1:2|0:0,0:0:0:0:
190,77,268197,2,0,P|200:42|204:-2,1,56,2|0,0:2|0:0,0:0:0:0:
301,53,268394,2,0,P|346:71|409:121,1,112,2|2,1:2|0:0,0:0:0:0:
458,181,268690,1,2,3:2:0:0:
486,160,268789,2,0,P|496:132|481:86,1,56,8|0,1:2|0:0,0:0:0:0:
347,193,268986,5,2,3:1:0:0:
313,218,269085,1,2,0:1:0:0:
317,255,269184,2,0,B|360:266|399:294|377:306|407:335|456:344,1,168,0|0,1:0|0:0,0:0:0:0:
358,384,269579,2,0,P|350:359|345:315,1,56,8|0,1:2|0:0,0:0:0:0:
457,255,269776,2,0,P|461:227|469:200,1,56,2|0,3:2|0:0,0:0:0:0:
321,39,269973,1,2,1:2:0:0:
274,60,270072,1,0,3:0:0:0:
263,109,270171,1,2,3:0:0:0:
288,152,270269,2,0,P|322:163|376:189,1,56,2|8,3:2|1:2,3:0:0:0:
423,102,270467,1,0,3:0:0:0:
440,70,270565,2,0,P|474:58|528:32,1,56,2|0,3:1|0:2,0:0:0:0:
453,197,270763,6,0,P|433:271|435:352,1,112,0|2,1:0|0:0,0:0:0:0:
358,358,271059,1,0,0:0:0:0:
328,377,271157,2,0,P|308:330|308:301,1,56,8|0,1:2|0:0,0:0:0:0:
160,183,271355,2,0,P|115:226|150:306,1,112,2|0,0:2|1:0,0:0:0:0:
175,343,271651,1,0,0:0:0:0:
209,327,271750,2,0,P|214:289|229:258,1,56,2|0,0:2|0:0,0:0:0:0:
311,224,271947,2,0,P|287:173|274:118,1,112,8|2,1:2|0:1,0:0:0:0:
274,118,272243,1,0,0:0:0:0:
274,118,272342,6,0,L|265:189,1,56,0|0,1:0|0:0,0:0:0:0:
350,224,272539,2,0,L|284:251,1,56,2|0,3:0|0:0,0:0:0:0:
292,358,272736,2,0,L|235:314,1,56,8|0,1:2|0:0,0:0:0:0:
131,356,272934,2,0,L|139:285,1,56,2|0,3:0|0:0,0:0:0:0:
36,209,273131,2,0,L|101:181,1,56,0|0,1:0|0:0,0:0:0:0:
124,39,273329,2,0,L|180:82,1,56,2|0,3:0|0:0,0:0:0:0:
339,5,273526,2,0,L|330:75,1,56,8|0,1:2|0:0,0:0:0:0:
481,188,273723,2,0,L|415:215,1,56,2|0,3:0|0:0,0:0:0:0:
204,253,273921,6,0,B|173:207|173:207|201:144,1,112,0|2,1:0|0:0,0:0:0:0:
271,118,274217,1,0,0:0:0:0:
289,148,274315,2,0,P|279:182|276:220,1,56,8|0,1:2|0:0,0:0:0:0:
397,354,274513,2,0,P|417:313|408:282,1,56,2|0,3:2|0:0,0:0:0:0:
297,320,274710,2,0,P|224:346|174:380,1,112,2|2,1:2|0:0,0:0:0:0:
95,383,275006,2,0,P|101:355|113:312,1,56,2|8,3:2|1:2,0:0:0:0:
46,254,275204,1,0,0:0:0:0:
18,278,275302,2,0,P|11:250|0:207,1,56,2|0,3:1|0:2,0:0:0:0:
0,86,275500,6,0,B|28:94|65:102|65:102|78:132|78:132|113:141|164:156,1,168,4|0,1:2|0:0,0:0:0:0:
192,233,275894,2,0,L|261:207,1,56,8|0,1:2|0:0,0:0:0:0:
377,69,276092,1,2,0:0:0:0:
339,58,276190,1,0,0:0:0:0:
311,90,276289,2,0,P|304:145|333:170,1,56,0|0,1:2|0:0,0:0:0:0:
396,168,276486,2,0,P|416:217|485:246,1,112,2|8,0:2|1:2,0:0:0:0:
465,244,276782,1,0,0:0:0:0:
465,244,276881,2,0,P|406:258|336:278,1,112,2|0,0:1|1:0,0:0:0:0:
238,373,277177,5,0,0:0:0:0:
261,353,277276,2,0,P|266:320|272:276,1,56,2|0,0:0|0:0,0:0:0:0:
165,232,277473,2,0,P|170:264|176:309,1,56,8|0,1:2|0:0,0:0:0:0:
307,193,277671,2,0,L|247:216,1,56,2|0,0:2|0:0,0:0:0:0:
138,378,277868,2,0,P|88:349|87:282,1,112,2|2,1:2|0:0,0:0:0:0:
6,258,278164,2,0,L|21:183,1,56,2|8,0:0|1:2,0:0:0:0:
139,155,278361,1,0,0:0:0:0:
112,140,278460,2,0,L|97:65,1,56,2|0,0:1|0:0,0:0:0:0:
229,4,278657,5,0,1:0:0:0:
279,9,278756,1,0,0:0:0:0:
312,46,278855,1,2,0:0:0:0:
320,95,278954,1,0,0:0:0:0:
292,137,279052,2,0,P|260:124|210:118,1,56,8|0,1:2|0:0,0:0:0:0:
170,266,279250,2,0,P|222:241|321:225,1,112,2|0,0:0|1:0,0:0:0:0:
370,303,279546,1,0,0:0:0:0:
388,284,279644,2,0,P|395:236|408:206,1,56,2|0,0:2|0:0,0:0:0:0:
480,251,279842,2,0,P|472:278|470:305,1,56,8|0,1:2|0:0,0:0:0:0:
308,384,280039,5,2,0:1:0:0:
262,354,280138,1,2,0:1:0:0:
261,301,280236,2,0,B|263:251|279:207|309:246|321:199|325:143,1,168,0|0,1:3|0:0,0:0:0:0:
351,78,280631,2,0,P|301:57|270:56,1,56,8|0,1:2|0:0,0:0:0:0:
44,150,280829,2,0,P|57:104|60:76,1,56,2|0,0:0|0:0,0:0:0:0:
153,36,281026,1,2,1:2:0:0:
200,53,281125,1,0,0:0:0:0:
213,101,281223,1,2,0:0:0:0:
191,146,281322,2,0,P|133:169|105:186,1,56,2|8,0:2|1:2,0:0:0:0:
33,242,281519,1,0,0:0:0:0:
53,274,281618,2,0,P|111:297|141:317,1,56,2|0,0:1|0:2,0:0:0:0:
203,384,281815,6,0,P|270:366|248:253,1,168,0|0,1:0|0:0,0:0:0:0:
212,245,282210,2,0,L|234:314,1,56,8|0,1:2|0:0,0:0:0:0:
374,257,282407,2,0,P|387:206|399:177,1,56,2|0,0:0|0:0,0:0:0:0:
300,77,282605,2,0,B|265:120|265:120|297:185,1,112,2|2,1:2|0:0,0:0:0:0:
470,120,282901,1,2,0:0:0:0:
447,92,283000,2,0,L|389:112,1,56,8|0,1:2|0:0,0:0:0:0:
192,129,283197,5,2,0:1:0:0:
192,129,283296,1,2,0:1:0:0:
192,129,283394,2,0,L|218:1,1,112,0|0,1:0|0:0,0:0:0:0:
310,162,283690,1,2,0:0:0:0:
303,194,283789,2,0,P|268:222|232:223,1,56,8|0,1:2|0:0,0:0:0:0:
194,287,283986,1,2,0:0:0:0:
168,312,284085,2,0,P|126:295|107:265,1,56,2|0,0:2|1:0,0:0:0:0:
33,243,284282,1,0,0:0:0:0:
6,235,284381,2,0,P|-2:172|20:128,1,112,2|8,0:2|1:2,0:0:0:0:
18,130,284677,1,0,0:0:0:0:
18,130,284776,2,0,L|98:161,1,56,2|0,0:1|0:0,0:0:0:0:
300,154,284973,5,0,1:0:0:0:
328,112,285072,1,0,0:0:0:0:
326,61,285171,1,2,0:0:0:0:
286,29,285269,1,0,0:0:0:0:
235,27,285368,1,8,1:2:0:0:
194,56,285467,1,0,0:0:0:0:
186,105,285565,1,2,0:0:0:0:
206,151,285664,1,0,0:0:0:0:
247,179,285763,5,0,1:0:0:0:
284,137,285861,1,0,0:0:0:0:
339,127,285960,1,2,0:0:0:0:
390,149,286059,1,0,0:0:0:0:
420,195,286157,1,8,1:2:0:0:
423,251,286256,1,0,0:0:0:0:
402,303,286355,1,2,0:0:0:0:
352,327,286453,1,0,0:0:0:0:
298,309,286552,6,0,L|230:284,1,56,0|0,1:0|0:0,0:0:0:0:
136,204,286750,2,0,L|204:179,1,56,2|0,0:0|0:0,0:0:0:0:
321,138,286947,2,0,P|304:187|300:227,1,56,8|0,1:2|0:0,0:0:0:0:
157,360,287144,2,0,P|151:332|140:307,1,56,2|0,3:0|0:0,0:0:0:0:
98,131,287342,5,0,1:0:0:0:
145,99,287440,1,0,1:0:0:0:
199,115,287539,1,2,1:3:0:0:
222,165,287638,1,0,1:0:0:0:
275,232,287736,5,8,1:2:0:0:
327,267,287835,1,0,1:0:0:0:
387,249,287934,1,2,1:3:0:0:
412,194,288032,1,0,1:0:0:0:
353,132,288131,6,0,P|310:110|306:14,1,152.250004646301,4|0,1:2|3:0,0:0:0:0:
399,26,288526,2,0,P|454:36|527:59,1,101.500003097534,8|2,1:2|3:0,0:0:0:0:
494,132,288822,1,0,3:0:0:0:
507,160,288921,2,0,P|491:222|477:330,1,152.250004646301,2|0,1:2|3:0,0:0:0:0:
398,365,289315,2,0,P|390:332|375:292,1,50.7500015487671,8|0,1:2|0:0,0:0:0:0:
400,215,289513,6,0,P|347:236|262:252,1,101.500003097534,2|0,0:1|1:0,0:0:0:0:
109,365,289907,2,0,P|70:335|72:273,1,101.500003097534,2|8,3:2|1:2,0:0:0:0:
213,165,290302,1,2,3:2:0:0:
213,165,290401,1,0,3:0:0:0:
213,165,290500,2,0,P|203:217|200:241,1,50.7500015487671,0|0,1:0|0:0,0:0:0:0:
119,158,290697,2,0,P|116:132|110:108,1,50.7500015487671,2|0,3:0|0:0,0:0:0:0:
180,49,290894,2,0,B|225:50|270:68|228:83|275:101|340:108,1,152.250004646301,8|0,1:2|3:0,0:0:0:0:
416,145,291289,6,0,P|396:68|389:10,1,101.500003097534,2|0,1:2|3:0,0:0:0:0:
226,181,291684,2,0,P|198:223|220:281,1,101.500003097534,8|0,1:2|0:0,0:0:0:0:
496,329,292078,2,0,L|483:254,1,50.7500015487671,2|0,1:2|3:0,0:0:0:0:
409,282,292276,2,0,L|418:332,1,50.7500015487671,2|0,3:0|3:0,0:0:0:0:
396,362,292473,1,8,1:2:0:0:
319,272,292671,6,0,B|294:231|294:231|335:161,1,101.500003097534,2|0,3:1|1:0,0:0:0:0:
512,113,293065,1,2,3:0:0:0:
512,113,293164,1,0,3:0:0:0:
512,113,293263,2,0,L|381:89,1,101.500003097534,8|2,1:2|3:2,0:0:0:0:
197,78,293657,2,0,P|215:31|215:9,1,50.7500015487671,0|0,1:0|3:0,0:0:0:0:
112,89,293855,2,0,P|123:111|129:135,1,50.7500015487671,2|0,3:0|3:0,0:0:0:0:
204,171,294052,2,0,B|306:137|224:115|345:71,1,152.250004646301,10|0,1:2|3:0,0:0:0:0:
389,10,294447,6,0,P|453:25|430:107,1,152.250004646301,4|0,1:3|0:0,0:0:0:0:
439,189,294842,2,0,P|364:193|345:289,1,152.250004646301,8|0,1:2|0:0,0:0:0:0:
395,319,295236,2,0,L|465:296,2,50.7500015487671,0|0|2,1:0|0:0|0:0,0:0:0:0:
190,373,295631,1,8,1:2:0:0:
261,210,295828,5,2,3:2:0:0:
261,210,295927,1,2,3:2:0:0:
261,210,296026,2,0,L|246:278,1,50.7500015487671,0|0,1:0|0:0,0:0:0:0:
169,278,296223,2,0,B|136:242|136:242|160:172,1,101.500003097534,2|8,0:1|1:2,0:0:0:0:
334,161,296618,2,0,L|381:143,1,50.7500015487671,2|0,0:2|0:0,0:0:0:0:
325,79,296815,2,0,L|339:30,1,50.7500015487671,0|0,1:0|0:0,0:0:0:0:
248,50,297013,2,0,L|225:4,1,50.7500015487671,2|0,0:2|0:0,0:0:0:0:
158,56,297210,2,0,P|85:72|15:90,1,101.500003097534,8|2,1:2|0:0,0:0:0:0:
173,200,297605,6,0,B|218:195|249:232|244:235|236:239|287:277|319:265,1,152.250004646301,0|0,1:0|0:0,0:0:0:0:
426,343,298000,2,0,P|476:320|464:267,1,101.500003097534,8|2,1:2|0:0,0:0:0:0:
437,145,298296,1,0,1:0:0:0:
408,166,298394,2,0,P|400:214|391:232,1,50.7500015487671,0|0,1:0|1:0,0:0:0:0:
259,344,298592,1,2,1:2:0:0:
222,326,298690,1,0,1:0:0:0:
204,289,298789,1,8,1:2:0:0:
213,249,298888,1,0,1:0:0:0:
241,219,298986,1,2,1:1:0:0:
281,217,299085,1,0,1:0:0:0:
314,240,299184,6,0,L|299:300,1,50.7500015487671,4|0,1:2|0:0,0:0:0:0:
36,78,299578,2,0,L|68:235,1,152.250004646301,4|0,1:2|0:0,0:0:0:0:
30,300,299975,6,0,B|64:287|91:277|91:277|102:251|102:251|135:235|164:223,1,152.250004646301,4|0,1:2|0:0,0:0:0:0:
223,180,300369,2,0,P|244:230|232:286,1,101.500003097534,8|2,1:2|0:0,0:0:0:0:
35,207,300764,2,0,P|9:149|47:15,1,203.000006195069,2|8,1:2|1:2,0:0:0:0:
236,114,301356,5,2,3:1:0:0:
236,114,301455,1,0,3:0:0:0:
236,114,301553,2,0,L|183:134,1,50.7500015487671,0|0,1:0|0:0,0:0:0:0:
242,196,301751,2,0,P|276:219|355:210,1,101.500003097534,2|8,0:0|1:2,0:0:0:0:
402,44,302146,2,0,P|395:68|390:93,1,50.7500015487671,2|0,3:0|0:0,0:0:0:0:
473,88,302343,2,0,P|479:112|484:137,1,50.7500015487671,0|0,1:0|0:0,0:0:0:0:
464,173,302540,1,2,3:2:0:0:
333,310,302738,2,0,P|296:262|307:224,1,101.500003097534,8|2,1:2|3:0,0:0:0:0:
429,378,303132,6,0,P|365:343|230:317,2,203.000006195069,0|8|0,1:0|1:2|1:0,0:0:0:0:
429,378,304119,1,2,3:0:0:0:
389,200,304317,2,0,P|382:226|378:249,1,50.7500015487671,2|0,1:2|0:2,1:2:0:0:
310,286,304514,2,0,P|297:232|291:183,1,101.500003097534,2|0,3:1|1:2,0:2:0:0:
82,74,304909,6,0,P|43:105|60:171,1,101.500003097534,2|8,3:2|1:2,0:0:0:0:
163,224,305303,1,2,3:0:0:0:
163,224,305402,1,0,3:0:0:0:
163,224,305501,2,0,P|136:195|133:167,1,50.7500015487671,0|0,1:0|0:0,0:0:0:0:
206,151,305698,2,0,P|217:113|240:96,1,50.7500015487671,2|0,3:2|0:0,0:0:0:0:
288,153,305896,2,0,P|336:149|396:221,1,101.500003097534,8|2,1:2|3:0,0:0:0:0:
430,254,306192,5,0,0:0:0:0:
415,277,306290,2,0,P|347:256|265:242,1,152.250004646301,0|0,1:0|0:0,0:0:0:0:
234,318,306685,2,0,P|142:338|32:392,2,203.000006195069,8|0|8,1:2|1:0|1:2,0:0:0:0:
340,355,307573,1,0,0:0:0:0:
361,370,307672,2,0,P|340:304|336:265,1,101.500003097534,2|0,3:1|1:0,0:0:0:0:
132,144,308067,6,0,P|115:207|103:225,2,50.7500015487671,2|0|8,0:2|0:0|1:2,0:0:0:0:
246,70,308461,2,0,P|257:112|277:151,1,50.7500015487671,2|0,3:2|0:0,0:0:0:0:
334,158,308659,2,0,P|376:169|415:189,1,50.7500015487671,2|0,1:2|0:0,0:0:0:0:
267,214,308856,2,0,P|225:225|186:245,1,50.7500015487671,2|0,3:2|0:0,0:0:0:0:
330,283,309053,2,0,P|316:335|310:408,1,101.500003097534,8|2,1:2|3:0,0:0:0:0:
77,283,309448,6,0,P|9:239|37:164,1,152.250004646301,0|0,1:0|0:0,0:0:0:0:
69,113,309843,2,0,P|120:134|203:155,1,101.500003097534,8|2,1:2|3:0,0:0:0:0:
283,318,310238,2,0,P|257:263|253:243,1,50.7500015487671,0|0,1:0|0:0,0:0:0:0:
336,251,310435,2,0,P|331:200|343:151,1,101.500003097534,2|8,3:2|1:2,0:0:0:0:
411,107,310731,1,0,0:0:0:0:
427,119,310830,2,0,P|426:153|414:194,1,50.7500015487671,2|0,3:2|0:0,0:0:0:0:
210,209,311027,5,2,1:1:0:0:
439,302,311225,1,0,1:0:0:0:
165,310,311422,1,8,1:2:0:0:
214,328,311521,1,2,1:1:0:0:
251,289,311619,1,2,1:1:0:0:
75,142,311817,6,0,P|62:247|38:379,2,203.000006195069,4|8|0,1:2|1:2|1:2,0:0:0:0:
278,20,313001,2,0,P|329:50|325:140,1,152.250004646301,8|0,1:2|0:0,0:0:0:0:
261,180,313395,6,0,P|222:161|149:145,2,101.500003097534,0|2|8,1:0|3:0|1:2,0:0:0:0:
355,316,313988,1,2,3:0:0:0:
355,316,314086,1,2,3:2:0:0:
355,316,314185,2,0,P|305:327|259:349,2,101.500003097534,0|2|8,1:0|3:0|1:2,0:0:0:0:
419,242,314777,1,2,3:0:0:0:
156,262,314974,6,0,P|86:245|62:114,2,203.000006195069,0|8|0,1:0|1:2|1:0,0:0:0:0:
284,38,316159,2,0,P|272:103|267:130,1,50.7500015487671,8|0,1:2|0:0,0:0:0:0:
245,105,316356,1,2,0:1:0:0:
355,199,316553,6,0,B|388:156|388:156|361:70,1,101.500003097534,0|2,1:0|3:0,0:0:0:0:
161,75,316948,2,0,B|128:118|128:118|142:163,1,101.500003097534,8|2,1:2|3:0,0:0:0:0:
301,345,317343,2,0,B|315:299|315:299|282:256,1,101.500003097534,0|2,1:2|3:0,0:0:0:0:
193,242,317738,2,0,B|178:287|178:287|211:330,1,101.500003097534,8|2,1:2|3:0,0:0:0:0:
351,285,318034,5,0,0:0:0:0:
367,270,318132,2,0,P|346:185|322:25,2,203.000006195069,0|8|0,1:0|1:2|1:0,0:0:0:0:
110,175,319317,2,0,P|100:128|132:47,1,101.500003097534,8|2,1:2|3:0,0:0:0:0:
195,46,319711,6,0,P|206:109|221:172,2,101.500003097534,0|2|8,1:0|3:0|1:2,0:0:0:0:
347,121,320303,1,2,3:0:0:0:
347,121,320402,1,2,3:2:0:0:
347,121,320501,2,0,P|336:170|327:220,2,101.500003097534,0|2|8,1:0|3:0|1:2,0:0:0:0:
307,46,321093,1,2,3:0:0:0:
254,289,321290,6,0,B|199:304|147:252|216:219|142:175|94:188,2,203.000006195069,0|8|0,1:0|1:2|1:0,0:0:0:0:
342,348,322178,1,0,0:0:0:0:
328,334,322277,2,0,L|344:263,1,50.7500015487671,2|0,3:2|0:0,0:0:0:0:
423,275,322474,2,0,L|407:204,1,50.7500015487671,8|0,1:2|0:0,0:0:0:0:
286,177,322672,2,0,L|302:106,1,50.7500015487671,2|0,3:1|0:0,0:0:0:0:
371,53,322869,6,0,P|428:84|504:112,1,131.25,4|0,1:2|0:0,0:0:0:0:
505,135,323264,1,8,1:2:0:0:
393,221,323461,1,4,1:3:0:0:
190,136,323671,1,8,1:2:0:0:
258,51,323909,1,4,1:3:0:0:
316,113,324135,1,4,1:3:0:0:
305,132,324741,6,0,B|350:141|384:105|384:105|393:183|369:230|274:260|176:200|150:166|150:166|132:142|102:114|107:49|188:13|254:31|276:105|240:180|195:175|173:181|150:184|124:167|97:165|58:164|5:210|10:282|29:338|91:356,1,980,4|0,1:2|0:0,0:0:0:0:
