osu file format v14

[General]
AudioFilename: audio.mp3
AudioLeadIn: 0
PreviewTime: 5128
Countdown: 0
SampleSet: Soft
StackLeniency: 0.3
Mode: 0
LetterboxInBreaks: 0
WidescreenStoryboard: 1

[Editor]
Bookmarks: 33635
DistanceSpacing: 1
BeatDivisor: 4
GridSize: 32
TimelineZoom: 2.3

[Metadata]
Title:Sassou Toujou! Neko-san
TitleUnicode:颯爽登場!寧子さん
Artist:Kuroha Neko (CV: Taneda Risa)
ArtistUnicode:黒羽寧子 (CV: 種田梨沙)
Creator:Rosiie
Version:Normal
Source:極黒のブリュンヒルデ
Tags:Gokukoku no Brynhildr in the Darkness Female Vocals japanese anime pop jpop j-pop
BeatmapID:2541869
BeatmapSetID:1222043

[Difficulty]
HPDrainRate:4
CircleSize:3.2
OverallDifficulty:4
ApproachRate:5.2
SliderMultiplier:1.1
SliderTickRate:1

[Events]
//Background and Video events
0,0,"thumb-1920-705070.png",0,0
//Break Periods
//Storyboard Layer 0 (Background)
//Storyboard Layer 1 (Fail)
//Storyboard Layer 2 (Pass)
//Storyboard Layer 3 (Foreground)
//Storyboard Layer 4 (Overlay)
//Storyboard Sound Samples

[TimingPoints]
321,384.615384615385,4,2,1,75,1,0
321,-100,4,2,1,75,0,0
5128,-100,4,2,1,60,0,0
6474,-90.9090909090909,4,2,1,85,0,1
15994,-90.9090909090909,4,2,1,85,0,1
16090,-90.9090909090909,4,2,1,85,0,1
18013,-100,4,2,1,85,0,0
18782,-90.9090909090909,4,2,1,85,0,1
32821,-90.9090909090909,4,2,1,85,0,0

[Colours]
Combo1 : 255,202,255
Combo2 : 128,128,192

[HitObjects]
481,31,321,5,6,1:2:0:0:
424,121,705,2,0,P|432:153|437:194,1,55,10|2,0:0|0:0,0:0:0:0:
461,223,1090,2,0,P|451:259|443:291,1,55,2|2,1:2|0:0,0:0:0:0:
469,325,1474,1,10,0:0:0:0:
361,299,1859,2,0,L|301:294,1,55,2|2,1:2|0:0,0:0:0:0:
259,264,2244,1,10,0:0:0:0:
161,314,2628,2,0,P|133:317|106:322,1,55,2|2,1:2|0:0,0:0:0:0:
62,342,3013,1,10,0:0:0:0:
23,239,3397,5,2,1:2:0:0:
90,152,3782,1,10,1:2:0:0:
22,65,4167,2,0,P|75:44|93:41,1,55,2|10,0:0|0:0,0:0:0:0:
112,6,4551,1,8,0:0:0:0:
112,6,4744,1,2,1:2:0:0:
456,316,6474,6,0,P|463:277|470:244,1,60.5000018463135,6|0,1:2|0:0,0:0:0:0:
438,203,6859,2,0,P|434:165|427:123,1,60.5000018463135,10|0,0:0|0:0,0:0:0:0:
441,83,7244,2,0,P|393:60|310:84,1,121.000003692627,2|10,1:2|0:0,0:0:0:0:
239,153,8013,2,0,P|209:159|164:145,1,60.5000018463135,2|2,1:2|1:2,0:0:0:0:
136,111,8397,1,10,0:0:0:0:
136,111,8590,2,0,P|80:98|10:144,1,121.000003692627,2|0,1:2|0:0,0:0:0:0:
11,183,9167,1,10,0:0:0:0:
63,291,9551,6,0,P|103:285|132:281,1,60.5000018463135,2|0,1:2|0:0,0:0:0:0:
179,305,9936,2,0,P|219:310|249:312,1,60.5000018463135,10|2,0:0|0:0,0:0:0:0:
303,325,10321,1,2,1:2:0:0:
303,325,10513,1,2,1:2:0:0:
410,267,10897,1,2,0:0:0:0:
410,267,11090,2,0,P|418:226|431:201,1,60.5000018463135,2|2,1:2|1:2,0:0:0:0:
396,156,11474,2,0,P|389:120|375:84,1,60.5000018463135,10|2,0:0|1:2,0:0:0:0:
354,42,11859,2,0,P|311:26|228:51,1,121.000003692627,2|8,0:0|0:0,0:0:0:0:
177,146,12628,6,0,P|192:187|205:225,1,60.5000018463135,2|2,1:2|0:0,0:0:0:0:
252,228,13013,2,0,P|242:264|235:299,1,60.5000018463135,10|10,1:2|0:0,0:0:0:0:
198,332,13397,2,0,P|171:344|135:343,1,60.5000018463135,2|2,1:2|1:2,0:0:0:0:
83,322,13782,1,10,0:0:0:0:
30,215,14167,2,0,P|33:184|39:155,1,60.5000018463135,2|2,1:2|1:2,0:0:0:0:
87,117,14551,1,8,0:0:0:0:
87,117,14744,2,0,P|116:110|146:112,1,60.5000018463135,2|0,1:2|0:0,0:0:0:0:
203,133,15128,2,0,P|234:133|262:124,1,60.5000018463135,2|8,1:2|0:0,0:0:0:0:
377,82,15705,6,0,P|380:108|382:142,1,60.5000018463135,2|2,1:2|0:0,0:0:0:0:
432,175,16090,2,0,P|417:233|409:293,1,121.000003692627,10|2,0:0|1:2,0:0:0:0:
360,327,16667,1,2,1:2:0:0:
360,327,16859,2,0,P|331:319|289:308,1,60.5000018463135,8|2,0:0|0:0,0:0:0:0:
253,274,17244,2,0,P|224:279|194:286,1,60.5000018463135,2|0,1:2|1:2,0:0:0:0:
143,319,17628,1,10,0:0:0:0:
48,262,18013,1,10,2:3:0:0:
114,174,18397,2,0,P|119:140|126:111,1,55,8|8,0:0|0:0,0:0:0:0:
158,69,18782,6,0,P|194:62|226:69,1,60.5000018463135,6|0,1:2|0:0,0:0:0:0:
265,101,19167,1,10,0:0:0:0:
367,37,19551,2,0,P|396:30|426:37,1,60.5000018463135,2|2,1:2|0:0,0:0:0:0:
474,72,19936,1,10,0:0:0:0:
396,165,20321,2,0,P|409:209|423:289,1,121.000003692627,0|8,1:2|0:0,0:0:0:0:
403,342,20897,1,0,0:0:0:0:
403,342,21090,2,0,P|373:349|344:342,1,60.5000018463135,2|2,1:2|0:0,0:0:0:0:
305,296,21474,1,8,0:0:0:0:
192,340,21859,6,0,P|169:333|130:326,1,60.5000018463135,2|2,1:2|0:0,0:0:0:0:
75,345,22244,1,10,0:0:0:0:
88,224,22628,2,0,P|81:181|70:148,1,60.5000018463135,2|2,1:2|0:0,0:0:0:0:
39,116,23013,1,10,0:0:0:0:
132,40,23397,1,0,1:2:0:0:
225,117,23782,1,8,0:0:0:0:
313,34,24167,2,0,P|352:27|378:35,1,60.5000018463135,2|8,1:2|0:0,0:0:0:0:
401,84,24551,2,0,P|392:116|387:150,1,60.5000018463135,0|8,1:2|0:0,0:0:0:0:
345,186,24936,6,0,P|354:213|361:244,1,60.5000018463135,2|2,1:2|1:2,0:0:0:0:
406,284,25321,1,8,0:0:0:0:
317,366,25705,2,0,P|289:367|252:373,1,60.5000018463135,2|2,1:2|1:2,0:0:0:0:
208,334,26090,1,8,0:0:0:0:
200,213,26474,2,0,P|197:182|205:153,1,60.5000018463135,2|0,1:2|1:2,0:0:0:0:
256,123,26859,1,10,0:0:0:0:
167,40,27244,2,0,P|126:46|91:55,1,60.5000018463135,0|0,1:2|1:2,0:0:0:0:
48,38,27628,1,8,0:0:0:0:
4,150,28013,6,0,P|10:179|16:209,1,60.5000018463135,6|2,1:2|0:0,0:0:0:0:
16,269,28397,2,0,P|54:273|87:278,1,60.5000018463135,10|2,0:0|0:0,0:0:0:0:
132,253,28782,1,2,1:2:0:0:
218,338,29167,2,0,P|247:330|280:324,1,60.5000018463135,8|2,0:0|0:0,0:0:0:0:
320,282,29551,2,0,P|378:286|444:297,1,121.000003692627,2|8,1:2|0:0,0:0:0:0:
498,189,30321,2,0,P|501:152|484:114,1,60.5000018463135,8|0,0:0|1:2,0:0:0:0:
448,91,30705,2,0,P|418:85|388:82,1,60.5000018463135,8|8,0:0|0:0,0:0:0:0:
337,116,31090,6,0,P|282:139|224:126,1,121.000003692627,6|8,1:2|0:0,0:0:0:0:
184,81,31667,2,0,P|125:70|72:96,1,121.000003692627,6|8,1:2|0:0,0:0:0:0:
31,141,32244,1,6,1:2:0:0:
106,242,32628,1,6,1:2:0:0:
106,242,32821,1,6,1:2:0:0:
