osu file format v14

[General]
AudioFilename: audio.mp3
AudioLeadIn: 0
PreviewTime: 5128
Countdown: 0
SampleSet: Soft
StackLeniency: 0.3
Mode: 0
LetterboxInBreaks: 0
WidescreenStoryboard: 1

[Editor]
Bookmarks: 33635
DistanceSpacing: 1.2
BeatDivisor: 4
GridSize: 32
TimelineZoom: 2.3

[Metadata]
Title:Sassou Toujou! Neko-san
TitleUnicode:颯爽登場!寧子さん
Artist:Kuroha Neko (CV: Taneda Risa)
ArtistUnicode:黒羽寧子 (CV: 種田梨沙)
Creator:Rosiie
Version:Hard
Source:極黒のブリュンヒルデ
Tags:Gokukoku no Brynhildr in the Darkness Female Vocals japanese anime pop jpop j-pop
BeatmapID:2541868
BeatmapSetID:1222043

[Difficulty]
HPDrainRate:4.5
CircleSize:3.5
OverallDifficulty:6
ApproachRate:7.5
SliderMultiplier:1.5
SliderTickRate:1

[Events]
//Background and Video events
0,0,"thumb-1920-705070.png",0,0
//Break Periods
//Storyboard Layer 0 (Background)
//Storyboard Layer 1 (Fail)
//Storyboard Layer 2 (Pass)
//Storyboard Layer 3 (Foreground)
//Storyboard Layer 4 (Overlay)
//Storyboard Sound Samples

[TimingPoints]
321,384.615384615385,4,2,1,75,1,0
321,-100,4,2,1,75,0,0
5128,-111.111111111111,4,2,1,60,0,0
6474,-90.9090909090909,4,2,1,85,0,1
15994,-90.9090909090909,4,2,1,85,0,1
16090,-90.9090909090909,4,2,1,85,0,1
18013,-90.9090909090909,4,2,1,85,0,0
18782,-90.9090909090909,4,2,1,85,0,1
32821,-90.9090909090909,4,2,1,85,0,0

[Colours]
Combo1 : 255,202,255
Combo2 : 128,128,192

[HitObjects]
491,75,321,6,0,P|457:63|411:74,1,75,6|2,1:2|0:0,0:0:0:0:
344,119,705,2,0,P|307:125|272:113,1,75,10|2,0:0|0:0,0:0:0:0:
190,74,1090,2,0,P|146:67|101:84,1,75,2|2,1:2|0:0,0:0:0:0:
38,117,1474,1,10,0:0:0:0:
110,170,1667,1,2,0:0:0:0:
44,231,1859,6,0,P|59:277|65:316,1,75,2|2,1:2|0:0,0:0:0:0:
129,364,2244,2,0,P|172:371|208:360,1,75,10|2,0:0|0:0,0:0:0:0:
265,300,2628,2,0,P|308:291|346:302,1,75,2|2,1:2|0:0,0:0:0:0:
406,356,3013,1,10,0:0:0:0:
466,289,3205,1,2,0:0:0:0:
423,209,3397,6,0,P|401:138|430:71,1,150,2|10,1:2|1:2,0:0:0:0:
262,4,4167,1,2,0:0:0:0:
190,58,4359,1,10,0:0:0:0:
190,58,4455,1,8,0:0:0:0:
190,58,4551,2,0,L|140:53,1,37.5,8|8,0:0|0:0,0:0:0:0:
114,29,4744,1,2,1:2:0:0:
26,165,5128,6,0,P|19:128|7:91,2,67.4999979400635,2|2|2,0:0|0:0|0:0,0:0:0:0:
1,242,5705,1,2,0:0:0:0:
47,308,5898,2,0,P|79:316|117:309,1,67.4999979400635,2|2,0:0|0:0,0:0:0:0:
176,261,6282,1,2,0:0:0:0:
248,328,6474,6,0,P|253:288|261:247,1,82.5000025177003,6|0,1:2|0:0,0:0:0:0:
293,152,6859,2,0,P|284:106|271:67,1,82.5000025177003,10|0,0:0|0:0,0:0:0:0:
183,31,7244,2,0,P|142:23|99:32,1,82.5000025177003,2|0,1:2|1:2,0:0:0:0:
28,96,7628,2,0,P|33:132|39:179,1,82.5000025177003,10|0,0:0|0:0,0:0:0:0:
124,228,8013,5,2,1:2:0:0:
49,293,8205,1,2,1:2:0:0:
124,357,8397,1,10,0:0:0:0:
124,357,8590,2,0,P|179:317|276:336,1,165.000005035401,2|0,1:2|0:0,0:0:0:0:
363,365,9167,2,0,P|372:316|385:271,1,82.5000025177003,10|0,0:0|0:0,0:0:0:0:
306,219,9551,6,0,P|298:170|288:122,1,82.5000025177003,2|0,1:2|0:0,0:0:0:0:
360,66,9936,2,0,P|402:54|444:65,1,82.5000025177003,10|2,0:0|0:0,0:0:0:0:
507,134,10321,1,2,1:2:0:0:
430,196,10513,2,0,P|443:241|455:293,1,82.5000025177003,2|8,1:2|0:0,0:0:0:0:
386,350,10897,1,2,0:0:0:0:
293,312,11090,6,0,P|244:304|211:318,1,82.5000025177003,2|2,1:2|1:2,0:0:0:0:
130,367,11474,2,0,P|77:373|45:355,1,82.5000025177003,10|2,0:0|1:2,0:0:0:0:
1,275,11859,2,0,P|10:230|22:187,1,82.5000025177003,2|0,0:0|1:2,0:0:0:0:
52,102,12244,2,0,P|96:90|134:97,1,82.5000025177003,8|0,0:0|0:0,0:0:0:0:
214,149,12628,5,2,1:2:0:0:
288,82,12821,1,2,0:0:0:0:
356,152,13013,2,0,P|396:143|436:135,1,82.5000025177003,10|10,1:2|0:0,0:0:0:0:
507,203,13397,1,2,1:2:0:0:
445,281,13590,1,2,1:2:0:0:
487,370,13782,2,0,P|438:380|392:362,1,82.5000025177003,10|2,0:0|0:0,0:0:0:0:
340,297,14167,6,0,P|297:303|251:313,1,82.5000025177003,2|2,1:2|1:2,0:0:0:0:
171,357,14551,1,8,0:0:0:0:
104,283,14744,2,0,P|95:232|86:187,1,82.5000025177003,2|0,1:2|0:0,0:0:0:0:
27,124,15128,2,0,P|69:86|170:96,1,165.000005035401,2|0,1:2|0:0,0:0:0:0:
242,165,15705,6,0,P|293:168|328:151,1,82.5000025177003,2|2,1:2|0:0,0:0:0:0:
399,95,16090,2,0,P|448:89|487:101,1,82.5000025177003,10|8,0:0|0:0,0:0:0:0:
505,192,16474,2,0,P|484:236|475:282,1,82.5000025177003,2|2,1:2|1:2,0:0:0:0:
412,344,16859,1,8,0:0:0:0:
333,285,17051,1,2,0:0:0:0:
272,363,17244,6,0,P|223:367|182:342,1,82.5000025177003,2|0,1:2|1:2,0:0:0:0:
192,254,17628,2,0,P|209:197|228:154,1,82.5000025177003,10|0,0:0|1:2,0:0:0:0:
258,84,18013,1,10,2:3:0:0:
69,23,18397,1,8,0:0:0:0:
10,102,18590,1,8,0:0:0:0:
10,102,18686,1,8,0:0:0:0:
10,102,18782,6,0,P|24:143|31:186,1,82.5000025177003,6|0,1:2|0:0,0:0:0:0:
17,280,19167,2,0,P|58:290|101:280,1,82.5000025177003,10|0,0:0|0:0,0:0:0:0:
171,216,19551,2,0,P|211:206|257:217,1,82.5000025177003,2|2,1:2|0:0,0:0:0:0:
296,302,19936,2,0,P|340:313|380:305,1,82.5000025177003,10|0,0:0|0:0,0:0:0:0:
466,348,20321,6,0,P|483:303|473:256,1,82.5000025177003,0|0,1:2|0:0,0:0:0:0:
473,171,20705,2,0,P|429:163|372:152,1,82.5000025177003,8|0,0:0|0:0,0:0:0:0:
352,134,20994,1,2,0:0:0:0:
352,134,21090,1,2,1:2:0:0:
262,92,21282,2,0,P|269:46|284:4,2,82.5000025177003,2|8|0,0:0|0:0|0:0,0:0:0:0:
174,138,21859,6,0,P|121:130|84:142,1,82.5000025177003,2|2,1:2|0:0,0:0:0:0:
15,213,22244,2,0,P|29:251|38:297,1,82.5000025177003,10|0,0:0|0:0,0:0:0:0:
118,348,22628,2,0,P|161:356|200:344,1,82.5000025177003,2|2,1:2|0:0,0:0:0:0:
285,300,23013,2,0,P|329:292|370:302,1,82.5000025177003,10|0,0:0|0:0,0:0:0:0:
449,351,23397,6,0,B|481:305|481:305|453:185,1,165.000005035401,0|8,1:2|0:0,0:0:0:0:
263,150,24167,1,2,1:2:0:0:
194,221,24359,2,0,P|195:242|197:268,2,41.2500012588501,8|8|0,0:0|0:0|1:2,0:0:0:0:
115,180,24744,1,8,0:0:0:0:
115,180,24840,1,8,0:0:0:0:
115,180,24936,6,0,P|107:131|98:92,1,82.5000025177003,2|2,1:2|1:2,0:0:0:0:
149,12,25321,1,8,0:0:0:0:
331,92,25705,2,0,P|395:83|429:81,1,82.5000025177003,2|2,1:2|1:2,0:0:0:0:
494,24,26090,1,8,0:0:0:0:
425,209,26474,6,0,P|415:255|406:296,1,82.5000025177003,2|0,1:2|1:2,0:0:0:0:
332,354,26859,1,10,0:0:0:0:
161,253,27244,2,0,P|115:248|77:263,1,82.5000025177003,0|0,1:2|1:2,0:0:0:0:
9,307,27628,1,8,0:0:0:0:
57,114,28013,6,0,P|111:106|160:102,1,82.5000025177003,6|2,1:2|0:0,0:0:0:0:
223,52,28397,1,10,0:0:0:0:
291,124,28590,1,2,0:0:0:0:
374,71,28782,2,0,P|421:76|464:81,1,82.5000025177003,2|2,1:2|0:0,0:0:0:0:
504,166,29167,1,8,0:0:0:0:
427,228,29359,1,2,0:0:0:0:
464,319,29551,6,0,P|417:325|376:334,1,82.5000025177003,2|0,1:2|0:0,0:0:0:0:
341,304,29840,1,8,0:0:0:0:
341,304,29936,1,8,0:0:0:0:
257,356,30128,2,0,P|211:347|169:341,1,82.5000025177003,0|8,1:2|0:0,0:0:0:0:
77,357,30513,1,0,1:2:0:0:
20,275,30705,2,0,L|30:230,3,41.2500012588501,8|8|8|8,0:0|0:0|0:0|0:0,0:0:0:0:
29,184,31090,6,0,P|78:154|181:172,1,165.000005035401,6|8,1:2|0:0,0:0:0:0:
246,244,31667,2,0,B|295:209|295:209|282:80,1,165.000005035401,6|8,1:2|0:0,0:0:0:0:
361,42,32244,2,0,P|414:30|450:44,1,82.5000025177003,6|0,1:2|0:0,0:0:0:0:
497,118,32628,5,6,1:2:0:0:
451,206,32821,1,6,1:2:0:0:
