osu file format v14

[General]
AudioFilename: audio.mp3
AudioLeadIn: 0
PreviewTime: 73431
Countdown: 0
SampleSet: Soft
StackLeniency: 0.4
Mode: 0
LetterboxInBreaks: 0
WidescreenStoryboard: 1

[Editor]
Bookmarks: 123609
DistanceSpacing: 1.7
BeatDivisor: 6
GridSize: 4
TimelineZoom: 4.099998

[Metadata]
Title:Purple hype
TitleUnicode:パープルハイプ
Artist:Kuriyama Yuri
ArtistUnicode:栗山夕璃
Creator:Ryuusei Aika
Version:Collab Insane
Source:
Tags:Houshou Hari Mononymous Mono Ducky- dahkjdas ohm002 Japanese Pop J-Pop JPop Swing Jazz Male Vocal 蜂屋ななし Hachiya nanashi 中村涼真
BeatmapID:3724590
BeatmapSetID:1598298

[Difficulty]
HPDrainRate:4.5
CircleSize:4
OverallDifficulty:7
ApproachRate:8.8
SliderMultiplier:1.59999990463257
SliderTickRate:1

[Events]
//Background and Video events
0,0,"BG.jpg",0,0
//Break Periods
2,30674,33427
2,34256,36487
2,37838,40069
2,87988,94323
2,166794,171338
2,173958,178502
//Storyboard Layer 0 (Background)
//Storyboard Layer 1 (Fail)
//Storyboard Layer 2 (Pass)
//Storyboard Layer 3 (Foreground)
//Storyboard Layer 4 (Overlay)
//Storyboard Sound Samples

[TimingPoints]
1818,447.761194029851,4,2,1,40,1,0
14131,-100,4,2,1,5,0,0
14355,-100,4,2,1,40,0,0
15922,-100,4,2,1,70,0,0
16146,-83.3333333333333,4,2,1,70,0,0
37116,-83.3333333333333,4,2,1,50,0,0
37191,-100,4,2,1,50,0,0
37638,-100,4,2,1,70,0,0
40698,-100,4,2,1,55,0,0
44803,-125,4,2,1,60,0,0
48385,-125,4,2,1,65,0,0
51967,-125,4,2,1,60,0,0
55549,-125,4,2,1,70,0,0
56444,-125,4,2,1,75,0,0
57489,-125,4,2,1,60,0,0
59131,-83.3333333333333,4,2,1,80,0,1
87788,-83.3333333333333,4,2,1,55,0,0
94952,-100,4,2,1,55,0,0
109280,-83.3333333333333,4,2,1,80,0,1
115772,-83.3333333333333,4,2,2,80,0,1
116444,-83.3333333333333,4,2,1,80,0,1
123832,-83.3333333333333,4,2,1,75,0,1
137937,-133.333333333333,4,2,1,55,0,0
145101,-133.333333333333,4,2,1,60,0,0
145549,-100,4,2,1,60,0,0
152265,-100,4,2,1,65,0,0
166594,-100,4,2,1,60,0,0
179131,-100,4,2,1,55,0,0
180026,-100,4,2,1,65,0,0
180922,-83.3333333333333,4,2,1,85,0,1
187191,-83.3333333333333,4,2,2,85,0,1
188086,-83.3333333333333,4,2,1,85,0,1
194578,-83.3333333333333,4,2,2,85,0,1
195250,-83.3333333333333,4,2,1,85,0,1
209131,-83.3333333333333,4,2,2,85,0,1
209579,-83.3333333333333,4,2,1,65,0,0
220325,-83.3333333333333,4,2,1,60,0,0
223907,-83.3333333333333,4,2,1,15,0,0

[Colours]
Combo1 : 127,127,127
Combo2 : 191,0,191

[HitObjects]
256,192,13907,12,2,15250,2:0:0:0:
248,189,15623,5,2,2:0:0:0:
248,189,15698,2,0,P|224:156|226:129,1,53.333330154419,2|2,2:0|2:0,2:0:0:0:
240,122,15922,1,2,2:0:0:0:
398,202,16146,2,0,P|389:250|382:303,1,95.9999942779542,6|8,1:2|2:0,2:0:0:0:
290,364,16594,2,0,P|266:336|211:340,1,95.9999942779542,0|8,1:0|2:0,2:0:0:0:
125,368,16967,1,0,2:0:0:0:
106,372,17041,2,4,P|69:359|63:304,1,95.9999942779542,0|8,1:0|2:0,2:0:0:0:
153,234,17489,2,0,L|169:136,1,95.9999942779542,0|8,1:0|2:0,2:0:0:0:
72,11,17937,6,0,P|53:36|56:67,1,63.9999961853028,0|0,1:0|2:0,2:0:0:0:
72,80,18161,2,0,L|145:66,1,63.9999961853028,8|0,2:0|2:0,2:0:0:0:
157,53,18385,2,0,L|230:67,1,63.9999961853028,0|0,1:0|2:0,2:0:0:0:
239,80,18609,1,8,2:0:0:0:
421,22,18832,6,0,B|396:5|396:5|410:77,1,95.9999942779542,0|8,1:0|2:0,2:0:0:0:
475,115,19206,1,0,2:0:0:0:
475,115,19280,2,0,P|444:150|398:154,1,95.9999942779542,0|8,1:0|2:0,2:0:0:0:
224,197,19728,6,0,P|174:214|165:292,1,127.999992370606,6|0,1:2|2:0,2:0:0:0:
236,342,20176,2,0,L|304:328,1,63.9999961853028,0|0,1:0|2:0,2:0:0:0:
319,309,20400,2,0,L|387:323,1,63.9999961853028,8|0,2:0|2:0,2:0:0:0:
406,339,20623,1,0,1:0:0:0:
492,255,20847,1,8,2:0:0:0:
405,179,21071,2,0,P|393:146|403:111,1,63.9999961853028,0|0,1:0|2:0,2:0:0:0:
408,109,21295,1,8,2:0:0:0:
272,39,21519,5,0,1:0:0:0:
124,130,21743,1,8,2:0:0:0:
228,212,21967,2,0,P|220:254|215:289,1,63.9999961853028,0|0,1:0|2:0,2:0:0:0:
192,288,22191,2,0,P|200:330|205:365,1,63.9999961853028,8|0,2:0|2:0,2:0:0:0:
237,364,22415,1,0,1:0:0:0:
57,306,22638,1,8,2:0:0:0:
108,242,22788,1,2,2:0:0:0:
108,241,22862,2,0,P|118:212|114:180,1,63.9999961853028,6|2,1:2|2:0,2:0:0:0:
89,165,23086,2,0,P|78:135|82:103,1,63.9999961853028,10|0,2:0|2:0,2:0:0:0:
101,87,23310,6,0,P|153:94|207:106,1,95.9999942779542,6|8,1:2|2:0,2:0:0:0:
322,167,23758,2,0,P|374:160|428:148,1,95.9999942779542,0|8,1:0|2:0,2:0:0:0:
409,58,24131,1,0,2:0:0:0:
409,58,24206,2,0,P|362:67|314:74,1,95.9999942779542,0|8,1:0|2:0,2:0:0:0:
240,158,24653,2,0,P|222:192|247:251,1,95.9999942779542,0|8,1:0|2:0,2:0:0:0:
352,322,25101,5,0,1:0:0:0:
180,379,25325,2,0,P|210:352|208:322,1,63.9999961853028,8|0,2:0|2:0,2:0:0:0:
197,306,25549,2,0,L|131:319,1,63.9999961853028,0|0,1:0|2:0,2:0:0:0:
120,330,25773,2,0,L|54:317,1,63.9999961853028,8|0,2:0|2:0,2:0:0:0:
21,290,25997,1,0,1:0:0:0:
135,211,26220,1,8,2:0:0:0:
68,165,26370,1,2,2:0:0:0:
68,165,26444,2,0,P|53:136|58:107,2,63.9999961853028,6|2|0,1:2|2:0|2:0,2:0:0:0:
162,107,26892,6,0,P|212:117|259:129,1,95.9999942779542,4|8,1:2|2:0,2:0:0:0:
393,189,27340,2,0,P|424:152|412:103,1,95.9999942779542,0|8,1:0|2:0,2:0:0:0:
357,46,27713,1,0,2:0:0:0:
357,46,27788,2,0,P|326:81|334:126,1,95.9999942779542,0|8,1:0|2:0,2:0:0:0:
416,272,28235,1,0,1:0:0:0:
311,337,28459,1,8,2:0:0:0:
419,265,28683,6,0,P|466:278|513:292,1,95.9999942779542,0|8,1:0|2:0,2:0:0:0:
334,126,29131,2,0,P|303:134|272:143,1,63.9999961853028,0|0,1:0|2:0,2:0:0:0:
249,165,29355,2,0,P|230:140|229:109,1,63.9999961853028,8|0,2:0|2:0,2:0:0:0:
242,81,29579,2,0,P|240:49|221:24,1,63.9999961853028,0|0,1:0|2:0,2:0:0:0:
196,19,29803,1,8,2:0:0:0:
117,78,29952,1,2,2:0:0:0:
117,78,30026,2,0,P|126:130|134:175,1,95.9999942779542,6|10,1:2|2:0,2:0:0:0:
185,247,30474,5,6,1:2:0:0:
345,213,34056,5,4,1:2:0:0:
73,128,37116,5,0,2:0:0:0:
73,128,37191,2,0,P|80:180|83:212,1,79.9999952316285,6|0,1:2|1:0,2:0:0:0:
59,281,37638,1,4,1:2:0:0:
377,152,40698,5,0,2:0:0:0:
377,152,40773,2,0,P|372:110|367:88,2,53.333330154419,2|0|0,2:0|1:0|2:0,2:0:0:0:
314,207,41220,5,0,1:0:0:0:
314,207,42116,1,2,2:0:0:0:
314,207,43012,1,2,1:2:0:0:
258,138,43235,1,10,2:0:0:0:
170,125,43459,1,2,1:2:0:0:
100,179,43609,1,2,2:0:0:0:
100,179,43683,1,10,2:0:0:0:
162,326,43907,6,0,P|201:316|259:317,1,79.9999952316285,2|8,1:2|2:0,2:0:0:0:
317,355,44355,1,2,1:2:0:0:
385,317,44579,1,0,1:0:0:0:
240,314,44803,6,0,P|170:321|116:350,1,127.999992370606,6|0,1:2|2:0,2:0:0:0:
45,296,45474,1,2,2:0:0:0:
107,231,45698,2,0,P|98:189|97:158,2,63.9999961853028,2|2|2,2:0|2:0|2:0,2:0:0:0:
45,296,46370,1,2,2:0:0:0:
201,194,46594,6,0,P|271:201|325:230,1,127.999992370606,2|0,1:2|1:2,2:0:0:0:
390,169,47265,1,2,1:2:0:0:
390,169,47489,1,2,2:0:0:0:
345,97,47713,1,8,1:0:0:0:
345,97,47937,1,8,1:0:0:0:
329,244,48161,1,2,1:2:0:0:
241,97,48385,6,0,P|171:104|117:133,1,127.999992370606,2|0,1:2|1:0,2:0:0:0:
56,192,49056,1,8,2:0:0:0:
18,121,49206,1,0,2:0:0:0:
18,121,49280,2,0,P|22:82|25:47,1,63.9999961853028,2|10,1:2|2:0,2:0:0:0:
117,0,49728,2,0,P|121:39|124:74,1,63.9999961853028,2|10,1:2|2:0,2:0:0:0:
203,188,50176,6,0,P|225:190|245:183,1,42.6666641235352,2|0,1:2|2:0,2:0:0:0:
272,174,50400,2,0,L|280:123,1,42.6666641235352,8|0,2:0|2:0,2:0:0:0:
255,113,50623,2,0,L|247:62,1,42.6666641235352,2|0,1:2|2:0,2:0:0:0:
268,48,50847,1,10,2:0:0:0:
406,94,51071,2,0,P|442:84|454:59,2,63.9999961853028,2|10|2,1:2|2:0|1:2,2:0:0:0:
193,6,51743,5,10,2:0:0:0:
193,6,51967,2,0,P|157:11|135:91,1,127.999992370606,2|0,1:2|1:0,2:0:0:0:
223,164,52638,1,10,2:0:0:0:
170,223,52788,1,0,1:0:0:0:
169,222,52862,2,0,P|140:210|108:205,2,63.9999961853028,2|8|2,2:0|2:0|1:2,2:0:0:0:
308,299,53534,1,10,2:0:0:0:
375,263,53758,6,0,P|394:226|372:143,1,127.999992370606,2|0,1:2|1:0,2:0:0:0:
268,77,54429,1,10,2:0:0:0:
326,28,54579,1,0,1:0:0:0:
325,27,54653,2,0,P|354:41|386:48,1,63.9999961853028,2|8,1:2|2:0,2:0:0:0:
434,125,55101,2,0,P|405:138|373:145,1,63.9999961853028,10|10,1:2|2:0,2:0:0:0:
287,170,55549,6,0,P|271:195|272:237,2,63.9999961853028,10|10|10,1:2|1:2|1:2,2:0:0:0:
152,76,56220,1,10,1:2:0:0:
92,129,56370,1,0,2:0:0:0:
92,129,56444,2,0,P|100:158|104:199,1,63.9999961853028,2|8,1:2|2:0,2:0:0:0:
170,312,56892,2,0,P|151:335|120:362,1,63.9999961853028,10|10,2:0|2:0,2:0:0:0:
46,316,57340,5,2,1:2:0:0:
101,268,57489,1,2,2:0:0:0:
101,268,57564,2,0,L|177:283,1,63.9999961853028,0|2,2:0|2:0,2:0:0:0:
244,332,57937,1,2,2:0:0:0:
244,332,58012,2,0,L|297:321,1,42.6666641235352,0|2,2:0|2:0,2:0:0:0:
315,327,58235,2,0,P|344:315|358:288,1,63.9999961853028,2|0,2:0|2:0,2:0:0:0:
325,209,58609,2,0,P|350:178|384:177,1,63.9999961853028,2|0,2:0|2:0,2:0:0:0:
390,185,58907,1,0,2:0:0:0:
506,261,59131,6,0,P|496:307|493:355,1,95.9999942779542,6|8,1:2|2:0,2:0:0:0:
389,327,59504,1,0,2:0:0:0:
389,327,59579,2,0,P|348:320|307:355,1,95.9999942779542,2|8,1:2|2:0,2:0:0:0:
230,250,60026,2,0,B|238:203|238:203|237:194|237:194|246:146,1,95.9999942779542,2|8,1:2|2:0,2:0:0:0:
326,102,60400,1,0,2:0:0:0:
326,102,60474,1,2,1:2:0:0:
228,24,60698,2,0,P|183:21|144:65,1,95.9999942779542,10|4,2:0|1:2,2:0:0:0:
37,249,61146,5,10,2:0:0:0:
104,207,61295,1,0,2:0:0:0:
104,207,61370,2,0,L|179:221,1,63.9999961853028,2|0,1:2|2:0,2:0:0:0:
202,246,61594,1,10,2:0:0:0:
380,149,61818,2,0,P|411:115|405:69,1,95.9999942779542,2|8,1:2|2:0,2:0:0:0:
283,0,62265,2,0,P|251:34|257:80,1,95.9999942779542,2|8,1:2|2:0,2:0:0:0:
385,164,62713,5,4,1:2:0:0:
295,255,62937,1,10,2:0:0:0:
377,306,63086,1,0,2:0:0:0:
377,306,63161,2,0,P|409:278|467:272,2,95.9999942779542,2|10|2,1:2|2:0|1:2,2:0:0:0:
214,247,63832,1,10,2:0:0:0:
115,356,64056,2,0,P|68:343|21:333,1,95.9999942779542,2|10,1:2|2:0,2:0:0:0:
19,180,64504,6,0,P|65:190|112:202,1,95.9999942779542,2|8,1:2|2:0,2:0:0:0:
191,159,64877,1,2,2:0:0:0:
191,159,64952,2,0,P|209:116|203:69,1,95.9999942779542,0|10,1:0|2:0,2:0:0:0:
56,17,65400,5,2,1:2:0:0:
8,78,65623,1,10,2:0:0:0:
118,203,65847,5,8,1:0:0:0:
99,127,66071,1,8,1:0:0:0:
10,330,66295,6,0,B|43:304|43:304|96:313,1,95.9999942779542,4|8,2:0|2:0,2:0:0:0:
211,329,66668,1,0,2:0:0:0:
211,329,66743,2,0,P|228:298|220:235,1,95.9999942779542,2|8,1:2|2:0,2:0:0:0:
299,188,67191,2,0,P|322:226|382:235,1,95.9999942779542,2|8,1:2|2:0,2:0:0:0:
372,354,67638,2,0,P|327:350|285:393,2,95.9999942779542,2|10|4,1:2|2:0|1:2,2:0:0:0:
475,309,68310,5,10,2:0:0:0:
364,151,68534,1,2,1:2:0:0:
475,309,68758,1,8,2:0:0:0:
431,236,68907,1,0,2:0:0:0:
430,235,68982,2,0,P|430:189|465:159,1,95.9999942779542,2|8,1:2|2:0,2:0:0:0:
476,73,69429,2,0,P|431:87|381:96,1,95.9999942779542,2|8,1:2|2:0,2:0:0:0:
235,24,69877,5,4,1:2:0:0:
147,98,70101,2,0,P|135:132|149:161,1,63.9999961853028,10|0,2:0|2:0,2:0:0:0:
162,174,70325,2,0,L|229:159,1,63.9999961853028,2|0,1:2|2:0,2:0:0:0:
246,162,70549,1,10,2:0:0:0:
347,256,70773,6,0,P|349:300|338:326,2,63.9999961853028,2|0|0,1:2|2:0|2:0,2:0:0:0:
244,278,71220,1,2,1:2:0:0:
439,178,71444,1,10,2:0:0:0:
244,278,71668,2,0,P|201:267|150:258,1,95.9999942779542,2|10,1:2|2:0,2:0:0:0:
72,316,72041,1,2,2:0:0:0:
71,315,72116,2,0,P|46:277|55:231,1,95.9999942779542,0|10,1:0|2:0,2:0:0:0:
182,125,72564,2,0,P|191:79|162:37,1,95.9999942779542,2|8,1:2|2:0,2:0:0:0:
64,18,72937,1,2,2:0:0:0:
56,25,73012,2,0,P|67:85|78:130,1,95.9999942779542,0|8,1:0|2:0,2:0:0:0:
179,287,73459,6,0,B|211:265|235:264|257:278|257:278|280:298|313:302|328:291,1,159.999990463257,6|0,1:2|2:0,2:0:0:0:
348,263,73907,2,0,P|327:221|328:173,1,95.9999942779542,2|8,1:2|2:0,2:0:0:0:
469,93,74355,2,0,P|490:135|489:183,2,95.9999942779542,2|10|2,1:2|2:0|1:2,2:0:0:0:
308,36,75026,1,8,2:0:0:0:
192,127,75250,5,4,1:2:0:0:
192,127,75474,2,0,P|179:166|192:198,1,63.9999961853028,10|0,2:0|2:0,2:0:0:0:
217,217,75698,2,0,L|205:281,1,63.9999961853028,2|0,1:2|2:0,2:0:0:0:
190,298,75922,1,10,2:0:0:0:
337,367,76146,2,0,P|374:339|421:339,2,95.9999942779542,2|10|2,1:2|2:0|1:2,2:0:0:0:
40,290,76818,1,10,2:0:0:0:
99,229,77041,6,0,P|87:193|108:135,1,95.9999942779542,6|8,1:2|2:0,2:0:0:0:
178,66,77415,1,2,2:0:0:0:
178,66,77489,2,0,B|138:54|138:54|126:43|126:43|89:34,1,95.9999942779542,0|10,1:0|2:0,2:0:0:0:
275,11,77937,6,0,B|314:22|314:22|326:33|326:33|363:42,1,95.9999942779542,6|8,1:2|2:0,2:0:0:0:
431,101,78310,1,2,2:0:0:0:
431,99,78385,2,0,P|458:61|450:15,1,95.9999942779542,2|10,1:2|2:0,2:0:0:0:
292,103,78832,6,0,L|307:197,1,95.9999942779542,6|10,1:2|2:0,2:0:0:0:
362,289,79206,1,2,2:0:0:0:
375,286,79280,2,0,B|407:251|407:251|392:205,1,95.9999942779542,2|10,1:2|2:0,2:0:0:0:
239,182,79653,1,0,2:0:0:0:
226,185,79728,2,0,B|194:220|194:220|209:266,1,95.9999942779542,4|8,1:2|2:0,2:0:0:0:
203,343,80101,2,0,B|166:355|135:332|156:318|119:300|86:310,1,127.999992370606,2|8,2:0|2:0,2:0:0:0:
5,196,80623,6,0,P|13:275|18:355,1,159.999990463257,6|0,1:2|2:0,2:0:0:0:
37,372,81071,2,0,P|80:355|87:310,1,95.9999942779542,2|8,1:2|2:0,2:0:0:0:
77,133,81519,2,0,P|93:176|138:183,2,95.9999942779542,2|10|2,1:2|2:0|1:2,2:0:0:0:
214,268,82191,1,0,2:0:0:0:
311,153,82415,5,4,2:0:0:0:
311,153,82638,2,0,P|294:128|297:96,1,63.9999961853028,10|0,2:0|2:0,2:0:0:0:
310,82,82862,2,0,L|377:70,1,63.9999961853028,2|0,1:2|2:0,2:0:0:0:
395,55,83086,1,10,2:0:0:0:
474,171,83310,6,0,B|494:216|494:216|465:260,2,95.9999942779542,2|10|2,1:2|2:0|1:2,2:0:0:0:
389,197,83907,1,0,2:0:0:0:
389,197,83982,1,10,2:0:0:0:
474,354,84206,2,0,P|428:338|374:325,1,95.9999942779542,6|8,1:2|2:0,2:0:0:0:
303,279,84579,1,2,2:0:0:0:
303,279,84653,2,0,P|257:294|211:306,1,95.9999942779542,0|10,1:0|2:0,2:0:0:0:
51,369,85101,6,0,P|24:330|34:285,1,95.9999942779542,6|8,1:2|2:0,2:0:0:0:
105,223,85474,1,2,2:0:0:0:
105,223,85549,2,0,P|131:184|121:139,1,95.9999942779542,0|10,1:0|2:0,2:0:0:0:
26,37,85997,6,0,B|58:56|58:56|124:43,1,95.9999942779542,6|8,1:2|2:0,2:0:0:0:
188,12,86370,1,2,2:0:0:0:
188,12,86444,2,0,P|224:25|236:77,1,95.9999942779542,0|10,1:0|2:0,2:0:0:0:
201,243,86892,6,0,P|207:288|248:308,1,95.9999942779542,6|8,1:2|2:0,2:0:0:0:
325,270,87265,1,2,2:0:0:0:
325,270,87340,2,0,P|317:226|308:157,1,95.9999942779542,0|8,1:0|2:0,2:0:0:0:
422,21,87788,5,4,1:2:0:0:
427,353,94952,6,0,P|402:331|357:333,1,79.9999952316285,4|2,1:2|1:2,2:0:0:0:
247,241,95623,5,2,1:2:0:0:
247,241,95847,2,0,P|254:274|254:297,1,53.333330154419,2|2,1:2|1:2,2:0:0:0:
29,225,96519,5,2,1:2:0:0:
88,174,96743,2,0,P|111:137|103:102,1,79.9999952316285,0|2,1:0|1:2,2:0:0:0:
235,21,97415,5,2,2:0:0:0:
235,21,97638,2,0,P|228:54|228:77,1,53.333330154419,2|2,1:2|1:2,2:0:0:0:
437,54,98310,5,0,1:0:0:0:
492,114,98534,2,0,P|480:149|472:205,1,79.9999952316285,2|2,1:2|1:2,2:0:0:0:
372,330,99206,5,2,2:0:0:0:
372,330,99429,2,0,B|345:318|345:318|316:335,1,53.333330154419,2|0,1:2|2:0,2:0:0:0:
178,300,99803,5,2,1:2:0:0:
282,206,100101,5,0,1:0:0:0:
136,130,100474,5,0,2:0:0:0:
136,130,100549,2,0,P|99:136|48:150,1,79.9999952316285,2|2,1:2|1:2,2:0:0:0:
42,56,100922,1,0,1:0:0:0:
42,56,100997,2,0,P|80:45|120:39,1,79.9999952316285,2|2,1:2|1:2,2:0:0:0:
241,114,101668,2,0,P|269:133|267:187,1,79.9999952316285,2|0,1:2|1:0,2:0:0:0:
168,245,102116,5,2,1:2:0:0:
247,330,102340,2,0,P|280:320|298:318,1,53.333330154419,2|2,2:0|2:0,2:0:0:0:
314,325,102564,1,0,1:0:0:0:
410,271,102788,1,0,2:0:0:0:
508,319,103012,2,0,P|520:282|514:243,1,79.9999952316285,0|2,1:0|2:0,2:0:0:0:
414,180,103459,2,0,P|401:217|407:256,1,79.9999952316285,2|0,1:2|2:0,2:0:0:0:
501,130,103907,5,2,1:2:0:0:
436,78,104056,1,2,2:0:0:0:
436,78,104131,1,2,1:2:0:0:
355,105,104355,2,0,P|317:98|291:68,2,79.9999952316285,2|2|2,1:2|1:2|1:2,2:0:0:0:
414,180,105026,5,2,2:0:0:0:
218,80,105250,2,0,P|179:90|140:98,1,79.9999952316285,2|0,1:2|2:0,2:0:0:0:
35,61,105698,5,2,1:2:0:0:
85,128,105847,1,2,2:0:0:0:
85,128,105922,1,2,2:0:0:0:
32,182,106071,1,2,2:0:0:0:
32,182,106146,2,0,P|48:223|52:264,1,79.9999952316285,2|2,1:2|2:0,2:0:0:0:
110,340,106594,2,0,L|169:332,1,53.333330154419,2|0,1:2|2:0,2:0:0:0:
184,310,106818,2,0,L|243:318,1,53.333330154419,0|0,2:0|2:0,2:0:0:0:
265,338,107041,1,2,1:2:0:0:
409,225,107265,1,0,2:0:0:0:
309,183,107489,5,8,1:2:0:0:
338,294,107713,1,8,2:0:0:0:
494,187,107937,1,10,1:2:0:0:
437,139,108086,1,0,2:0:0:0:
437,139,108161,2,0,P|429:111|432:86,1,53.333330154419,0|0,2:0|2:0,2:0:0:0:
409,53,108385,2,0,L|364:60,3,39.9999976158142,8|8|8|8,1:2|2:0|2:0|2:0,2:0:0:0:
341,81,108832,1,8,1:2:0:0:
256,40,108982,1,0,2:0:0:0:
256,40,109056,1,0,1:0:0:0:
145,120,109280,6,0,B|158:142|158:142|235:155,1,95.9999942779542,6|8,1:2|2:0,2:0:0:0:
301,202,109653,1,0,2:0:0:0:
301,202,109728,2,0,P|323:243|322:290,1,95.9999942779542,2|8,1:2|1:0,2:0:0:0:
232,356,110176,2,0,P|209:314|210:267,1,95.9999942779542,8|8,1:0|2:0,2:0:0:0:
321,291,110549,1,0,2:0:0:0:
321,291,110623,1,2,1:2:0:0:
140,192,110847,6,0,B|102:200|102:200|91:213|91:213|49:221,1,95.9999942779542,10|4,2:0|1:2,2:0:0:0:
210,266,111295,1,2,2:0:0:0:
266,209,111444,1,2,2:0:0:0:
266,209,111519,2,0,P|253:162|244:111,1,95.9999942779542,2|10,1:2|2:0,2:0:0:0:
138,16,111967,2,0,P|129:63|116:109,1,95.9999942779542,2|8,1:2|2:0,2:0:0:0:
244,25,112340,1,0,2:0:0:0:
244,25,112415,2,0,P|283:27|324:70,1,95.9999942779542,2|8,1:2|2:0,2:0:0:0:
396,177,112862,5,4,1:2:0:0:
473,115,113086,2,0,P|467:82|463:40,1,63.9999961853028,8|0,2:0|2:0,2:0:0:0:
454,20,113310,2,0,P|439:70|397:102,1,95.9999942779542,2|10,1:2|2:0,2:0:0:0:
299,155,113683,1,2,2:0:0:0:
299,155,113758,2,0,P|357:174|405:195,1,95.9999942779542,2|10,1:2|2:0,2:0:0:0:
464,277,114206,1,2,1:2:0:0:
495,134,114429,1,10,2:0:0:0:
340,252,114653,6,0,P|352:287|372:353,1,95.9999942779542,2|10,1:2|2:0,2:0:0:0:
274,306,115026,2,0,B|195:309|256:360|164:366,1,127.999992370606,2|10,2:0|2:0,2:0:0:0:
46,279,115549,6,0,P|74:250|136:243,1,95.9999942779542,8|8,1:0|1:0,2:0:0:0:
223,173,115922,1,0,2:0:0:0:
223,173,115997,1,8,1:0:0:0:
138,100,116220,1,8,1:0:0:0:
27,163,116444,6,0,P|17:121|3:61,1,95.9999942779542,6|8,1:2|2:0,2:0:0:0:
136,11,116818,1,0,2:0:0:0:
136,11,116892,2,0,B|171:19|171:19|184:34|184:34|221:47,1,95.9999942779542,2|8,1:2|2:0,2:0:0:0:
392,107,117340,6,0,P|415:70|402:18,1,95.9999942779542,8|8,1:0|2:0,2:0:0:0:
239,123,117788,1,2,1:2:0:0:
364,200,118012,1,10,1:2:0:0:
289,254,118235,6,0,P|300:300|310:347,1,95.9999942779542,4|8,2:0|2:0,2:0:0:0:
230,359,118609,1,10,2:0:0:0:
230,359,118683,2,0,P|219:312|208:265,1,95.9999942779542,2|10,1:2|2:0,2:0:0:0:
320,146,119131,2,0,P|308:192|298:239,1,95.9999942779542,2|8,1:2|2:0,2:0:0:0:
169,160,119504,1,0,2:0:0:0:
169,160,119579,2,0,P|117:165|96:205,1,95.9999942779542,2|8,1:2|2:0,2:0:0:0:
22,277,120026,5,4,1:2:0:0:
165,357,120250,2,0,L|232:340,1,63.9999961853028,10|0,2:0|2:0,2:0:0:0:
243,324,120474,2,0,L|310:341,1,63.9999961853028,2|0,1:2|2:0,2:0:0:0:
329,353,120698,2,0,P|355:321|356:285,1,63.9999961853028,10|0,2:0|2:0,2:0:0:0:
340,273,120922,1,2,1:2:0:0:
410,223,121071,1,0,2:0:0:0:
410,223,121146,2,0,P|449:237|515:259,1,95.9999942779542,10|2,2:0|1:2,2:0:0:0:
349,162,121519,1,0,2:0:0:0:
349,162,121594,1,8,1:0:0:0:
200,199,121818,6,0,P|174:176|178:108,1,95.9999942779542,8|8,1:0|2:0,2:0:0:0:
232,48,122191,1,2,2:0:0:0:
232,48,122265,2,0,P|272:56|305:64,1,63.9999961853028,0|2,1:0|2:0,2:0:0:0:
310,53,122489,1,10,2:0:0:0:
459,144,122713,6,0,P|491:119|490:59,1,95.9999942779542,2|8,1:2|1:0,2:0:0:0:
366,136,123086,1,2,2:0:0:0:
366,136,123161,2,0,L|385:235,1,95.9999942779542,8|8,1:0|1:0,2:0:0:0:
479,319,123609,5,4,1:2:0:0:
284,384,123832,1,10,2:0:0:0:
384,230,124056,2,0,P|370:278|365:314,1,63.9999961853028,2|0,1:2|2:0,2:0:0:0:
354,314,124280,2,0,P|306:300|270:295,1,63.9999961853028,10|0,2:0|2:0,2:0:0:0:
267,271,124504,2,0,P|209:255|177:255,1,63.9999961853028,2|0,2:0|2:0,2:0:0:0:
179,234,124728,1,2,1:2:0:0:
87,346,124877,1,0,2:0:0:0:
87,346,124952,2,0,P|51:360|22:367,1,63.9999961853028,0|0,1:0|2:0,2:0:0:0:
6,350,125176,2,0,P|2:312|-5:281,1,63.9999961853028,10|0,2:0|2:0,2:0:0:0:
10,270,125400,6,0,P|27:216|38:190,1,63.9999961853028,6|0,1:2|2:0,2:0:0:0:
63,195,125623,1,10,2:0:0:0:
63,195,125698,2,0,P|88:162|114:132,1,63.9999961853028,0|0,2:0|1:0,2:0:0:0:
6,55,126071,1,10,2:0:0:0:
114,0,126295,5,2,1:2:0:0:
196,62,126519,2,0,P|209:94|221:135,1,63.9999961853028,10|0,2:0|2:0,2:0:0:0:
226,148,126743,2,0,P|267:165|296:183,1,63.9999961853028,2|0,1:2|2:0,2:0:0:0:
301,168,126967,1,8,2:0:0:0:
301,168,127041,1,0,2:0:0:0:
430,217,127191,5,4,1:2:0:0:
512,123,127415,1,10,2:0:0:0:
394,60,127638,1,2,1:2:0:0:
316,161,127862,1,10,2:0:0:0:
464,219,128086,6,0,B|424:219|396:260|428:261|410:314|346:318,1,159.999990463257,2|0,1:2|2:0,2:0:0:0:
340,319,128534,2,0,P|305:292|301:266,1,63.9999961853028,0|0,1:0|2:0,2:0:0:0:
302,266,128758,2,0,P|290:295|262:310,1,63.9999961853028,10|0,2:0|2:0,2:0:0:0:
247,313,128982,6,0,P|198:329|183:342,1,63.9999961853028,2|0,1:2|2:0,2:0:0:0:
170,349,129206,2,0,P|116:336|78:335,1,63.9999961853028,10|0,2:0|2:0,2:0:0:0:
85,346,129429,1,2,1:2:0:0:
140,219,129653,1,10,2:0:0:0:
39,158,129877,6,0,P|47:108|62:50,1,95.9999942779542,2|8,1:2|2:0,2:0:0:0:
159,24,130250,1,2,2:0:0:0:
159,24,130325,2,0,P|163:60|180:98,1,63.9999961853028,2|0,1:2|2:0,2:0:0:0:
183,106,130549,2,0,P|233:97|249:87,1,63.9999961853028,10|0,2:0|2:0,2:0:0:0:
262,69,130773,5,6,1:2:0:0:
388,99,130997,2,0,P|368:151|362:180,1,63.9999961853028,10|0,2:0|2:0,2:0:0:0:
353,171,131220,2,0,P|373:223|379:252,1,63.9999961853028,2|0,1:2|2:0,2:0:0:0:
396,248,131444,1,10,2:0:0:0:
353,353,131668,6,0,P|300:367|258:388,1,95.9999942779542,2|10,1:2|2:0,2:0:0:0:
172,312,132041,1,0,2:0:0:0:
172,312,132116,2,0,P|225:298|267:277,1,95.9999942779542,0|10,1:0|2:0,2:0:0:0:
162,203,132564,6,0,P|130:220|95:229,1,63.9999961853028,4|0,1:2|2:0,2:0:0:0:
71,220,132788,2,0,P|58:199|52:176,1,31.9999980926514,8|0,2:0|2:0,2:0:0:0:
35,168,132937,2,0,P|41:128|55:81,1,63.9999961853028,2|0,2:0|2:0,2:0:0:0:
0,21,133310,1,0,2:0:0:0:
99,3,133459,6,0,P|147:14|179:24,1,63.9999961853028,2|0,1:2|2:0,2:0:0:0:
173,45,133683,2,0,P|203:53|235:60,1,63.9999961853028,10|0,2:0|2:0,2:0:0:0:
265,87,133907,1,2,1:2:0:0:
372,40,134131,2,0,P|420:51|452:61,1,63.9999961853028,10|0,2:0|2:0,2:0:0:0:
459,66,134355,6,0,P|470:100|437:158,1,95.9999942779542,6|0,1:2|2:0,2:0:0:0:
346,218,134728,1,2,2:0:0:0:
346,218,134803,2,0,P|303:231|277:248,1,63.9999961853028,2|0,1:2|2:0,2:0:0:0:
271,253,135026,2,0,P|287:296|298:324,1,63.9999961853028,10|0,2:0|2:0,2:0:0:0:
310,341,135250,6,0,P|354:322|419:301,1,95.9999942779542,6|0,1:2|2:0,2:0:0:0:
212,384,135623,2,0,P|166:368|122:349,1,95.9999942779542,2|0,2:0|2:0,2:0:0:0:
22,384,135997,1,2,2:0:0:0:
19,179,136146,6,0,P|35:244|52:307,1,127.999992370606,6|0,1:2|2:0,2:0:0:0:
145,268,136594,2,0,P|128:206|113:144,1,127.999992370606,2|0,1:2|2:0,2:0:0:0:
156,51,137041,1,2,1:2:0:0:
239,97,137265,1,10,2:0:0:0:
297,25,137489,1,2,1:2:0:0:
386,74,137713,1,8,2:0:0:0:
453,14,137937,6,0,P|490:5|520:-2,14,59.9999964237215,6|2|2|2|2|2|2|2|2|2|2|2|2|2|2,1:2|2:0|2:0|2:0|2:0|2:0|2:0|2:0|2:0|2:0|2:0|2:0|2:0|2:0|2:0,2:0:0:0:
381,86,141519,1,4,1:0:0:0:
448,26,141743,6,0,P|485:17|515:10,13,59.9999964237215,2|2|2|2|2|2|2|2|2|2|2|2|2|2,2:0|2:0|2:0|2:0|2:0|2:0|2:0|2:0|2:0|2:0|2:0|2:0|2:0|2:0,2:0:0:0:
353,96,145101,5,4,1:2:0:0:
507,147,145325,1,2,2:0:0:0:
433,253,145549,2,0,P|421:202|415:167,1,79.9999952316285,0|2,1:0|2:0,2:0:0:0:
294,268,145997,2,0,P|309:217|321:184,1,79.9999952316285,2|0,1:2|2:0,2:0:0:0:
166,211,146370,1,0,2:0:0:0:
166,211,146444,2,0,P|204:175|231:152,1,79.9999952316285,2|2,1:2|2:0,2:0:0:0:
173,68,146892,5,2,1:2:0:0:
0,141,147116,1,2,2:0:0:0:
151,80,147340,5,2,1:2:0:0:
52,204,147564,1,2,2:0:0:0:
140,95,147788,5,2,1:2:0:0:
127,269,148012,1,2,2:0:0:0:
211,364,148161,1,0,2:0:0:0:
211,364,148235,2,0,P|233:335|236:280,2,79.9999952316285,2|2|0,1:2|2:0|1:0,2:0:0:0:
337,343,148907,1,2,2:0:0:0:
435,384,149131,6,0,P|485:370|537:364,1,79.9999952316285,2|2,1:2|2:0,2:0:0:0:
427,283,149579,1,2,1:2:0:0:
480,197,149803,1,0,2:0:0:0:
393,126,149952,1,0,2:0:0:0:
393,126,150026,2,0,P|396:90|410:65,1,53.333330154419,2|0,1:2|2:0,2:0:0:0:
434,62,150250,2,0,P|454:32|479:17,1,53.333330154419,2|0,1:2|2:0,2:0:0:0:
505,24,150474,1,2,1:2:0:0:
347,0,150698,1,2,2:0:0:0:
286,97,150922,5,2,1:2:0:0:
104,54,151146,1,2,2:0:0:0:
202,0,151370,2,0,L|209:43,5,26.6666650772095,2|0|0|2|0|0,1:2|2:0|2:0|2:0|2:0|2:0,2:0:0:0:
205,54,151818,2,0,P|190:107|174:183,1,133.333325386047,0|0,1:0|2:0,2:0:0:0:
168,210,152265,5,6,1:2:0:0:
262,315,152564,1,0,2:0:0:0:
262,315,152713,2,0,P|322:294|361:289,1,79.9999952316285,0|10,1:0|2:0,2:0:0:0:
408,348,153161,2,0,P|444:331|483:322,1,79.9999952316285,2|8,1:2|2:0,2:0:0:0:
496,240,153534,1,2,2:0:0:0:
496,240,153609,2,0,P|481:189|474:172,1,53.333330154419,0|0,1:0|2:0,2:0:0:0:
469,179,153832,2,0,P|457:136|450:109,1,53.333330154419,10|0,2:0|2:0,2:0:0:0:
429,118,154056,5,2,1:2:0:0:
459,0,154280,1,10,2:0:0:0:
331,26,154504,1,2,1:2:0:0:
301,144,154728,1,10,2:0:0:0:
220,68,154952,6,0,P|161:89|106:109,1,106.666660308838,2|0,1:2|2:0,2:0:0:0:
100,113,155325,2,0,P|125:160|137:202,1,79.9999952316285,2|0,2:0|2:0,2:0:0:0:
135,213,155623,1,10,2:0:0:0:
29,281,155847,6,0,P|55:284|81:292,1,53.333330154419,2|0,1:2|2:0,2:0:0:0:
104,309,156071,2,0,P|130:306|155:298,1,53.333330154419,10|0,2:0|2:0,2:0:0:0:
184,283,156295,1,2,1:2:0:0:
254,345,156519,2,0,P|305:333|327:328,1,53.333330154419,10|0,2:0|2:0,2:0:0:0:
339,336,156743,6,0,P|364:292|346:229,1,106.666660308838,2|0,1:2|2:0,2:0:0:0:
270,220,157191,2,0,P|261:181|248:127,1,79.9999952316285,0|8,1:0|2:0,2:0:0:0:
405,113,157638,6,0,P|411:87|418:61,1,53.333330154419,2|0,1:2|2:0,2:0:0:0:
418,36,157862,2,0,P|386:27|356:22,1,53.333330154419,10|0,2:0|2:0,2:0:0:0:
331,34,158086,2,0,P|305:27|279:20,1,53.333330154419,2|0,1:2|2:0,2:0:0:0:
254,22,158310,2,0,P|245:54|240:84,1,53.333330154419,10|0,2:0|2:0,2:0:0:0:
220,94,158534,6,0,P|232:153|234:195,1,79.9999952316285,2|8,1:2|2:0,2:0:0:0:
122,182,158907,1,0,2:0:0:0:
122,182,158982,2,0,P|157:215|171:272,1,106.666660308838,2|0,1:2|2:0,2:0:0:0:
100,354,159429,6,0,P|62:362|39:372,1,53.333330154419,6|0,1:2|2:0,2:0:0:0:
26,377,159653,2,0,P|19:342|9:317,1,53.333330154419,10|0,2:0|2:0,2:0:0:0:
26,291,159877,1,2,1:2:0:0:
132,270,160101,1,10,2:0:0:0:
132,270,160176,1,0,2:0:0:0:
210,336,160325,2,0,P|263:338|301:345,1,79.9999952316285,2|8,1:2|2:0,2:0:0:0:
314,362,160623,1,0,2:0:0:0:
393,323,160773,2,0,P|398:281|401:264,1,53.333330154419,2|0,1:2|2:0,2:0:0:0:
383,240,160997,2,0,P|377:206|370:173,1,53.333330154419,10|0,2:0|2:0,2:0:0:0:
388,159,161220,5,2,1:2:0:0:
317,96,161444,1,10,2:0:0:0:
318,80,161556,1,0,2:0:0:0:
316,64,161668,2,0,P|310:32|298:-1,1,53.333330154419,2|0,1:2|2:0,2:0:0:0:
286,0,161892,2,0,P|253:7|214:16,1,53.333330154419,10|0,2:0|2:0,2:0:0:0:
218,32,162116,2,0,P|173:39|108:53,1,106.666660308838,2|0,1:2|2:0,2:0:0:0:
57,109,162564,2,0,P|69:157|75:184,1,53.333330154419,0|2,1:2|2:0,2:0:0:0:
144,208,162862,1,0,2:0:0:0:
74,279,163012,6,0,P|62:304|59:330,1,53.333330154419,2|0,1:2|2:0,2:0:0:0:
69,354,163235,2,0,P|95:361|137:366,1,53.333330154419,10|0,2:0|2:0,2:0:0:0:
142,383,163459,1,2,1:2:0:0:
252,346,163683,2,0,P|290:336|314:333,1,53.333330154419,10|0,2:0|2:0,2:0:0:0:
327,320,163907,2,0,P|311:272|297:223,1,79.9999952316285,2|10,1:2|2:0,2:0:0:0:
351,147,164355,1,0,1:0:0:0:
268,56,164579,1,10,2:0:0:0:
220,158,164803,6,0,P|214:184|207:209,1,53.333330154419,2|0,1:2|2:0,2:0:0:0:
182,211,165026,2,0,P|156:204|130:197,1,53.333330154419,10|0,2:0|2:0,2:0:0:0:
95,208,165250,2,0,P|68:202|43:195,1,53.333330154419,2|0,1:2|2:0,2:0:0:0:
43,170,165474,2,0,P|49:144|55:118,1,53.333330154419,10|0,2:0|2:0,2:0:0:0:
76,90,165698,6,0,P|64:31|62:-11,1,79.9999952316285,2|8,1:2|2:0,2:0:0:0:
169,45,166146,1,2,1:2:0:0:
259,15,166370,1,10,2:0:0:0:
360,69,166594,1,6,1:2:0:0:
29,195,171967,6,0,P|13:231|9:261,1,53.333330154419,2|0,1:2|2:0,2:0:0:0:
15,272,172191,2,0,P|43:277|75:291,1,53.333330154419,8|2,2:0|2:0,2:0:0:0:
87,293,172415,2,0,P|71:329|67:359,1,53.333330154419,2|0,1:2|2:0,2:0:0:0:
73,370,172638,2,0,P|101:375|133:389,1,53.333330154419,8|0,2:0|2:0,2:0:0:0:
154,380,172862,6,0,P|207:364|240:360,1,79.9999952316285,2|8,1:2|2:0,2:0:0:0:
336,384,173310,1,2,1:2:0:0:
380,290,173534,1,8,2:0:0:0:
279,241,173758,1,6,1:2:0:0:
310,0,179131,5,2,2:0:0:0:
207,209,179504,1,2,2:0:0:0:
421,150,179803,1,2,2:0:0:0:
151,61,180026,5,2,2:0:0:0:
166,293,180400,1,2,2:0:0:0:
322,135,180698,1,8,2:3:0:0:
207,209,180922,6,0,P|159:206|112:196,1,95.9999942779542,6|8,1:2|2:0,2:0:0:0:
10,107,181295,1,0,2:0:0:0:
10,107,181370,2,0,P|3:66|38:25,1,95.9999942779542,2|8,1:2|2:0,2:0:0:0:
162,9,181818,2,0,P|155:50|190:91,1,95.9999942779542,2|8,1:2|2:0,2:0:0:0:
322,135,182191,1,0,2:0:0:0:
322,135,182265,1,2,1:2:0:0:
350,27,182489,2,0,P|305:24|266:68,1,95.9999942779542,8|4,2:0|1:2,2:0:0:0:
243,215,182937,5,10,2:0:0:0:
144,164,183086,1,0,2:0:0:0:
144,164,183161,2,0,L|130:239,1,63.9999961853028,2|0,1:2|2:0,2:0:0:0:
105,262,183385,1,8,2:0:0:0:
172,384,183609,2,0,P|225:369|287:363,1,95.9999942779542,2|8,1:2|2:0,2:0:0:0:
442,259,184056,2,0,P|389:274|327:280,1,95.9999942779542,2|10,1:2|2:0,2:0:0:0:
243,215,184504,5,4,1:2:0:0:
311,133,184728,1,10,2:0:0:0:
205,83,184877,1,2,2:0:0:0:
205,83,184952,2,0,P|177:51|171:-7,2,95.9999942779542,2|10|8,1:2|2:0|1:0,2:0:0:0:
100,127,185623,1,10,2:0:0:0:
141,227,185847,2,0,P|187:237|234:249,1,95.9999942779542,2|10,1:2|2:0,2:0:0:0:
288,362,186295,6,0,P|334:372|381:384,1,95.9999942779542,2|8,1:2|2:0,2:0:0:0:
472,350,186668,1,2,2:0:0:0:
472,350,186743,2,0,P|490:307|484:260,1,95.9999942779542,0|10,1:0|2:0,2:0:0:0:
454,246,187041,2,0,L|402:237,1,31.9999980926514,0|0,2:0|2:0,2:0:0:0:
398,233,187191,6,0,P|372:193|386:139,1,95.9999942779542,8|8,1:0|1:0,2:0:0:0:
461,94,187564,1,0,2:0:0:0:
461,94,187638,2,0,P|453:58|441:-12,1,95.9999942779542,8|8,1:0|1:0,2:0:0:0:
272,0,188086,6,0,P|261:54|254:113,1,95.9999942779542,4|8,1:2|2:0,2:0:0:0:
139,152,188459,1,0,2:0:0:0:
139,152,188534,2,0,P|187:162|198:227,1,95.9999942779542,2|8,1:2|2:0,2:0:0:0:
16,109,188982,2,0,P|62:101|83:60,1,95.9999942779542,2|8,1:2|2:0,2:0:0:0:
120,252,189429,2,0,P|70:265|25:286,2,95.9999942779542,2|10|6,1:2|2:0|1:2,2:0:0:0:
229,339,190101,5,10,2:0:0:0:
309,237,190325,1,2,1:2:0:0:
434,315,190549,1,8,1:0:0:0:
504,267,190698,1,0,2:0:0:0:
503,266,190773,2,0,P|503:220|495:170,1,95.9999942779542,8|8,1:0|2:0,2:0:0:0:
383,128,191220,2,0,P|337:138|287:142,1,95.9999942779542,2|0,1:2|2:0,2:0:0:0:
170,153,191668,5,4,1:2:0:0:
222,63,191892,2,0,P|215:31|203:1,1,63.9999961853028,10|0,2:0|2:0,2:0:0:0:
186,0,192116,2,0,L|123:13,1,63.9999961853028,2|0,1:2|2:0,2:0:0:0:
105,35,192340,1,10,2:0:0:0:
0,0,192564,6,0,P|10:34|17:61,2,63.9999961853028,8|0|0,1:0|2:0|2:0,2:0:0:0:
85,185,193012,1,2,1:2:0:0:
269,142,193235,1,10,2:0:0:0:
181,238,193459,2,0,P|229:246|275:257,1,95.9999942779542,2|10,1:2|2:0,2:0:0:0:
334,319,193832,1,0,2:0:0:0:
335,318,193907,2,0,P|360:280|351:234,1,95.9999942779542,0|8,1:0|2:0,2:0:0:0:
499,125,194355,2,0,P|478:65|472:19,1,95.9999942779542,2|8,1:2|1:0,2:0:0:0:
389,5,194728,1,0,2:0:0:0:
381,12,194803,2,0,P|392:72|403:117,1,95.9999942779542,8|8,1:0|1:0,2:0:0:0:
461,261,195250,6,0,P|419:212|352:237,1,127.999992370606,6|0,1:2|2:0,2:0:0:0:
269,187,195698,2,0,L|294:290,1,95.9999942779542,2|8,1:2|2:0,2:0:0:0:
115,104,196146,2,0,L|89:213,2,95.9999942779542,2|10|2,1:2|2:0|1:2,2:0:0:0:
240,47,196818,1,8,2:0:0:0:
228,143,197041,5,4,1:2:0:0:
228,143,197265,2,0,P|236:179|241:211,1,63.9999961853028,10|0,2:0|2:0,2:0:0:0:
226,228,197489,2,0,L|214:292,1,63.9999961853028,2|0,1:2|2:0,2:0:0:0:
195,316,197713,1,10,2:0:0:0:
89,384,197937,2,0,P|49:365|-10:350,2,95.9999942779542,2|10|2,1:2|2:0|1:2,2:0:0:0:
113,294,198609,1,10,2:0:0:0:
45,234,198832,6,0,P|4:204|6:147,1,95.9999942779542,6|10,1:2|2:0,2:0:0:0:
83,158,199206,1,2,2:0:0:0:
83,158,199280,2,0,P|146:137|195:121,1,95.9999942779542,2|10,1:2|2:0,2:0:0:0:
256,17,199728,2,0,P|301:31|347:47,1,95.9999942779542,6|8,1:2|2:0,2:0:0:0:
405,115,200101,1,2,2:0:0:0:
405,115,200176,2,0,P|432:77|424:31,1,95.9999942779542,2|10,1:2|2:0,2:0:0:0:
276,156,200623,6,0,L|291:250,1,95.9999942779542,6|10,1:2|2:0,2:0:0:0:
358,316,200997,1,0,2:0:0:0:
362,324,201071,2,0,P|419:310|486:307,1,95.9999942779542,2|10,1:2|2:0,2:0:0:0:
277,375,201444,1,0,2:0:0:0:
273,367,201519,2,0,P|216:381|149:384,1,95.9999942779542,6|8,1:2|2:0,2:0:0:0:
210,278,201892,2,0,B|173:290|142:267|163:253|126:235|93:245,1,127.999992370606,0|10,2:0|2:0,2:0:0:0:
0,192,202415,6,0,P|8:271|13:351,1,159.999990463257,6|0,1:2|2:0,2:0:0:0:
26,380,202862,2,0,P|78:383|102:312,1,127.999992370606,2|0,1:2|2:0,2:0:0:0:
198,198,203310,2,0,P|187:140|164:81,2,95.9999942779542,2|10|2,1:2|2:0|1:2,2:0:0:0:
294,273,203982,1,8,2:0:0:0:
438,251,204206,5,4,1:2:0:0:
438,251,204429,2,0,P|455:226|452:194,1,63.9999961853028,10|0,2:0|2:0,2:0:0:0:
439,180,204653,2,0,L|372:168,1,63.9999961853028,2|0,1:2|2:0,2:0:0:0:
354,153,204877,1,10,2:0:0:0:
276,0,205101,6,0,P|267:47|259:117,2,95.9999942779542,2|10|2,1:2|2:0|1:2,2:0:0:0:
169,56,205698,1,0,2:0:0:0:
169,56,205773,1,10,2:0:0:0:
67,0,205997,2,0,P|60:47|51:96,1,95.9999942779542,6|8,1:2|2:0,2:0:0:0:
130,145,206370,1,2,2:0:0:0:
130,145,206444,2,0,P|119:192|112:239,1,95.9999942779542,0|8,1:0|2:0,2:0:0:0:
0,325,206892,6,0,P|47:332|93:345,1,95.9999942779542,6|8,1:2|2:0,2:0:0:0:
198,311,207265,1,2,2:0:0:0:
198,311,207340,2,0,P|245:318|291:331,1,95.9999942779542,2|10,1:2|2:0,2:0:0:0:
418,374,207788,6,0,P|456:350|453:293,1,95.9999942779542,4|8,1:2|2:0,2:0:0:0:
394,247,208161,1,2,2:0:0:0:
394,247,208235,2,0,P|358:234|346:182,1,95.9999942779542,2|8,1:2|1:2,2:0:0:0:
468,70,208683,6,0,P|462:115|421:135,1,95.9999942779542,6|8,1:2|2:0,2:0:0:0:
344,97,209056,1,2,2:0:0:0:
344,97,209131,2,0,P|352:53|361:-16,1,95.9999942779542,8|8,1:0|1:0,2:0:0:0:
238,129,209579,6,0,P|144:107|50:88,1,191.999988555908,6|2,1:2|1:2,2:0:0:0:
271,295,210474,2,0,P|365:314|458:335,1,191.999988555908,10|2,1:0|1:2,2:0:0:0:
151,384,211370,2,0,P|136:323|133:284,1,95.9999942779542,8|0,1:0|2:0,2:0:0:0:
210,248,211743,1,2,1:2:0:0:
210,248,211818,2,0,P|225:187|228:148,1,95.9999942779542,2|2,1:2|2:0,2:0:0:0:
101,88,212265,6,0,P|176:88|240:-4,1,191.999988555908,2|2,2:0|1:2,2:0:0:0:
404,0,212937,6,0,P|372:4|340:9,1,63.9999961853028,2|0,2:0|2:0,2:0:0:0:
313,23,213161,2,0,P|324:85|347:233,1,191.999988555908,2|0,1:2|2:0,2:0:0:0:
491,63,213832,2,0,P|459:67|427:72,1,63.9999961853028,8|0,1:0|2:0,2:0:0:0:
400,86,214056,2,0,P|411:148|434:296,1,191.999988555908,8|0,1:0|1:0,2:0:0:0:
315,139,214728,2,0,P|283:143|251:148,1,63.9999961853028,2|0,2:0|2:0,2:0:0:0:
224,162,214952,2,0,P|235:224|249:345,2,159.999990463257,2|0|0,1:2|2:0|2:0,2:0:0:0:
96,175,215847,6,0,P|103:129|113:77,1,95.9999942779542,8|2,1:0|2:0,2:0:0:0:
38,12,216295,1,2,1:2:0:0:
10,132,216519,1,2,2:0:0:0:
78,281,216743,6,0,P|146:262|281:246,2,191.999988555908,4|2|8,1:2|1:2|1:0,2:0:0:0:
189,376,218086,1,2,1:2:0:0:
282,338,218310,2,0,P|289:278|301:222,1,95.9999942779542,0|0,2:0|1:0,2:0:0:0:
362,108,218758,5,2,2:0:0:0:
237,176,218982,1,2,1:2:0:0:
382,250,219206,1,8,1:0:0:0:
491,184,219429,6,0,P|475:121|462:58,1,127.999992370606,10|0,1:2|2:0,2:0:0:0:
347,124,219877,2,0,P|331:61|318:-2,1,127.999992370606,8|0,1:0|2:0,2:0:0:0:
237,43,220325,5,2,1:2:0:0:
153,24,220549,1,2,2:0:0:0:
81,60,220773,1,2,1:2:0:0:
159,122,220997,5,2,2:0:0:0:
49,191,221220,1,2,1:2:0:0:
152,247,221444,1,2,2:0:0:0:
46,297,221594,1,0,2:0:0:0:
46,297,221668,2,0,P|39:327|29:361,1,63.9999961853028,2|0,1:2|2:0,2:0:0:0:
34,371,221892,2,0,P|90:383|117:391,1,63.9999961853028,8|0,1:0|2:0,2:0:0:0:
128,373,222116,5,8,1:0:0:0:
235,351,222340,2,0,L|255:273,1,63.9999961853028,2|0,2:0|2:0,2:0:0:0:
281,275,222564,2,0,L|267:167,1,95.9999942779542,2|8,1:2|1:0,2:0:0:0:
237,0,223012,5,8,1:0:0:0:
211,113,223235,2,0,B|261:108|232:77|304:69,2,95.9999942779542,2|2|2,2:0|2:0|2:0,2:0:0:0:
112,82,223907,1,4,1:0:0:0:
