osu file format v14

[General]
AudioFilename: audio.mp3
AudioLeadIn: 0
PreviewTime: 60709
Countdown: 1
SampleSet: Soft
StackLeniency: 0.7
Mode: 2
LetterboxInBreaks: 0
WidescreenStoryboard: 0

[Editor]
DistanceSpacing: 2.4
BeatDivisor: 4
GridSize: 16
TimelineZoom: 2.4

[Metadata]
Title:Shiroi Yuki no Princess wa
TitleUnicode:白い雪のプリンセスは
Artist:Kuripurin
ArtistUnicode:栗プリン
Creator:Hanik
Version:Kiss Me!
Source:
Tags:栗プリン Kuripurin 白い雪のプリンセスは Shiroi Yuki no Princess wa vocaloid snow white hatsune miku 初音ミク noboru のぼる
BeatmapID:1943381
BeatmapSetID:930593

[Difficulty]
HPDrainRate:6
CircleSize:4
OverallDifficulty:9.6
ApproachRate:9.6
SliderMultiplier:1.8
SliderTickRate:1

[Events]
//Background and Video events
0,0,"aaaaaaa.jpg",0,0
//Break Periods
//Storyboard Layer 0 (Background)
//Storyboard Layer 1 (Fail)
//Storyboard Layer 2 (Pass)
//Storyboard Layer 3 (Foreground)
//Storyboard Sound Samples

[TimingPoints]
858,300,4,2,0,70,1,0
6559,300,4,2,0,70,1,0
61759,-100,4,2,0,70,0,1
80959,-100,4,2,0,70,0,0
131359,-100,4,2,0,70,0,1
150559,-100,4,2,0,70,0,0
191209,-100,4,2,0,30,0,0
191509,-100,4,2,0,50,0,0
210709,-100,4,2,0,70,0,0
212959,-100,4,2,0,70,0,1
232159,-100,4,2,0,70,0,0

[HitObjects]
112,184,1758,5,0,0:0:0:0:
252,184,2058,2,0,L|148:184,1,90
292,184,2358,2,0,P|312:136|308:68,1,90,0|2,0:0|0:0,0:0:0:0:
172,96,2808,2,0,L|152:216,1,90
300,192,3258,6,0,L|404:192,1,90
260,196,3558,2,0,P|248:136|256:76,1,90,0|2,0:0|0:0,0:0:0:0:
120,116,4008,2,0,P|100:80|104:20,1,90
240,36,4458,2,0,L|360:36,1,90
200,84,4758,2,0,L|168:188,1,90,0|2,0:0|0:0,0:0:0:0:
316,176,5208,2,0,L|408:176,1,90
264,176,5658,6,0,L|152:176,1,90
44,180,5958,2,0,L|36:88,1,90,0|2,0:0|0:0,0:0:0:0:
164,80,6258,1,0,0:0:0:0:
228,80,6408,1,0,0:0:0:0:
444,84,6559,6,0,P|468:164|436:252,1,180,4|0,0:0|0:0,0:0:0:0:
144,128,7009,1,8,0:0:0:0:
276,124,7159,1,0,0:0:0:0:
312,168,7309,1,0,0:0:0:0:
300,224,7459,1,0,0:0:0:0:
256,248,7609,1,8,0:0:0:0:
40,248,7759,6,0,P|24:196|48:56,1,180,4|0,0:0|0:0,0:0:0:0:
140,72,8209,1,8,0:0:0:0:
268,72,8359,2,0,L|376:68,2,90
140,72,8809,1,8,0:0:0:0:
356,68,8959,6,0,L|388:256,1,180,4|0,0:0|0:0,0:0:0:0:
256,248,9409,1,8,0:0:0:0:
384,244,9559,2,0,L|408:152,1,90
280,160,9859,2,0,L|184:160,1,90,0|8,0:0|0:0,0:0:0:0:
408,156,10159,6,0,P|420:108|336:12,1,180,4|0,0:0|0:0,0:0:0:0:
216,20,10609,1,8,0:0:0:0:
344,13,10759,2,0,P|411:69|408:156,1,180,4|0,0:0|0:0,0:0:0:0:
280,160,11209,1,8,0:0:0:0:
64,168,11359,6,0,L|256:160,1,180,6|0,0:0|0:0,0:0:0:0:
116,168,11809,1,8,0:0:0:0:
244,160,11959,2,0,L|352:152,2,90
116,168,12409,1,8,0:0:0:0:
332,156,12559,6,0,L|420:332,1,180,4|0,0:0|0:0,0:0:0:0:
284,320,13009,1,8,0:0:0:0:
156,316,13159,2,0,P|144:272|164:192,1,90
276,216,13459,2,0,L|176:216,1,90,0|8,0:0|0:0,0:0:0:0:
404,212,13759,6,0,P|424:120|384:24,1,180,4|0,0:0|0:0,0:0:0:0:
268,40,14209,1,8,0:0:0:0:
140,36,14359,2,0,L|124:164,1,90
260,128,14659,1,0,0:0:0:0:
368,128,14809,1,8,0:0:0:0:
152,128,14959,6,0,P|56:128|168:128,1,180,4|0,0:0|0:0,0:0:0:0:
268,128,15409,1,10,0:0:0:0:
396,128,15559,2,0,P|492:128|380:128,1,180,4|0,0:0|0:0,0:0:0:0:
280,124,16009,1,10,0:0:0:0:
112,120,16159,6,0,P|112:160|152:312,1,180,4|0,0:0|0:0,0:0:0:0:
272,292,16609,1,4,0:0:0:0:
144,296,16759,2,0,L|136:192,1,90,4|8,0:0|0:0,0:0:0:0:
272,196,17059,1,12,0:0:0:0:
424,196,17209,1,12,0:0:0:0:
434,152,17284,1,8,0:0:0:0:
445,108,17359,1,8,0:0:0:0:
316,108,17509,5,12,0:0:0:0:
445,108,17659,1,12,0:0:0:0:
456,64,17734,1,8,0:0:0:0:
467,20,17809,1,8,0:0:0:0:
340,24,17959,2,0,L|240:32,1,90,8|4,0:0|0:0,0:0:0:0:
120,40,18259,1,0,0:0:0:0:
88,72,18334,1,8,0:0:0:0:
120,104,18409,1,8,0:0:0:0:
336,108,18559,5,2,0:0:0:0:
400,108,18709,1,4,0:0:0:0:
184,112,18859,1,2,0:0:0:0:
256,192,19759,5,4,0:0:0:0:
216,164,20059,1,8,0:0:0:0:
300,148,20209,1,10,0:0:0:0:
200,152,20359,1,8,0:0:0:0:
317,130,20509,1,10,0:0:0:0:
192,147,20659,1,8,0:0:0:0:
326,121,20809,1,8,0:0:0:0:
160,80,21109,6,0,L|64:80,1,90,4|0,0:0|0:0,0:0:0:0:
228,80,21409,1,8,0:0:0:0:
132,80,21559,2,0,L|12:80,2,90,0|4|0,0:0|0:0|0:0,0:0:0:0:
264,80,22009,1,8,0:0:0:0:
392,76,22159,6,0,L|284:76,2,90,0|4|0,0:0|0:0|0:0,0:0:0:0:
264,80,22609,2,8,L|48:80,1,180,8|4,0:0|0:0,0:0:0:0:
172,80,23059,2,0,L|176:180,1,90,0|8,0:0|0:0,0:0:0:0:
392,180,23359,6,0,L|412:368,1,180,4|0,0:0|0:0,0:0:0:0:
280,188,23809,2,0,L|292:300,1,90,8|0,0:0|0:0,0:0:0:0:
160,196,24109,1,4,0:0:0:0:
32,196,24259,2,0,L|44:92,1,90,0|8,0:0|0:0,0:0:0:0:
172,108,24559,6,0,L|76:108,2,90,0|4|0,0:0|0:0|0:0,0:0:0:0:
300,108,25009,1,8,0:0:0:0:
168,108,25159,2,0,P|152:184|172:308,1,180,4|0,0:0|0:0,0:0:0:0:
292,288,25609,1,8,0:0:0:0:
76,288,25759,6,0,P|64:200|81:112,1,180,4|0,0:0|0:0,0:0:0:0:
212,104,26209,1,8,0:0:0:0:
340,104,26359,2,0,L|452:104,1,90,0|4,0:0|0:0,0:0:0:0:
340,104,26659,1,4,0:0:0:0:
468,104,26809,1,8,0:0:0:0:
252,104,26959,6,0,P|240:176|292:292,1,180,4|0,0:0|0:0,0:0:0:0:
408,272,27409,1,12,0:0:0:0:
276,274,27559,2,0,L|215:206,2,90,0|0|4,0:0|0:0|0:0,0:0:0:0:
408,272,28009,1,8,0:0:0:0:
192,284,28159,6,0,P|128:232|200:168,1,180,4|0,0:0|0:0,0:0:0:0:
304,168,28609,1,12,0:0:0:0:
176,172,28759,2,0,L|60:160,1,90
216,152,29059,2,0,L|324:136,1,90,0|8,0:0|0:0,0:0:0:0:
436,140,29359,5,4,0:0:0:0:
216,152,29509,2,0,P|212:100|292:4,1,180,4|0,0:0|0:0,0:0:0:0:
421,8,29959,2,0,P|486:67|493:154,1,180,4|0,0:0|0:0,0:0:0:0:
275,161,30409,1,12,0:0:0:0:
408,160,30559,5,12,0:0:0:0:
356,160,30634,1,8,0:0:0:0:
304,160,30709,1,8,0:0:0:0:
424,108,30859,1,0,0:0:0:0:
276,108,31009,1,8,0:0:0:0:
144,108,31159,2,0,P|124:64|132:0,1,90,0|4,0:0|0:0,0:0:0:0:
256,16,31459,1,0,0:0:0:0:
124,24,31609,1,8,0:0:0:0:
256,16,31759,6,0,L|280:144,1,90,0|4,0:0|0:0,0:0:0:0:
140,120,32059,2,0,L|116:232,1,90,0|8,0:0|0:0,0:0:0:0:
256,212,32359,2,0,L|364:212,1,90,4|0,0:0|0:0,0:0:0:0:
112,212,32659,2,0,L|-16:212,1,90,4|8,0:0|0:0,0:0:0:0:
236,212,32959,6,0,L|60:136,1,180,4|0,0:0|0:0,0:0:0:0:
208,128,33409,1,8,0:0:0:0:
340,128,33559,2,0,L|364:32,1,90,0|4,0:0|0:0,0:0:0:0:
232,36,33859,1,0,0:0:0:0:
104,36,34009,1,8,0:0:0:0:
236,44,34159,6,0,L|120:44,2,90,0|4|0,0:0|0:0|0:0,0:0:0:0:
368,48,34609,1,8,0:0:0:0:
236,136,34759,2,0,L|128:136,1,90,4|0,0:0|0:0,0:0:0:0:
360,136,35059,2,0,L|480:136,1,90,4|8,0:0|0:0,0:0:0:0:
236,136,35359,6,0,L|456:136,1,180,4|0,0:0|0:0,0:0:0:0:
284,136,35809,1,8,0:0:0:0:
152,132,35959,2,0,L|56:132,2,90,0|4|0,0:0|0:0|0:0,0:0:0:0:
284,136,36409,1,8,0:0:0:0:
68,132,36559,6,0,P|76:76|200:96,1,180,4|0,0:0|0:0,0:0:0:0:
316,68,37009,2,0,L|420:64,2,90,8|0|4,0:0|0:0|0:0,0:0:0:0:
184,72,37459,2,0,L|80:72,1,90,0|8,0:0|0:0,0:0:0:0:
304,120,37759,6,0,L|420:144,1,90,4|8,0:0|0:0,0:0:0:0:
260,192,38059,2,0,L|156:204,2,90,4|8|0,0:0|0:0|0:0,0:0:0:0:
392,192,38509,1,12,0:0:0:0:
260,140,38659,2,8,L|156:132,2,90,0|8|12,0:0|0:0|0:0,0:0:0:0:
384,144,39109,6,0,L|432:32,1,90,12|0,0:0|0:0,0:0:0:0:
288,48,39409,2,0,L|172:48,1,90,12|0,0:0|0:0,0:0:0:0:
64,48,39709,2,0,L|192:48,1,90,8|0,0:0|0:0,0:0:0:0:
288,48,40009,1,12,0:0:0:0:
160,48,40159,1,8,0:0:0:0:
376,44,40309,6,0,L|496:48,1,90,12|0,0:0|0:0,0:0:0:0:
160,140,40609,2,0,L|40:168,1,90,8|0,0:0|0:0,0:0:0:0:
412,212,40909,2,0,L|504:260,1,90,8|0,0:0|0:0,0:0:0:0:
48,236,41209,2,0,L|28:348,1,90,8|8,0:0|0:0,0:0:0:0:
336,264,41509,2,0,L|440:264,1,90,6|0,0:0|0:0,0:0:0:0:
336,264,41809,2,0,L|440:264,1,90,6|0,0:0|0:0,0:0:0:0:
336,264,42109,2,0,L|440:264,1,90,6|0,0:0|0:0,0:0:0:0:
336,264,42409,2,0,L|440:264,1,90,6|0,0:0|0:0,0:0:0:0:
212,264,42709,6,0,L|108:264,1,90,4|0,0:0|0:0,0:0:0:0:
256,196,43009,1,0,0:0:0:0:
388,196,43159,2,0,P|412:144|384:20,1,180,4|8,0:0|0:0,0:0:0:0:
256,28,43609,1,0,0:0:0:0:
128,32,43759,6,0,L|228:32,2,90,0|12|0,0:0|0:0|0:0,0:0:0:0:
260,112,44209,1,0,0:0:0:0:
128,108,44359,2,0,L|88:296,1,180,12|8,0:0|0:0,0:0:0:0:
216,200,44809,1,8,0:0:0:0:
112,200,44959,5,8,0:0:0:0:
328,192,45109,1,4,0:0:0:0:
197,198,45259,2,0,L|85:194,1,90
240,128,45559,2,0,L|424:124,1,180,12|8,0:0|0:0,0:0:0:0:
328,120,46009,1,0,0:0:0:0:
196,140,46159,5,0,0:0:0:0:
414,215,46309,2,0,L|298:215,1,90,12|0,0:0|0:0,0:0:0:0:
192,215,46609,1,0,0:0:0:0:
414,215,46759,1,8,0:0:0:0:
288,208,46909,1,0,0:0:0:0:
151,210,47059,2,0,L|135:106,1,90,0|8,0:0|0:0,0:0:0:0:
353,126,47359,5,0,0:0:0:0:
260,120,47509,2,0,L|444:132,1,180,12|0,0:0|0:0,0:0:0:0:
308,124,47959,2,0,L|180:120,2,90,8|0|0,0:0|0:0|0:0,0:0:0:0:
440,128,48409,1,8,0:0:0:0:
308,124,48559,5,0,0:0:0:0:
440,128,48709,2,0,P|440:216|424:320,1,180,12|0,0:0|0:0,0:0:0:0:
292,308,49159,1,8,0:0:0:0:
424,304,49309,2,0,L|448:212,1,90
316,208,49609,1,8,0:0:0:0:
184,160,49759,5,0,0:0:0:0:
400,144,49909,1,8,0:0:0:0:
184,128,50059,1,0,0:0:0:0:
316,124,50209,2,0,L|328:252,1,90,0|8,0:0|0:0,0:0:0:0:
456,220,50509,1,0,0:0:0:0:
324,216,50659,2,0,L|208:216,1,90,0|8,0:0|0:0,0:0:0:0:
100,220,50959,5,0,0:0:0:0:
368,176,51109,2,0,L|244:168,1,90,12|0,0:0|0:0,0:0:0:0:
64,152,51409,2,0,L|172:120,1,90,12|0,0:0|0:0,0:0:0:0:
368,104,51709,2,0,L|272:64,1,90,12|0,0:0|0:0,0:0:0:0:
8,96,52009,2,0,L|120:52,1,90,12|0,0:0|0:0,0:0:0:0:
424,88,52309,6,0,L|300:48,1,90,12|0,0:0|0:0,0:0:0:0:
204,64,52609,1,8,0:0:0:0:
336,64,52759,2,0,P|368:140|360:256,1,180,4|0,0:0|0:0,0:0:0:0:
232,240,53209,1,8,0:0:0:0:
364,236,53359,5,0,0:0:0:0:
232,240,53509,2,0,P|172:188|256:152,1,180,4|8,0:0|0:0,0:0:0:0:
368,140,53959,2,0,L|476:136,2,90,8|0|0,0:0|0:0|0:0,0:0:0:0:
236,144,54409,1,8,0:0:0:0:
104,156,54559,5,0,0:0:0:0:
320,144,54709,1,8,0:0:0:0:
188,148,54859,2,0,L|96:148,1,90,0|8,0:0|0:0,0:0:0:0:
232,88,55159,2,0,L|328:92,2,90,8|0|0,0:0|0:0|0:0,0:0:0:0:
100,88,55609,1,8,0:0:0:0:
232,88,55759,5,0,0:0:0:0:
16,80,55909,2,0,L|20:272,1,180,4|8,0:0|0:0,0:0:0:0:
148,252,56359,2,0,L|32:256,1,90
192,188,56659,2,0,L|304:184,1,90,0|8,0:0|0:0,0:0:0:0:
416,184,56959,5,0,0:0:0:0:
284,184,57109,2,0,L|104:180,1,180,4|8,0:0|0:0,0:0:0:0:
236,136,57559,1,8,0:0:0:0:
104,132,57709,1,0,0:0:0:0:
236,136,57859,2,0,L|352:136,1,90,0|8,0:0|0:0,0:0:0:0:
116,88,58159,5,4,0:0:0:0:
332,72,58309,1,8,0:0:0:0:
200,72,58459,1,8,0:0:0:0:
332,72,58609,1,8,0:0:0:0:
400,128,58759,1,12,0:0:0:0:
400,216,58909,1,12,0:0:0:0:
340,268,59059,1,12,0:0:0:0:
208,268,59209,1,12,0:0:0:0:
340,268,59359,5,12,0:0:0:0:
256,272,59509,2,0,L|376:272,1,90,12|0,0:0|0:0,0:0:0:0:
480,268,59809,2,0,L|488:156,1,90,12|0,0:0|0:0,0:0:0:0:
272,160,60109,1,12,0:0:0:0:
340,156,60259,2,0,L|448:152,2,90,4|0|0,0:0|0:0|0:0,0:0:0:0:
124,140,60709,6,0,L|8:140,1,90,4|0,0:0|0:0,0:0:0:0:
380,132,61009,2,0,L|380:12,1,90,4|0,0:0|0:0,0:0:0:0:
96,88,61309,2,0,L|0:88,1,90,4|0,0:0|0:0,0:0:0:0:
316,132,61609,2,0,L|316:24,1,90,4|0,0:0|0:0,0:0:0:0:
100,36,61909,6,0,P|44:44|92:144,1,180,4|8,0:0|0:0,0:0:0:0:
192,140,62359,1,0,0:0:0:0:
59,142,62509,1,0,0:0:0:0:
192,140,62659,1,0,0:0:0:0:
324,140,62809,1,8,0:0:0:0:
48,144,62959,5,0,0:0:0:0:
108,144,63109,2,0,L|72:248,1,90
296,244,63409,2,0,L|424:244,1,90,8|0,0:0|0:0,0:0:0:0:
172,244,63709,2,0,L|44:248,1,90
336,244,64009,2,0,L|232:244,1,90,8|0,0:0|0:0,0:0:0:0:
32,244,64309,6,0,L|152:244,1,90,12|0,0:0|0:0,0:0:0:0:
376,244,64609,2,0,L|488:248,1,90,12|0,0:0|0:0,0:0:0:0:
332,240,64909,1,12,0:0:0:0:
464,240,65059,1,0,0:0:0:0:
332,240,65209,1,12,0:0:0:0:
116,240,65359,5,8,0:0:0:0:
20,236,65509,2,0,L|224:240,1,180,4|8,0:0|0:0,0:0:0:0:
416,240,65959,1,0,0:0:0:0:
332,240,66109,2,0,L|216:236,1,90,4|0,0:0|0:0,0:0:0:0:
108,232,66409,2,0,L|76:136,1,90,12|0,0:0|0:0,0:0:0:0:
296,124,66709,6,0,P|368:128|324:200,1,180,4|8,0:0|0:0,0:0:0:0:
200,208,67159,2,0,L|304:208,1,90,0|4,0:0|0:0,0:0:0:0:
156,140,67459,2,0,L|60:136,1,90,0|8,0:0|0:0,0:0:0:0:
200,128,67759,5,0,0:0:0:0:
416,128,67909,1,4,0:0:0:0:
320,128,68059,1,0,0:0:0:0:
224,128,68209,1,8,0:0:0:0:
448,128,68359,2,0,L|264:124,1,180,4|0,0:0|0:0,0:0:0:0:
136,124,68809,1,8,0:0:0:0:
268,124,68959,6,0,L|168:120,1,90,8|12,0:0|0:0,0:0:0:0:
396,124,69259,1,8,0:0:0:0:
328,124,69409,2,0,L|284:224,1,90,8|12,0:0|0:0,0:0:0:0:
120,208,69859,5,6,0:0:0:0:
356,208,70159,2,0,B|163:158|163:158|192:88,1,270,4|0,0:0|0:0,0:0:0:0:
56,128,70759,5,12,0:0:0:0:
188,128,70834,1,8,0:0:0:0:
320,128,70909,1,8,0:0:0:0:
56,128,71059,1,12,0:0:0:0:
188,128,71134,1,8,0:0:0:0:
320,128,71209,1,8,0:0:0:0:
56,52,71359,5,8,0:0:0:0:
188,48,71509,2,0,P|232:56|160:108,1,180,4|8,0:0|0:0,0:0:0:0:
416,148,71959,2,0,L|432:268,1,90,0|4,0:0|0:0,0:0:0:0:
296,240,72259,2,0,L|184:240,1,90,0|8,0:0|0:0,0:0:0:0:
76,228,72559,2,0,L|176:232,2,90,0|4|0,0:0|0:0|0:0,0:0:0:0:
288,188,73009,2,0,L|416:184,1,90,8|0,0:0|0:0,0:0:0:0:
164,144,73309,2,0,L|36:132,1,90,4|0,0:0|0:0,0:0:0:0:
332,128,73609,2,0,L|456:120,1,90,8|0,0:0|0:0,0:0:0:0:
124,72,73909,6,0,P|72:80|140:140,1,180,4|8,0:0|0:0,0:0:0:0:
252,156,74359,1,0,0:0:0:0:
120,156,74509,2,0,L|244:156,1,90,4|0,0:0|0:0,0:0:0:0:
344,156,74809,1,8,0:0:0:0:
128,156,74959,6,0,L|316:156,1,180,4|0,0:0|0:0,0:0:0:0:
176,156,75409,1,8,0:0:0:0:
44,156,75559,1,0,0:0:0:0:
176,156,75709,2,0,L|200:56,1,90,4|0,0:0|0:0,0:0:0:0:
328,68,76009,2,0,L|432:64,1,90,12|0,0:0|0:0,0:0:0:0:
200,68,76309,6,0,L|16:64,1,180,4|8,0:0|0:0,0:0:0:0:
152,64,76759,1,0,0:0:0:0:
284,68,76909,1,4,0:0:0:0:
152,64,77059,2,0,L|120:156,1,90,0|8,0:0|0:0,0:0:0:0:
340,160,77359,1,0,0:0:0:0:
280,156,77509,2,0,P|204:204|248:268,1,180,4|8,0:0|0:0,0:0:0:0:
456,268,77959,1,0,0:0:0:0:
324,272,78109,2,0,L|272:176,1,90,4|0,0:0|0:0,0:0:0:0:
412,192,78409,2,8,L|472:192,1,45
204,112,78559,6,8,L|132:108,1,45
420,88,78709,2,0,P|452:124|376:224,1,180,12|8,0:0|0:0,0:0:0:0:
172,224,79159,1,4,0:0:0:0:
264,224,79309,2,0,L|364:224,1,90
220,152,79609,2,0,L|112:144,1,90,8|0,0:0|0:0,0:0:0:0:
348,156,79909,6,0,L|480:156,1,90,12|0,0:0|0:0,0:0:0:0:
192,152,80209,2,0,L|168:276,1,90,8|0,0:0|0:0,0:0:0:0:
392,220,80509,2,0,L|488:220,1,90,12|0,0:0|0:0,0:0:0:0:
176,208,80809,1,8,0:0:0:0:
484,152,80959,6,0,L|281:161,1,180,4|0,0:0|0:0,0:0:0:0:
174,167,81409,1,8,0:0:0:0:
304,160,81559,2,0,L|208:160,2,90
436,160,82009,1,8,0:0:0:0:
304,160,82159,6,0,L|264:60,1,90,4|0,0:0|0:0,0:0:0:0:
140,72,82459,2,0,L|36:68,2,90,0|8|0,0:0|0:0|0:0,0:0:0:0:
272,88,82909,2,0,L|336:168,1,90
196,164,83209,1,8,0:0:0:0:
328,160,83359,6,0,P|368:192|308:284,1,180,4|0,0:0|0:0,0:0:0:0:
180,284,83809,1,8,0:0:0:0:
312,280,83959,2,0,L|444:280,2,90
180,284,84409,1,8,0:0:0:0:
48,284,84559,6,0,L|32:176,1,90,4|0,0:0|0:0,0:0:0:0:
168,184,84859,2,0,L|64:184,2,90,0|8|8,0:0|0:0|0:0,0:0:0:0:
300,184,85309,1,8,0:0:0:0:
168,180,85459,2,0,L|124:80,1,90,8|8,0:0|0:0,0:0:0:0:
348,84,85759,6,0,P|420:120|340:144,1,180,4|0,0:0|0:0,0:0:0:0:
232,160,86209,1,8,0:0:0:0:
364,160,86359,2,0,L|380:260,1,90
248,264,86659,1,0,0:0:0:0:
380,264,86809,1,8,0:0:0:0:
164,268,86959,6,0,L|360:264,1,180,4|0,0:0|0:0,0:0:0:0:
212,268,87409,1,8,0:0:0:0:
344,264,87559,1,0,0:0:0:0:
212,204,87709,2,0,L|100:208,1,90
256,124,88009,2,0,L|380:116,1,90,8|0,0:0|0:0,0:0:0:0:
480,112,88309,6,8,L|504:52,1,45,8|0,0:0|0:0,0:0:0:0:
160,96,88759,6,8,L|164:24,1,45,8|0,0:0|0:0,0:0:0:0:
424,100,89209,6,8,L|456:44,1,45,8|0,0:0|0:0,0:0:0:0:
196,104,89659,6,8,L|128:100,1,45,8|0,0:0|0:0,0:0:0:0:
372,108,89959,2,0,L|428:52,2,45,4|8|4,0:0|0:0|0:0,0:0:0:0:
240,112,90259,1,4,0:0:0:0:
72,216,90709,6,0,L|56:104,1,90,4|0,0:0|0:0,0:0:0:0:
192,116,91009,2,0,L|304:116,1,90,8|0,0:0|0:0,0:0:0:0:
416,116,91309,1,4,0:0:0:0:
284,116,91459,2,0,L|276:232,1,90,0|8,0:0|0:0,0:0:0:0:
148,204,91759,6,0,L|252:204,2,90
16,200,92209,1,8,0:0:0:0:
148,200,92359,2,0,L|336:196,1,180,4|0,0:0|0:0,0:0:0:0:
196,200,92809,1,8,0:0:0:0:
404,140,92959,6,0,L|224:120,1,180,4|0,0:0|0:0,0:0:0:0:
92,116,93409,2,0,L|204:88,1,90,8|0,0:0|0:0,0:0:0:0:
312,80,93709,1,4,0:0:0:0:
180,76,93859,2,0,L|76:72,1,90,0|8,0:0|0:0,0:0:0:0:
312,80,94159,6,0,L|444:72,2,90,4|0|4,0:0|0:0|0:0,0:0:0:0:
180,84,94609,1,8,0:0:0:0:
48,88,94759,2,0,L|236:80,1,180,4|0,0:0|0:0,0:0:0:0:
360,76,95209,1,8,0:0:0:0:
144,76,95359,6,0,P|84:88|160:112,1,180,4|0,0:0|0:0,0:0:0:0:
276,144,95809,2,0,L|152:144,1,90,8|4,0:0|0:0,0:0:0:0:
316,144,96109,1,0,0:0:0:0:
448,144,96259,2,0,L|472:40,1,90,4|8,0:0|0:0,0:0:0:0:
252,80,96559,6,0,P|192:92|268:116,1,180,4|0,0:0|0:0,0:0:0:0:
384,144,97009,1,12,0:0:0:0:
252,144,97159,1,0,0:0:0:0:
384,144,97309,2,0,L|352:240,1,90,0|4,0:0|0:0,0:0:0:0:
224,232,97609,1,8,0:0:0:0:
440,236,97759,6,0,P|480:184|400:184,1,180,4|4,0:0|0:0,0:0:0:0:
268,188,98209,1,8,0:0:0:0:
132,192,98359,1,12,0:0:0:0:
177,192,98434,1,8,0:0:0:0:
222,192,98509,1,8,0:0:0:0:
356,188,98659,1,8,0:0:0:0:
222,192,98809,1,8,0:0:0:0:
436,188,98959,5,0,0:0:0:0:
304,188,99109,2,0,L|96:192,1,180,4|0,0:0|0:0,0:0:0:0:
252,192,99559,2,0,L|460:196,1,180,4|0,0:0|0:0,0:0:0:0:
176,104,100309,6,0,L|280:104,2,90,4|0|8,0:0|0:0|0:0,0:0:0:0:
48,104,100759,2,0,L|152:104,2,90,0|4|0,0:0|0:0|0:0,0:0:0:0:
180,104,101209,1,8,0:0:0:0:
312,104,101359,6,0,L|216:104,1,90,0|4,0:0|0:0,0:0:0:0:
88,104,101659,1,0,0:0:0:0:
220,104,101809,1,8,0:0:0:0:
352,104,101959,2,0,L|380:228,1,90,4|0,0:0|0:0,0:0:0:0:
240,192,102259,2,0,L|112:192,1,90,4|8,0:0|0:0,0:0:0:0:
364,192,102559,6,0,L|148:192,1,180,4|0,0:0|0:0,0:0:0:0:
316,192,103009,1,12,0:0:0:0:
444,192,103159,2,0,L|464:96,1,90,0|4,0:0|0:0,0:0:0:0:
328,92,103459,2,0,L|424:88,2,90,0|8|0,0:0|0:0|0:0,0:0:0:0:
112,108,103909,6,0,L|212:112,1,90,4|0,0:0|0:0,0:0:0:0:
336,116,104209,1,8,0:0:0:0:
208,112,104359,2,0,P|151:106|176:216,1,180,4|4,0:0|0:0,0:0:0:0:
276,216,104809,1,8,0:0:0:0:
492,216,104959,6,0,L|304:212,1,180,4|4,0:0|0:0,0:0:0:0:
180,220,105409,2,0,L|152:132,1,90,8|0,0:0|0:0,0:0:0:0:
284,128,105709,2,0,L|384:128,2,90,4|0|8,0:0|0:0|0:0,0:0:0:0:
68,132,106159,6,0,L|264:120,1,180,4|4,0:0|0:0,0:0:0:0:
115,120,106609,1,8,0:0:0:0:
248,120,106759,1,0,0:0:0:0:
380,120,106909,2,0,P|396:176|364:224,1,90,4|0,0:0|0:0,0:0:0:0:
252,212,107209,1,8,0:0:0:0:
112,224,107359,2,0,P|80:192|144:96,1,180,4|0,0:0|0:0,0:0:0:0:
400,96,107809,2,0,L|310:96,1,90,8|4,0:0|0:0,0:0:0:0:
176,96,108109,2,0,L|147:181,1,90
368,192,108409,1,8,0:0:0:0:
272,192,108559,5,0,0:0:0:0:
64,192,108709,2,0,P|32:96|112:48,1,180,4|8,0:0|0:0,0:0:0:0:
224,48,109159,2,0,L|320:48,2,90,4|0|4,0:0|0:0|0:0,0:0:0:0:
96,48,109609,1,8,0:0:0:0:
224,48,109759,1,0,0:0:0:0:
0,48,109909,2,0,L|112:224,1,180,4|8,0:0|0:0,0:0:0:0:
336,96,110359,1,4,0:0:0:0:
400,112,110509,2,0,L|375:198,1,90,0|4,0:0|0:0,0:0:0:0:
160,208,110809,6,0,L|250:208,1,90,8|0,0:0|0:0,0:0:0:0:
16,96,111109,2,0,L|112:96,1,90,12|0,0:0|0:0,0:0:0:0:
336,112,111409,2,0,L|448:112,1,90,12|0,0:0|0:0,0:0:0:0:
96,224,111709,2,0,L|208:224,1,90,12|0,0:0|0:0,0:0:0:0:
480,224,112009,2,0,L|384:224,1,90,12|0,0:0|0:0,0:0:0:0:
96,224,112309,6,0,P|48:176|112:96,1,180,4|8,0:0|0:0,0:0:0:0:
240,96,112759,2,0,L|336:96,2,90,0|0|4,0:0|0:0|0:0,0:0:0:0:
112,96,113209,1,8,0:0:0:0:
320,96,113359,1,0,0:0:0:0:
224,96,113509,2,0,P|208:192|272:192,1,180,4|8,0:0|0:0,0:0:0:0:
400,192,113959,2,0,L|288:192,1,90
96,192,114259,2,0,L|224:192,2,90,4|8|0,0:0|0:0|0:0,0:0:0:0:
352,192,114709,2,0,L|144:192,1,180,4|8,0:0|0:0,0:0:0:0:
48,192,115159,1,4,0:0:0:0:
256,192,115309,6,0,L|256:80,1,90
128,96,115609,2,0,L|32:96,1,90,8|0,0:0|0:0,0:0:0:0:
256,96,115909,2,0,L|144:96,1,90,4|0,0:0|0:0,0:0:0:0:
384,96,116209,2,0,L|496:96,2,90,8|0|0,0:0|0:0|0:0,0:0:0:0:
240,112,116659,2,0,L|208:224,1,90,4|8,0:0|0:0,0:0:0:0:
432,208,116959,1,0,0:0:0:0:
224,208,117109,2,0,P|176:160|240:64,1,180,4|8,0:0|0:0,0:0:0:0:
320,64,117559,2,0,L|432:64,2,90
192,64,118009,1,8,0:0:0:0:
400,64,118159,5,0,0:0:0:0:
192,64,118309,2,0,P|144:96|208:192,1,180,4|8,0:0|0:0,0:0:0:0:
400,192,118759,1,4,0:0:0:0:
147,106,118910,2,0,L|176:192,1,90,0|4,0:0|0:0,0:0:0:0:
310,192,119209,2,0,L|400:192,1,90,8|0,0:0|0:0,0:0:0:0:
144,96,119509,2,0,L|352:96,1,180,4|8,0:0|0:0,0:0:0:0:
112,96,119959,1,4,0:0:0:0:
240,96,120109,2,0,L|256:208,1,90
384,192,120409,1,8,0:0:0:0:
80,192,120559,5,0,0:0:0:0:
176,192,120709,2,0,L|64:144,1,90,12|0,0:0|0:0,0:0:0:0:
368,128,121009,2,0,L|480:96,1,90,12|0,0:0|0:0,0:0:0:0:
48,192,121309,2,0,L|48:80,1,90,12|0,0:0|0:0,0:0:0:0:
480,208,121609,2,0,L|480:80,1,90,12|0,0:0|0:0,0:0:0:0:
48,80,121909,6,0,L|240:80,1,180,4|8,0:0|0:0,0:0:0:0:
368,80,122359,2,0,L|480:80,2,90,0|0|4,0:0|0:0|0:0,0:0:0:0:
240,80,122809,1,8,0:0:0:0:
464,80,122959,5,0,0:0:0:0:
192,80,123109,2,0,P|176:160|192:256,1,180,4|8,0:0|0:0,0:0:0:0:
448,160,123559,1,0,0:0:0:0:
167,169,123709,2,0,L|192:256,1,90,0|4,0:0|0:0,0:0:0:0:
326,256,124009,2,0,L|416:256,1,90,8|0,0:0|0:0,0:0:0:0:
240,160,124309,6,0,L|48:160,1,180,4|8,0:0|0:0,0:0:0:0:
192,160,124759,1,4,0:0:0:0:
288,160,124909,2,0,L|320:64,1,90,0|4,0:0|0:0,0:0:0:0:
96,64,125209,2,0,L|208:64,1,90,8|0,0:0|0:0,0:0:0:0:
400,64,125509,6,0,L|404:256,1,180,4|8,0:0|0:0,0:0:0:0:
272,240,125959,2,0,L|176:240,2,90,4|0|0,0:0|0:0|0:0,0:0:0:0:
400,240,126409,2,0,L|512:240,1,90,8|0,0:0|0:0,0:0:0:0:
192,240,126709,6,0,P|128:192|192:112,1,180,4|8,0:0|0:0,0:0:0:0:
288,112,127159,1,4,0:0:0:0:
416,112,127309,2,0,L|320:112,1,90
112,112,127609,2,0,L|240:112,1,90,8|0,0:0|0:0,0:0:0:0:
464,176,127909,2,0,L|352:176,1,90,4|0,0:0|0:0,0:0:0:0:
48,192,128209,5,8,0:0:0:0:
64,96,128359,1,8,0:0:0:0:
144,32,128509,1,8,0:0:0:0:
240,32,128659,1,12,0:0:0:0:
448,32,128809,1,12,0:0:0:0:
240,32,128959,1,12,0:0:0:0:
448,32,129109,2,0,P|464:112|448:224,1,180,4|8,0:0|0:0,0:0:0:0:
176,64,129709,2,0,P|176:144|208:272,1,180,4|8,0:0|0:0,0:0:0:0:
416,240,130159,5,8,0:0:0:0:
208,240,130309,2,0,L|80:240,1,90,12|0,0:0|0:0,0:0:0:0:
480,144,130609,2,0,L|368:144,1,90,12|0,0:0|0:0,0:0:0:0:
32,144,130909,2,0,L|128:144,1,90,12|0,0:0|0:0,0:0:0:0:
384,64,131209,2,0,L|480:64,1,90,12|0,0:0|0:0,0:0:0:0:
128,64,131509,2,0,P|80:96|144:192,1,180,4|8,0:0|0:0,0:0:0:0:
256,192,131959,1,0,0:0:0:0:
480,192,132109,2,0,L|368:192,1,90
176,192,132409,6,0,L|144:96,1,90,8|0,0:0|0:0,0:0:0:0:
368,96,132709,2,0,L|464:96,1,90
240,96,133009,2,0,L|192:0,1,90,8|0,0:0|0:0,0:0:0:0:
416,32,133309,1,0,0:0:0:0:
288,32,133459,1,0,0:0:0:0:
416,96,133609,1,8,0:0:0:0:
288,96,133759,1,0,0:0:0:0:
80,96,133909,6,0,L|176:96,1,90,4|0,0:0|0:0,0:0:0:0:
384,144,134209,2,0,L|272:144,1,90,12|0,0:0|0:0,0:0:0:0:
48,208,134509,2,0,L|48:304,1,90,4|0,0:0|0:0,0:0:0:0:
464,208,134809,2,0,L|464:304,1,90,12|0,0:0|0:0,0:0:0:0:
48,208,135109,2,0,L|240:208,1,180,4|8,0:0|0:0,0:0:0:0:
16,208,135559,1,0,0:0:0:0:
352,208,135709,2,0,L|240:208,1,90,4|0,0:0|0:0,0:0:0:0:
480,208,136009,2,0,L|384:208,1,90,12|0,0:0|0:0,0:0:0:0:
176,208,136309,6,0,P|112:160|176:128,1,180,4|8,0:0|0:0,0:0:0:0:
384,128,136759,2,0,L|272:128,2,90
176,128,137209,1,8,0:0:0:0:
384,128,137359,2,0,P|448:176|384:240,1,180,4|0,0:0|0:0,0:0:0:0:
176,240,137809,2,0,L|288:240,1,90,8|0,0:0|0:0,0:0:0:0:
48,240,138109,2,0,L|32:144,1,90,4|0,0:0|0:0,0:0:0:0:
160,144,138409,2,0,L|272:144,1,90,8|8,0:0|0:0,0:0:0:0:
32,160,138709,6,8,L|16:64,1,90,12|8,0:0|0:0,0:0:0:0:
256,64,139009,1,12,0:0:0:0:
48,64,139159,1,8,0:0:0:0:
160,64,139459,1,12,0:0:0:0:
272,64,139759,6,8,P|384:96|336:224,1,270,12|8,0:0|0:0,0:0:0:0:
112,224,140359,1,12,0:0:0:0:
64,208,140434,2,8,L|48:160,1,45
304,192,140659,1,12,0:0:0:0:
352,176,140734,2,8,L|368:128,1,45
64,208,140959,5,8,0:0:0:0:
272,208,141109,2,0,P|304:160|208:80,1,180,4|8,0:0|0:0,0:0:0:0:
16,80,141559,2,0,L|128:80,1,90,0|4,0:0|0:0,0:0:0:0:
240,80,141859,1,0,0:0:0:0:
112,80,142009,2,0,L|80:176,1,90,8|0,0:0|0:0,0:0:0:0:
304,176,142309,6,0,L|336:272,1,90,12|0,0:0|0:0,0:0:0:0:
112,256,142609,2,0,L|240:256,1,90,4|0,0:0|0:0,0:0:0:0:
416,256,142909,2,0,L|448:144,1,90,12|0,0:0|0:0,0:0:0:0:
224,160,143209,2,0,L|96:160,1,90,4|0,0:0|0:0,0:0:0:0:
352,160,143509,2,0,P|400:128|320:64,1,180,4|8,0:0|0:0,0:0:0:0:
112,48,143959,2,0,L|16:48,1,90,0|4,0:0|0:0,0:0:0:0:
240,48,144259,2,0,L|336:48,1,90,0|12,0:0|0:0,0:0:0:0:
96,48,144559,6,0,P|80:160|96:240,1,180,4|0,0:0|0:0,0:0:0:0:
304,224,145009,2,0,L|416:224,1,90,8|0,0:0|0:0,0:0:0:0:
176,224,145309,2,0,L|128:128,1,90,4|0,0:0|0:0,0:0:0:0:
368,112,145609,2,0,L|272:112,1,90,8|0,0:0|0:0,0:0:0:0:
64,112,145909,2,0,L|272:112,1,180,4|8,0:0|0:0,0:0:0:0:
464,112,146359,1,0,0:0:0:0:
336,112,146509,2,0,P|320:160|352:176,1,90,4|0,0:0|0:0,0:0:0:0:
128,176,146809,2,0,L|224:176,1,90,8|0,0:0|0:0,0:0:0:0:
432,176,147109,6,0,P|464:128|384:64,1,180,4|8,0:0|0:0,0:0:0:0:
160,64,147559,1,0,0:0:0:0:
288,64,147709,2,0,L|272:176,1,90,4|0,0:0|0:0,0:0:0:0:
64,192,148009,2,8,L|0:224,1,45
416,144,148159,2,8,L|352:176,1,45
112,240,148309,2,0,P|16:240|128:240,1,180,12|8,0:0|0:0,0:0:0:0:
400,240,148759,2,0,P|496:240|384:240,1,180,4|0,0:0|0:0,0:0:0:0:
192,240,149209,6,0,L|304:240,1,90,12|0,0:0|0:0,0:0:0:0:
64,240,149509,2,0,L|32:144,1,90,12|0,0:0|0:0,0:0:0:0:
256,160,149809,2,0,L|288:48,1,90,12|0,0:0|0:0,0:0:0:0:
64,64,150109,2,0,L|16:176,1,90,12|0,0:0|0:0,0:0:0:0:
240,160,150409,1,8,0:0:0:0:
112,160,150559,2,0,P|96:112|208:64,1,180,4|0,0:0|0:0,0:0:0:0:
336,48,151009,2,0,L|448:64,2,90,12|0|0,0:0|0:0|0:0,0:0:0:0:
208,48,151459,2,0,L|112:48,1,90,0|8,0:0|0:0,0:0:0:0:
336,48,151759,6,0,P|384:96|352:192,1,180,4|0,0:0|0:0,0:0:0:0:
224,192,152209,2,0,L|192:96,1,90,8|4,0:0|0:0,0:0:0:0:
64,96,152509,1,0,0:0:0:0:
272,96,152659,2,0,L|384:96,1,90,4|8,0:0|0:0,0:0:0:0:
144,96,152959,2,0,L|336:96,1,180,4|0,0:0|0:0,0:0:0:0:
448,96,153409,2,0,L|464:224,1,90,8|0,0:0|0:0,0:0:0:0:
288,192,153709,2,0,L|176:192,2,90,4|0|8,0:0|0:0|0:0,0:0:0:0:
80,192,154159,6,0,P|48:128|112:32,1,180,4|8,0:0|0:0,0:0:0:0:
208,32,154609,1,8,0:0:0:0:
288,80,154759,1,8,0:0:0:0:
320,176,154909,1,12,0:0:0:0:
112,176,155059,1,12,0:0:0:0:
320,176,155209,1,12,0:0:0:0:
192,176,155359,6,0,P|176:128|272:48,1,180,4|0,0:0|0:0,0:0:0:0:
384,48,155809,2,0,L|288:48,1,90,8|0,0:0|0:0,0:0:0:0:
160,48,156109,2,0,L|64:48,2,90,4|0|0,0:0|0:0|0:0,0:0:0:0:
368,48,156559,2,0,P|368:112|272:208,1,180,4|0,0:0|0:0,0:0:0:0:
80,192,157009,1,8,0:0:0:0:
368,48,157159,2,0,P|368:112|272:208,1,180,4|0,0:0|0:0,0:0:0:0:
16,192,157609,1,8,0:0:0:0:
224,192,157759,6,0,L|432:192,1,180,4|0,0:0|0:0,0:0:0:0:
272,192,158209,2,0,L|160:192,3,90,8|0|4|0,0:0|0:0|0:0|0:0,0:0:0:0:
48,192,158809,1,8,0:0:0:0:
432,192,158959,6,0,P|480:96|400:80,1,180,4|0,0:0|0:0,0:0:0:0:
208,64,159409,2,0,L|176:128,1,45,8|0,0:0|0:0,0:0:0:0:
272,96,159559,2,0,L|288:160,1,45,4|0,0:0|0:0,0:0:0:0:
144,160,159709,2,0,L|96:176,1,45
320,160,159859,2,0,L|384:208,1,45,4|0,0:0|0:0,0:0:0:0:
48,192,160009,2,0,L|0:192,1,45,8|0,0:0|0:0,0:0:0:0:
416,192,160159,2,0,P|464:160|384:80,1,180,4|0,0:0|0:0,0:0:0:0:
160,80,160609,2,0,L|64:112,2,90,8|0|4,0:0|0:0|0:0,0:0:0:0:
288,80,161059,2,0,L|384:80,1,90,0|8,0:0|0:0,0:0:0:0:
160,80,161359,6,0,P|48:96|48:176,1,180,4|0,0:0|0:0,0:0:0:0:
256,160,161809,2,0,L|352:160,1,90,8|0,0:0|0:0,0:0:0:0:
480,160,162109,1,4,0:0:0:0:
256,160,162259,2,0,L|192:64,1,90,0|8,0:0|0:0,0:0:0:0:
416,80,162559,2,0,P|448:112|400:192,1,135,4|0,0:0|0:0,0:0:0:0:
192,192,162859,2,0,L|128:144,1,45,4|0,0:0|0:0,0:0:0:0:
320,128,163009,2,0,L|368:112,3,45,12|0|4|0,0:0|0:0|0:0|0:0,0:0:0:0:
496,64,163309,6,0,L|416:64,1,45,4|0,0:0|0:0,0:0:0:0:
192,48,163459,2,0,L|240:48,1,45
432,48,163609,2,0,L|496:48,1,45,12|0,0:0|0:0,0:0:0:0:
432,48,163759,6,0,L|368:48,1,45
128,48,163909,2,0,L|64:64,1,45,4|0,0:0|0:0,0:0:0:0:
352,128,164059,2,0,L|400:144,1,45
128,160,164209,2,0,L|192:192,1,45,12|0,0:0|0:0,0:0:0:0:
400,224,164359,2,0,L|464:240,1,45
400,224,164509,2,0,L|336:224,1,45,12|0,0:0|0:0,0:0:0:0:
96,240,164659,2,0,L|80:176,1,45,12|0,0:0|0:0,0:0:0:0:
288,192,164809,2,0,L|288:128,1,45,8|0,0:0|0:0,0:0:0:0:
64,144,164959,6,0,P|32:112|128:48,1,180,12|8,0:0|0:0,0:0:0:0:
240,32,165409,1,8,0:0:0:0:
384,32,165559,1,8,0:0:0:0:
224,32,165709,1,12,0:0:0:0:
368,32,165859,1,12,0:0:0:0:
160,32,166009,1,12,0:0:0:0:
400,32,166159,6,0,P|448:96|416:208,1,180,4|4,0:0|0:0,0:0:0:0:
224,192,166609,2,0,L|96:192,1,90,8|4,0:0|0:0,0:0:0:0:
480,80,166909,2,0,L|368:80,1,90,0|4,0:0|0:0,0:0:0:0:
176,80,167209,2,0,L|48:80,1,90,8|4,0:0|0:0,0:0:0:0:
416,128,167509,6,0,L|464:96,1,45,12|0,0:0|0:0,0:0:0:0:
256,80,167659,2,0,L|192:80,1,45
48,80,167809,2,0,L|112:80,1,45,12|0,0:0|0:0,0:0:0:0:
384,80,167959,1,4,0:0:0:0:
432,128,168034,1,0,0:0:0:0:
432,192,168109,1,0,0:0:0:0:
384,224,168184,1,0,0:0:0:0:
144,240,168259,2,0,L|128:176,1,45,12|0,0:0|0:0,0:0:0:0:
352,160,168409,2,0,L|288:144,1,45,12|0,0:0|0:0,0:0:0:0:
352,160,168559,2,0,L|416:176,1,45
160,128,168709,5,12,0:0:0:0:
112,96,168784,1,0,0:0:0:0:
128,32,168859,1,0,0:0:0:0:
176,16,168934,1,0,0:0:0:0:
368,32,169009,2,0,L|448:48,1,45,8|0,0:0|0:0,0:0:0:0:
368,32,169159,2,0,L|304:16,1,45,12|0,0:0|0:0,0:0:0:0:
64,64,169309,2,0,L|128:64,1,45
368,80,169459,2,0,L|416:80,1,45,8|0,0:0|0:0,0:0:0:0:
256,80,169609,2,0,L|192:80,1,45,12|0,0:0|0:0,0:0:0:0:
256,80,169759,2,0,L|320:80,1,45
128,64,169909,5,12,0:0:0:0:
64,80,169984,1,0,0:0:0:0:
64,144,170059,1,0,0:0:0:0:
128,160,170134,1,0,0:0:0:0:
448,160,170209,2,0,L|512:160,1,45,8|0,0:0|0:0,0:0:0:0:
64,160,170359,2,0,L|16:160,1,45,12|0,0:0|0:0,0:0:0:0:
496,224,170509,6,0,L|432:224,1,45
16,224,170659,2,0,L|64:224,1,45,8|0,0:0|0:0,0:0:0:0:
448,288,170809,6,0,L|496:288,1,45,12|0,0:0|0:0,0:0:0:0:
64,288,170959,2,0,L|0:288,1,45
384,288,171109,2,0,L|480:112,2,180,4|4|4,0:0|0:0|0:0,0:0:0:0:
256,224,172009,2,4,L|256:32,1,180,4|0,0:0|0:0,0:0:0:0:
480,48,172609,1,4,0:0:0:0:
256,48,172909,1,0,0:0:0:0:
32,48,173209,1,4,0:0:0:0:
480,48,173509,5,12,0:0:0:0:
256,48,173809,1,0,0:0:0:0:
256,48,174109,1,4,0:0:0:0:
32,48,174409,1,0,0:0:0:0:
480,48,174709,5,12,0:0:0:0:
256,48,175009,1,0,0:0:0:0:
32,48,175309,1,4,0:0:0:0:
256,48,175609,1,0,0:0:0:0:
480,48,175909,6,0,L|288:48,1,180,4|0,0:0|0:0,0:0:0:0:
32,48,176509,2,0,L|32:240,1,180,4|0,0:0|0:0,0:0:0:0:
480,48,177109,6,0,L|480:256,1,180,12|0,0:0|0:0,0:0:0:0:
256,224,177709,2,0,L|464:224,1,180,4|0,0:0|0:0,0:0:0:0:
16,224,178309,6,0,L|208:224,1,180,12|0,0:0|0:0,0:0:0:0:
416,224,178909,2,0,L|416:16,1,180
32,32,179509,5,12,0:0:0:0:
256,32,179809,1,0,0:0:0:0:
480,32,180109,1,4,0:0:0:0:
256,32,180409,2,0,L|128:32,1,90,0|4,0:0|0:0,0:0:0:0:
416,192,180709,5,4,0:0:0:0:
208,192,180859,1,8,0:0:0:0:
208,192,181009,1,8,0:0:0:0:
416,192,181159,1,4,0:0:0:0:
208,192,181309,1,8,0:0:0:0:
208,192,181459,1,8,0:0:0:0:
416,192,181609,1,0,0:0:0:0:
80,192,181759,1,8,0:0:0:0:
208,192,181909,6,0,L|400:192,1,180,4|8,0:0|0:0,0:0:0:0:
256,192,182359,2,0,L|208:80,1,90,8|0,0:0|0:0,0:0:0:0:
432,112,182659,1,0,0:0:0:0:
304,112,182809,2,0,L|192:112,1,90,8|0,0:0|0:0,0:0:0:0:
432,112,183109,2,0,P|448:192|416:304,1,180,4|8,0:0|0:0,0:0:0:0:
304,288,183559,2,0,L|192:288,2,90,8|0|0,0:0|0:0|0:0,0:0:0:0:
96,288,184009,2,0,L|80:192,1,90,8|0,0:0|0:0,0:0:0:0:
400,240,184309,6,0,L|432:48,1,180,4|8,0:0|0:0,0:0:0:0:
304,64,184759,1,8,0:0:0:0:
176,64,184909,2,0,L|64:64,1,90
304,64,185209,1,8,0:0:0:0:
176,64,185359,1,0,0:0:0:0:
384,64,185509,2,0,P|416:144|368:256,1,180,4|8,0:0|0:0,0:0:0:0:
256,240,185959,1,8,0:0:0:0:
384,240,186109,2,0,L|416:128,1,90
288,144,186409,2,0,L|176:144,1,90,8|0,0:0|0:0,0:0:0:0:
416,144,186709,6,0,L|208:144,1,180,4|8,0:0|0:0,0:0:0:0:
112,144,187159,1,8,0:0:0:0:
240,144,187309,1,0,0:0:0:0:
112,144,187459,2,0,L|80:32,1,90,0|8,0:0|0:0,0:0:0:0:
208,48,187759,5,8,0:0:0:0:
304,48,187909,1,8,0:0:0:0:
400,48,188059,1,8,0:0:0:0:
320,112,188209,1,12,0:0:0:0:
224,160,188359,1,12,0:0:0:0:
112,176,188509,1,12,0:0:0:0:
224,176,188659,1,12,0:0:0:0:
320,176,188809,1,12,0:0:0:0:
192,176,188959,1,12,0:0:0:0:
320,176,189109,6,8,L|440:176,1,90,8|8,0:0|0:0,0:0:0:0:
288,176,189409,2,8,L|256:80,1,90,8|8,0:0|0:0,0:0:0:0:
128,80,189709,1,8,0:0:0:0:
336,80,189859,2,8,L|444:76,2,90,8|8|8,0:0|0:0|0:0,0:0:0:0:
128,80,190309,1,6,0:0:0:0:
32,160,190609,1,6,0:0:0:0:
32,288,190909,1,6,0:0:0:0:
128,352,191209,5,2,0:0:0:0:
144,352,191284,1,2,0:0:0:0:
160,352,191359,1,2,0:0:0:0:
176,352,191434,1,2,0:0:0:0:
256,352,191509,6,0,P|320:336|336:128,1,270,4|2,0:0|0:0,0:0:0:0:
272,160,192109,1,2,0:0:0:0:
64,160,192559,2,0,L|192:160,1,90,2|4,0:0|0:0,0:0:0:0:
272,160,193009,2,4,L|400:16,2,180,2|4|2,0:0|0:0|0:0,0:0:0:0:
112,160,193909,5,4,0:0:0:0:
240,160,194209,2,0,L|448:160,1,180,2|4,0:0|0:0,0:0:0:0:
240,160,194809,1,0,0:0:0:0:
96,176,195109,6,0,P|48:144|208:64,1,360,4|2,0:0|0:0,0:0:0:0:
320,64,196009,1,4,0:0:0:0:
208,80,196309,6,0,P|160:112|288:288,1,360,4|2,0:0|0:0,0:0:0:0:
208,304,197209,1,2,0:0:0:0:
80,304,197359,2,0,P|32:256|160:192,1,270,4|0,0:0|0:0,0:0:0:0:
256,192,197959,2,0,P|352:160|208:80,1,360,4|2,0:0|0:0,0:0:0:0:
96,64,198709,5,4,0:0:0:0:
256,64,199009,1,12,0:0:0:0:
336,64,199159,1,12,0:0:0:0:
128,64,199459,1,12,0:0:0:0:
256,64,199759,2,0,P|400:256|304:272,1,450,4|2,0:0|0:0,0:0:0:0:
208,288,200809,1,4,0:0:0:0:
336,288,201109,2,0,P|384:240|336:48,1,270,4|2,0:0|0:0,0:0:0:0:
240,48,201709,2,0,B|64:48|64:48|16:112|112:128,1,270,4|2,0:0|0:0,0:0:0:0:
176,128,202309,6,0,L|384:128,1,180,4|2,0:0|0:0,0:0:0:0:
272,128,202909,1,4,0:0:0:0:
176,128,203209,1,4,0:0:0:0:
336,128,203509,2,0,P|352:176|304:304,1,180,4|2,0:0|0:0,0:0:0:0:
176,304,204109,2,0,P|128:288|96:144,1,180,4|2,0:0|0:0,0:0:0:0:
224,176,204559,6,0,L|496:192,1,270,4|2,0:0|0:0,0:0:0:0:
368,192,205309,1,4,0:0:0:0:
224,176,205609,1,4,0:0:0:0:
496,160,205909,6,0,P|496:112|240:80,1,360,4|2,0:0|0:0,0:0:0:0:
144,48,206809,1,2,0:0:0:0:
240,48,206959,6,0,L|320:336,1,270,4|0,0:0|0:0,0:0:0:0:
192,304,207559,2,0,L|352:64,1,270,4|2,0:0|0:0,0:0:0:0:
256,48,208309,1,12,0:0:0:0:
32,48,208909,1,12,0:0:0:0:
192,48,209209,1,12,0:0:0:0:
352,48,209509,1,12,0:0:0:0:
192,48,209809,1,12,0:0:0:0:
352,48,210109,1,12,0:0:0:0:
32,48,210409,1,12,0:0:0:0:
208,48,210709,5,12,0:0:0:0:
288,80,210859,1,8,0:0:0:0:
336,144,211009,1,8,0:0:0:0:
128,160,211159,5,12,0:0:0:0:
208,192,211309,1,8,0:0:0:0:
256,256,211459,1,8,0:0:0:0:
464,272,211609,2,0,L|464:160,1,90,12|0,0:0|0:0,0:0:0:0:
32,160,211909,2,0,L|144:160,1,90,12|0,0:0|0:0,0:0:0:0:
480,128,212209,2,0,L|384:128,1,90,12|0,0:0|0:0,0:0:0:0:
128,96,212509,2,0,L|16:96,1,90,12|0,0:0|0:0,0:0:0:0:
384,64,212809,2,0,L|480:64,1,90,12|0,0:0|0:0,0:0:0:0:
256,64,213109,6,0,L|208:240,1,180,4|8,0:0|0:0,0:0:0:0:
432,240,213559,2,0,L|336:240,2,90
224,240,214009,1,8,0:0:0:0:
480,240,214159,2,0,L|480:112,1,90
224,128,214459,1,0,0:0:0:0:
480,128,214609,6,0,L|368:112,1,90,8|0,0:0|0:0,0:0:0:0:
128,80,214909,2,0,L|32:64,1,90
464,64,215209,2,0,L|368:112,1,90,8|0,0:0|0:0,0:0:0:0:
96,240,215509,2,0,L|16:288,1,90
240,288,215809,6,0,L|128:288,1,90,8|0,0:0|0:0,0:0:0:0:
368,288,216109,2,0,L|272:288,1,90
496,288,216409,2,0,L|496:176,1,90,8|0,0:0|0:0,0:0:0:0:
176,192,216709,2,0,P|112:176|160:80,1,180,4|8,0:0|0:0,0:0:0:0:
272,80,217159,1,0,0:0:0:0:
352,80,217309,2,0,P|384:128|384:192,1,90,4|0,0:0|0:0,0:0:0:0:
128,176,217609,2,0,P|96:224|96:288,1,90,12|0,0:0|0:0,0:0:0:0:
432,256,217909,6,0,P|464:208|368:128,1,180,4|8,0:0|0:0,0:0:0:0:
256,128,218359,1,0,0:0:0:0:
48,128,218509,2,0,L|160:128,2,90,0|0|8,0:0|0:0|0:0,0:0:0:0:
256,128,218959,1,0,0:0:0:0:
464,128,219109,2,0,L|272:128,1,180,4|8,0:0|0:0,0:0:0:0:
64,128,219559,1,4,0:0:0:0:
192,128,219709,2,0,L|208:32,1,90,0|4,0:0|0:0,0:0:0:0:
432,144,220009,2,0,L|464:48,1,90,8|0,0:0|0:0,0:0:0:0:
320,48,220309,5,4,0:0:0:0:
192,64,220459,1,0,0:0:0:0:
96,144,220609,1,8,0:0:0:0:
272,144,220759,1,4,0:0:0:0:
96,144,221059,1,12,0:0:0:0:
480,160,221359,1,12,0:0:0:0:
352,160,221509,2,0,L|352:32,1,90,8|0,0:0|0:0,0:0:0:0:
64,176,221809,1,12,0:0:0:0:
240,176,221959,5,8,0:0:0:0:
208,128,222034,1,12,0:0:0:0:
48,96,222109,1,12,0:0:0:0:
416,176,222259,1,8,0:0:0:0:
384,128,222334,1,12,0:0:0:0:
240,96,222409,1,12,0:0:0:0:
16,96,222559,1,12,0:0:0:0:
48,48,222634,1,8,0:0:0:0:
368,48,222709,6,0,P|432:96|368:192,1,180,4|8,0:0|0:0,0:0:0:0:
272,192,223159,1,0,0:0:0:0:
128,192,223309,2,0,L|96:96,1,90,4|0,0:0|0:0,0:0:0:0:
224,96,223609,2,0,L|320:96,1,90,8|0,0:0|0:0,0:0:0:0:
32,96,223909,6,0,L|160:96,1,90,4|0,0:0|0:0,0:0:0:0:
368,96,224209,2,0,L|464:96,1,90,12|0,0:0|0:0,0:0:0:0:
128,96,224509,2,0,L|32:96,1,90,4|0,0:0|0:0,0:0:0:0:
368,96,224809,2,0,L|240:96,1,90,12|0,0:0|0:0,0:0:0:0:
32,96,225109,6,0,L|224:96,1,180,4|8,0:0|0:0,0:0:0:0:
336,96,225559,1,0,0:0:0:0:
212,96,225709,2,0,L|196:208,1,90,4|0,0:0|0:0,0:0:0:0:
336,192,226009,1,8,0:0:0:0:
128,192,226159,2,0,P|80:176|128:80,1,180,4|0,0:0|0:0,0:0:0:0:
336,80,226609,2,0,L|448:80,1,90,8|0,0:0|0:0,0:0:0:0:
304,80,226909,2,0,L|256:192,1,90,4|0,0:0|0:0,0:0:0:0:
144,160,227209,2,0,L|48:160,1,90,8|0,0:0|0:0,0:0:0:0:
272,160,227509,6,0,P|320:128|240:48,1,180,4|8,0:0|0:0,0:0:0:0:
128,48,227959,1,0,0:0:0:0:
256,48,228109,1,4,0:0:0:0:
384,48,228259,2,0,L|256:48,1,90,0|8,0:0|0:0,0:0:0:0:
64,64,228559,1,0,0:0:0:0:
128,112,228709,2,0,L|288:256,1,180,4|8,0:0|0:0,0:0:0:0:
48,240,229159,1,4,0:0:0:0:
176,240,229309,2,0,L|192:128,1,90
400,144,229609,2,8,L|400:80,1,45
144,144,229759,2,8,L|144:80,1,45
400,80,229909,6,0,L|208:80,1,180,4|0,0:0|0:0,0:0:0:0:
0,80,230359,2,0,L|208:80,1,180,4|0,0:0|0:0,0:0:0:0:
304,80,230809,2,0,L|400:80,1,90,12|0,0:0|0:0,0:0:0:0:
272,80,231109,2,0,L|240:192,1,90,12|0,0:0|0:0,0:0:0:0:
368,176,231409,2,0,L|464:176,1,90,12|0,0:0|0:0,0:0:0:0:
240,176,231709,2,0,L|112:176,1,90,12|0,0:0|0:0,0:0:0:0:
416,176,232009,1,8,0:0:0:0:
128,176,232159,6,0,L|331:185,1,180,4|0,0:0|0:0,0:0:0:0:
432,192,232609,2,0,L|464:96,1,90,8|0,0:0|0:0,0:0:0:0:
240,96,232909,2,0,L|144:96,2,90,4|0|8,0:0|0:0|0:0,0:0:0:0:
448,96,233359,6,0,P|480:144|416:256,1,180,4|0,0:0|0:0,0:0:0:0:
224,256,233809,2,0,L|96:256,1,90,8|0,0:0|0:0,0:0:0:0:
272,256,234109,2,0,L|368:256,2,90,4|0|8,0:0|0:0|0:0,0:0:0:0:
480,256,234559,6,0,P|512:192|448:96,1,180,4|0,0:0|0:0,0:0:0:0:
224,96,235009,2,0,L|112:80,1,90,8|0,0:0|0:0,0:0:0:0:
352,96,235309,2,0,L|384:192,1,90,4|0,0:0|0:0,0:0:0:0:
160,192,235609,1,8,0:0:0:0:
368,192,235759,6,0,P|432:160|368:112,1,180,4|0,0:0|0:0,0:0:0:0:
160,112,236209,2,0,L|272:112,1,90,8|0,0:0|0:0,0:0:0:0:
368,112,236509,2,0,L|464:80,2,90,4|0|8,0:0|0:0|0:0,0:0:0:0:
160,112,236959,6,0,P|112:160|192:240,1,180,4|0,0:0|0:0,0:0:0:0:
320,240,237409,2,0,L|336:144,1,90,8|0,0:0|0:0,0:0:0:0:
240,144,237709,2,0,L|192:64,1,90,4|0,0:0|0:0,0:0:0:0:
416,64,238009,1,8,0:0:0:0:
208,64,238159,6,0,L|400:64,1,180,4|0,0:0|0:0,0:0:0:0:
176,64,238609,2,0,L|48:64,1,90,8|0,0:0|0:0,0:0:0:0:
208,112,238909,2,0,L|304:144,2,90,4|0|8,0:0|0:0|0:0,0:0:0:0:
416,96,239359,6,0,P|464:160|400:256,1,180,4|0,0:0|0:0,0:0:0:0:
304,256,239809,2,0,L|272:160,1,90,8|0,0:0|0:0,0:0:0:0:
144,192,240109,2,0,L|112:80,1,90,4|0,0:0|0:0,0:0:0:0:
336,96,240409,1,8,0:0:0:0:
128,96,240559,6,0,P|112:144|208:224,1,180,4|0,0:0|0:0,0:0:0:0:
320,224,241009,2,0,L|416:224,1,90,8|0,0:0|0:0,0:0:0:0:
176,224,241309,1,4,0:0:0:0:
384,224,241459,1,0,0:0:0:0:
176,224,241609,1,8,0:0:0:0:
304,224,241759,6,0,P|336:192|288:80,1,180,4|0,0:0|0:0,0:0:0:0:
80,64,242209,2,0,L|176:64,1,90,8|0,0:0|0:0,0:0:0:0:
304,64,242509,2,0,L|400:80,2,90,4|0|8,0:0|0:0|0:0,0:0:0:0:
96,48,242959,6,0,P|64:96|128:208,1,180,4|0,0:0|0:0,0:0:0:0:
240,192,243409,2,0,L|336:192,1,90,8|0,0:0|0:0,0:0:0:0:
192,192,243709,2,0,L|176:80,1,90,4|0,0:0|0:0,0:0:0:0:
400,96,244009,1,8,0:0:0:0:
192,96,244159,6,0,L|384:96,1,180,4|0,0:0|0:0,0:0:0:0:
240,96,244609,2,0,L|112:96,1,90,8|0,0:0|0:0,0:0:0:0:
368,96,244909,2,0,L|464:128,2,90,4|0|8,0:0|0:0|0:0,0:0:0:0:
96,96,245359,6,0,L|288:144,1,180,4|0,0:0|0:0,0:0:0:0:
384,160,245809,1,8,0:0:0:0:
304,160,245959,1,8,0:0:0:0:
176,160,246109,1,12,0:0:0:0:
432,160,246259,1,12,0:0:0:0:
96,160,246409,1,12,0:0:0:0:
176,160,246559,6,0,L|368:160,1,180,4|0,0:0|0:0,0:0:0:0:
480,160,247009,1,8,0:0:0:0:
272,160,247159,1,0,0:0:0:0:
400,160,247309,2,0,L|368:48,1,90,4|0,0:0|0:0,0:0:0:0:
160,64,247609,1,8,0:0:0:0:
384,64,247759,6,0,P|400:112|368:256,1,180,4|0,0:0|0:0,0:0:0:0:
256,240,248209,1,8,0:0:0:0:
464,240,248359,1,0,0:0:0:0:
336,240,248509,2,0,L|288:128,1,90,4|0,0:0|0:0,0:0:0:0:
80,176,248809,1,8,0:0:0:0:
288,160,248959,6,0,P|336:128|256:64,1,180,4|0,0:0|0:0,0:0:0:0:
144,64,249409,1,8,0:0:0:0:
352,64,249559,1,0,0:0:0:0:
224,64,249709,2,0,L|240:192,1,90,4|0,0:0|0:0,0:0:0:0:
16,160,250009,1,8,0:0:0:0:
224,160,250159,6,0,L|32:160,1,180,4|0,0:0|0:0,0:0:0:0:
176,160,250609,1,8,0:0:0:0:
384,160,250759,1,0,0:0:0:0:
176,144,250909,2,0,L|80:80,1,90,4|0,0:0|0:0,0:0:0:0:
320,112,251209,1,8,0:0:0:0:
112,112,251359,6,0,P|64:160|144:224,1,180,4|0,0:0|0:0,0:0:0:0:
336,224,251809,1,8,0:0:0:0:
128,224,251959,1,0,0:0:0:0:
336,176,252109,2,0,L|384:96,1,90,4|0,0:0|0:0,0:0:0:0:
160,96,252409,1,8,0:0:0:0:
368,96,252559,6,0,P|416:128|368:240,1,180,4|0,0:0|0:0,0:0:0:0:
160,224,253009,1,8,0:0:0:0:
368,96,253159,2,0,P|416:128|368:240,1,180,4|4,0:0|0:0,0:0:0:0:
352,256,253534,1,0,0:0:0:0:
96,192,253609,2,0,L|48:160,1,45,8|0,0:0|0:0,0:0:0:0:
288,160,253759,2,0,L|352:144,1,45,4|0,0:0|0:0,0:0:0:0:
48,112,253909,2,0,L|128:96,1,45,8|0,0:0|0:0,0:0:0:0:
336,80,254359,2,8,L|400:80,1,45,12|0,0:0|0:0,0:0:0:0:
256,192,254809,1,12,0:0:0:0:
256,192,254959,12,0,259609,0:0:0:0:
