osu file format v14

[General]
AudioFilename: audio.mp3
AudioLeadIn: 0
PreviewTime: 51169
Countdown: 0
SampleSet: Soft
StackLeniency: 0.4
Mode: 0
LetterboxInBreaks: 0
WidescreenStoryboard: 1

[Editor]
Bookmarks: 61078,63351
DistanceSpacing: 0.5
BeatDivisor: 4
GridSize: 4
TimelineZoom: 1

[Metadata]
Title:Daisuki da yo Daisuki da yo Umaretekite Arigatou (TV Size)
TitleUnicode:大好きだよ大好きだよ 生まれてきてありがとう (TV Size)
Artist:Kurihara Yuki (CV: Kakuma Ai) & Momotsuki Shinya (CV: Okamoto Nobuhiko)
ArtistUnicode:栗原 雪 (CV: 加隈亜衣) & 桃月 心也 (CV: 岡本信彦)
Creator:Fia
Version:Normal
Source:ももくり
Tags:pinkheart japanese pop anime momokuri 前山田健一 ランティス NHN comico くろせ
BeatmapID:2819492
BeatmapSetID:1362482

[Difficulty]
HPDrainRate:3
CircleSize:3
OverallDifficulty:4.5
ApproachRate:5
SliderMultiplier:1
SliderTickRate:1

[Events]
//Background and Video events
0,0,"mmkr_pc_kuri.jpg",0,0
//Break Periods
//Storyboard Layer 0 (Background)
//Storyboard Layer 1 (Fail)
//Storyboard Layer 2 (Pass)
//Storyboard Layer 3 (Foreground)
//Storyboard Layer 4 (Overlay)
//Storyboard Sound Samples

[TimingPoints]
447,363.636363636364,4,2,1,50,1,0
1901,-100,4,2,0,70,0,0
12083,-100,4,2,1,60,0,0
13537,-100,4,2,0,50,0,0
24447,-100,4,2,0,60,0,0
33901,-100,4,2,0,70,0,0
36810,363.636363636364,3,2,0,50,1,0
45537,363.636363636364,4,2,0,50,1,0
49900,-100,4,2,0,40,0,0
50991,-100,4,2,0,60,0,0
51355,-100,4,2,0,80,0,1
61627,-100,4,2,0,5,0,0
61718,-100,4,2,0,80,0,0
62264,-100,4,2,0,80,0,1
74627,-100,4,2,0,60,0,0
80082,-100,4,2,0,70,0,0
80446,-100,4,2,0,80,0,0
84446,-100,4,2,0,70,0,0
85537,-100,4,2,0,80,0,0

[Colours]
Combo1 : 255,128,255
Combo2 : 128,128,255
Combo3 : 128,217,255
Combo4 : 255,128,128

[HitObjects]
0,97,447,6,0,P|49:65|92:58,1,100,4|2,0:0|0:0,0:0:0:0:
171,114,1174,2,0,P|174:172|158:213,1,100,2|0,0:0|3:0,0:0:0:0:
247,259,1901,6,0,B|271:224|271:224|389:210,2,150,4|4|2,0:0|0:1|0:0,0:0:0:0:
159,309,3356,2,0,B|135:344|135:344|17:358,2,150,4|4|2,0:0|0:1|0:0,0:0:0:0:
160,210,4810,6,0,P|136:147|55:122,1,150,4|4,0:0|0:1,0:0:0:0:
59,25,5719,1,2,0:0:0:0:
59,25,6083,2,0,L|165:16,1,100,4|0,0:2|0:0,0:0:0:0:
224,92,6810,2,0,L|330:83,1,100,4|0,0:1|0:0,0:0:0:0:
373,79,7356,1,0,1:0:0:0:
431,159,7719,6,0,P|411:242|390:264,1,100,4|0,0:0|1:0,0:0:0:0:
388,299,8265,2,0,P|331:261|253:266,1,150,0|0,0:0|1:0,0:0:0:0:
166,316,9174,2,0,P|83:296|61:275,1,100,4|0,0:0|1:0,0:0:0:0:
44,247,9719,2,0,P|37:173|76:111,1,150,0|0,3:0|1:0,0:0:0:0:
256,192,10628,12,4,12083,0:0:0:0:
390,248,13537,6,0,L|436:265,2,50,4|0|0,1:0|0:0|3:0,0:0:0:0:
340,256,14083,2,0,L|239:297,1,100,0|0,1:1|1:0,0:0:0:0:
153,260,14810,1,0,1:0:0:0:
140,161,15174,2,0,L|0:108,1,150,0|0,3:0|3:0,0:0:0:0:
59,26,16083,1,0,3:0:0:0:
154,57,16447,6,0,L|200:40,2,50,4|0|0,1:2|0:0|0:0,0:0:0:0:
193,87,16993,2,0,P|234:97|291:79,1,100,0|0,1:0|1:0,0:0:0:0:
343,0,17720,1,0,1:0:0:0:
421,61,18083,2,0,L|437:210,1,150,0|0,3:0|3:0,0:0:0:0:
475,302,18992,1,0,3:0:0:0:
383,342,19356,6,0,L|378:293,2,50,4|0|0,1:0|0:0|0:0,0:0:0:0:
336,359,19901,2,0,L|243:321,1,100,0|0,1:0|1:0,0:0:0:0:
145,342,20628,1,0,1:0:0:0:
158,243,20992,2,0,L|298:190,1,150,0|0,3:0|3:0,0:0:0:0:
311,91,21901,1,0,3:0:0:0:
219,49,22265,6,0,L|214:0,2,50,4|0|0,1:2|0:0|0:0,0:0:0:0:
205,97,22810,2,0,P|144:131|94:125,2,100,0|0|0,1:0|1:0|1:0,0:0:0:0:
242,129,23719,2,0,L|347:115,1,100,0|0,3:0|3:0,0:0:0:0:
425,170,24447,1,0,1:0:0:0:
441,268,24810,1,4,1:0:0:0:
367,336,25174,6,0,P|304:343|245:309,1,100,4|0,0:0|1:0,0:0:0:0:
232,297,25719,2,0,P|156:302|115:333,1,100,0|2,0:0|0:0,0:0:0:0:
85,226,26447,1,0,0:0:0:0:
126,135,26810,1,0,0:0:0:0:
93,90,26992,2,0,P|50:65|-3:60,2,100,0|0|0,1:0|0:0|1:0,0:0:0:0:
181,25,28083,6,0,P|244:18|303:52,1,100,4|0,0:1|1:0,0:0:0:0:
316,64,28628,2,0,P|392:59|433:28,2,100,0|2|0,0:0|0:0|0:0,0:0:0:0:
240,210,29901,2,0,P|190:204|147:179,2,100,0|0|0,1:0|3:0|3:0,0:0:0:0:
346,239,30992,5,4,1:2:0:0:
455,224,31356,1,0,1:0:0:0:
470,333,31719,1,0,1:0:0:0:
361,348,32083,1,0,1:0:0:0:
312,322,32265,1,0,1:0:0:0:
262,297,32447,2,0,P|186:302|145:333,2,100,0|0|0,1:0|1:0|1:0,0:0:0:0:
304,195,33537,2,0,L|326:133,1,50,0|0,1:0|3:0,0:0:0:0:
339,95,33901,6,0,P|362:57|420:26,1,100,4|0,0:0|1:0,0:0:0:0:
489,103,34628,2,0,P|461:143|403:174,1,100,0|0,3:1|1:0,0:0:0:0:
497,247,35356,2,0,P|391:277|290:218,1,200,4|4,1:0|0:0,0:0:0:0:
117,284,36810,6,0,L|117:383,2,100,4|0|0,3:1|3:0|3:0,0:0:0:0:
56,204,37900,2,0,P|124:187|192:79,1,200,0|0,3:0|3:0,0:0:0:0:
285,117,38991,2,0,L|285:18,2,100,0|0|0,3:0|3:0|3:0,0:0:0:0:
285,216,40082,2,0,P|353:199|421:91,1,200,0|0,3:0|3:0,0:0:0:0:
507,147,41173,5,0,3:0:0:0:
507,246,41537,1,0,3:0:0:0:
507,345,41900,1,0,3:0:0:0:
418,298,42264,2,0,P|347:296|254:383,1,200,0|0,3:0|3:0,0:0:0:0:
174,320,43355,5,0,3:0:0:0:
174,221,43718,1,0,3:0:0:0:
174,122,44082,1,0,3:0:0:0:
261,72,44446,2,0,P|326:144|423:153,1,200,0|0,3:0|3:0,0:0:0:0:
454,249,45537,6,0,L|419:357,1,100,2|0,3:2|3:0,0:0:0:0:
328,310,46264,2,0,L|232:279,1,100,2|0,3:2|3:0,0:0:0:0:
220,179,46991,2,0,L|124:148,1,100,2|0,3:2|3:0,0:0:0:0:
30,114,47718,2,0,L|0:209,1,100,0|0,3:0|3:0,0:0:0:0:
256,192,48446,12,0,49901,1:0:0:0:
385,40,51355,6,0,P|390:107|367:156,1,100,4|0,0:0|1:0,0:0:0:0:
375,186,51900,2,0,P|442:181|491:204,1,100,2|2,0:0|0:0,0:0:0:0:
418,279,52627,2,0,P|354:288|278:222,1,150,2|0,0:0|1:0,0:0:0:0:
281,140,53537,1,2,2:0:0:0:
216,63,53900,1,0,1:0:0:0:
119,88,54264,6,0,P|96:151|106:204,1,100,2|0,2:0|0:0,0:0:0:0:
107,232,54809,2,0,P|61:212|11:212,1,100,2|2,0:0|0:0,0:0:0:0:
12,262,55355,1,0,1:0:0:0:
85,329,55718,2,0,L|195:317,1,100,4|0,0:1|1:0,0:0:0:0:
262,254,56446,2,0,L|372:242,1,100,0|0,0:0|1:0,0:0:0:0:
403,269,56991,1,0,3:0:0:0:
452,262,57173,6,0,P|471:216|471:166,1,100,4|0,0:0|0:0,0:0:0:0:
503,128,57718,2,0,P|453:132|372:81,1,150,2|0,0:0|1:0,0:0:0:0:
296,14,58627,6,0,P|276:59|276:109,1,100,4|0,0:0|0:0,0:0:0:0:
301,152,59173,2,0,P|251:147|175:189,1,100,2|0,0:0|0:0,0:0:0:0:
166,196,59718,1,0,1:0:0:0:
135,291,60082,6,0,P|93:265|71:189,1,100,4|0,0:1|1:0,0:0:0:0:
67,170,60627,2,0,P|45:125|3:99,1,100,0|2,0:0|0:0,0:0:0:0:
77,32,61355,2,0,L|253:-2,1,150,4|0,0:0|1:0,0:0:0:0:
291,78,62264,2,0,L|417:53,1,100,0|0,1:0|1:0,0:0:0:0:
477,104,62991,5,4,0:0:0:0:
504,200,63355,1,0,1:0:0:0:
408,227,63718,1,2,3:2:0:0:
381,131,64082,1,0,1:0:0:0:
310,202,64446,5,4,0:1:0:0:
283,106,64810,1,0,1:0:0:0:
187,133,65173,1,2,3:2:0:0:
214,229,65537,1,0,1:0:0:0:
116,207,65900,5,4,0:0:0:0:
143,303,66264,1,0,1:0:0:0:
47,330,66627,1,2,3:2:0:0:
20,234,66991,1,0,1:0:0:0:
48,138,67355,6,0,B|60:89|60:89|50:39,1,100,4|0,0:1|1:0,0:0:0:0:
153,0,68082,2,0,B|141:49|141:49|151:98,1,100,4|4,0:0|1:0,0:0:0:0:
226,163,68809,5,4,0:0:0:0:
315,118,69173,2,0,P|337:56|333:13,2,100,0|0|0,1:0|3:0|1:0,0:0:0:0:
312,218,70264,2,0,L|427:200,1,100,0|0,3:0|1:0,0:0:0:0:
473,293,70991,2,0,L|374:308,1,100,0|4,3:0|1:0,0:0:0:0:
294,368,71718,5,4,0:0:0:0:
241,282,72082,1,0,1:0:0:0:
150,323,72446,1,0,3:0:0:0:
97,237,72810,1,0,1:0:0:0:
256,192,73173,12,4,74627,0:0:0:0:
256,192,76082,5,4,0:0:0:0:
256,192,77537,6,0,P|312:164|336:72,2,150,4|4|0,1:2|1:0|0:0,0:0:0:0:
156,180,78991,2,0,P|100:208|76:300,2,150,4|4|0,1:0|1:2|1:0,0:0:0:0:
175,278,80446,6,0,L|289:295,1,100,4|0,0:0|1:0,0:0:0:0:
304,332,80991,2,0,P|341:281|423:261,1,150,0|0,0:0|1:0,0:0:0:0:
465,170,81900,2,0,L|351:153,1,100,4|0,0:1|1:0,0:0:0:0:
319,174,82446,2,0,P|268:137|249:57,1,100,0|0,3:0|0:0,0:0:0:0:
252,54,82991,1,0,1:0:0:0:
154,75,83355,6,0,P|94:56|55:66,1,100,4|0,0:0|0:0,0:0:0:0:
29,104,83900,2,0,P|42:165|70:194,1,100,4|0,1:0|0:0,0:0:0:0:
117,198,84446,2,0,P|163:155|174:116,1,100,4|0,0:0|0:0,0:0:0:0:
256,192,84991,12,0,86082,3:0:0:0:
