osu file format v14

[General]
AudioFilename: audio.mp3
AudioLeadIn: 0
PreviewTime: 52830
Countdown: 0
SampleSet: Soft
StackLeniency: 0.7
Mode: 0
LetterboxInBreaks: 0
WidescreenStoryboard: 1

[Editor]
Bookmarks: 5007,10330,20491,30975,41298,46459,52911,73556,78556,83878,86459
DistanceSpacing: 1
BeatDivisor: 4
GridSize: 4
TimelineZoom: 1

[Metadata]
Title:Zankoku na Yume to Nemure (TV Size)
TitleUnicode:残酷な夢と眠れ (TV Size)
Artist:Kuribayashi Minami
ArtistUnicode:栗林みな実
Creator:Kaguya_Sama
Version:Normal
Source:回復術士のやり直し
Tags:redo of healer Kaifuku jutsushi no yarinaoshi kaiyari anime op opening jpop pop j-pop japanese theme
BeatmapID:2806915
BeatmapSetID:1356098

[Difficulty]
HPDrainRate:4
CircleSize:3
OverallDifficulty:4
ApproachRate:5.5
SliderMultiplier:1.2
SliderTickRate:1

[Events]
//Background and Video events
0,0,"kaiyari.jpg",0,0
Video,50,"Kaiyari.mp4"
//Break Periods
//Storyboard Layer 0 (Background)
//Storyboard Layer 1 (Fail)
//Storyboard Layer 2 (Pass)
//Storyboard Layer 3 (Foreground)
//Storyboard Layer 4 (Overlay)
//Storyboard Sound Samples

[TimingPoints]
108,322.58064516129,4,2,2,70,1,0
108,-111.111111111111,4,2,2,70,0,0
753,-111.111111111111,4,2,2,70,0,0
995,-111.111111111111,4,2,2,5,0,0
1075,-111.111111111111,4,2,2,70,0,0
2043,-111.111111111111,4,2,2,70,0,0
2285,-111.111111111111,4,2,2,5,0,0
2365,-111.111111111111,4,2,2,70,0,0
2446,-111.111111111111,4,2,2,5,0,0
2527,-111.111111111111,4,2,2,70,0,0
2607,-111.111111111111,4,2,2,5,0,0
2688,-111.111111111111,4,2,2,70,0,0
3333,-111.111111111111,4,2,2,70,0,0
3575,-111.111111111111,4,2,2,5,0,0
3656,-111.111111111111,4,2,2,70,0,0
5107,-100,4,2,2,90,0,0
8978,-125,4,2,2,55,0,0
9140,-111.111111111111,4,2,2,5,0,0
9462,-111.111111111111,4,2,2,55,0,0
10430,-111.111111111111,4,2,2,70,0,0
20591,-111.111111111111,4,2,2,80,0,0
23575,-111.111111111111,4,2,2,5,0,0
23656,-111.111111111111,4,2,2,80,0,0
31075,-111.111111111111,4,2,2,80,0,0
32688,-111.111111111111,4,2,2,80,0,0
32930,-111.111111111111,4,2,2,5,0,0
33011,-111.111111111111,4,2,2,80,0,0
33333,-111.111111111111,4,2,2,80,0,0
33575,-111.111111111111,4,2,2,5,0,0
33656,-111.111111111111,4,2,2,80,0,0
35753,-111.111111111111,4,2,2,5,0,0
35833,-111.111111111111,4,2,2,80,0,0
35995,-111.111111111111,4,2,2,5,0,0
36075,-111.111111111111,4,2,2,80,0,0
36156,-111.111111111111,4,2,2,5,0,0
36237,-111.111111111111,4,2,2,70,0,0
37124,-111.111111111111,4,2,2,5,0,0
37204,-111.111111111111,4,2,2,70,0,0
38817,-111.111111111111,4,2,2,80,0,0
39059,-111.111111111111,4,2,2,5,0,0
39140,-111.111111111111,4,2,2,80,0,0
39543,-111.111111111111,4,2,2,5,0,0
39624,-111.111111111111,4,2,2,80,0,0
40188,-111.111111111111,4,2,2,5,0,0
40269,-111.111111111111,4,2,2,80,0,0
40833,-111.111111111111,4,2,2,5,0,0
40914,-111.111111111111,4,2,2,80,0,0
41398,-111.111111111111,4,2,2,80,0,0
41640,-111.111111111111,4,2,2,5,0,0
41720,-111.111111111111,4,2,2,80,0,0
46559,-111.111111111111,4,2,2,70,0,0
50269,-111.111111111111,4,2,2,70,0,0
51559,-111.111111111111,4,2,2,85,0,0
51801,-111.111111111111,4,2,2,5,0,0
51882,-111.111111111111,4,2,2,80,0,0
52527,-111.111111111111,4,2,2,60,0,0
52688,-111.111111111111,4,2,2,80,0,0
52930,-111.111111111111,4,2,2,5,0,0
53011,-100,4,2,2,95,0,1
53253,-100,4,2,2,5,0,1
53333,-100,4,2,2,95,0,1
53898,-100,4,2,2,5,0,1
53978,-100,4,2,2,95,0,1
54543,-100,4,2,2,5,0,1
54623,-100,4,2,2,95,0,1
55188,-100,4,2,2,5,0,1
55268,-100,4,2,2,95,0,1
60591,-100,4,2,2,95,0,0
63333,-100,4,2,2,95,0,1
63575,-100,4,2,2,5,0,1
63655,-100,4,2,2,95,0,1
64220,-100,4,2,2,5,0,1
64300,-100,4,2,2,95,0,1
64866,-100,4,2,2,5,0,1
64946,-100,4,2,2,95,0,1
65511,-100,4,2,2,5,0,1
65591,-100,4,2,2,95,0,1
68737,-100,4,2,2,5,0,1
68817,-100,4,2,2,95,0,1
71075,-100,4,2,2,95,0,0
73898,-100,4,2,2,5,0,0
73978,-100,4,2,2,95,0,0
78656,-100,4,2,2,95,0,0
83978,-111.111111111111,4,2,2,90,0,0
86398,-111.111111111111,4,2,2,90,0,0
86720,-166.666666666667,4,2,2,80,0,0
87043,-166.666666666667,4,2,2,70,0,0
87366,-166.666666666667,4,2,2,60,0,0
87688,-166.666666666667,4,2,2,50,0,0
87849,-166.666666666667,4,2,2,5,0,0

[Colours]
Combo1 : 0,83,236
Combo2 : 0,149,0
Combo3 : 252,152,222
Combo4 : 164,126,70

[HitObjects]
20,207,108,6,0,P|72:188|143:204,1,107.999996704102,0|0,3:0|3:0,0:0:0:0:
157,243,591,1,0,3:0:0:0:
157,243,753,2,0,L|149:351,1,107.999996704102,10|0,0:0|3:0,0:0:0:0:
254,374,1398,2,0,L|263:261,1,107.999996704102,0|0,3:2|3:0,0:0:0:0:
308,235,1882,1,0,3:0:0:0:
308,235,2043,2,0,P|350:225|418:261,1,107.999996704102,10|0,0:0|3:0,0:0:0:0:
484,172,2688,6,0,P|499:136|479:67,1,107.999996704102,0|0,3:0|3:0,0:0:0:0:
441,36,3172,1,0,3:0:0:0:
441,36,3333,2,0,L|327:50,1,107.999996704102,10|0,0:0|3:0,0:0:0:0:
290,81,3817,2,0,B|158:65,1,107.999996704102,2|2,3:2|3:2,0:0:0:0:
146,108,4301,1,2,3:2:0:0:
63,177,4624,2,0,L|53:248,1,53.9999983520508,10|10,0:0|0:0,0:0:0:0:
54,284,4946,1,10,0:0:0:0:
54,284,5107,6,0,L|179:278,1,120,6|0,3:2|3:2,0:0:0:0:
227,251,5591,2,0,L|297:260,1,60,10|2,0:0|3:2,0:0:0:0:
328,302,5914,1,10,0:2:0:0:
437,252,6237,2,0,B|433:178,1,60,8|2,0:0|3:2,0:0:0:0:
393,147,6559,2,0,L|253:129,1,120,8|10,0:0|0:0,0:0:0:0:
225,95,7043,1,2,3:2:0:0:
225,95,7204,2,0,L|97:108,1,120,10|10,0:0|0:0,0:0:0:0:
50,82,7688,6,0,B|15:112|15:112|27:197,1,120,4|2,3:2|3:2,0:0:0:0:
36,245,8172,1,10,0:2:0:0:
97,347,8495,1,10,0:0:0:0:
220,346,8817,1,8,0:0:0:0:
220,346,8978,2,0,B|302:342|302:342|324:327|324:327|417:322,1,192,8|2,3:2|0:0,0:0:0:0:
493,185,10107,1,2,0:0:0:0:
439,90,10430,6,0,P|380:67|287:122,1,161.999995056153,4|2,3:2|0:0,0:0:0:0:
317,268,11398,2,0,P|249:308|173:285,1,161.999995056153,0|2,3:0|0:0,0:0:0:0:
72,322,12204,2,0,B|34:288|34:288|61:170,1,161.999995056153,2|2,0:0|3:2,0:0:0:0:
43,133,12849,1,2,0:0:0:0:
43,133,13011,6,0,L|230:128,1,161.999995056153,2|2,3:2|0:2,0:0:0:0:
347,52,13978,2,0,B|384:33|384:33|497:88,1,161.999995056153,2|2,3:2|0:2,0:0:0:0:
406,223,14946,2,0,L|394:354,1,107.999996704102,2|0,3:2|3:0,0:0:0:0:
353,363,15430,6,0,L|223:350,1,107.999996704102,2|2,0:0|0:0,0:0:0:0:
197,326,15914,1,2,3:2:0:0:
96,365,16237,2,0,P|51:333|37:279,1,107.999996704102,2|2,3:2|3:2,0:0:0:0:
43,238,16720,1,2,0:0:0:0:
43,238,16882,2,0,L|33:129,1,107.999996704102,0|2,3:0|3:2,0:0:0:0:
119,64,17527,2,0,L|130:171,1,107.999996704102,0|2,3:0|3:2,0:0:0:0:
147,278,18172,6,0,P|192:286|246:249,1,107.999996704102,2|2,3:2|3:2,0:0:0:0:
230,201,18656,2,0,L|217:87,1,107.999996704102,2|2,0:0|0:0,0:0:0:0:
243,45,19140,1,2,3:2:0:0:
320,120,19462,2,0,P|363:113|435:102,1,107.999996704102,0|2,3:0|3:2,0:0:0:0:
505,29,20107,1,10,3:2:0:0:
505,29,20269,1,8,3:2:0:0:
503,136,20591,6,0,P|496:200|498:262,1,107.999996704102,6|2,3:2|3:2,0:0:0:0:
459,282,21075,1,10,0:0:0:0:
386,362,21398,2,0,L|308:353,1,53.9999983520508,2|2,3:2|3:2,0:0:0:0:
282,362,21720,1,8,0:0:0:0:
282,362,21882,2,0,P|239:321|262:268,1,107.999996704102,2|2,3:2|3:2,0:0:0:0:
247,224,22366,1,10,0:0:0:0:
304,132,22688,2,0,L|294:74,1,53.9999983520508,0|2,3:0|3:2,0:0:0:0:
261,35,23011,1,10,0:0:0:0:
153,31,23333,6,0,P|104:44|78:97,1,107.999996704102,2|10,3:2|0:0,0:0:0:0:
46,195,23978,2,0,P|100:190|118:187,2,53.9999983520508,2|2|10,3:2|3:2|0:0,0:0:0:0:
9,234,24462,2,0,P|-1:267|34:330,1,107.999996704102,2|0,3:2|3:0,0:0:0:0:
81,350,24946,1,10,0:2:0:0:
177,300,25269,2,0,P|230:285|243:282,1,53.9999983520508,2|2,3:2|3:2,0:0:0:0:
281,312,25591,1,8,0:0:0:0:
281,312,25753,6,0,L|397:326,1,107.999996704102,6|0,3:2|3:0,0:0:0:0:
434,296,26237,1,10,0:0:0:0:
471,194,26559,2,0,P|479:162|493:136,2,53.9999983520508,0|2|10,3:0|3:2|0:2,0:0:0:0:
416,198,27043,2,0,P|369:215|299:185,1,107.999996704102,2|0,3:2|3:0,0:0:0:0:
268,170,27527,1,10,0:0:0:0:
365,123,27849,2,0,L|377:63,1,53.9999983520508,2|2,3:2|3:2,0:0:0:0:
432,63,28172,1,10,0:0:0:0:
432,63,28333,6,0,P|485:108|484:157,1,107.999996704102,6|0,3:2|3:0,0:0:0:0:
471,194,28817,1,10,0:0:0:0:
430,294,29140,1,10,0:0:0:0:
326,309,29462,1,10,0:0:0:0:
326,309,29624,2,0,P|263:290|201:299,1,107.999996704102,10|0,0:0|3:0,0:0:0:0:
176,322,30107,1,10,0:0:0:0:
76,278,30430,2,0,P|65:246|62:207,1,53.9999983520508,8|2,0:0|3:2,0:0:0:0:
78,174,30753,2,0,P|89:142|90:102,1,53.9999983520508,10|2,0:2|3:2,0:0:0:0:
64,81,31075,5,8,0:0:0:0:
64,81,31237,1,8,0:0:0:0:
269,115,32043,5,8,0:0:0:0:
269,115,32204,1,10,0:0:0:0:
480,60,33172,6,0,P|475:90|474:122,1,53.9999983520508,2|10,3:2|0:0,0:0:0:0:
500,223,33656,5,10,0:0:0:0:
500,223,33818,1,8,0:0:0:0:
276,268,34624,5,2,3:2:0:0:
276,268,34785,2,0,P|217:232|173:221,1,107.999996704102,10|0,0:0|3:0,0:0:0:0:
131,245,35269,1,8,0:0:0:0:
40,303,35591,2,0,L|32:383,2,80.9999975280763,0|0|0,3:0|3:0|3:0,0:0:0:0:
13,255,36237,6,0,B|-1:223|-1:223|24:38,1,215.999993408203,6|10,3:2|0:0,0:0:0:0:
114,111,37204,1,2,0:0:0:0:
114,111,37366,2,0,P|167:128|226:106,1,107.999996704102,2|8,3:2|0:0,0:0:0:0:
248,70,37849,1,2,3:2:0:0:
347,27,38172,2,0,P|361:72|338:135,1,107.999996704102,10|2,0:2|3:2,0:0:0:0:
276,213,38817,6,0,L|298:383,1,161.999995056153,6|12,3:2|0:0,0:0:0:0:
458,366,39785,1,2,3:2:0:0:
458,366,39946,2,0,L|441:259,1,107.999996704102,12|0,0:0|3:0,0:0:0:0:
484,227,40430,1,0,3:0:0:0:
484,227,40591,2,0,L|501:120,1,107.999996704102,12|8,0:0|0:0,0:0:0:0:
472,73,41075,2,0,P|443:56|415:56,1,53.9999983520508,8|8,0:0|0:0,0:0:0:0:
372,74,41398,5,4,3:2:0:0:
292,146,41720,2,0,P|233:138|161:133,2,107.999996704102,10|2|8,0:0|3:2|0:0,0:0:0:0:
330,184,42527,1,2,3:2:0:0:
330,184,42688,2,0,P|348:224|319:302,1,107.999996704102,2|10,0:0|0:0,0:0:0:0:
291,317,43172,1,2,0:0:0:0:
186,343,43495,2,0,L|121:332,1,53.9999983520508,2|10,3:2|0:0,0:0:0:0:
82,354,43817,1,2,3:2:0:0:
82,354,43978,6,0,P|26:321|18:271,1,107.999996704102,2|10,3:2|0:2,0:0:0:0:
47,238,44462,2,0,L|68:115,1,107.999996704102,2|2,0:2|3:2,0:0:0:0:
37,85,44946,1,10,0:2:0:0:
137,45,45269,2,0,P|178:40|247:70,1,107.999996704102,2|10,3:2|0:2,0:0:0:0:
279,100,45753,1,2,3:2:0:0:
310,144,45914,2,0,L|307:212,1,53.9999983520508,10|2,3:2|3:2,0:0:0:0:
344,238,46237,2,0,L|347:306,1,53.9999983520508,10|8,3:2|3:2,0:0:0:0:
324,341,46559,6,0,L|192:329,2,107.999996704102,4|2|0,3:2|3:2|3:0,0:0:0:0:
430,322,47527,1,2,3:2:0:0:
500,240,47849,2,0,L|490:132,2,107.999996704102,0|0|0,3:0|3:0|3:0,0:0:0:0:
430,322,48817,1,0,3:0:0:0:
368,232,49140,6,0,L|332:186,1,53.9999983520508,12|2,0:0|3:2,0:0:0:0:
294,153,49462,2,0,L|221:160,1,53.9999983520508,10|2,0:2|3:2,0:0:0:0:
198,193,49785,2,0,L|77:179,1,107.999996704102,10|10,0:2|0:2,0:0:0:0:
42,155,50269,2,0,P|18:115|32:53,1,107.999996704102,6|2,3:2|3:2,0:0:0:0:
77,33,50753,1,10,0:0:0:0:
184,69,51075,1,10,0:2:0:0:
184,69,51237,2,0,P|234:67|258:66,1,53.9999983520508,10|2,0:2|3:2,0:0:0:0:
281,35,51559,6,0,L|397:54,1,107.999996704102,10|10,0:0|0:0,0:0:0:0:
420,95,52043,1,10,0:0:0:0:
368,309,53011,6,0,B|336:301|315:307|319:315|283:335|239:310,1,120,6|8,3:2|0:0,0:0:0:0:
203,349,53495,1,0,0:0:0:0:
203,349,53656,2,0,P|152:365|80:342,1,120,2|8,3:2|0:0,0:0:0:0:
12,256,54301,2,0,L|27:133,1,120,2|8,3:2|0:0,0:0:0:0:
66,92,54785,1,0,0:0:0:0:
66,92,54946,2,0,P|127:79|174:114,1,120,2|8,3:2|0:0,0:0:0:0:
186,168,55430,6,0,B|225:221|310:197,1,120,2|2,0:0|0:0,0:0:0:0:
347,173,55914,1,8,0:0:0:0:
454,238,56237,1,0,3:0:0:0:
454,238,56398,2,0,L|448:314,1,60,2|10,0:0|0:0,0:0:0:0:
414,347,56720,1,2,0:0:0:0:
414,347,56881,2,0,L|274:360,1,120,2|10,3:2|0:0,0:0:0:0:
234,346,57366,2,0,P|217:299|222:270,1,60,2|2,0:0|3:2,0:0:0:0:
293,200,57849,1,8,0:0:0:0:
267,82,58172,5,4,3:2:0:0:
167,14,58495,2,0,P|115:14|48:46,1,120,10|0,0:2|3:0,0:0:0:0:
27,95,58978,2,0,L|36:172,1,60,2|10,3:2|0:0,0:0:0:0:
88,182,59301,1,2,3:2:0:0:
88,182,59462,2,0,L|103:318,1,120,10|10,0:0|0:0,0:0:0:0:
76,356,59946,1,10,0:0:0:0:
199,374,60269,1,2,3:2:0:0:
199,374,60430,2,0,L|274:381,1,60,10|10,0:0|0:0,0:0:0:0:
318,370,60753,6,0,P|340:349|335:261,1,120,10|10,0:0|0:0,0:0:0:0:
314,209,61237,1,2,3:2:0:0:
331,90,61559,2,0,L|402:70,1,60,2|8,3:2|0:0,0:0:0:0:
448,62,61882,2,0,P|467:108|437:185,1,120,14|0,0:0|3:0,0:0:0:0:
418,225,62366,2,0,L|427:290,1,60,10|2,0:0|3:2,0:0:0:0:
406,341,62688,2,0,B|357:376|357:376|284:354,1,120,2|10,3:2|0:2,0:0:0:0:
210,278,63333,6,8,P|171:261|93:283,1,120,6|8,3:2|0:0,0:0:0:0:
48,309,63817,1,0,0:0:0:0:
48,309,63978,2,0,L|59:179,1,120,2|8,3:2|0:0,0:0:0:0:
33,71,64624,2,0,P|76:66|144:110,1,120,2|8,3:2|0:0,0:0:0:0:
176,158,65107,1,0,0:0:0:0:
176,158,65268,2,0,L|306:169,1,120,2|8,3:2|0:0,0:0:0:0:
356,167,65753,6,0,B|390:115|390:115|359:57,1,120,2|2,0:0|0:0,0:0:0:0:
314,28,66237,1,8,0:0:0:0:
200,54,66559,1,0,3:0:0:0:
200,54,66720,2,0,L|116:60,1,60,2|10,0:0|0:0,0:0:0:0:
83,62,67043,1,2,0:0:0:0:
83,62,67204,2,0,L|91:207,1,120,2|10,3:2|0:0,0:0:0:0:
60,234,67688,2,0,P|57:272|72:312,1,60,2|2,0:0|3:2,0:0:0:0:
153,371,68172,1,10,0:0:0:0:
260,316,68495,5,4,3:2:0:0:
378,331,68817,2,0,P|425:307|449:239,1,120,10|0,0:0|3:0,0:0:0:0:
481,196,69301,2,0,P|463:154|435:137,1,60,2|10,3:2|0:0,0:0:0:0:
396,128,69624,1,10,0:0:0:0:
396,128,69785,2,0,P|346:137|258:138,1,120,10|10,0:0|0:0,0:0:0:0:
218,124,70269,1,10,0:0:0:0:
116,60,70591,1,2,3:2:0:0:
116,60,70753,2,0,L|45:69,1,60,2|10,3:2|0:0,0:0:0:0:
22,117,71075,6,0,L|36:248,1,120,10|10,0:0|0:0,0:0:0:0:
66,287,71559,1,2,3:2:0:0:
163,357,71882,2,0,L|229:368,1,60,2|10,3:2|0:0,0:0:0:0:
281,359,72204,2,0,P|300:313|270:236,1,120,6|2,3:2|3:2,0:0:0:0:
251,196,72688,2,0,L|260:131,1,60,10|2,0:0|3:2,0:0:0:0:
239,80,73010,2,0,B|190:45|190:45|117:67,1,120,0|8,3:0|0:0,0:0:0:0:
30,126,73656,6,0,P|46:190|58:263,1,120,4|10,3:2|0:0,0:0:0:0:
92,357,74301,2,0,P|63:375|30:387,2,60,2|2|10,3:2|3:2|0:0,0:0:0:0:
134,314,74785,2,0,P|168:291|249:313,1,120,2|0,3:2|0:0,0:0:0:0:
284,348,75269,1,10,0:0:0:0:
378,274,75591,2,0,P|386:233|380:195,2,60,2|2|10,3:2|3:2|0:0,0:0:0:0:
387,333,76075,6,0,P|424:355|503:308,1,120,2|2,3:2|3:2,0:0:0:0:
500,270,76559,2,0,P|490:228|489:185,1,60,10|2,0:0|0:0,0:0:0:0:
457,159,76882,2,0,P|415:125|335:137,1,120,2|10,3:2|0:0,0:0:0:0:
305,166,77366,2,0,P|257:177|180:190,1,120,2|0,3:2|0:0,0:0:0:0:
135,158,77849,1,10,0:0:0:0:
38,229,78172,2,0,L|43:303,1,60,2|2,0:0|3:2,0:0:0:0:
83,340,78495,1,10,0:0:0:0:
83,340,78656,6,0,L|220:325,1,120,6|0,3:2|3:0,0:0:0:0:
252,292,79140,2,0,L|336:305,1,60,8|2,0:0|3:2,0:0:0:0:
361,333,79462,1,8,0:0:0:0:
461,267,79785,2,0,L|474:183,1,60,10|2,0:0|3:2,0:0:0:0:
466,147,80107,2,0,P|440:118|339:120,1,120,10|10,0:2|0:0,0:0:0:0:
317,146,80591,2,0,L|246:140,1,60,2|8,3:2|0:0,0:0:0:0:
149,87,81075,2,0,L|85:99,1,60,10|2,0:0|3:2,0:0:0:0:
38,129,81398,6,0,B|13:156|13:156|25:250,1,120,10|10,0:0|0:0,0:0:0:0:
55,296,81882,2,0,L|193:308,1,120,2|2,3:2|3:2,0:0:0:0:
227,277,82366,2,0,L|308:268,1,60,10|2,0:0|3:2,0:0:0:0:
332,309,82688,1,8,0:0:0:0:
440,257,83011,2,0,P|446:225|452:187,1,60,10|2,0:0|3:2,0:0:0:0:
409,154,83333,2,0,P|403:122|397:84,1,60,8|2,0:0|3:2,0:0:0:0:
350,59,83656,1,10,0:0:0:0:
243,75,83978,6,0,L|115:94,1,107.999996704102,6|0,3:2|3:0,0:0:0:0:
83,77,84462,2,0,B|59:106|59:106|76:238,1,161.999995056153,14|0,0:0|3:0,0:0:0:0:
114,265,85107,2,0,B|198:278|198:278|209:273|209:273|288:286,1,161.999995056153,12|0,0:0|3:0,0:0:0:0:
324,260,85753,1,10,0:0:0:0:
324,260,85914,2,0,L|344:129,1,107.999996704102,10|10,0:0|0:0,0:0:0:0:
256,192,86398,12,0,87849,0:0:0:0:
