osu file format v14

[General]
AudioFilename: audio.mp3
AudioLeadIn: 0
PreviewTime: 52830
Countdown: 0
SampleSet: Soft
StackLeniency: 0.3
Mode: 0
LetterboxInBreaks: 0
WidescreenStoryboard: 1

[Editor]
Bookmarks: 5007,6882,10330,20491,30975,41298,46459,52911,73556,78556,83878,86459
DistanceSpacing: 1
BeatDivisor: 4
GridSize: 8
TimelineZoom: 1

[Metadata]
Title:Zankoku na Yume to Nemure (TV Size)
TitleUnicode:残酷な夢と眠れ (TV Size)
Artist:Kuribayashi Minami
ArtistUnicode:栗林みな実
Creator:Kaguya_Sama
Version:Insane
Source:回復術士のやり直し
Tags:redo of healer Kaifuku jutsushi no yarinaoshi kaiyari anime op opening jpop pop j-pop japanese theme
BeatmapID:2810665
BeatmapSetID:1356098

[Difficulty]
HPDrainRate:5
CircleSize:4
OverallDifficulty:7
ApproachRate:9
SliderMultiplier:1.65
SliderTickRate:1

[Events]
//Background and Video events
0,0,"kaiyari.jpg",0,0
Video,50,"Kaiyari.mp4"
//Break Periods
//Storyboard Layer 0 (Background)
//Storyboard Layer 1 (Fail)
//Storyboard Layer 2 (Pass)
//Storyboard Layer 3 (Foreground)
//Storyboard Layer 4 (Overlay)
//Storyboard Sound Samples

[TimingPoints]
108,322.58064516129,4,2,2,70,1,0
108,-117.647058823529,4,2,2,70,0,0
753,-100,4,2,2,70,0,0
1398,-117.647058823529,4,2,2,70,0,0
2043,-100,4,2,2,70,0,0
2688,-117.647058823529,4,2,2,70,0,0
3333,-100,4,2,2,70,0,0
3978,-117.647058823529,4,2,2,70,0,0
5107,-100,4,2,2,90,0,0
8978,-250.000000000001,4,2,2,55,0,0
9140,-250.000000000001,4,2,2,5,0,0
9462,-250.000000000001,4,2,2,55,0,0
10430,-117.647058823529,4,2,2,70,0,0
20591,-100,4,2,2,80,0,0
31075,-117.647058823529,4,2,2,80,0,0
33575,-117.647058823529,4,2,2,5,0,0
33656,-117.647058823529,4,2,2,80,0,0
36237,-117.647058823529,4,2,2,70,0,0
38817,-100,4,2,2,80,0,0
41398,-100,4,2,2,80,0,0
46559,-100,4,2,2,70,0,0
51559,-100,4,2,2,80,0,0
52688,-76.9230769230769,4,2,2,80,0,0
53011,-86.9565217391304,4,2,2,95,0,1
58414,-86.9565217391304,4,2,2,5,0,1
58495,-86.9565217391304,4,2,2,95,0,1
60591,-86.9565217391304,4,2,2,95,0,0
63333,-86.9565217391304,4,2,2,95,0,1
68737,-86.9565217391304,4,2,2,5,0,1
68818,-86.9565217391304,4,2,2,95,0,1
71075,-100,4,2,2,95,0,0
83978,-117.647058823529,4,2,2,90,0,0
86398,-200,4,2,2,90,0,0
86720,-166.666666666667,4,2,2,80,0,0
87043,-166.666666666667,4,2,2,70,0,0
87366,-166.666666666667,4,2,2,60,0,0
87688,-166.666666666667,4,2,2,50,0,0
87849,-166.666666666667,4,2,2,5,0,0

[Colours]
Combo1 : 0,83,236
Combo2 : 0,149,0
Combo3 : 252,152,222
Combo4 : 164,126,70

[HitObjects]
8,207,108,6,0,B|43:182|43:182|155:197,1,140.250002675056,0|0,3:0|3:0,0:0:0:0:
194,251,591,1,0,3:0:0:0:
284,290,753,6,0,P|221:222|285:203,1,165,10|0,0:0|3:0,0:0:0:0:
221,131,1237,1,0,0:0:0:0:
150,95,1398,6,0,B|133:118|133:118|141:218,2,105.187502006292,0|0|0,3:2|3:0|3:0,0:0:0:0:
216,56,2043,6,0,P|133:56|151:96,1,165,10|0,0:0|3:0,0:0:0:0:
221,131,2527,1,0,3:0:0:0:
290,91,2688,6,0,L|394:105,2,105.187502006292,0|0|0,3:0|3:0|3:0,0:0:0:0:
237,215,3333,6,0,P|181:148|242:138,1,165,10|0,0:0|3:0,0:0:0:0:
304,169,3817,1,2,3:2:0:0:
364,288,3978,6,0,P|374:243|365:214,1,70.1250013375282,0|2,3:0|3:2,0:0:0:0:
309,101,4301,2,0,P|299:134|304:169,1,70.1250013375282,2|2,3:2|3:2,0:0:0:0:
386,145,4624,1,10,0:0:0:0:
386,145,4704,1,8,0:0:0:0:
386,145,4785,1,10,0:0:0:0:
296,248,4946,1,10,0:0:0:0:
190,244,5107,6,0,B|115:237|115:237|107:232|107:232|-2:221,1,165,6|0,3:2|3:2,0:0:0:0:
152,84,5591,2,0,P|161:130|144:170,1,82.5,10|2,0:0|3:2,0:0:0:0:
78,122,5914,1,10,0:2:0:0:
124,8,6075,1,0,3:0:0:0:
220,131,6237,1,8,0:0:0:0:
152,84,6398,1,2,3:2:0:0:
264,17,6559,6,0,B|303:9|303:9|353:23,1,82.5,8|2,0:0|3:2,0:0:0:0:
470,104,6882,2,0,B|431:112|431:112|381:98,1,82.5,10|2,0:0|3:2,0:0:0:0:
301,95,7204,1,10,0:0:0:0:
431,26,7366,1,0,3:2:0:0:
345,172,7527,1,10,0:0:0:0:
468,242,7688,6,0,B|427:212|387:232|395:241|374:266|310:243,1,165,4|2,3:2|3:2,0:0:0:0:
300,239,8091,1,0,3:0:0:0:
289,232,8172,1,10,0:2:0:0:
186,286,8333,2,0,L|179:339,2,41.25,2|0|10,3:2|3:0|0:0,0:0:0:0:
80,216,8656,5,0,3:0:0:0:
77,195,8736,1,8,0:0:0:0:
75,175,8817,1,8,0:0:0:0:
72,154,8897,1,8,0:0:0:0:
70,132,8978,6,0,B|114:108|114:108|173:128,1,99,8|2,3:2|0:0,0:0:0:0:
172,129,9624,1,2,0:0:0:0:
144,31,9946,6,0,L|127:32,5,16.5,2|2|2|2|2|2,0:0|0:0|0:0|0:0|0:0|0:0,0:0:0:0:
159,20,10430,5,4,3:2:0:0:
273,12,10591,1,2,0:0:0:0:
273,12,10753,2,0,P|268:49|263:85,1,70.1250013375282,2|2,3:2|0:0,0:0:0:0:
320,147,11075,1,2,3:2:0:0:
350,71,11237,2,0,P|399:119|402:143,1,70.1250013375282,2|0,0:0|3:0,0:0:0:0:
328,242,11559,1,2,0:0:0:0:
249,265,11720,5,2,3:2:0:0:
320,147,11882,1,2,0:0:0:0:
405,265,12043,1,2,3:2:0:0:
337,310,12204,2,0,P|326:253|340:217,1,70.1250013375282,2|0,0:0|3:0,0:0:0:0:
472,221,12527,1,2,0:0:0:0:
472,221,12688,2,0,P|483:278|469:314,1,70.1250013375282,2|2,3:2|0:0,0:0:0:0:
391,381,13011,6,0,P|325:345|248:360,1,140.250002675056,2|2,3:2|3:2,0:0:0:0:
191,383,13495,1,2,0:2:0:0:
109,302,13656,1,0,3:2:0:0:
96,306,13978,6,0,L|81:226,1,70.1250013375282,2|2,3:2|0:0,0:0:0:0:
131,172,14301,1,2,3:2:0:0:
81,89,14462,1,2,0:2:0:0:
143,15,14624,1,0,3:0:0:0:
209,61,14785,2,0,L|206:97,1,35.0625006687641,0|0,3:0|3:0,0:0:0:0:
221,50,14946,2,0,B|280:56|280:56|286:61|286:61|381:71,1,140.250002675056,2|0,3:2|3:0,0:0:0:0:
491,140,15430,6,0,P|513:199|467:280,1,140.250002675056,2|2,0:0|0:0,0:0:0:0:
400,290,15914,2,0,P|397:251|416:213,1,70.1250013375282,2|2,3:2|0:0,0:0:0:0:
425,374,16237,2,0,P|390:377|357:365,1,70.1250013375282,2|2,3:2|0:0,0:0:0:0:
484,267,16559,1,2,3:2:0:0:
348,162,16720,6,0,P|313:228|323:315,1,140.250002675056,2|2,0:0|0:2,0:0:0:0:
408,222,17204,2,0,P|427:187|427:139,1,70.1250013375282,2|2,3:2|0:0,0:0:0:0:
374,57,17527,1,0,3:0:0:0:
348,162,17688,1,2,0:0:0:0:
458,44,17849,1,2,3:2:0:0:
430,157,18011,1,2,0:0:0:0:
289,70,18172,6,0,B|226:65|226:65|220:69|220:69|136:63,1,140.250002675056,2|2,3:2|3:2,0:0:0:0:
11,148,18656,2,0,L|80:152,1,70.1250013375282,2|0,0:0|3:0,0:0:0:0:
88,8,18978,1,2,0:0:0:0:
88,8,19140,2,0,P|67:44|69:88,1,70.1250013375282,2|0,3:2|0:0,0:0:0:0:
165,145,19462,5,0,3:0:0:0:
289,70,19624,1,2,0:0:0:0:
299,69,19704,1,2,0:0:0:0:
309,70,19785,2,0,L|368:83,3,35.0625006687641,2|2|2|2,3:2|0:0|0:0|0:0,0:0:0:0:
363,95,20107,5,10,3:2:0:0:
385,248,20269,1,8,3:2:0:0:
398,254,20591,6,0,B|436:280|436:280|424:150,1,165,6|2,3:2|3:2,0:0:0:0:
512,261,21075,2,0,L|503:173,1,82.5,10|2,0:0|0:2,0:0:0:0:
423,42,21398,1,2,3:2:0:0:
363,95,21559,2,0,P|328:107|273:99,1,82.5,2|8,3:2|0:0,0:0:0:0:
221,39,21882,6,0,P|237:84|134:116,1,165,2|2,3:2|3:2,0:0:0:0:
140,124,22285,1,0,3:0:0:0:
128,118,22366,1,10,0:0:0:0:
61,76,22527,2,0,B|24:105|29:151,1,82.5,2|0,0:2|3:0,0:0:0:0:
84,280,22849,1,2,3:2:0:0:
180,217,23011,1,10,0:0:0:0:
241,275,23172,1,2,0:0:0:0:
183,331,23333,6,0,B|302:312|302:312|352:342,1,165,2|10,3:2|0:0,0:0:0:0:
431,384,23817,1,2,0:0:0:0:
498,312,23978,2,0,L|487:226,1,82.5,2|2,3:2|3:2,0:0:0:0:
449,161,24301,1,10,0:0:0:0:
339,225,24462,6,0,B|289:245|254:225|263:220|229:194|158:224,1,165,2|0,3:2|3:0,0:0:0:0:
300,149,24946,2,0,P|308:103|288:62,1,82.5,10|2,0:2|0:2,0:0:0:0:
118,47,25269,1,2,3:2:0:0:
146,119,25430,2,0,L|237:114,1,82.5,2|8,3:2|0:0,0:0:0:0:
387,26,25753,6,0,L|211:34,1,165,6|0,3:2|3:0,0:0:0:0:
300,149,26237,1,10,0:0:0:0:
369,186,26398,2,0,P|379:146|366:107,1,82.5,2|0,0:0|3:0,0:0:0:0:
228,114,26720,1,2,3:2:0:0:
304,230,26882,1,10,0:2:0:0:
464,141,27043,6,0,L|283:149,1,165,2|0,3:2|3:0,0:0:0:0:
239,278,27527,2,0,P|300:312|326:305,1,82.5,10|2,0:0|0:0,0:0:0:0:
369,186,27849,1,2,3:2:0:0:
228,198,28011,1,2,3:2:0:0:
375,270,28172,1,10,0:0:0:0:
299,148,28333,6,0,B|232:99|232:99|145:152,1,165,6|0,3:2|3:0,0:0:0:0:
157,298,28817,1,10,0:0:0:0:
228,198,28978,1,0,3:0:0:0:
84,200,29140,5,10,0:0:0:0:
0,114,29301,1,8,0:0:0:0:
0,114,29382,1,8,0:0:0:0:
0,114,29462,1,10,0:0:0:0:
133,58,29624,6,0,B|169:25|169:25|161:155,1,165,10|0,0:0|3:0,0:0:0:0:
157,152,30027,1,0,3:0:0:0:
153,163,30107,1,10,0:0:0:0:
69,290,30269,1,2,3:2:0:0:
157,298,30430,5,8,0:0:0:0:
270,344,30591,2,0,L|264:392,2,41.25,2|0|10,3:2|3:0|0:2,0:0:0:0:
326,285,30914,1,2,3:2:0:0:
243,176,31075,5,8,0:0:0:0:
324,204,31237,1,8,0:0:0:0:
407,257,32043,5,8,0:0:0:0:
326,285,32204,1,10,0:0:0:0:
243,176,32688,6,0,P|272:120|314:109,1,105.187502006292,2|0,0:0|0:0,0:0:0:0:
325,115,33011,1,0,3:0:0:0:
414,102,33172,5,2,3:2:0:0:
411,91,33253,1,0,3:2:0:0:
406,81,33333,2,0,P|362:34|301:33,1,105.187502006292,10|0,0:0|0:0,0:0:0:0:
311,24,33656,5,10,0:0:0:0:
230,52,33817,1,8,0:0:0:0:
90,71,34462,6,0,L|97:124,1,35.0625006687641,2|8,3:2|0:0,0:0:0:0:
164,6,34624,1,2,3:2:0:0:
161,148,34785,6,0,P|114:181|31:146,1,140.250002675056,10|0,0:0|3:0,0:0:0:0:
2,90,35269,1,8,0:0:0:0:
92,51,35430,1,0,3:0:0:0:
91,61,35511,1,0,3:0:0:0:
90,71,35591,5,0,3:0:0:0:
171,138,35833,5,0,3:0:0:0:
181,229,36075,5,0,3:0:0:0:
166,255,36237,6,0,B|152:293|152:293|266:279,1,140.250002675056,6|2,3:2|0:0,0:0:0:0:
380,349,36882,2,0,P|431:338|432:236,1,140.250002675056,10|2,0:0|0:0,0:0:0:0:
321,218,37366,2,0,L|336:319,1,70.1250013375282,2|0,3:2|0:0,0:0:0:0:
414,189,37688,1,8,0:0:0:0:
414,189,37849,2,0,P|465:179|498:196,1,70.1250013375282,2|0,3:2|3:0,0:0:0:0:
508,106,38172,6,0,P|442:95|365:121,1,140.250002675056,10|2,0:2|3:2,0:0:0:0:
321,218,38656,1,2,3:2:0:0:
235,71,38817,6,0,B|276:46|276:46|264:180,1,165,6|0,3:2|3:0,0:0:0:0:
189,253,39301,6,0,P|234:201|328:225,1,165,12|2,0:0|3:2,0:0:0:0:
424,292,39785,1,2,3:2:0:0:
424,292,39946,6,0,B|372:309|343:280|355:273|301:246|233:291,1,165,12|0,0:0|3:0,0:0:0:0:
134,343,40430,1,0,3:0:0:0:
134,343,40591,6,0,P|74:345|70:247,1,165,12|8,0:0|0:0,0:0:0:0:
201,123,41075,1,8,0:0:0:0:
205,143,41155,1,8,0:0:0:0:
209,163,41236,1,8,0:0:0:0:
214,183,41316,1,8,0:0:0:0:
218,206,41398,6,0,B|229:250|229:250|203:387,2,165,4|10|2,3:2|0:0|3:2,0:0:0:0:
109,168,42204,1,0,3:0:0:0:
33,205,42366,2,0,P|28:144|48:111,1,82.5,8|2,0:0|3:2,0:0:0:0:
189,54,42688,6,0,P|250:49|283:69,1,82.5,2|0,0:0|3:0,0:0:0:0:
291,232,43011,1,10,0:0:0:0:
218,206,43172,2,0,L|228:115,1,82.5,2|0,0:0|3:0,0:0:0:0:
349,48,43495,1,2,3:2:0:0:
361,190,43656,1,10,0:0:0:0:
227,123,43817,1,2,3:2:0:0:
136,216,43978,6,0,L|233:204,1,82.5,2|2,3:2|3:2,0:0:0:0:
50,227,44301,1,10,0:2:0:0:
125,134,44462,6,0,L|137:231,1,82.5,2|2,0:2|3:2,0:0:0:0:
114,48,44785,1,2,3:2:0:0:
206,123,44946,6,0,L|109:135,1,82.5,10|2,0:2|0:2,0:0:0:0:
292,112,45269,1,2,3:2:0:0:
217,205,45430,6,0,L|205:108,1,82.5,2|10,3:2|0:2,0:0:0:0:
228,291,45753,1,2,3:2:0:0:
352,208,45914,5,10,3:2:0:0:
367,297,46075,1,2,3:2:0:0:
428,151,46237,1,10,3:2:0:0:
443,240,46398,1,8,3:2:0:0:
496,56,46559,6,0,L|412:62,1,82.5,4|2,3:2|0:0,0:0:0:0:
510,145,46882,2,0,L|426:151,1,82.5,2|2,3:2|0:0,0:0:0:0:
413,61,47204,2,0,L|329:67,1,82.5,0|2,3:0|0:0,0:0:0:0:
427,150,47527,2,0,L|343:156,1,82.5,2|2,3:2|0:0,0:0:0:0:
179,145,47849,6,0,L|263:151,1,82.5,0|0,3:0|0:0,0:0:0:0:
165,234,48172,2,0,L|249:240,1,82.5,0|0,3:0|0:0,0:0:0:0:
262,150,48494,2,0,L|346:156,1,82.5,0|0,3:0|0:0,0:0:0:0:
248,239,48817,2,0,L|332:245,1,82.5,0|0,3:0|0:0,0:0:0:0:
97,181,49140,5,12,0:0:0:0:
56,280,49301,2,0,L|6:289,2,41.25,2|0|10,3:2|3:0|0:2,0:0:0:0:
134,358,49624,1,2,3:2:0:0:
153,353,49704,1,0,3:0:0:0:
173,348,49785,1,10,0:2:0:0:
248,239,49946,1,2,3:2:0:0:
346,352,50107,1,10,0:2:0:0:
282,157,50269,6,0,L|266:321,1,165,6|2,3:2|3:2,0:0:0:0:
260,332,50672,1,2,3:2:0:0:
253,342,50753,1,10,0:0:0:0:
141,260,50914,1,2,3:2:0:0:
173,186,51075,2,0,L|166:136,2,41.25,10|10|10,0:2|0:2|0:2,0:0:0:0:
62,242,51398,1,2,3:2:0:0:
101,97,51559,6,0,P|139:71|246:124,1,165,10|10,0:0|0:0,0:0:0:0:
226,253,52043,1,10,0:0:0:0:
333,302,52527,5,2,3:2:0:0:
333,302,52607,1,2,3:2:0:0:
333,302,52688,2,0,P|309:256|331:138,1,160.874992635727,10|0,0:0|0:0,0:0:0:0:
403,118,53011,6,0,B|324:105|324:105|292:111|292:111|211:99,1,189.750003619194,6|8,3:2|0:0,0:0:0:0:
108,172,53495,1,0,0:0:0:0:
216,99,53656,2,0,P|221:146|202:189,1,94.8750018095971,2|0,3:2|0:0,0:0:0:0:
123,83,53978,2,0,P|103:148|114:183,1,94.8750018095971,8|0,0:0|0:0,0:0:0:0:
1,260,54301,6,0,B|80:273|80:273|112:267|112:267|193:279,1,189.750003619194,2|8,3:2|0:0,0:0:0:0:
296,206,54785,1,0,0:0:0:0:
188,278,54946,2,0,P|182:231|202:188,1,94.8750018095971,2|0,3:2|0:0,0:0:0:0:
282,296,55269,1,8,0:0:0:0:
201,189,55430,1,2,0:0:0:0:
302,111,55591,6,0,L|295:218,1,94.8750018095971,0|2,3:0|0:0,0:0:0:0:
425,255,55914,2,0,L|418:160,1,94.8750018095971,8|2,0:0|0:0,0:0:0:0:
295,205,56237,1,0,3:0:0:0:
389,80,56398,2,0,P|438:77|485:112,1,94.8750018095971,2|10,0:0|0:0,0:0:0:0:
425,255,56720,1,2,0:0:0:0:
302,111,56882,6,0,B|245:89|202:105|220:121|170:145|97:98,1,189.750003619194,2|10,3:2|0:0,0:0:0:0:
27,25,57366,1,2,0:0:0:0:
167,34,57527,2,0,P|200:74|204:128,1,94.8750018095971,2|0,3:2|0:0,0:0:0:0:
46,200,57849,2,0,L|36:93,1,94.8750018095971,8|0,0:0|0:0,0:0:0:0:
175,23,58172,6,0,B|245:31|245:31|251:36|251:36|351:51,1,142.312502714396,4|0,3:2|0:0,0:0:0:0:
334,59,58495,2,0,L|431:46,1,94.8750018095971,10|0,0:2|0:0,0:0:0:0:
503,149,58817,1,0,3:0:0:0:
377,209,58978,1,2,3:2:0:0:
374,194,59059,1,0,3:0:0:0:
371,179,59140,1,10,0:0:0:0:
427,124,59301,1,2,3:2:0:0:
423,278,59462,5,10,0:0:0:0:
304,259,59624,1,0,3:0:0:0:
347,365,59785,1,10,0:0:0:0:
233,302,59946,6,0,P|160:268|119:269,1,94.8750018095971,10|0,0:0|3:0,0:0:0:0:
132,266,60188,1,0,3:0:0:0:
117,267,60269,1,2,3:2:0:0:
30,340,60430,1,10,0:0:0:0:
28,219,60591,2,0,L|19:164,1,47.4375009047985,10|8,0:0|0:0,0:0:0:0:
59,93,60753,5,10,0:0:0:0:
170,132,60914,1,0,3:0:0:0:
236,20,61075,5,10,0:0:0:0:
121,30,61237,1,2,3:2:0:0:
266,103,61398,5,8,0:0:0:0:
403,86,61559,1,2,3:2:0:0:
416,89,61640,1,0,3:0:0:0:
429,92,61721,1,8,0:0:0:0:
507,218,61882,6,0,B|467:196|467:196|313:233,1,189.750003619194,14|0,0:0|3:0,0:0:0:0:
400,336,62366,2,0,B|420:293|420:293|399:224,1,94.8750018095971,10|2,0:0|3:2,0:0:0:0:
250,194,62688,1,2,3:2:0:0:
162,281,62849,1,2,3:2:0:0:
148,276,62930,1,0,3:0:0:0:
134,271,63011,2,0,L|144:342,3,47.4375009047985,10|8|10|8,0:2|0:0|0:2|0:0,0:0:0:0:
51,273,63333,6,8,P|7:221|50:97,1,189.750003619194,6|8,3:2|0:0,0:0:0:0:
135,31,63817,1,0,0:0:0:0:
32,110,63978,2,0,L|137:120,1,94.8750018095971,2|0,3:2|0:0,0:0:0:0:
41,23,64301,2,0,L|146:33,1,94.8750018095971,8|0,0:0|0:0,0:0:0:0:
215,156,64624,6,0,P|267:200|391:157,1,189.750003619194,2|8,3:2|0:0,0:0:0:0:
457,72,65108,1,0,0:0:0:0:
378,175,65269,2,0,L|368:70,1,94.8750018095971,2|0,3:2|0:0,0:0:0:0:
465,166,65591,1,8,0:0:0:0:
369,80,65753,1,2,0:0:0:0:
330,259,65914,6,0,L|443:247,1,94.8750018095971,0|2,3:0|0:0,0:0:0:0:
485,375,66237,2,0,L|390:364,1,94.8750018095971,8|2,0:0|0:0,0:0:0:0:
424,248,66559,1,0,3:0:0:0:
261,215,66720,2,0,P|247:268|260:308,1,94.8750018095971,2|10,0:0|0:0,0:0:0:0:
390,364,67043,1,2,0:0:0:0:
332,175,67204,6,0,B|286:147|239:166|248:194|206:205|140:168,1,189.750003619194,2|10,3:2|0:0,0:0:0:0:
20,224,67688,1,2,0:0:0:0:
159,268,67849,2,0,L|152:174,1,94.8750018095971,2|0,3:2|0:0,0:0:0:0:
15,101,68172,2,0,P|67:89|130:119,1,94.8750018095971,10|0,0:0|0:0,0:0:0:0:
237,238,68495,6,0,L|225:96,1,142.312502714396,4|0,3:2|0:0,0:0:0:0:
232,83,68817,2,0,B|266:55|266:55|339:73,1,94.8750018095971,10|0,0:0|0:0,0:0:0:0:
439,153,69140,1,0,3:0:0:0:
397,267,69301,1,2,3:2:0:0:
382,270,69382,1,0,3:0:0:0:
367,273,69463,1,10,0:0:0:0:
312,217,69624,1,10,0:0:0:0:
203,307,69785,5,10,0:0:0:0:
89,362,69946,1,10,3:2:0:0:
80,339,70027,1,0,3:0:0:0:
71,317,70107,1,10,0:0:0:0:
28,207,70269,1,10,0:0:0:0:
164,187,70430,6,0,L|157:240,4,47.4375009047985,0|0|2|0|2,3:0|3:0|3:2|3:0|3:2,0:0:0:0:
66,124,70914,2,0,L|57:64,1,47.4375009047985,10|8,0:0|0:0,0:0:0:0:
111,19,71075,5,10,0:0:0:0:
229,53,71237,1,0,3:0:0:0:
282,153,71398,5,10,0:0:0:0:
164,187,71560,1,2,3:2:0:0:
231,280,71720,5,8,0:0:0:0:
349,314,71882,1,2,3:2:0:0:
406,166,72043,1,10,0:0:0:0:
502,235,72204,6,0,P|438:219|322:215,1,165,6|2,3:2|3:2,0:0:0:0:
231,280,72688,1,10,0:0:0:0:
129,245,72849,6,0,L|122:191,2,41.25,2|0|0,3:2|3:0|3:0,0:0:0:0:
49,156,73172,2,0,L|55:108,1,41.25,2|8,3:2|0:0,0:0:0:0:
119,33,73414,5,0,3:0:0:0:
147,40,73495,1,10,0:0:0:0:
174,46,73575,1,8,0:0:0:0:
201,53,73656,6,0,L|296:47,1,82.5,4|0,3:2|0:0,0:0:0:0:
393,12,73978,2,0,B|357:46|357:46|366:167,1,165,10|2,0:0|3:2,0:0:0:0:
373,248,74462,1,2,3:2:0:0:
289,138,74624,1,10,0:0:0:0:
289,138,74785,2,0,P|282:178|300:214,1,82.5,2|0,3:2|3:0,0:0:0:0:
452,271,75107,1,0,0:0:0:0:
510,107,75269,6,0,P|459:89|421:103,1,82.5,10|0,0:0|0:0,0:0:0:0:
373,248,75591,1,2,3:2:0:0:
463,171,75753,1,2,3:2:0:0:
361,68,75914,1,10,0:0:0:0:
361,68,76075,2,0,P|354:108|372:144,1,82.5,2|0,3:2|0:0,0:0:0:0:
452,271,76398,5,2,3:2:0:0:
310,297,76559,1,10,0:0:0:0:
203,200,76720,1,2,0:0:0:0:
175,341,76882,5,2,3:2:0:0:
284,218,77043,1,2,3:2:0:0:
125,169,77204,1,10,0:0:0:0:
228,282,77366,1,2,3:2:0:0:
257,138,77527,6,0,L|248:43,1,82.5,2|0,3:2|0:0,0:0:0:0:
88,94,77849,1,10,0:0:0:0:
203,200,78011,1,2,3:2:0:0:
249,55,78172,5,2,0:0:0:0:
125,169,78333,1,2,3:2:0:0:
228,282,78495,1,10,0:0:0:0:
248,277,78575,1,8,0:0:0:0:
268,272,78656,6,0,P|340:253|450:273,1,165,6|0,3:2|3:0,0:0:0:0:
329,177,79140,2,0,P|381:176|437:190,1,82.5,8|2,0:0|3:2,0:0:0:0:
436,349,79462,5,8,0:0:0:0:
487,204,79624,1,2,3:2:0:0:
428,264,79785,1,10,0:0:0:0:
394,101,79947,1,2,3:2:0:0:
261,128,80107,6,0,P|248:168|270:233,1,82.5,10|0,0:2|3:0,0:0:0:0:
359,309,80430,1,10,0:0:0:0:
329,177,80591,1,2,3:2:0:0:
183,250,80753,6,0,L|88:255,1,82.5,8|0,0:0|3:0,0:0:0:0:
242,317,81075,1,10,0:0:0:0:
254,207,81237,1,2,3:2:0:0:
97,171,81398,6,0,L|101:262,1,82.5,10|0,0:0|3:0,0:0:0:0:
3,68,81720,2,0,L|0:151,1,82.5,10|2,0:0|3:2,0:0:0:0:
144,66,82043,5,8,0:0:0:0:
230,122,82204,1,2,3:2:0:0:
97,171,82366,1,10,0:0:0:0:
254,207,82527,1,2,3:2:0:0:
312,63,82688,6,0,L|315:161,1,82.5,8|2,0:0|3:2,0:0:0:0:
414,5,83011,2,0,L|411:103,1,82.5,10|2,0:0|3:2,0:0:0:0:
401,242,83333,5,8,0:0:0:0:
314,145,83495,1,2,3:2:0:0:
457,183,83656,1,10,0:0:0:0:
411,87,83817,1,2,3:2:0:0:
313,250,83978,6,0,B|281:266|281:266|226:258,1,70.1250013375282,6|0,3:2|3:0,0:0:0:0:
230,254,84220,1,0,3:0:0:0:
215,244,84301,1,0,3:0:0:0:
105,350,84462,6,0,L|129:204,1,140.250002675056,14|0,0:0|3:0,0:0:0:0:
123,194,84866,1,0,3:0:0:0:
118,177,84947,1,0,3:0:0:0:
11,99,85107,6,0,B|57:117|92:98|85:90|138:78|173:109,1,140.250002675056,12|0,0:0|3:0,0:0:0:0:
163,103,85511,1,0,3:0:0:0:
178,111,85591,1,0,3:0:0:0:
371,153,85753,6,0,L|326:159,1,35.0625006687641,10|8,0:0|0:0,0:0:0:0:
342,255,85914,1,10,0:0:0:0:
359,252,85995,1,8,0:0:0:0:
377,250,86075,2,0,L|443:242,3,35.0625006687641,8|8|10|8,0:0|0:0|0:0|0:0,0:0:0:0:
437,257,86398,6,0,B|505:225|527:150|486:75|406:74|406:74|441:93|461:130|452:181,1,371.25,14|0,0:0|0:0,0:0:0:0:
