osu file format v14

[General]
AudioFilename: audio.mp3
AudioLeadIn: 0
PreviewTime: 52830
Countdown: 0
SampleSet: Soft
StackLeniency: 0.7
Mode: 0
LetterboxInBreaks: 0
WidescreenStoryboard: 1

[Editor]
Bookmarks: 5007,10330,20491,30975,41298,46459,52911,73556,78556,83878,86459
DistanceSpacing: 1.3
BeatDivisor: 4
GridSize: 4
TimelineZoom: 1

[Metadata]
Title:Zankoku na Yume to Nemure (TV Size)
TitleUnicode:残酷な夢と眠れ (TV Size)
Artist:Kuribayashi Minami
ArtistUnicode:栗林みな実
Creator:Kaguya_Sama
Version:Hard
Source:回復術士のやり直し
Tags:redo of healer Kaifuku jutsushi no yarinaoshi kaiyari anime op opening jpop pop j-pop japanese theme
BeatmapID:2807873
BeatmapSetID:1356098

[Difficulty]
HPDrainRate:5
CircleSize:3.5
OverallDifficulty:6
ApproachRate:8
SliderMultiplier:1.4
SliderTickRate:1

[Events]
//Background and Video events
0,0,"kaiyari.jpg",0,0
Video,50,"Kaiyari.mp4"
//Break Periods
//Storyboard Layer 0 (Background)
//Storyboard Layer 1 (Fail)
//Storyboard Layer 2 (Pass)
//Storyboard Layer 3 (Foreground)
//Storyboard Layer 4 (Overlay)
//Storyboard Sound Samples

[TimingPoints]
108,322.58064516129,4,2,2,70,1,0
108,-111.111111111111,4,2,2,70,0,0
5107,-100,4,2,2,90,0,0
8978,-142.857142857143,4,2,2,55,0,0
10430,-111.111111111111,4,2,2,70,0,0
20591,-100,4,2,2,80,0,0
31075,-111.111111111111,4,2,2,80,0,0
36237,-111.111111111111,4,2,2,70,0,0
38817,-100,4,2,2,80,0,0
41398,-100,4,2,2,80,0,0
46559,-100,4,2,2,70,0,0
51559,-100,4,2,2,80,0,0
53011,-100,4,2,2,95,0,1
60591,-100,4,2,2,95,0,0
63333,-100,4,2,2,95,0,1
71075,-100,4,2,2,95,0,0
83978,-111.111111111111,4,2,2,90,0,0
86398,-142.857142857143,4,2,2,90,0,0
86720,-166.666666666667,4,2,2,80,0,0
87043,-166.666666666667,4,2,2,70,0,0
87366,-166.666666666667,4,2,2,60,0,0
87688,-166.666666666667,4,2,2,50,0,0
87849,-166.666666666667,4,2,2,5,0,0

[Colours]
Combo1 : 0,83,236
Combo2 : 0,149,0
Combo3 : 252,152,222
Combo4 : 164,126,70

[HitObjects]
21,230,108,6,0,L|165:248,1,125.999996154785,0|0,3:0|3:0,0:0:0:0:
207,192,591,1,0,3:0:0:0:
264,133,753,2,0,L|389:117,1,125.999996154785,10|0,0:0|3:0,0:0:0:0:
445,270,1398,6,0,L|332:286,1,94.499997116089,0|0,3:2|3:0,0:0:0:0:
336,288,1720,2,0,P|307:316|302:349,1,62.9999980773926,0|0,3:0|3:0,0:0:0:0:
232,381,2043,2,0,L|217:235,1,125.999996154785,10|0,0:0|3:0,0:0:0:0:
156,202,2527,1,0,3:0:0:0:
89,154,2688,6,0,P|89:101|138:58,1,94.499997116089,0|0,3:0|3:0,0:0:0:0:
129,61,3011,2,0,L|206:72,1,62.9999980773926,0|0,3:0|3:0,0:0:0:0:
267,40,3333,2,0,P|311:52|404:31,1,125.999996154785,10|0,0:0|3:0,0:0:0:0:
467,63,3817,6,0,L|475:212,1,125.999996154785,2|2,3:2|3:2,0:0:0:0:
461,270,4301,2,0,P|406:259|371:261,1,62.9999980773926,2|2,3:2|3:2,0:0:0:0:
328,299,4624,1,10,0:0:0:0:
324,310,4704,1,8,0:0:0:0:
320,321,4785,1,10,0:0:0:0:
242,347,4946,1,10,0:0:0:0:
132,272,5107,6,0,P|93:250|-12:253,1,140,6|0,3:2|3:2,0:0:0:0:
75,197,5591,2,0,P|107:178|136:134,1,70,10|2,0:0|3:2,0:0:0:0:
209,192,5914,2,0,P|207:232|290:319,1,140,10|8,0:2|0:0,0:0:0:0:
354,318,6398,1,2,3:2:0:0:
381,231,6559,6,0,P|380:196|369:163,1,70,8|2,0:0|3:2,0:0:0:0:
303,99,6882,2,0,L|230:110,1,70,10|2,0:0|3:2,0:0:0:0:
146,133,7204,2,0,L|62:120,2,70,10|0|10,0:0|3:2|0:0,0:0:0:0:
136,19,7688,6,0,P|193:27|288:5,1,140,4|2,3:2|3:2,0:0:0:0:
283,14,8091,1,0,3:0:0:0:
293,17,8172,1,10,0:2:0:0:
319,103,8333,2,0,L|303:156,2,35,2|0|10,3:2|3:0|0:0,0:0:0:0:
396,55,8656,2,0,L|385:21,2,35,0|8|8,3:0|0:0|0:0,0:0:0:0:
458,125,8978,6,0,B|452:203|452:203|455:213|455:213|441:323,1,195.999994018555,8|2,3:2|0:0,0:0:0:0:
297,331,9946,2,0,L|290:307,5,24.4999992523194,2|2|2|2|2|2,0:0|0:0|0:0|0:0|0:0|0:0,0:0:0:0:
270,286,10430,5,4,3:2:0:0:
181,306,10591,2,0,L|97:321,1,62.9999980773926,2|2,0:0|3:2,0:0:0:0:
44,283,10914,1,2,0:0:0:0:
105,228,11075,2,0,L|245:203,1,125.999996154785,2|0,3:2|3:0,0:0:0:0:
311,207,11559,1,2,0:0:0:0:
352,136,11720,6,0,L|344:66,2,62.9999980773926,2|2|2,3:2|0:0|3:2,0:0:0:0:
421,179,12204,2,0,P|351:218|288:188,1,125.999996154785,2|2,0:0|0:0,0:0:0:0:
269,136,12688,2,0,P|228:124|182:131,1,62.9999980773926,2|2,3:2|0:0,0:0:0:0:
148,181,13011,6,0,L|161:327,1,125.999996154785,2|2,3:2|3:2,0:0:0:0:
219,362,13495,2,0,P|248:369|302:364,1,62.9999980773926,2|0,0:2|3:2,0:0:0:0:
427,296,13978,2,0,L|417:211,1,62.9999980773926,2|2,3:2|0:0,0:0:0:0:
464,164,14301,5,2,3:2:0:0:
464,164,14462,2,0,P|410:149|347:189,1,125.999996154785,2|0,0:2|3:0,0:0:0:0:
272,161,14946,2,0,L|282:306,1,125.999996154785,2|0,3:2|3:0,0:0:0:0:
222,345,15430,6,0,P|171:367|100:339,1,125.999996154785,2|2,0:0|0:0,0:0:0:0:
83,266,15914,2,0,L|91:194,1,62.9999980773926,2|2,3:2|0:0,0:0:0:0:
170,217,16237,2,0,L|163:279,2,62.9999980773926,2|2|2,3:2|0:0|3:2,0:0:0:0:
143,139,16720,6,0,P|105:119|19:166,1,125.999996154785,2|2,0:0|0:2,0:0:0:0:
33,227,17204,2,0,P|62:221|92:200,1,62.9999980773926,2|2,3:2|0:0,0:0:0:0:
170,217,17527,1,0,3:0:0:0:
231,162,17688,2,0,L|314:178,1,62.9999980773926,2|2,0:0|3:2,0:0:0:0:
358,231,18011,1,2,0:0:0:0:
358,231,18172,6,0,B|383:201|383:201|368:95,1,125.999996154785,2|2,3:2|3:2,0:0:0:0:
327,44,18656,2,0,P|263:27|200:62,1,125.999996154785,2|2,0:0|0:0,0:0:0:0:
166,119,19140,1,2,3:2:0:0:
35,217,19462,5,0,3:0:0:0:
81,286,19624,1,2,0:0:0:0:
94,290,19704,1,2,0:0:0:0:
108,295,19785,2,0,L|146:288,3,31.4999990386963,2|2|2|2,3:2|0:0|0:0|0:0,0:0:0:0:
170,311,20107,1,10,3:2:0:0:
251,302,20269,1,8,3:2:0:0:
419,371,20591,6,0,B|441:341|441:341|425:206,1,140,6|2,3:2|3:2,0:0:0:0:
480,163,21075,2,0,P|435:137|401:138,1,70,10|2,0:0|0:2,0:0:0:0:
335,167,21398,1,2,3:2:0:0:
335,167,21559,2,0,P|299:185|241:182,1,70,2|8,3:2|0:0,0:0:0:0:
210,118,21882,6,0,P|163:96|79:136,1,140,2|2,3:2|3:2,0:0:0:0:
152,189,22366,1,10,0:0:0:0:
212,256,22527,2,0,P|205:304|199:354,1,70,2|0,0:2|3:0,0:0:0:0:
123,365,22849,1,2,3:2:0:0:
123,365,23011,2,0,P|70:370|40:358,1,70,10|2,0:0|0:0,0:0:0:0:
0,292,23333,6,0,L|17:148,1,140,2|10,3:2|0:0,0:0:0:0:
38,64,23817,1,2,0:0:0:0:
119,104,23978,2,0,P|129:70|125:36,2,70,2|2|10,3:2|3:2|0:0,0:0:0:0:
152,189,24462,6,0,B|187:204|187:204|300:181,1,140,2|0,3:2|3:0,0:0:0:0:
341,110,24946,2,0,L|419:124,1,70,10|2,0:2|0:2,0:0:0:0:
484,175,25269,2,0,P|505:210|505:258,1,70,2|2,3:2|3:2,0:0:0:0:
467,319,25591,1,8,0:0:0:0:
362,300,25753,6,0,B|302:290|302:290|281:295|281:295|206:284,1,140,6|0,3:2|3:0,0:0:0:0:
153,237,26237,1,10,0:0:0:0:
153,237,26398,2,0,P|137:268|141:321,1,70,2|0,0:0|3:0,0:0:0:0:
206,352,26720,2,0,P|221:321|223:286,1,70,2|10,3:2|0:2,0:0:0:0:
234,195,27043,6,0,P|186:151|92:166,1,140,2|0,3:2|3:0,0:0:0:0:
25,174,27527,2,0,L|21:99,1,70,10|2,0:0|0:0,0:0:0:0:
73,30,27849,1,2,3:2:0:0:
73,30,28011,2,0,P|114:24|147:28,1,70,2|10,3:2|0:0,0:0:0:0:
225,62,28333,6,0,P|260:73|373:57,1,140,6|0,3:2|3:0,0:0:0:0:
439,15,28817,2,0,P|456:57|448:93,1,70,10|0,0:0|3:0,0:0:0:0:
392,148,29140,2,0,L|399:225,1,70,10|8,0:0|0:0,0:0:0:0:
406,225,29382,1,8,0:0:0:0:
413,233,29462,1,10,0:0:0:0:
448,335,29624,6,0,B|401:317|401:317|288:336,1,140,10|0,0:0|3:0,0:0:0:0:
303,328,30027,1,0,3:0:0:0:
293,325,30107,1,10,0:0:0:0:
208,360,30269,1,2,3:2:0:0:
119,337,30430,2,0,P|106:294|113:260,1,70,8|2,0:0|3:2,0:0:0:0:
116,262,30672,1,0,3:0:0:0:
124,255,30753,1,10,0:2:0:0:
71,180,30914,1,2,3:2:0:0:
92,94,31075,5,8,0:0:0:0:
92,94,31237,1,8,0:0:0:0:
369,158,32043,5,8,0:0:0:0:
369,158,32205,1,10,0:0:0:0:
171,347,33011,5,0,3:0:0:0:
100,302,33172,1,2,3:2:0:0:
97,292,33253,1,0,3:2:0:0:
94,282,33333,1,10,0:0:0:0:
183,124,33656,5,10,0:0:0:0:
183,124,33817,1,8,0:0:0:0:
422,239,34624,5,2,3:2:0:0:
422,239,34785,2,0,P|453:205|434:119,1,125.999996154785,10|0,0:0|3:0,0:0:0:0:
381,76,35269,1,8,0:0:0:0:
305,106,35430,1,0,3:0:0:0:
309,117,35511,1,0,3:0:0:0:
314,128,35591,2,0,B|309:178|309:178|311:182|311:182|306:232,2,94.499997116089,0|0|0,3:0|3:0|3:0,0:0:0:0:
228,66,36237,6,0,B|191:50|191:50|101:68,1,125.999996154785,6|2,3:2|0:0,0:0:0:0:
5,195,36882,2,0,L|17:327,1,125.999996154785,10|2,0:0|0:0,0:0:0:0:
78,374,37366,2,0,B|105:353|105:353|214:365,1,125.999996154785,2|8,3:2|0:0,0:0:0:0:
270,324,37849,1,2,3:2:0:0:
270,324,38011,1,0,3:0:0:0:
343,358,38172,2,0,P|319:294|362:224,1,125.999996154785,10|2,0:2|3:2,0:0:0:0:
409,200,38656,1,2,3:2:0:0:
474,137,38817,6,0,P|457:67|385:67,1,140,6|0,3:2|3:0,0:0:0:0:
315,99,39301,2,0,L|174:120,1,140,12|2,0:0|3:2,0:0:0:0:
99,81,39785,1,2,3:2:0:0:
99,81,39946,2,0,B|73:113|73:113|87:235,1,140,12|0,0:0|3:0,0:0:0:0:
166,262,40430,1,0,3:0:0:0:
166,262,40591,2,0,B|192:230|192:230|178:108,1,140,12|8,0:0|0:0,0:0:0:0:
242,64,41075,2,0,L|235:24,3,35,8|8|8|8,0:0|0:0|0:0|0:0,0:0:0:0:
260,93,41398,6,0,P|312:88|405:62,1,140,4|10,3:2|0:0,0:0:0:0:
510,207,42043,2,0,L|504:294,1,70,2|0,3:2|3:0,0:0:0:0:
418,306,42366,2,0,L|424:236,1,70,8|2,0:0|3:2,0:0:0:0:
346,189,42688,6,0,P|276:193|266:260,1,140,2|10,0:0|0:0,0:0:0:0:
261,343,43172,2,0,L|185:354,1,70,2|0,0:0|3:0,0:0:0:0:
106,338,43495,1,2,3:2:0:0:
106,338,43656,2,0,P|71:298|66:272,1,70,10|2,0:0|3:2,0:0:0:0:
43,195,43978,6,0,L|51:114,2,70,2|2|10,3:2|3:2|0:2,0:0:0:0:
132,214,44462,2,0,L|138:144,2,70,2|2|2,0:2|3:2|3:2,0:0:0:0:
215,250,44946,6,0,L|221:319,2,70,10|2|2,0:2|0:2|3:2,0:0:0:0:
304,231,45430,2,0,L|310:300,2,70,2|10|2,3:2|0:2|3:2,0:0:0:0:
396,332,45914,5,10,3:2:0:0:
469,278,46075,1,2,3:2:0:0:
445,189,46237,2,0,P|404:175|377:179,1,70,10|8,3:2|3:2,0:0:0:0:
304,231,46559,6,0,L|227:243,1,70,4|2,3:2|0:0,0:0:0:0:
158,292,46882,2,0,L|146:215,1,70,2|2,3:2|0:0,0:0:0:0:
95,148,47204,2,0,L|172:136,1,70,0|2,3:0|0:0,0:0:0:0:
241,87,47527,2,0,L|253:164,1,70,2|2,3:2|0:0,0:0:0:0:
234,241,47849,6,0,L|304:231,1,70,0|0,3:0|0:0,0:0:0:0:
390,259,48172,2,0,L|379:189,1,70,0|0,3:0|0:0,0:0:0:0:
396,104,48494,2,0,L|327:115,1,70,0|0,3:0|0:0,0:0:0:0:
241,87,48817,2,0,L|251:156,1,70,0|0,3:0|0:0,0:0:0:0:
303,231,49140,5,12,0:0:0:0:
254,322,49301,2,0,L|266:366,2,35,2|0|10,3:2|3:0|0:2,0:0:0:0:
162,316,49624,2,0,L|142:355,2,35,2|0|10,3:2|3:0|0:2,0:0:0:0:
106,243,49946,1,2,3:2:0:0:
96,241,50027,1,0,3:0:0:0:
87,239,50107,1,10,0:2:0:0:
164,171,50269,6,0,B|176:110|176:110|173:101|173:101|187:28,1,140,6|2,3:2|3:2,0:0:0:0:
196,31,50672,1,2,3:2:0:0:
206,28,50753,1,10,0:0:0:0:
286,70,50914,1,2,3:2:0:0:
369,35,51075,2,0,L|363:1,2,35,10|10|10,0:2|0:2|0:2,0:0:0:0:
447,81,51398,1,2,3:2:0:0:
478,166,51559,6,0,P|464:206|445:333,1,140,10|10,0:0|0:0,0:0:0:0:
379,363,52043,1,10,0:0:0:0:
119,276,52527,5,2,3:2:0:0:
112,268,52607,1,2,3:2:0:0:
106,259,52688,2,0,P|107:201|92:128,1,105,10|0,0:0|0:0,0:0:0:0:
93,136,53011,6,0,P|154:155|248:149,1,140,6|8,3:2|0:0,0:0:0:0:
315,117,53495,1,0,0:0:0:0:
374,48,53656,2,0,P|406:99|370:192,1,140,2|8,3:2|0:0,0:0:0:0:
244,284,54301,6,0,B|218:245|218:245|230:140,1,140,2|8,3:2|0:0,0:0:0:0:
178,75,54785,1,0,0:0:0:0:
106,131,54946,2,0,B|132:165|132:165|236:151,1,140,2|8,3:2|0:0,0:0:0:0:
296,90,55430,6,0,L|439:112,1,140,2|2,0:0|0:0,0:0:0:0:
504,170,55914,2,0,P|516:206|501:250,1,70,8|2,0:0|0:0,0:0:0:0:
448,305,56237,1,0,3:0:0:0:
448,305,56398,2,0,L|364:293,1,70,2|10,0:0|0:0,0:0:0:0:
294,322,56720,1,2,0:0:0:0:
214,277,56882,6,0,P|158:234|85:247,1,140,2|10,3:2|0:0,0:0:0:0:
133,323,57366,1,2,0:0:0:0:
42,318,57527,2,0,P|18:296|4:241,1,70,2|0,3:2|0:0,0:0:0:0:
31,174,57849,2,0,P|59:154|121:152,1,70,8|0,0:0|0:0,0:0:0:0:
168,67,58172,6,0,B|140:104|140:104|167:203,2,140,4|10|0,3:2|0:2|3:0,0:0:0:0:
237,8,58978,1,2,3:2:0:0:
244,16,59059,1,0,3:0:0:0:
251,24,59140,1,10,0:0:0:0:
329,69,59301,1,2,3:2:0:0:
406,21,59462,6,0,P|417:50|405:116,1,70,10|0,0:0|3:0,0:0:0:0:
360,161,59785,1,10,0:0:0:0:
360,161,59946,2,0,P|343:217|347:257,1,70,10|0,0:0|3:0,0:0:0:0:
348,237,60188,1,0,3:0:0:0:
354,246,60269,1,2,3:2:0:0:
314,327,60430,1,10,0:0:0:0:
225,307,60591,1,10,0:0:0:0:
215,304,60672,1,8,0:0:0:0:
205,303,60753,6,0,L|117:313,1,70,10|0,0:0|3:0,0:0:0:0:
65,212,61075,2,0,L|135:220,1,70,10|2,0:0|3:2,0:0:0:0:
187,145,61398,1,8,0:0:0:0:
115,88,61559,1,2,3:2:0:0:
105,91,61640,1,0,3:0:0:0:
95,95,61720,1,8,0:0:0:0:
189,20,61882,6,0,B|253:30|253:30|259:40|259:40|352:55,1,140,14|0,0:0|3:0,0:0:0:0:
409,22,62366,2,0,P|413:65|387:110,1,70,10|2,0:0|3:2,0:0:0:0:
329,141,62688,1,2,3:2:0:0:
374,229,62849,1,2,3:2:0:0:
371,239,62930,1,0,3:0:0:0:
368,249,63011,2,0,L|372:293,3,35,10|8|10|8,0:2|0:0|0:2|0:0,0:0:0:0:
357,313,63333,6,8,L|187:324,1,140,6|8,3:2|0:0,0:0:0:0:
126,312,63817,1,0,0:0:0:0:
44,351,63978,2,0,P|39:297|86:229,1,140,2|8,3:2|0:0,0:0:0:0:
235,124,64624,6,0,B|294:136|294:136|305:146|305:146|378:161,1,140,2|8,3:2|0:0,0:0:0:0:
454,130,65107,1,0,0:0:0:0:
417,46,65269,2,0,P|360:128|372:164,1,140,2|8,3:2|0:0,0:0:0:0:
433,223,65753,6,0,L|402:372,1,140,2|2,0:0|0:0,0:0:0:0:
331,304,66237,2,0,P|297:279|246:273,1,70,8|2,0:0|0:0,0:0:0:0:
188,306,66559,1,0,3:0:0:0:
188,306,66720,2,0,L|190:380,1,70,2|10,0:0|0:0,0:0:0:0:
105,340,67043,1,2,0:0:0:0:
21,375,67204,6,0,B|1:343|1:343|40:216,1,140,2|10,3:2|0:0,0:0:0:0:
3,158,67688,1,2,0:0:0:0:
67,94,67849,2,0,L|148:100,1,70,2|0,3:2|0:0,0:0:0:0:
210,153,68172,2,0,L|279:147,1,70,10|0,0:0|0:0,0:0:0:0:
360,72,68495,6,0,B|401:56|401:56|494:104,2,140,4|10|0,3:2|0:0|3:0,0:0:0:0:
282,25,69301,1,2,3:2:0:0:
272,22,69382,1,0,3:0:0:0:
262,19,69462,1,10,0:0:0:0:
185,69,69624,1,10,0:0:0:0:
98,41,69785,6,0,P|44:45|28:57,1,70,10|10,0:0|3:2,0:0:0:0:
27,62,70027,1,0,3:0:0:0:
24,72,70107,1,10,0:0:0:0:
68,151,70269,1,10,0:0:0:0:
23,230,70430,2,0,L|18:273,3,35,0|0|2|0,3:0|3:0|3:2|3:0,0:0:0:0:
30,288,70753,1,2,3:2:0:0:
108,334,70914,1,10,0:0:0:0:
118,331,70995,1,8,0:0:0:0:
128,328,71075,6,0,L|220:339,1,70,10|0,0:0|3:0,0:0:0:0:
293,240,71398,2,0,L|224:249,1,70,10|2,0:0|3:2,0:0:0:0:
163,181,71720,1,8,0:0:0:0:
163,181,71882,2,0,P|176:136|203:122,1,70,2|10,3:2|0:0,0:0:0:0:
250,32,72204,6,0,B|335:27|311:68|392:61,1,140,6|2,3:2|3:2,0:0:0:0:
466,21,72688,2,0,P|477:66|465:101,1,70,10|2,0:0|3:2,0:0:0:0:
465,96,72930,1,0,3:0:0:0:
457,103,73011,1,0,3:0:0:0:
406,178,73172,2,0,L|368:190,1,35,2|8,3:2|0:0,0:0:0:0:
293,143,73414,2,0,L|245:135,2,35,0|10|8,3:0|0:0|0:0,0:0:0:0:
326,112,73656,6,0,P|327:57|235:58,1,140,4|10,3:2|0:0,0:0:0:0:
87,109,74301,2,0,P|92:145|89:179,1,70,2|2,3:2|3:2,0:0:0:0:
48,262,74624,1,10,0:0:0:0:
48,262,74785,6,0,P|107:273|171:227,1,140,2|0,3:2|0:0,0:0:0:0:
168,138,75269,1,10,0:0:0:0:
315,32,75591,2,0,P|353:25|394:32,1,70,2|2,3:2|3:2,0:0:0:0:
446,95,75914,1,10,0:0:0:0:
446,95,76075,6,0,L|422:260,1,140,2|2,3:2|3:2,0:0:0:0:
412,323,76559,2,0,P|372:339|339:339,1,70,10|2,0:0|0:0,0:0:0:0:
281,274,76882,2,0,L|295:192,2,70,2|2|10,3:2|3:2|0:0,0:0:0:0:
209,330,77366,6,0,B|170:346|170:346|66:315,1,140,2|0,3:2|0:0,0:0:0:0:
8,257,77849,2,0,L|24:179,1,70,10|2,0:0|3:2,0:0:0:0:
85,123,78172,2,0,P|119:124|153:137,1,70,2|2,0:0|3:2,0:0:0:0:
212,205,78495,1,10,0:0:0:0:
218,214,78575,1,8,0:0:0:0:
225,222,78656,6,0,B|286:234|286:234|295:232|295:232|383:248,1,140,6|0,3:2|3:0,0:0:0:0:
445,205,79140,2,0,P|463:167|460:133,1,70,8|2,0:0|3:2,0:0:0:0:
405,68,79462,2,0,L|333:53,1,70,8|2,0:0|3:2,0:0:0:0:
266,112,79785,2,0,L|197:126,1,70,10|2,0:0|3:2,0:0:0:0:
143,52,80107,6,0,P|107:92|118:176,1,140,10|10,0:2|0:0,0:0:0:0:
201,217,80591,1,2,3:2:0:0:
201,217,80753,2,0,L|189:297,1,70,8|0,0:0|3:0,0:0:0:0:
117,340,81075,2,0,L|37:328,1,70,10|2,0:0|3:2,0:0:0:0:
4,249,81398,6,0,L|32:89,1,140,10|10,0:0|0:0,0:0:0:0:
102,57,81882,1,2,3:2:0:0:
102,57,82043,2,0,P|149:55|179:71,1,70,8|2,0:0|3:2,0:0:0:0:
241,128,82366,1,10,0:0:0:0:
241,128,82527,1,2,3:2:0:0:
313,182,82688,6,0,P|347:193|397:184,1,70,8|2,0:0|3:2,0:0:0:0:
443,123,83011,2,0,L|449:50,1,70,10|2,0:0|3:2,0:0:0:0:
360,32,83333,2,0,L|354:101,1,70,8|2,0:0|3:2,0:0:0:0:
380,190,83656,1,10,0:0:0:0:
384,196,83817,1,2,3:2:0:0:
323,290,83978,6,0,P|281:266|253:266,1,62.9999980773926,6|0,3:2|3:0,0:0:0:0:
259,270,84220,1,0,3:0:0:0:
252,276,84301,1,0,3:0:0:0:
199,338,84462,2,0,B|168:341|168:341|77:318,1,125.999996154785,14|0,0:0|3:0,0:0:0:0:
67,316,84866,1,0,3:0:0:0:
58,313,84947,1,0,3:0:0:0:
20,241,85107,6,0,P|28:178|89:161,1,125.999996154785,12|0,0:0|3:0,0:0:0:0:
90,163,85511,1,0,3:0:0:0:
98,168,85591,1,0,3:0:0:0:
171,222,85753,1,10,0:0:0:0:
178,216,85833,1,8,0:0:0:0:
185,209,85914,6,0,L|188:177,4,31.4999990386963,10|8|8|8|10,0:0|0:0|0:0|0:0|0:0,0:0:0:0:
161,100,86398,2,0,B|234:71|275:137|267:137|293:200|372:215|435:188|458:133|447:72|410:34|360:29|330:73|351:105,1,440.999986541748,14|0,0:0|0:0,0:0:0:0:
