osu file format v14

[General]
AudioFilename: audio.mp3
AudioLeadIn: 0
PreviewTime: 53011
Countdown: 0
SampleSet: Soft
StackLeniency: 0.7
Mode: 2
LetterboxInBreaks: 0
WidescreenStoryboard: 1

[Editor]
DistanceSpacing: 1
BeatDivisor: 4
GridSize: 8
TimelineZoom: 2.1

[Metadata]
Title:Zankoku na Yume to Nemure (TV Size)
TitleUnicode:残酷な夢と眠れ (TV Size)
Artist:Kuribayashi Minami
ArtistUnicode:栗林みな実
Creator:GIGACHAD
Version:Cup
Source:回復術士のやり直し
Tags:Kaguya_Sama redo of healer Kaifuku jutsushi no yarinaoshi kaiyari anime op opening jpop pop j-pop japanese theme
BeatmapID:2992257
BeatmapSetID:1454978

[Difficulty]
HPDrainRate:3
CircleSize:2.5
OverallDifficulty:6
ApproachRate:6
SliderMultiplier:1.28
SliderTickRate:1

[Events]
//Background and Video events
0,0,"kaiyari.jpg",0,0
//Break Periods
//Storyboard Layer 0 (Background)
//Storyboard Layer 1 (Fail)
//Storyboard Layer 2 (Pass)
//Storyboard Layer 3 (Foreground)
//Storyboard Layer 4 (Overlay)
//Storyboard Sound Samples

[TimingPoints]
108,322.58064516129,4,2,2,70,1,0
108,-100,4,2,2,70,0,0
5107,-100,4,2,2,90,0,0
8978,-100,4,2,2,55,0,0
10430,-100,4,2,2,70,0,0
23656,-100,4,2,2,80,0,0
36237,-100,4,2,2,70,0,0
38817,-100,4,2,2,80,0,0
46559,-100,4,2,2,70,0,0
51559,-100,4,2,2,85,0,0
52527,-100,4,2,2,60,0,0
52688,-100,4,2,2,80,0,0
53011,-100,4,2,2,95,0,1
60591,-100,4,2,2,95,0,0
63333,-100,4,2,2,95,0,1
71075,-100,4,2,2,95,0,0
83978,-100,4,2,2,90,0,0
86720,-100,4,2,2,80,0,0
87043,-100,4,2,2,70,0,0
87366,-100,4,2,2,60,0,0
87688,-100,4,2,2,50,0,0
87849,-100,4,2,2,5,0,0

[Colours]
Combo1 : 0,83,236
Combo2 : 0,149,0
Combo3 : 252,152,222
Combo4 : 164,126,70

[HitObjects]
208,328,108,6,0,L|208:184,1,128,0|0,3:0|3:0,0:0:0:0:
336,192,753,2,0,L|472:192,1,128,10|0,0:0|3:0,0:0:0:0:
304,192,1398,6,0,P|264:144|312:112,1,128,0|0,3:2|3:0,0:0:0:0:
432,192,2043,2,0,L|432:336,1,128,10|0,0:0|3:0,0:0:0:0:
368,320,2527,1,0,3:0:0:0:
280,320,2688,5,0,3:0:0:0:
152,320,3011,1,0,3:0:0:0:
280,256,3333,1,10,0:0:0:0:
280,120,3656,1,0,3:0:0:0:
192,120,3817,6,0,L|192:272,1,128,2|2,3:2|3:2,0:0:0:0:
256,248,4301,1,2,3:2:0:0:
384,344,4624,1,10,0:0:0:0:
320,344,4785,1,10,0:0:0:0:
256,344,4946,1,10,0:0:0:0:
160,336,5107,6,0,L|160:192,1,128,6|0,3:2|3:2,0:0:0:0:
256,208,5591,2,0,L|400:208,2,128,10|10|8,0:0|0:2|0:0,0:0:0:0:
120,144,6559,6,0,L|120:288,1,128,8|10,0:0|0:0,0:0:0:0:
248,144,7204,2,0,L|248:288,1,128,10|10,0:0|0:0,0:0:0:0:
160,344,7688,5,4,3:2:0:0:
296,344,8172,2,0,L|448:344,1,128,10|10,0:2|0:0,0:0:0:0:
424,272,8817,1,8,0:0:0:0:
336,272,8978,6,0,L|336:120,1,128,8|0,3:2|0:0,0:0:0:0:
464,144,9624,1,2,0:0:0:0:
400,144,9785,1,0,0:0:0:0:
272,144,10107,1,2,0:0:0:0:
208,144,10268,1,2,0:0:0:0:
296,336,10430,6,0,P|352:304|296:216,1,192,4|2,3:2|0:0,0:0:0:0:
104,328,11398,6,0,P|48:296|104:208,1,192,0|2,3:0|0:0,0:0:0:0:
256,200,12204,2,0,L|456:200,1,192,2|2,0:0|3:2,0:0:0:0:
448,128,12849,1,2,0:0:0:0:
360,128,13011,6,0,L|144:128,1,192,2|2,3:2|0:2,0:0:0:0:
48,296,13978,6,0,P|48:232|168:184,1,192,2|2,3:2|0:2,0:0:0:0:
344,320,14946,2,0,L|344:176,1,128,2|0,3:2|3:0,0:0:0:0:
256,320,15430,6,0,P|192:288|272:240,1,192,2|2,0:0|3:2,0:0:0:0:
392,152,16237,2,0,L|136:152,1,256,2|0,3:2|3:0,0:0:0:0:
264,96,17204,1,2,3:2:0:0:
136,152,17527,2,0,L|136:344,1,192,0|2,3:0|0:0,0:0:0:0:
224,344,18172,6,0,L|416:344,1,192,2|2,3:2|0:0,0:0:0:0:
288,272,18978,1,2,0:0:0:0:
224,272,19140,1,2,3:2:0:0:
72,272,19462,6,0,P|72:208|184:152,1,192,0|2,3:0|0:0,0:0:0:0:
248,144,20107,1,10,3:2:0:0:
320,144,20269,1,8,3:2:0:0:
152,352,20591,6,0,B|152:224|152:224|240:224,1,192,6|10,3:2|0:0,0:0:0:0:
344,224,21398,2,0,L|344:144,1,64,2|2,3:2|3:2,0:0:0:0:
192,160,21882,6,0,B|64:160|64:160|64:72,1,192,2|10,3:2|0:0,0:0:0:0:
128,88,22527,1,2,0:2:0:0:
272,88,22849,2,0,L|272:184,1,64,2|10,3:2|0:0,0:0:0:0:
128,304,23333,6,0,L|128:152,1,128,2|10,3:2|0:0,0:0:0:0:
192,304,23817,2,0,L|392:304,1,192,2|10,0:0|0:0,0:0:0:0:
384,232,24462,5,2,3:2:0:0:
232,232,24946,1,10,0:2:0:0:
232,168,25107,1,2,0:2:0:0:
296,112,25269,2,0,L|296:296,1,128,2|8,3:2|0:0,0:0:0:0:
200,104,25753,6,0,L|48:104,1,128,6|0,3:2|3:0,0:0:0:0:
208,304,26398,2,0,L|376:304,1,128,2|2,0:0|3:2,0:0:0:0:
272,240,26882,1,10,0:2:0:0:
184,240,27043,6,0,P|88:224|16:24,1,320,2|2,3:2|3:2,0:0:0:0:
144,40,28172,1,10,0:0:0:0:
232,40,28333,6,0,L|456:40,1,192,6|10,3:2|0:0,0:0:0:0:
296,136,29140,2,0,L|296:304,1,128,10|10,0:0|0:0,0:0:0:0:
384,272,29624,6,0,P|384:200|128:48,1,384,10|2,0:0|3:2,0:0:0:0:
152,112,30753,1,10,0:2:0:0:
280,320,31075,5,8,0:0:0:0:
272,248,31237,1,8,0:0:0:0:
48,264,32043,1,8,0:0:0:0:
112,264,32205,1,10,0:0:0:0:
256,256,32688,5,2,0:0:0:0:
248,200,33011,1,0,3:0:0:0:
120,256,33333,1,10,0:0:0:0:
248,168,33656,5,10,0:0:0:0:
240,112,33817,1,8,0:0:0:0:
40,176,34462,2,0,L|48:96,1,64,2|2,3:2|3:2,0:0:0:0:
136,112,34785,6,0,L|352:112,1,192,10|8,0:0|0:0,0:0:0:0:
328,112,35591,1,0,3:0:0:0:
328,112,35833,1,0,3:0:0:0:
328,64,36075,1,0,3:0:0:0:
240,64,36237,6,0,L|96:64,2,128,6|2|10,3:2|0:0|0:0,0:0:0:0:
368,64,37204,2,0,L|368:152,1,64,2|2,0:0|3:2,0:0:0:0:
200,192,37849,6,0,L|48:192,2,128,2|10|2,3:2|0:2|3:2,0:0:0:0:
264,192,38656,1,2,3:2:0:0:
352,192,38817,5,6,3:2:0:0:
352,88,39140,1,0,3:0:0:0:
288,88,39301,1,12,0:0:0:0:
160,88,39624,1,2,3:2:0:0:
160,88,39785,1,2,3:2:0:0:
248,176,39946,6,0,P|336:256|240:320,1,256,12|12,0:0|0:0,0:0:0:0:
120,320,40914,1,8,0:0:0:0:
56,312,41075,2,0,L|56:224,1,64,8|8,0:0|0:0,0:0:0:0:
144,240,41398,5,4,3:2:0:0:
272,240,41720,2,0,L|424:240,1,128,10|2,0:0|3:2,0:0:0:0:
272,168,42366,1,8,0:0:0:0:
120,96,42688,6,0,L|256:96,1,128,2|10,0:0|0:0,0:0:0:0:
312,96,43172,1,2,0:0:0:0:
208,352,43495,2,0,L|208:224,1,128,2|2,3:2|3:2,0:0:0:0:
296,224,43978,5,2,3:2:0:0:
424,232,44301,1,10,0:2:0:0:
360,176,44462,2,0,L|224:176,1,128,2|2,0:2|3:2,0:0:0:0:
72,136,45107,6,0,L|72:288,1,128,2|2,0:2|3:2,0:0:0:0:
136,264,45591,1,10,0:2:0:0:
264,264,45914,1,10,3:2:0:0:
392,264,46237,1,10,3:2:0:0:
392,176,46398,1,8,3:2:0:0:
304,168,46559,5,4,3:2:0:0:
304,168,46882,1,2,3:2:0:0:
304,168,47204,1,0,3:0:0:0:
304,168,47527,1,2,3:2:0:0:
200,168,47849,5,0,3:0:0:0:
200,168,48172,1,0,3:0:0:0:
200,168,48494,1,0,3:0:0:0:
200,168,48817,1,0,3:0:0:0:
328,256,49140,6,0,L|472:256,2,128,12|10|10,0:0|0:2|0:2,0:0:0:0:
200,256,50107,1,10,0:2:0:0:
288,208,50269,6,0,B|288:80|288:80|200:80,1,192,6|10,3:2|0:0,0:0:0:0:
96,80,51075,1,10,0:2:0:0:
96,144,51236,1,10,0:2:0:0:
256,248,51559,5,10,0:0:0:0:
384,248,51882,2,0,L|464:248,1,64,10|10,0:0|0:0,0:0:0:0:
328,184,52527,1,2,3:2:0:0:
256,184,52688,2,0,L|256:112,1,64,10|0,0:0|0:0,0:0:0:0:
336,80,53011,6,0,L|64:32,3,256,6|2|2|2,3:2|3:2|3:2|3:2,0:0:0:0:
264,320,55430,6,0,P|344:320|448:184,1,256,2|2,0:0|0:0,0:0:0:0:
320,192,56398,2,0,L|192:192,1,128,2|2,0:0|0:0,0:0:0:0:
104,144,56882,6,0,L|104:336,1,192,2|2,3:2|0:0,0:0:0:0:
168,336,57527,1,2,3:2:0:0:
272,336,57849,1,8,0:0:0:0:
424,344,58172,5,4,3:2:0:0:
296,280,58495,2,0,P|248:272|184:152,1,192,10|2,0:2|3:2,0:0:0:0:
248,160,59140,1,10,0:0:0:0:
120,160,59462,6,0,L|120:304,1,128,10|10,0:0|0:0,0:0:0:0:
184,288,59946,1,10,0:0:0:0:
248,288,60107,1,0,3:0:0:0:
376,280,60430,2,0,L|376:200,1,64,10|10,0:0|0:0,0:0:0:0:
288,216,60753,6,0,L|144:216,3,128,10|10|8|8,0:0|0:0|0:0|0:0,0:0:0:0:
72,216,61882,5,14,0:0:0:0:
208,160,62366,1,10,0:0:0:0:
336,160,62688,1,2,3:2:0:0:
336,160,62849,1,2,3:2:0:0:
336,160,63011,1,10,0:2:0:0:
216,96,63333,6,0,L|488:48,3,256,6|2|2|2,3:2|3:2|3:2|3:2,0:0:0:0:
208,320,65752,6,0,P|128:320|24:184,1,256,2|2,0:0|0:0,0:0:0:0:
152,192,66720,2,0,L|280:192,1,128,2|2,0:0|0:0,0:0:0:0:
368,144,67204,6,0,L|368:336,1,192,2|2,3:2|0:0,0:0:0:0:
304,336,67849,1,2,3:2:0:0:
200,336,68171,1,10,0:0:0:0:
48,344,68494,5,4,3:2:0:0:
176,280,68817,2,0,P|224:272|288:152,1,192,10|2,0:0|3:2,0:0:0:0:
224,160,69462,1,10,0:0:0:0:
352,160,69784,6,0,L|352:304,1,128,10|10,0:0|0:0,0:0:0:0:
288,288,70269,1,10,0:0:0:0:
160,288,70591,1,2,3:2:0:0:
96,288,70753,1,2,3:2:0:0:
248,224,71075,6,0,L|456:224,1,192,10|2,0:0|3:2,0:0:0:0:
312,184,71882,2,0,L|312:112,1,64,2|10,3:2|0:0,0:0:0:0:
400,328,72204,6,0,P|392:264|136:328,1,448,6|0,3:2|0:0,0:0:0:0:
296,320,73656,6,0,L|296:176,1,128,4|10,3:2|0:0,0:0:0:0:
168,200,74301,2,0,B|168:328|168:328|248:328,1,192,2|2,3:2|3:2,0:0:0:0:
368,328,75269,5,10,0:0:0:0:
232,328,75591,2,0,B|168:328|168:328|168:200,1,192,2|2,3:2|3:2,0:0:0:0:
312,200,76559,5,10,0:0:0:0:
184,200,76882,2,0,L|184:56,1,128,2|10,3:2|0:0,0:0:0:0:
264,64,77366,6,0,L|408:64,1,128,2|0,3:2|0:0,0:0:0:0:
320,144,77849,1,10,0:0:0:0:
192,304,78172,2,0,L|192:168,1,128,2|10,0:0|0:0,0:0:0:0:
280,168,78656,6,0,L|416:168,1,128,6|0,3:2|3:0,0:0:0:0:
336,104,79140,2,0,L|208:104,2,128,8|8|10,0:0|0:0|0:0,0:0:0:0:
208,224,80107,6,0,L|336:224,2,128,10|10|8,0:2|0:0|0:0,0:0:0:0:
80,224,81075,2,0,L|80:136,1,64,10|2,0:0|3:2,0:0:0:0:
168,160,81398,6,0,L|320:160,3,128,10|10|8|10,0:0|0:0|0:0|0:0,0:0:0:0:
424,152,82688,6,0,L|424:296,1,128,8|10,0:0|0:0,0:0:0:0:
296,280,83333,2,0,L|432:280,1,128,8|10,0:0|0:0,0:0:0:0:
272,192,83978,6,0,L|120:192,1,128,6|0,3:2|3:0,0:0:0:0:
208,128,84462,2,0,L|360:128,1,128,14|0,0:0|3:0,0:0:0:0:
208,336,85107,6,0,L|208:200,1,128,12|0,0:0|3:0,0:0:0:0:
336,200,85753,2,0,L|336:128,1,64,10|10,0:0|0:0,0:0:0:0:
224,136,86237,1,10,0:0:0:0:
136,136,86398,5,14,0:0:0:0:
256,192,86720,12,0,87849,0:0:0:0:
