osu file format v14

[General]
AudioFilename: audio.mp3
AudioLeadIn: 0
PreviewTime: 139839
Countdown: 0
SampleSet: Soft
StackLeniency: 0.7
Mode: 0
LetterboxInBreaks: 0
WidescreenStoryboard: 1

[Editor]
Bookmarks: 195563
DistanceSpacing: 0.8
BeatDivisor: 4
GridSize: 4
TimelineZoom: 2.450001

[Metadata]
Title:Zankoku na Yume to Nemure
TitleUnicode:残酷な夢と眠れ
Artist:Kuribayashi Minami
ArtistUnicode:栗林みな実
Creator:Riana
Version:Karcher's Insane
Source:回復術士のやり直し
Tags:redo of healer Kaifuku jutsushi no yarinaoshi kaiyari anime op opening jpop pop j-pop rock jrock j-rock japanese theme sbsonic [karcher] kaguya_sama full ver
BeatmapID:2934958
BeatmapSetID:1357251

[Difficulty]
HPDrainRate:5
CircleSize:3.6
OverallDifficulty:8.6
ApproachRate:9
SliderMultiplier:1.66
SliderTickRate:1

[Events]
//Background and Video events
0,0,"bg.jpg",0,0
//Break Periods
2,133668,135448
2,209797,220610
//Storyboard Layer 0 (Background)
//Storyboard Layer 1 (Fail)
//Storyboard Layer 2 (Pass)
//Storyboard Layer 3 (Foreground)
//Storyboard Layer 4 (Overlay)
//Storyboard Sound Samples

[TimingPoints]
565,322.58064516129,4,2,1,70,1,0
565,-125,4,2,1,70,0,0
5564,-90.9090909090909,4,2,1,95,0,0
9435,-90.9090909090909,4,2,1,60,0,0
10886,-125,4,2,1,70,0,0
19918,-83.3333333333333,4,2,1,70,0,0
21047,-111.111111111111,4,2,1,80,0,0
31531,-66.6666666666667,4,2,1,80,0,0
33789,-125,4,2,1,80,0,0
34031,-125,4,2,1,80,0,0
34111,-66.6666666666667,4,2,1,80,0,0
35240,-83.3333333333333,4,2,1,80,0,0
35885,-66.6666666666667,4,2,1,80,0,0
36692,-125,4,2,1,70,0,0
39273,-83.3333333333333,4,2,1,80,0,0
39515,-83.3333333333333,4,2,1,80,0,0
39595,-83.3333333333333,4,2,1,80,0,0
40402,-76.9230769230769,4,2,1,80,0,0
42176,-90.9090909090909,4,2,1,80,0,0
44434,-90.9090909090909,4,2,1,70,0,0
47015,-125,4,2,1,70,0,0
49595,-83.3333333333333,4,2,1,70,0,0
52256,-83.3333333333333,4,2,1,70,0,0
52337,-83.3333333333333,4,2,1,70,0,0
52984,-83.3333333333333,4,2,1,60,0,0
53144,-83.3333333333333,4,2,1,80,0,0
53468,-76.9230769230769,4,2,1,95,0,1
54111,-57.1428571428571,4,2,1,95,0,1
54756,-76.9230769230769,4,2,1,95,0,1
55402,-57.1428571428571,4,2,1,95,0,1
55885,-76.9230769230769,4,2,1,95,0,1
64434,-57.1428571428571,4,2,1,95,0,1
65079,-76.9230769230769,4,2,1,95,0,1
65724,-57.1428571428571,4,2,1,95,0,1
66692,-76.9230769230769,4,2,1,95,0,1
72660,-57.1428571428571,4,2,1,95,0,1
73144,-76.9230769230769,4,2,1,95,0,1
78063,-76.9230769230769,4,2,1,95,0,1
78144,-76.9230769230769,4,2,1,95,0,1
86369,-66.6666666666667,4,2,1,95,0,1
86855,-90.9090909090909,4,2,1,95,0,0
92015,-76.9230769230769,4,2,1,95,0,0
94837,-76.9230769230769,4,2,1,95,0,0
94918,-76.9230769230769,4,2,1,95,0,0
97337,-100,4,2,1,60,0,0
101208,-66.6666666666667,4,2,1,60,0,0
101369,-100,4,2,1,60,0,0
106853,-100,4,2,1,70,0,0
107982,-100,4,2,1,80,0,0
112660,-90.9090909090909,4,2,1,80,0,0
117982,-125,4,2,1,60,0,0
123144,-111.111111111111,4,2,1,60,0,0
125724,-83.3333333333333,4,2,1,80,0,0
125966,-83.3333333333333,4,2,1,80,0,0
126047,-83.3333333333333,4,2,1,80,0,0
126853,-76.9230769230769,4,2,1,80,0,0
127740,-83.3333333333333,4,2,1,80,0,0
127821,-83.3333333333333,4,2,1,80,0,0
128627,-83.3333333333333,4,2,1,80,0,0
130885,-83.3333333333333,4,2,1,70,0,0
139593,-83.3333333333333,4,2,1,80,0,0
139919,-76.9230769230769,4,2,1,95,0,1
140563,-57.1428571428571,4,2,1,95,0,1
141208,-76.9230769230769,4,2,1,95,0,1
141853,-57.1428571428571,4,2,1,95,0,1
142337,-76.9230769230769,4,2,1,95,0,1
150885,-57.1428571428571,4,2,1,95,0,1
151531,-76.9230769230769,4,2,1,95,0,1
152176,-57.1428571428571,4,2,1,95,0,1
153144,-76.9230769230769,4,2,1,95,0,1
159111,-57.1428571428571,4,2,1,95,0,1
159595,-76.9230769230769,4,2,1,95,0,1
172821,-66.6666666666667,4,2,1,95,0,1
173306,-125,4,2,1,95,0,0
175724,-90.9090909090909,4,2,1,95,0,0
175966,-90.9090909090909,4,2,1,95,0,0
176047,-90.9090909090909,4,2,1,75,0,0
178627,-125,4,2,1,75,0,0
183144,-83.3333333333333,4,2,1,75,0,0
183789,-125,4,2,1,75,0,0
186369,-83.3333333333333,4,2,1,75,0,0
188790,-66.6666666666667,4,2,1,75,0,1
188952,-66.6666666666667,4,2,1,95,0,1
191611,-66.6666666666667,4,2,1,95,0,1
191692,-66.6666666666667,4,2,1,95,0,1
199998,-66.6666666666667,4,2,1,95,0,1
200079,-66.6666666666667,4,2,1,95,0,1
201289,-66.6666666666667,4,2,1,95,0,1
201369,-66.6666666666667,4,2,1,95,0,1
201611,-66.6666666666667,4,2,1,95,0,1
201692,-66.6666666666667,4,2,1,95,0,1
203466,-66.6666666666667,4,2,1,95,0,1
203547,-66.6666666666667,4,2,1,95,0,1
203708,-66.6666666666667,4,2,1,95,0,1
203789,-66.6666666666667,4,2,1,95,0,1
203950,-66.6666666666667,4,2,1,95,0,1
204031,-66.6666666666667,4,2,1,95,0,1
204192,-66.6666666666667,4,2,1,95,0,1
204273,-66.6666666666667,4,2,1,95,0,1
209597,-100,4,2,1,60,0,0
222500,-76.9230769230769,4,2,1,95,0,1
223144,-57.1428571428571,4,2,1,95,0,1
223789,-76.9230769230769,4,2,1,95,0,1
224434,-57.1428571428571,4,2,1,95,0,1
224918,-76.9230769230769,4,2,1,95,0,1
233466,-57.1428571428571,4,2,1,95,0,1
234111,-76.9230769230769,4,2,1,95,0,1
234756,-57.1428571428571,4,2,1,95,0,1
235724,-76.9230769230769,4,2,1,95,0,1
241692,-57.1428571428571,4,2,1,95,0,1
242176,-76.9230769230769,4,2,1,95,0,1
255079,-66.6666666666667,4,2,1,95,0,1
255887,-100,4,2,1,95,0,0

[Colours]
Combo1 : 160,124,124
Combo2 : 190,103,105
Combo3 : 169,109,146

[HitObjects]
84,83,565,6,0,L|93:157,1,66.4,0|0,3:2|2:2,0:0:0:0:
179,88,887,2,0,L|187:22,1,66.4,0|0,3:2|3:2,0:0:0:0:
22,16,1210,2,0,B|-14:5|-14:5|1:112,1,132.8,10|2,2:2|3:2,0:0:0:0:
26,226,1694,1,2,2:2:0:0:
26,226,1855,6,0,L|100:234,1,66.4,0|0,3:2|2:2,0:0:0:0:
145,316,2177,2,0,L|78:323,1,66.4,0|0,3:2|3:2,0:0:0:0:
179,219,2500,2,0,P|217:237|244:321,1,132.8,10|2,2:2|3:2,0:0:0:0:
332,360,2984,1,2,3:2:0:0:
434,361,3145,6,0,L|430:287,1,66.4,0|0,3:2|2:2,0:0:0:0:
358,169,3468,1,0,3:2:0:0:
330,253,3629,1,0,3:2:0:0:
445,152,3790,2,0,L|448:80,2,66.4,10|2|2,2:2|0:2|3:2,0:0:0:0:
330,253,4274,6,0,P|285:219|276:141,1,132.8,2|2,3:2|3:2,0:0:0:0:
182,3,4758,1,2,3:2:0:0:
152,93,4919,1,2,3:2:0:0:
247,73,5081,1,10,2:2:0:0:
247,73,5161,1,8,2:2:0:0:
247,73,5242,1,10,2:2:0:0:
87,23,5403,1,10,2:2:0:0:
124,187,5564,6,0,P|101:252|5:227,1,182.60000557251,6|0,3:2|3:2,0:0:0:0:
152,93,6048,2,0,L|251:105,1,91.300002786255,10|2,2:2|3:2,0:0:0:0:
425,242,6371,1,10,2:2:0:0:
371,182,6532,1,0,3:2:0:0:
347,259,6694,1,8,2:2:0:0:
420,103,6855,6,0,B|306:71|349:138|237:102,1,182.60000557251,2|2,3:2|3:2,0:0:0:0:
53,37,7339,2,0,L|64:131,1,91.300002786255,10|2,2:2|3:2,0:0:0:0:
156,346,7661,1,10,2:2:0:0:
62,221,7823,1,0,3:2:0:0:
28,361,7984,1,10,2:2:0:0:
189,248,8145,6,0,P|243:271|326:184,1,182.60000557251,4|2,3:2|3:2,0:0:0:0:
438,62,8629,2,0,L|448:171,1,91.300002786255,10|2,2:2|3:2,0:0:0:0:
452,233,8871,1,0,3:2:0:0:
452,233,8952,2,0,L|442:342,1,91.300002786255,10|0,2:2|3:2,0:0:0:0:
392,380,9194,1,8,2:2:0:0:
392,380,9274,1,8,2:2:0:0:
336,379,9355,1,8,2:2:0:0:
281,379,9435,1,8,3:2:0:0:
248,269,9919,5,2,2:2:0:0:
180,384,10081,2,0,B|181:325|181:325|162:310|162:310|163:257,1,136.950004179382,2|0,2:2|0:2,0:0:0:0:
148,177,10403,1,2,2:2:0:0:
148,177,10484,2,0,L|148:115,4,45.6500013931275,2|2|2|2|2,2:2|2:2|2:2|2:2|2:2,0:0:0:0:
136,45,10887,5,4,3:2:0:0:
222,79,11048,1,2,2:2:0:0:
222,79,11210,2,0,L|304:90,1,66.4,2|2,3:2|2:2,0:0:0:0:
445,109,11532,1,2,3:2:0:0:
358,35,11694,2,0,L|366:101,1,66.4,2|0,2:2|3:2,0:0:0:0:
403,206,12016,6,0,P|355:182|301:229,1,132.8,2|2,2:2|2:2,0:0:0:0:
294,318,12500,1,2,3:2:0:0:
294,318,12661,2,0,P|250:363|192:340,1,132.8,2|2,2:2|2:2,0:0:0:0:
96,302,13145,2,0,L|104:375,1,66.4,2|2,3:2|2:2,0:0:0:0:
177,247,13468,6,0,B|185:146|185:146|156:172,1,132.8,2|2,3:2|3:2,0:0:0:0:
267,113,13952,2,0,P|239:75|151:65,1,132.8,2|0,2:2|0:2,0:0:0:0:
10,178,14435,5,2,3:2:0:0:
85,170,14597,1,2,2:2:0:0:
161,167,14758,1,2,3:2:0:0:
267,113,14919,6,0,P|295:75|383:65,1,132.8,2|2,2:2|2:2,0:0:0:0:
472,131,15403,2,0,L|464:53,2,66.4,2|0|0,3:2|2:2|3:2,0:0:0:0:
472,251,15887,6,0,B|419:210|419:210|350:221,1,132.8,2|2,2:2|2:2,0:0:0:0:
198,263,16371,1,2,3:2:0:0:
255,318,16532,1,2,2:2:0:0:
276,241,16694,2,0,L|265:169,2,66.4,2|2|2,3:2|2:2|3:2,0:0:0:0:
367,360,17177,6,0,B|344:321|344:321|370:233,1,132.8,2|2,2:2|2:2,0:0:0:0:
458,152,17661,1,2,3:2:0:0:
458,152,17823,2,0,L|469:234,1,66.4,2|0,2:2|3:2,0:0:0:0:
376,84,18145,2,0,L|365:166,2,66.4,2|2|2,2:2|3:2|2:2,0:0:0:0:
454,37,18629,6,0,P|401:0|317:16,1,132.8,2|2,3:2|3:2,0:0:0:0:
262,145,19113,2,0,B|290:171|290:171|279:68,1,132.8,2|2,2:2|2:2,0:0:0:0:
196,17,19597,2,0,L|185:99,1,66.4,2|0,3:2|2:2,0:0:0:0:
113,227,19919,5,0,3:2:0:0:
113,227,20081,2,0,P|143:232|168:247,1,49.7999984802247,2|2,2:2|2:2,0:0:0:0:
223,315,20242,1,2,3:2:0:0:
263,334,20323,1,2,2:2:0:0:
307,338,20403,1,2,2:2:0:0:
351,332,20484,1,2,2:2:0:0:
391,311,20564,5,10,2:2:0:0:
438,151,20726,1,8,2:2:0:0:
438,151,21048,6,0,B|347:121|387:186|275:145,1,149.399995440674,6|2,3:2|3:2,0:0:0:0:
140,80,21532,1,10,2:2:0:0:
286,61,21694,1,2,2:2:0:0:
218,188,21855,2,0,L|214:112,1,74.699997720337,2|2,3:2|3:2,0:0:0:0:
209,36,22177,1,8,2:2:0:0:
136,162,22339,6,0,L|139:236,2,74.699997720337,2|0|2,3:2|2:2|3:2,0:0:0:0:
32,122,22823,1,10,2:2:0:0:
68,282,22984,2,0,P|112:319|199:294,1,149.399995440674,2|2,2:2|3:2,0:0:0:0:
289,207,23468,1,10,2:2:0:0:
299,340,23629,1,2,2:2:0:0:
199,216,23790,6,0,B|197:110|197:110|244:143,1,149.399995440674,2|10,3:2|2:2,0:0:0:0:
289,207,24274,2,0,B|370:180|343:235|435:207,1,149.399995440674,2|2,2:2|3:2,0:0:0:0:
507,154,24758,1,10,2:2:0:0:
448,41,24919,6,0,B|412:15|412:15|425:140,1,149.399995440674,2|0,3:2|3:2,0:0:0:0:
434,207,25403,2,0,L|428:294,1,74.699997720337,10|2,2:2|2:2,0:0:0:0:
277,384,25726,1,2,3:2:0:0:
325,218,25887,1,2,3:2:0:0:
422,362,26048,1,8,2:2:0:0:
254,296,26210,6,0,B|155:280|204:325|87:299,1,149.399995440674,6|0,3:2|3:2,0:0:0:0:
59,196,26694,1,10,2:2:0:0:
59,196,26855,2,0,L|142:207,1,74.699997720337,2|0,2:2|3:2,0:0:0:0:
273,142,27177,1,2,3:2:0:0:
128,83,27339,1,10,2:2:0:0:
231,229,27500,6,0,P|277:238|366:171,1,149.399995440674,2|0,3:2|3:2,0:0:0:0:
463,117,27984,2,0,L|459:210,1,74.699997720337,10|2,2:2|2:2,0:0:0:0:
363,260,28306,2,0,L|359:185,2,74.699997720337,2|2|10,3:2|3:2|2:2,0:0:0:0:
363,93,28790,6,0,P|319:99|266:194,1,149.399995440674,2|0,3:2|3:2,0:0:0:0:
147,313,29274,1,10,2:2:0:0:
172,148,29435,1,0,3:2:0:0:
271,268,29597,1,10,2:2:0:0:
88,181,29758,1,8,2:2:0:0:
84,138,29839,1,8,2:2:0:0:
99,97,29919,1,10,2:2:0:0:
272,32,30081,6,0,L|264:187,1,149.399995440674,10|0,2:2|3:2,0:0:0:0:
383,228,30564,1,10,2:2:0:0:
494,163,30726,1,2,3:2:0:0:
397,34,30887,5,8,2:2:0:0:
391,132,31048,1,2,3:2:0:0:
391,132,31129,1,0,3:2:0:0:
391,132,31210,1,10,2:2:0:0:
383,228,31371,1,2,3:2:0:0:
375,325,31532,6,0,P|314:334|249:352,1,124.500004749298,8|8,2:2|2:2,0:0:0:0:
44,54,32339,1,0,0:2:0:0:
44,36,32500,6,0,P|105:45|170:63,1,124.500004749298,8|8,2:2|2:2,0:0:0:0:
246,308,33629,1,2,3:2:0:0:
246,308,33710,1,0,3:2:0:0:
246,308,33790,6,0,P|279:262|332:283,1,99.6,10|0,2:2|2:2,0:0:0:0:
383,319,34113,6,0,P|451:335|509:335,1,124.500004749298,10|8,2:2|2:2,0:0:0:0:
54,370,34919,1,2,3:2:0:0:
54,370,35000,1,8,2:2:0:0:
54,370,35081,1,2,3:2:0:0:
0,290,35242,6,0,B|124:250|69:330|199:284,1,199.199993920899,10|0,2:2|3:2,0:0:0:0:
285,245,35726,1,8,2:2:0:0:
349,323,35887,1,0,3:2:0:0:
349,323,35968,1,0,3:2:0:0:
350,323,36048,6,0,P|261:343|192:286,2,186.750007123947,0|0|0,3:2|3:2|3:2,0:0:0:0:
408,249,36694,6,0,P|445:252|441:331,1,132.8,6|2,3:2|2:2,0:0:0:0:
408,249,37339,2,0,L|394:110,1,132.8,10|2,2:2|2:2,0:0:0:0:
393,38,37823,6,0,P|358:86|275:80,1,132.8,2|8,3:2|2:2,0:0:0:0:
189,25,38306,2,0,L|43:16,2,132.8,2|10|2,3:2|2:2|3:2,0:0:0:0:
289,88,39113,1,2,3:2:0:0:
197,194,39274,6,0,B|170:217|170:217|181:98,1,149.399995440674,6|0,3:2|2:2,0:0:0:0:
189,25,39597,1,0,3:2:0:0:
289,88,39758,6,0,P|310:141|379:60,1,199.199993920899,12|2,2:2|3:2,0:0:0:0:
311,1,40242,1,2,3:2:0:0:
480,61,40403,6,0,P|483:144|376:236,1,215.79999012146,12|0,2:2|3:2,0:0:0:0:
280,266,40887,1,0,3:2:0:0:
423,384,41048,6,0,B|476:354|471:288|471:288|407:281|388:219,1,215.79999012146,12|8,2:2|2:2,0:0:0:0:
318,121,41532,1,8,2:2:0:0:
272,117,41613,1,8,2:2:0:0:
226,114,41694,1,8,2:2:0:0:
180,111,41774,1,8,2:2:0:0:
134,108,41855,1,4,3:2:0:0:
134,108,42177,6,0,L|32:102,1,91.300002786255,10|0,2:2|2:2,0:0:0:0:
150,203,42500,2,0,P|194:182|205:48,1,182.60000557251,2|8,3:2|2:2,0:0:0:0:
214,60,42984,1,2,3:2:0:0:
360,0,43145,6,0,L|349:102,1,91.300002786255,2|0,2:2|3:2,0:0:0:0:
318,192,43468,1,10,2:2:0:0:
511,158,43629,2,0,L|408:172,1,91.300002786255,2|0,2:2|3:2,0:0:0:0:
249,296,43952,1,2,3:2:0:0:
258,118,44113,1,10,2:2:0:0:
394,256,44274,1,2,3:2:0:0:
350,90,44435,6,0,L|344:192,1,91.300002786255,2|2,3:2|3:2,0:0:0:0:
307,359,44758,1,10,2:2:0:0:
209,217,44919,1,2,2:2:0:0:
394,256,45081,6,0,P|356:268|307:258,2,91.300002786255,2|2|10,3:2|3:2|2:2,0:0:0:0:
488,146,45564,1,2,2:2:0:0:
488,146,45726,2,0,L|483:240,2,91.300002786255,2|2|10,3:2|3:2|2:2,0:0:0:0:
495,51,46210,1,2,3:2:0:0:
320,79,46371,6,0,L|425:92,1,91.300002786255,10|2,3:2|3:2,0:0:0:0:
134,95,46694,2,0,L|224:83,1,91.300002786255,10|8,3:2|3:2,0:0:0:0:
55,152,47016,6,0,B|36:108|36:108|63:15,1,132.8,4|2,3:2|3:2,0:0:0:0:
145,189,47661,2,0,B|164:233|164:233|137:326,1,132.8,0|2,3:2|3:2,0:0:0:0:
55,152,48306,6,0,P|90:109|178:102,1,132.8,0|0,3:2|3:2,0:0:0:0:
345,104,48952,2,0,P|301:152|237:159,1,132.8,0|0,3:2|3:2,0:0:0:0:
504,5,49597,6,0,L|495:119,1,99.5999969604493,12|2,2:2|3:2,0:0:0:0:
419,261,49919,2,0,L|411:161,1,99.5999969604493,10|2,2:2|3:2,0:0:0:0:
411,161,50161,1,0,3:2:0:0:
411,161,50242,1,10,2:2:0:0:
295,25,50403,2,0,L|237:17,2,49.7999984802247,2|0|10,3:2|3:2|2:2,0:0:0:0:
390,22,50726,6,0,P|375:74|238:101,1,199.199993920899,6|2,3:2|3:2,0:0:0:0:
248,107,51129,1,2,3:2:0:0:
248,107,51210,1,10,2:2:0:0:
74,200,51371,1,2,3:2:0:0:
156,46,51532,5,10,2:2:0:0:
155,80,51613,1,10,2:2:0:0:
154,114,51694,2,0,L|153:168,1,49.7999984802247,10|0,2:2|0:2,0:0:0:0:
151,244,51855,1,2,3:2:0:0:
63,102,52016,6,0,P|75:47|163:54,1,149.399995440674,10|0,2:2|2:2,0:0:0:0:
233,92,52339,5,10,2:2:0:0:
427,42,52500,1,10,2:2:0:0:
427,42,53468,6,0,P|371:49|345:196,1,215.79999012146,6|8,3:2|2:2,0:0:0:0:
334,183,53952,1,2,2:2:0:0:
428,247,54113,6,0,B|451:330|392:384|392:384|323:370|282:260,1,290.500002770424,2|8,3:2|2:2,0:0:0:0:
183,142,54597,1,2,2:2:0:0:
78,313,54758,6,0,P|131:333|221:213,1,215.79999012146,2|8,3:2|2:2,0:0:0:0:
225,230,55242,1,2,2:2:0:0:
197,44,55403,6,0,B|3:73|3:73|83:125,1,290.500002770424,2|8,3:2|2:2,0:0:0:0:
272,83,55887,6,0,P|343:58|361:195,1,215.79999012146,2|2,2:2|2:2,0:0:0:0:
283,292,56371,2,0,L|275:171,1,107.89999506073,8|2,2:2|2:2,0:0:0:0:
272,83,56694,1,0,3:2:0:0:
127,166,56855,1,2,2:2:0:0:
213,1,57016,1,10,2:2:0:0:
275,184,57177,1,2,2:2:0:0:
124,70,57339,6,0,P|64:89|53:229,1,215.79999012146,2|10,3:2|2:2,0:0:0:0:
133,350,57823,2,0,L|23:373,1,107.89999506073,2|2,2:2|3:2,0:0:0:0:
148,241,58145,2,0,L|254:264,2,107.89999506073,0|8|0,3:2|2:2|3:2,0:0:0:0:
316,199,58629,5,4,3:2:0:0:
316,199,58790,1,0,2:2:0:0:
247,357,58952,2,0,P|332:299|316:199,1,215.79999012146,10|0,2:2|3:2,0:0:0:0:
137,122,59435,1,2,3:2:0:0:
308,107,59597,1,10,2:2:0:0:
221,217,59758,1,2,3:2:0:0:
221,217,59839,1,0,3:2:0:0:
221,217,59919,6,0,B|206:166|206:166|226:115,1,107.89999506073,10|0,2:2|3:2,0:0:0:0:
225,115,60242,1,10,2:2:0:0:
143,266,60403,2,0,B|113:164|113:164|153:62,1,215.79999012146,10|2,2:2|3:2,0:0:0:0:
349,7,60887,1,10,2:2:0:0:
327,208,61048,1,10,2:2:0:0:
327,208,61129,1,8,2:2:0:0:
327,208,61210,6,0,L|317:97,1,107.89999506073,10|0,2:2|3:2,0:0:0:0:
479,0,61532,1,10,2:2:0:0:
471,79,61694,2,0,L|461:186,1,107.89999506073,2|8,3:2|2:2,0:0:0:0:
366,349,62016,2,0,L|299:366,2,53.9499975303651,2|0|8,3:2|3:2|2:2,0:0:0:0:
488,322,62339,6,0,P|420:264|373:363,1,215.79999012146,10|0,2:2|3:2,0:0:0:0:
208,366,62823,1,10,2:2:0:0:
273,209,62984,1,2,3:2:0:0:
365,348,63145,1,2,3:2:0:0:
348,144,63306,5,2,3:2:0:0:
310,119,63387,1,0,3:2:0:0:
266,113,63468,1,10,2:2:0:0:
223,127,63548,1,8,2:2:0:0:
191,157,63629,1,10,2:2:0:0:
174,199,63710,1,8,2:2:0:0:
177,243,63790,6,0,P|181:301|48:290,1,215.79999012146,6|8,3:2|2:2,0:0:0:0:
56,311,64274,1,2,2:2:0:0:
58,153,64435,6,0,B|148:121|148:121|204:170|204:170|272:128|350:166,1,290.500002770424,2|8,3:2|2:2,0:0:0:0:
485,191,64919,1,2,2:2:0:0:
342,46,65081,6,0,B|286:9|286:9|320:158,1,215.79999012146,2|8,3:2|2:2,0:0:0:0:
319,153,65564,1,2,2:2:0:0:
342,332,65726,6,0,P|463:289|398:169,1,290.500002770424,2|8,3:2|2:2,0:0:0:0:
229,29,66210,6,0,P|177:0|195:134,1,290.500002770424,2|2,2:2|2:2,0:0:0:0:
196,142,66613,1,2,0:2:0:0:
211,148,66694,2,0,L|347:155,1,107.89999506073,8|2,2:2|2:2,0:0:0:0:
405,92,67016,1,0,3:2:0:0:
281,238,67177,1,2,2:2:0:0:
317,48,67339,1,10,2:2:0:0:
438,197,67500,1,2,2:2:0:0:
317,48,67661,6,0,P|242:19|162:116,1,215.79999012146,2|10,3:2|2:2,0:0:0:0:
107,308,68145,2,0,P|52:286|139:221,1,215.79999012146,2|0,2:2|3:2,0:0:0:0:
208,277,68629,2,0,L|335:291,1,107.89999506073,10|0,2:2|3:2,0:0:0:0:
405,332,68952,5,4,3:2:0:0:
405,332,69113,1,0,0:2:0:0:
349,182,69274,2,0,B|301:138|301:138|315:289,1,215.79999012146,10|0,2:2|3:2,0:0:0:0:
314,288,69758,1,2,3:2:0:0:
437,117,69919,1,10,2:2:0:0:
486,309,70081,1,10,2:2:0:0:
349,182,70242,6,0,L|458:200,2,107.89999506073,10|2|10,2:2|3:2|2:2,0:0:0:0:
161,91,70726,2,0,P|213:79|221:199,1,215.79999012146,10|2,2:2|3:2,0:0:0:0:
201,205,71129,1,0,3:2:0:0:
179,207,71210,1,2,3:2:0:0:
4,148,71371,1,10,2:2:0:0:
46,157,71452,1,8,2:2:0:0:
78,185,71532,6,0,L|86:292,1,107.89999506073,10|0,2:2|3:2,0:0:0:0:
269,363,71855,1,10,2:2:0:0:
269,363,72016,2,0,L|277:256,1,107.89999506073,2|8,3:2|2:2,0:0:0:0:
141,91,72339,1,2,3:2:0:0:
78,185,72500,1,10,2:2:0:0:
234,68,72661,6,0,P|155:0|49:118,1,290.500002770424,6|2,3:2|3:2,0:0:0:0:
175,270,73145,1,10,2:2:0:0:
0,237,73306,1,2,3:2:0:0:
0,237,73387,1,0,3:2:0:0:
0,237,73468,5,0,3:2:0:0:
147,176,73629,1,2,3:2:0:0:
147,192,73710,2,0,L|142:313,1,107.89999506073,8|0,2:2|3:2,0:0:0:0:
226,330,73952,1,10,2:2:0:0:
226,312,74032,1,8,2:2:0:0:
227,295,74113,1,4,3:2:0:0:
291,158,74435,6,0,L|405:166,1,107.89999506073,10|0,2:2|2:2,0:0:0:0:
234,38,74758,1,2,3:2:0:0:
216,213,74919,1,2,3:2:0:0:
336,77,75081,1,10,2:2:0:0:
146,32,75242,2,0,B|91:16|91:16|130:179,1,215.79999012146,2|0,3:2|2:2,0:0:0:0:
272,296,75726,6,0,P|211:305|167:293,1,107.89999506073,10|0,2:2|2:2,0:0:0:0:
52,195,76048,1,2,3:2:0:0:
217,215,76210,1,2,3:2:0:0:
115,368,76371,1,10,2:2:0:0:
63,288,76532,6,0,B|204:254|122:333|280:294,1,215.79999012146,2|2,3:2|3:2,0:0:0:0:
425,258,77016,1,10,2:2:0:0:
391,379,77177,1,2,2:2:0:0:
217,215,77339,6,0,P|276:202|327:218,1,107.89999506073,2|2,3:2|3:2,0:0:0:0:
425,258,77661,1,10,2:2:0:0:
502,98,77823,2,0,B|424:90|424:90|415:105|415:105|338:97,1,161.849992591095,2|0,3:2|0:2,0:0:0:0:
270,87,78145,2,0,L|154:70,2,107.89999506073,0|10|2,3:2|2:2|3:2,0:0:0:0:
460,176,78629,5,2,2:2:0:0:
324,25,78790,1,2,3:2:0:0:
295,232,78952,1,10,2:2:0:0:
296,242,79032,1,8,2:2:0:0:
297,252,79113,2,0,P|287:317|158:308,1,215.79999012146,6|0,3:2|3:2,0:0:0:0:
76,196,79597,6,0,L|195:208,1,107.89999506073,8|2,2:2|3:2,0:0:0:0:
396,117,79919,2,0,L|277:129,1,107.89999506073,8|2,2:2|3:2,0:0:0:0:
89,102,80242,1,10,2:2:0:0:
260,18,80403,1,2,3:2:0:0:
183,206,80564,6,0,L|175:82,1,107.89999506073,10|0,2:2|3:2,0:0:0:0:
402,9,80887,2,0,L|395:116,1,107.89999506073,10|2,2:2|3:2,0:0:0:0:
295,235,81210,6,0,L|287:111,1,107.89999506073,8|0,2:2|3:2,0:0:0:0:
512,38,81532,2,0,L|505:145,1,107.89999506073,10|2,2:2|3:2,0:0:0:0:
345,311,81855,5,10,2:2:0:0:
395,116,82016,1,0,3:2:0:0:
500,284,82177,1,10,2:2:0:0:
395,116,82339,2,0,L|388:223,1,107.89999506073,2|8,3:2|2:2,0:0:0:0:
255,380,82661,1,2,3:2:0:0:
308,217,82823,1,10,2:2:0:0:
400,370,82984,1,2,3:2:0:0:
308,217,83145,6,0,L|187:209,1,107.89999506073,8|2,2:2|3:2,0:0:0:0:
4,256,83468,2,0,L|125:248,1,107.89999506073,10|2,2:2|3:2,0:0:0:0:
313,112,83790,6,0,L|192:104,1,107.89999506073,8|2,2:2|3:2,0:0:0:0:
5,159,84113,2,0,L|126:151,1,107.89999506073,10|2,2:2|3:2,0:0:0:0:
313,112,84435,6,0,B|321:165|321:165|308:219,1,107.89999506073,6|0,3:2|3:2,0:0:0:0:
308,217,84677,1,0,3:2:0:0:
308,217,84758,1,0,3:2:0:0:
137,295,84919,2,0,P|124:212|250:173,1,215.79999012146,14|0,2:2|3:2,0:0:0:0:
228,162,85323,1,0,3:2:0:0:
228,162,85403,1,0,3:2:0:0:
377,296,85564,6,0,B|421:336|421:336|404:180,1,215.79999012146,12|0,2:2|3:2,0:0:0:0:
382,0,86048,1,0,3:2:0:0:
512,94,86210,1,10,2:2:0:0:
512,94,86290,1,8,2:2:0:0:
512,94,86371,6,0,P|478:107|441:112,1,62.2500023746491,10|8,2:2|2:2,0:0:0:0:
338,120,86532,2,0,P|302:114|267:100,1,62.2500023746491,8|8,2:2|2:2,0:0:0:0:
180,47,86694,1,10,2:2:0:0:
169,40,86774,1,8,2:2:0:0:
159,31,86855,6,0,P|102:15|85:122,1,182.60000557251,14|0,2:2|0:2,0:0:0:0:
194,158,87339,2,0,L|182:259,1,91.300002786255,10|2,0:2|0:2,0:0:0:0:
80,320,87661,2,0,L|69:229,2,91.300002786255,2|2|10,3:2|0:2|0:2,0:0:0:0:
199,370,88145,6,0,B|244:396|290:363|279:356|321:312|365:329,1,182.60000557251,2|2,0:2|0:2,0:0:0:0:
364,329,88629,1,10,0:2:0:0:
490,201,88790,1,2,0:2:0:0:
512,366,88952,2,0,P|472:327|466:285,2,91.300002786255,2|2|10,3:2|0:2|0:2,0:0:0:0:
490,201,89435,6,0,B|368:178|436:250|290:212,1,182.60000557251,2|2,0:2|0:2,0:0:0:0:
184,134,89919,2,0,L|277:121,1,91.300002786255,10|2,0:2|0:2,0:0:0:0:
196,243,90242,2,0,L|105:230,2,91.300002786255,2|2|10,3:2|0:2|0:2,0:0:0:0:
79,321,90726,6,0,P|26:288|39:161,1,182.60000557251,2|2,0:2|0:2,0:0:0:0:
23,177,91210,1,8,0:2:0:0:
155,93,91371,2,0,L|244:111,1,91.300002786255,2|0,0:2|3:2,0:0:0:0:
415,153,91694,1,2,3:2:0:0:
263,25,91855,1,10,0:2:0:0:
214,206,92016,6,0,P|261:210|329:73,1,215.79999012146,6|0,0:2|3:2,0:0:0:0:
94,51,92500,2,0,L|110:169,1,107.89999506073,8|0,0:2|3:2,0:0:0:0:
200,312,92823,2,0,L|214:205,2,107.89999506073,8|0|8,0:2|3:2|0:2,0:0:0:0:
77,384,93306,1,2,3:2:0:0:
77,384,93387,1,2,0:2:0:0:
77,384,93468,6,0,L|62:277,1,107.89999506073,10|2,0:2|3:2,0:0:0:0:
229,98,93790,2,0,L|214:204,1,107.89999506073,10|2,0:2|3:2,0:0:0:0:
172,16,94113,1,10,0:2:0:0:
308,158,94274,1,2,3:2:0:0:
129,145,94435,1,10,0:2:0:0:
333,70,94597,6,0,B|383:40|383:40|397:148,1,161.849992591095,6|0,3:2|0:0,0:0:0:0:
412,222,94919,1,2,3:2:0:0:
264,349,95081,1,10,0:2:0:0:
308,158,95242,1,2,0:2:0:0:
454,335,95403,6,0,L|340:321,1,107.89999506073,2|2,3:2|0:2,0:0:0:0:
189,266,95726,1,2,0:2:0:0:
384,113,95887,6,0,P|393:172|272:243,1,215.79999012146,2|8,3:2|0:2,0:0:0:0:
115,154,96371,2,0,P|174:154|222:191,1,107.89999506073,2|2,0:2|3:2,0:0:0:0:
216,365,96694,2,0,P|186:313|194:253,1,107.89999506073,10|2,0:2|3:2,0:0:0:0:
348,172,97016,2,0,P|318:223|261:246,1,107.89999506073,2|8,3:2|0:2,0:0:0:0:
213,180,97339,5,0,3:2:0:0:
457,47,98629,2,0,L|452:142,1,83,8|0,0:2|0:2,0:0:0:0:
452,129,98871,1,0,3:2:0:0:
452,129,98952,1,8,0:2:0:0:
326,253,99113,1,8,0:2:0:0:
277,155,99274,1,8,0:2:0:0:
355,79,99435,1,8,0:2:0:0:
434,237,99597,1,8,0:2:0:0:
275,316,99758,1,8,0:2:0:0:
194,156,99919,6,0,L|284:154,1,83,6|2,3:2|3:2,0:0:0:0:
153,242,100242,1,10,0:2:0:0:
30,151,100403,6,0,L|117:164,1,83,0|2,3:2|3:2,0:0:0:0:
275,240,100726,1,10,0:2:0:0:
142,85,100887,5,0,3:2:0:0:
81,296,101048,1,8,0:2:0:0:
81,296,101129,1,8,0:2:0:0:
81,296,101210,2,0,L|86:344,2,41.5000015830994,0|8|0,3:2|0:2|3:2,0:0:0:0:
75,209,101371,2,0,L|72:166,1,27.6666666666667,0|0,3:2|3:2,0:0:0:0:
153,242,101532,6,0,L|216:248,2,55.3333333333333,0|0|0,0:2|3:0|3:0,0:0:0:0:
284,281,101855,1,0,3:2:0:0:
284,297,101935,1,0,3:2:0:0:
285,313,102016,2,0,L|286:361,2,41.5,0|0|8,3:2|3:2|0:2,0:0:0:0:
457,205,102339,6,0,B|335:217|335:217|381:249,1,166,6|0,0:2|0:2,0:0:0:0:
370,241,102823,2,0,L|359:151,1,83,2|2,0:2|3:2,0:0:0:0:
252,101,103145,2,0,L|241:183,2,83,10|2|2,0:2|0:2|0:2,0:0:0:0:
337,46,103629,1,2,3:2:0:0:
337,46,103790,6,0,P|300:13|216:10,2,124.5,8|8|0,0:2|0:2|3:2,0:0:0:0:
433,147,104435,1,8,0:2:0:0:
433,147,104597,2,0,L|427:53,2,83,2|2|2,0:2|3:2|0:2,0:0:0:0:
471,237,105081,6,0,P|439:202|343:249,1,166,14|2,0:2|0:2,0:0:0:0:
294,329,105564,2,0,B|250:374|250:374|142:337,1,166,2|2,0:2|3:2,0:0:0:0:
152,340,106048,1,8,0:2:0:0:
21,274,106210,6,0,L|33:371,1,83,2|0,0:2|3:2,0:0:0:0:
130,243,106532,1,2,0:2:0:0:
129,222,106613,1,2,0:2:0:0:
128,196,106694,1,2,3:2:0:0:
127,166,106774,1,2,3:2:0:0:
126,133,106855,1,2,3:2:0:0:
126,95,106935,1,2,3:2:0:0:
124,53,107016,5,2,3:2:0:0:
273,196,107177,1,10,0:2:0:0:
0,212,107500,6,0,P|6:165|19:222,1,166,2|2,0:2|3:2,0:0:0:0:
11,81,107984,2,0,P|65:87|96:111,1,83,10|2,2:2|2:2,0:0:0:0:
194,178,108306,1,2,3:2:0:0:
194,178,108468,2,0,P|230:195|272:195,1,83,2|8,3:2|2:2,0:0:0:0:
420,93,108790,6,0,L|336:103,2,83,2|0|2,3:2|2:2|3:2,0:0:0:0:
512,75,109274,1,10,2:2:0:0:
354,18,109435,2,0,P|292:21|248:117,1,166,2|2,2:2|3:2,0:0:0:0:
272,195,109919,2,0,L|277:291,1,83,10|2,2:2|2:2,0:0:0:0:
141,363,110242,6,0,P|124:282|195:273,1,166,2|10,3:2|2:2,0:0:0:0:
300,358,110726,2,0,B|398:316|360:386|460:344,1,166,2|2,2:2|3:2,0:0:0:0:
459,345,111210,1,10,2:2:0:0:
451,188,111371,6,0,B|394:166|394:166|417:279,1,166,2|0,3:2|3:2,0:0:0:0:
429,81,111855,2,0,P|373:75|335:94,1,83,10|2,2:2|2:2,0:0:0:0:
171,176,112177,1,2,3:2:0:0:
221,18,112339,1,2,3:2:0:0:
303,166,112500,1,8,2:2:0:0:
131,57,112661,6,0,P|79:51|92:158,1,182.60000557251,6|0,3:2|3:2,0:0:0:0:
74,152,113145,1,10,2:2:0:0:
171,176,113306,2,0,L|150:276,1,91.300002786255,2|0,2:2|3:2,0:0:0:0:
9,384,113629,1,2,3:2:0:0:
21,223,113790,1,10,2:2:0:0:
141,360,113952,6,0,P|191:357|242:242,1,182.60000557251,2|0,3:2|3:2,0:0:0:0:
189,58,114435,2,0,L|294:73,1,91.300002786255,10|2,2:2|2:2,0:0:0:0:
355,147,114758,2,0,L|250:162,2,91.300002786255,2|2|10,3:2|3:2|2:2,0:0:0:0:
463,56,115242,6,0,B|508:26|508:26|493:158,1,182.60000557251,2|0,3:2|3:2,0:0:0:0:
373,323,115726,2,0,L|364:219,1,91.300002786255,10|0,2:2|3:2,0:0:0:0:
355,147,116048,1,10,2:2:0:0:
482,278,116210,1,8,2:2:0:0:
482,323,116290,1,8,2:2:0:0:
482,368,116371,1,10,2:2:0:0:
493,153,116532,6,0,B|531:91|492:31|492:31|466:57|474:95,1,182.60000557251,10|0,2:2|3:2,0:0:0:0:
413,132,116935,1,0,3:2:0:0:
413,132,117016,2,0,L|312:147,1,91.300002786255,10|2,2:2|3:2,0:0:0:0:
163,190,117339,2,0,L|253:203,1,91.300002786255,8|2,2:2|3:2,0:0:0:0:
253,203,117581,1,0,3:2:0:0:
253,203,117661,1,10,2:2:0:0:
357,40,117823,1,2,3:2:0:0:
425,224,117984,5,8,2:2:0:0:
425,224,118306,2,0,L|418:298,1,66.4,2|2,3:2|0:0,0:0:0:0:
370,368,118629,2,0,B|344:351|335:325|335:325|239:351,1,132.8,2|0,3:2|3:2,0:0:0:0:
162,337,119113,6,0,P|142:299|214:274,1,132.8,2|0,0:0|0:0,0:0:0:0:
207,267,119597,1,2,3:2:0:0:
72,366,119758,2,0,P|53:314|78:229,1,132.8,2|0,0:0|0:0,0:0:0:0:
189,159,120242,2,0,L|256:169,1,66.4,0|2,3:2|0:0,0:0:0:0:
260,172,120484,1,0,0:0:0:0:
264,176,120564,6,0,P|332:199|384:167,2,132.8,2|2|2,3:2|3:2|3:2,0:0:0:0:
211,82,121371,2,0,L|215:40,2,33.2,2|0|0,0:0|0:0|3:2,0:0:0:0:
168,174,121694,1,2,0:0:0:0:
168,174,121774,1,0,0:0:0:0:
168,174,121855,6,0,L|97:168,1,66.4,2|0,3:2|0:0,0:0:0:0:
26,127,122177,1,0,3:2:0:0:
106,10,122339,1,2,0:0:0:0:
106,10,122419,1,0,0:0:0:0:
106,10,122500,6,0,L|100:91,1,66.4,0|2,3:2|0:0,0:0:0:0:
101,168,122823,1,10,0:2:0:0:
105,207,122903,1,8,0:0:0:0:
110,246,122984,1,8,0:0:0:0:
113,285,123064,1,8,0:0:0:0:
116,324,123145,6,0,P|161:277|247:295,1,149.399995440674,6|2,3:2|2:2,0:0:0:0:
360,363,123790,2,0,B|331:328|331:328|370:223,1,149.399995440674,10|2,2:2|2:2,0:0:0:0:
425,158,124274,6,0,P|397:184|308:132,1,149.399995440674,2|8,3:2|2:2,0:0:0:0:
304,42,124758,2,0,L|384:61,1,74.699997720337,2|0,3:2|3:2,0:0:0:0:
224,101,125081,2,0,L|144:120,1,74.699997720337,10|0,2:2|2:2,0:0:0:0:
11,191,125403,1,2,3:2:0:0:
106,41,125564,1,2,3:2:0:0:
166,214,125726,6,0,P|147:277|95:238,1,149.399995440674,6|0,3:2|2:2,0:0:0:0:
95,241,126048,1,0,3:2:0:0:
151,118,126210,6,0,B|273:93|207:153|351:119,1,199.199993920899,12|2,2:2|3:2,0:0:0:0:
486,79,126694,1,2,3:2:0:0:
319,38,126855,6,0,P|272:71|320:203,1,215.79999012146,12|0,2:2|3:2,0:0:0:0:
466,279,127339,1,0,3:2:0:0:
322,370,127500,6,0,B|273:385|273:385|299:263,1,161.849992591095,12|0,2:2|2:2,0:0:0:0:
312,200,127823,1,8,2:2:0:0:
466,83,127984,5,8,2:2:0:0:
466,132,128064,1,8,2:2:0:0:
466,182,128145,1,8,2:2:0:0:
466,230,128226,1,8,2:2:0:0:
466,279,128306,1,4,3:2:0:0:
466,279,128629,6,0,L|360:289,1,99.5999969604493,10|0,2:2|2:2,0:0:0:0:
211,349,128952,2,0,P|261:325|207:206,1,199.199993920899,2|8,3:2|2:2,0:0:0:0:
229,209,129435,1,2,3:2:0:0:
22,202,129597,6,0,B|-6:249|-6:249|142:222,1,199.199993920899,2|10,2:2|2:2,0:0:0:0:
314,93,130081,2,0,P|255:93|239:219,1,199.199993920899,2|2,2:2|3:2,0:0:0:0:
307,271,130564,1,10,2:2:0:0:
406,266,130726,1,2,3:2:0:0:
508,134,130887,6,0,L|500:233,1,99.5999969604493,2|2,3:2|3:2,0:0:0:0:
362,103,131210,1,10,2:2:0:0:
512,43,131371,1,2,2:2:0:0:
415,179,131532,6,0,P|363:194|311:178,2,99.5999969604493,2|2|10,3:2|3:2|2:2,0:0:0:0:
279,7,132016,1,2,2:2:0:0:
279,7,132177,2,0,L|267:115,2,99.5999969604493,2|2|10,3:2|3:2|2:2,0:0:0:0:
362,103,132661,1,2,3:2:0:0:
228,184,132823,6,0,L|115:176,1,99.5999969604493,10|2,3:2|3:2,0:0:0:0:
0,3,133145,2,0,L|99:10,1,99.5999969604493,10|8,3:2|3:2,0:0:0:0:
166,56,133468,5,4,3:2:0:0:
414,327,136048,6,0,L|289:313,1,99.5999969604493,12|2,2:2|3:2,0:0:0:0:
153,231,136371,2,0,L|277:217,1,99.5999969604493,10|2,2:2|3:2,0:0:0:0:
252,220,136613,1,0,3:2:0:0:
252,220,136694,1,10,2:2:0:0:
440,166,136855,2,0,P|455:141|457:109,2,49.7999984802247,2|0|10,3:2|3:2|2:2,0:0:0:0:
389,236,137177,6,0,B|344:262|344:262|359:114,1,199.199993920899,6|2,3:2|3:2,0:0:0:0:
358,115,137581,1,2,3:2:0:0:
358,115,137661,1,10,2:2:0:0:
481,273,137823,1,2,3:2:0:0:
284,304,137984,1,10,2:2:0:0:
284,304,138064,1,10,2:2:0:0:
284,304,138145,1,10,2:2:0:0:
389,236,138306,1,2,3:2:0:0:
234,384,138468,6,0,B|196:361|177:329|172:291|190:248|225:219|260:184|262:129|234:81|167:72|124:92|126:146|142:164,1,398.399987841797,10|2,2:2|0:0,0:0:0:0:
309,207,139274,5,2,0:0:0:0:
315,172,139355,1,2,0:0:0:0:
313,137,139435,1,2,2:2:0:0:
228,26,139597,1,10,2:2:0:0:
45,62,139758,1,8,0:0:0:0:
45,62,139839,1,8,2:2:0:0:
45,62,139919,6,0,P|68:135|207:142,1,215.79999012146,6|8,3:2|2:2,0:0:0:0:
192,153,140403,1,2,2:2:0:0:
356,52,140564,6,0,P|423:18|389:147,1,290.500002770424,2|8,3:2|2:2,0:0:0:0:
238,67,141048,1,2,2:2:0:0:
251,275,141210,6,0,B|305:322|305:322|292:176,1,215.79999012146,2|8,3:2|2:2,0:0:0:0:
292,178,141694,1,2,2:2:0:0:
137,12,141855,6,0,P|65:-9|120:111,1,290.500002770424,2|8,3:2|2:2,0:0:0:0:
282,88,142339,6,0,B|221:100|202:155|202:155|165:111|95:116,1,215.79999012146,2|2,2:2|2:2,0:0:0:0:
348,21,142823,2,0,P|373:68|365:126,1,107.89999506073,8|2,2:2|2:2,0:0:0:0:
292,178,143145,1,0,3:2:0:0:
450,96,143306,1,2,2:2:0:0:
353,259,143468,1,10,2:2:0:0:
282,88,143629,1,2,2:2:0:0:
441,221,143790,6,0,P|446:282|313:357,1,215.79999012146,2|10,3:2|2:2,0:0:0:0:
159,325,144274,2,0,P|161:253|246:322,1,215.79999012146,2|0,2:2|3:2,0:0:0:0:
159,325,144758,2,0,L|47:317,1,107.89999506073,8|0,2:2|3:2,0:0:0:0:
21,205,145081,5,4,3:2:0:0:
21,205,145242,1,0,2:2:0:0:
73,89,145403,2,0,B|16:55|16:55|21:213,1,215.79999012146,10|0,2:2|3:2,0:0:0:0:
200,258,145887,1,2,3:2:0:0:
33,340,146048,1,10,2:2:0:0:
114,196,146210,1,2,3:2:0:0:
114,196,146290,1,0,0:2:0:0:
114,196,146371,6,0,L|119:308,1,107.89999506073,10|0,2:2|3:2,0:0:0:0:
124,384,146694,1,2,2:2:0:0:
240,175,146855,2,0,B|298:139|298:139|286:302,1,215.79999012146,10|2,2:2|3:2,0:0:0:0:
441,378,147339,1,10,2:2:0:0:
388,184,147500,1,10,2:2:0:0:
388,184,147581,1,8,2:2:0:0:
388,184,147661,6,0,L|378:301,1,107.89999506073,10|0,2:2|3:2,0:0:0:0:
512,107,147984,1,10,2:2:0:0:
470,41,148145,2,0,L|362:31,1,107.89999506073,2|8,3:2|2:2,0:0:0:0:
120,56,148468,2,0,L|54:49,2,53.9499975303651,2|0|8,3:2|3:2|2:2,0:0:0:0:
204,0,148790,6,0,B|255:133|161:60|216:206,1,215.79999012146,10|0,2:2|3:2,0:0:0:0:
345,325,149274,1,10,2:2:0:0:
293,142,149435,1,2,3:2:0:0:
191,309,149597,1,2,3:2:0:0:
368,202,149758,5,2,3:2:0:0:
386,161,149839,1,0,3:2:0:0:
384,117,149919,1,10,2:2:0:0:
362,78,150000,1,8,2:2:0:0:
325,54,150081,1,10,2:2:0:0:
280,50,150161,1,8,2:2:0:0:
239,66,150242,6,0,P|194:126|65:53,1,215.79999012146,6|8,3:2|2:2,0:0:0:0:
74,88,150726,1,2,2:2:0:0:
0,299,150887,6,0,B|85:290|115:220|115:220|140:287|242:300,1,290.500002770424,2|8,3:2|2:2,0:0:0:0:
413,204,151371,1,2,2:2:0:0:
357,344,151532,6,0,B|301:377|301:377|318:226,1,215.79999012146,2|8,3:2|2:2,0:0:0:0:
317,227,152016,1,2,2:2:0:0:
444,121,152177,6,0,P|382:23|353:143,1,290.500002770424,2|8,3:2|2:2,0:0:0:0:
317,227,152661,6,0,B|245:240|212:307|212:307|124:289|116:203,1,290.500002770424,2|2,2:2|2:2,0:0:0:0:
118,182,153064,1,2,0:2:0:0:
125,161,153145,2,0,L|241:151,1,107.89999506073,8|2,2:2|2:2,0:0:0:0:
341,133,153468,1,0,3:2:0:0:
196,60,153629,1,2,2:2:0:0:
317,227,153790,1,10,2:2:0:0:
360,27,153952,1,2,2:2:0:0:
496,181,154113,6,0,P|504:247|410:196,1,215.79999012146,2|10,3:2|2:2,0:0:0:0:
419,114,154597,2,0,B|289:90|338:150|188:119,1,215.79999012146,2|0,2:2|3:2,0:0:0:0:
74,2,155081,2,0,L|95:121,1,107.89999506073,10|0,2:2|3:2,0:0:0:0:
191,229,155403,5,6,3:2:0:0:
191,229,155564,1,0,0:2:0:0:
76,269,155726,2,0,B|37:220|37:220|196:228,1,215.79999012146,10|0,2:2|3:2,0:0:0:0:
364,294,156210,1,2,3:2:0:0:
180,333,156371,1,10,2:2:0:0:
332,200,156532,1,10,2:2:0:0:
281,384,156694,6,0,L|273:262,2,107.89999506073,10|10|10,2:2|3:2|2:2,0:0:0:0:
364,294,157177,2,0,P|420:242|387:118,1,215.79999012146,10|2,2:2|3:2,0:0:0:0:
369,107,157581,1,0,3:2:0:0:
347,101,157661,1,2,3:2:0:0:
155,60,157823,1,10,2:2:0:0:
190,35,157903,1,8,2:2:0:0:
232,34,157984,6,0,L|223:145,1,107.89999506073,10|0,2:2|3:2,0:0:0:0:
109,341,158306,1,10,2:2:0:0:
109,341,158468,2,0,L|100:233,1,107.89999506073,2|8,3:2|2:2,0:0:0:0:
155,60,158790,1,2,3:2:0:0:
2,159,158952,1,10,2:2:0:0:
182,252,159113,6,0,P|258:281|319:116,1,290.500002770424,6|2,3:2|3:2,0:0:0:0:
501,19,159597,1,10,2:2:0:0:
429,219,159758,1,2,3:2:0:0:
296,49,159919,5,0,3:2:0:0:
407,134,160081,1,2,3:2:0:0:
405,118,160161,2,0,L|399:7,1,107.89999506073,8|0,2:2|3:2,0:0:0:0:
317,0,160403,1,10,2:2:0:0:
316,16,160484,1,8,2:2:0:0:
316,32,160564,1,4,3:2:0:0:
270,228,160887,6,0,L|148:248,1,107.89999506073,10|0,2:2|2:2,0:0:0:0:
0,137,161210,1,2,3:2:0:0:
163,165,161371,1,2,3:2:0:0:
23,257,161532,1,10,2:2:0:0:
89,75,161694,2,0,B|132:21|132:21|163:168,1,215.79999012146,2|0,3:2|2:2,0:0:0:0:
191,325,162177,6,0,L|300:335,1,107.89999506073,10|0,2:2|2:2,0:0:0:0:
454,262,162500,1,2,3:2:0:0:
286,230,162661,1,2,3:2:0:0:
398,358,162823,1,10,2:2:0:0:
421,171,162984,6,0,P|443:103|489:192,2,215.79999012146,2|2|2,3:2|3:2|2:2,0:0:0:0:
454,262,163790,1,2,3:2:0:0:
258,146,163952,1,2,3:2:0:0:
421,171,164113,1,10,2:2:0:0:
355,251,164274,6,0,B|266:264|266:264|249:292|249:292|151:306,1,215.79999012146,2|0,3:2|3:2,0:0:0:0:
22,359,164758,2,0,L|43:242,1,107.89999506073,10|2,2:2|3:2,0:0:0:0:
181,157,165081,1,2,2:2:0:0:
156,305,165242,1,2,3:2:0:0:
34,172,165403,1,10,2:2:0:0:
31,156,165484,1,8,2:2:0:0:
28,139,165564,2,0,P|31:67|154:94,1,215.79999012146,6|0,3:2|3:2,0:0:0:0:
245,231,166048,6,0,L|363:237,1,107.89999506073,8|2,2:2|3:2,0:0:0:0:
484,120,166371,2,0,L|366:126,1,107.89999506073,8|2,2:2|3:2,0:0:0:0:
150,247,166694,1,10,2:2:0:0:
181,157,166855,1,2,3:2:0:0:
352,236,167016,6,0,L|345:356,1,107.89999506073,10|0,2:2|3:2,0:0:0:0:
281,150,167339,2,0,L|287:42,1,107.89999506073,10|2,2:2|3:2,0:0:0:0:
453,215,167661,6,0,L|446:335,1,107.89999506073,8|0,2:2|3:2,0:0:0:0:
376,125,167984,2,0,L|382:17,1,107.89999506073,10|2,2:2|3:2,0:0:0:0:
352,236,168306,5,10,2:2:0:0:
472,89,168468,1,0,3:2:0:0:
352,236,168629,1,10,2:2:0:0:
283,59,168790,2,0,L|161:47,1,107.89999506073,2|8,3:2|2:2,0:0:0:0:
19,163,169113,1,2,3:2:0:0:
78,23,169274,1,10,2:2:0:0:
162,152,169435,1,2,3:2:0:0:
78,23,169597,6,0,L|89:142,1,107.89999506073,8|2,2:2|3:2,0:0:0:0:
226,289,169919,2,0,L|235:181,1,107.89999506073,10|2,2:2|3:2,0:0:0:0:
98,260,170242,6,0,L|109:379,1,107.89999506073,8|2,2:2|3:2,0:0:0:0:
337,327,170564,2,0,L|346:219,1,107.89999506073,10|2,2:2|3:2,0:0:0:0:
226,73,170887,6,0,L|235:181,1,107.89999506073,6|0,3:2|3:2,0:0:0:0:
234,180,171129,1,0,3:2:0:0:
234,180,171210,1,0,3:2:0:0:
439,250,171371,2,0,P|440:189|305:130,1,215.79999012146,14|0,2:2|3:2,0:0:0:0:
317,125,171774,1,0,3:2:0:0:
317,125,171855,1,0,3:2:0:0:
208,282,172016,6,0,P|156:258|248:194,1,215.79999012146,12|0,2:2|3:2,0:0:0:0:
266,373,172500,1,0,3:2:0:0:
383,219,172661,1,10,2:2:0:0:
383,219,172742,1,8,2:2:0:0:
383,219,172823,6,0,L|306:223,1,62.2500023746491,10|8,2:2|2:2,0:0:0:0:
208,282,172984,2,0,L|131:286,1,62.2500023746491,8|8,2:2|2:2,0:0:0:0:
25,242,173145,1,10,2:2:0:0:
26,198,173226,1,0,0:0:0:0:
27,154,173306,1,2,2:2:0:0:
114,193,173468,6,0,L|186:196,1,66.4,0|2,0:0|0:2,0:0:0:0:
256,221,173790,1,2,0:2:0:0:
379,297,174113,5,2,0:2:0:0:
302,285,174274,1,2,0:2:0:0:
455,174,174597,5,2,0:2:0:0:
443,251,174758,1,2,0:2:0:0:
332,98,175081,5,2,0:2:0:0:
409,110,175242,1,2,0:2:0:0:
256,221,175564,5,2,0:2:0:0:
268,144,175726,2,0,B|238:130|207:139|207:139|201:132|201:132|170:142|137:126,1,136.950004179382,2|0,0:2|0:2,0:0:0:0:
137,126,176048,5,2,3:2:0:0:
131,206,176210,1,2,3:2:0:0:
126,286,176371,1,10,0:2:0:0:
41,199,176532,5,0,3:2:0:0:
131,206,176694,1,2,3:2:0:0:
221,213,176855,1,10,0:2:0:0:
25,307,177016,5,0,3:2:0:0:
25,307,177097,1,0,3:2:0:0:
25,307,177177,1,2,3:2:0:0:
42,91,177339,5,10,0:2:0:0:
221,213,177500,1,0,3:2:0:0:
221,213,177581,1,0,3:2:0:0:
221,213,177661,1,2,3:2:0:0:
42,91,177823,6,0,P|81:31|185:60,1,182.60000557251,10|10,0:2|0:2,0:0:0:0:
315,124,178306,1,10,0:2:0:0:
463,79,178468,1,10,0:2:0:0:
460,56,178548,1,8,0:2:0:0:
449,36,178629,6,0,P|416:73|430:164,1,132.8,6|0,3:2|0:2,0:0:0:0:
507,234,179113,2,0,P|491:186|405:153,1,132.8,2|0,0:2|0:2,0:0:0:0:
306,185,179597,2,0,P|354:195|426:137,1,132.8,2|0,0:2|0:2,0:0:0:0:
237,57,180081,5,10,0:2:0:0:
232,136,180242,1,0,0:2:0:0:
227,215,180403,1,0,3:2:0:0:
106,288,180564,5,10,0:2:0:0:
130,191,180726,1,2,0:2:0:0:
227,215,180887,1,2,0:2:0:0:
203,312,181048,1,0,0:2:0:0:
130,191,181210,6,0,P|158:141|236:122,1,132.8,2|2,3:2|0:2,0:0:0:0:
338,171,181694,2,0,P|281:170|225:112,1,132.8,2|0,0:2|0:2,0:0:0:0:
216,0,182177,2,0,P|244:49|221:126,1,132.8,2|0,0:2|0:2,0:0:0:0:
78,262,182661,5,10,0:2:0:0:
157,274,182823,1,0,0:2:0:0:
236,286,182984,1,2,3:2:0:0:
431,320,183145,6,0,P|366:272|309:309,2,149.399995440674,10|10|10,0:2|0:2|0:2,0:0:0:0:
313,301,183790,6,0,P|285:251|207:232,1,132.8,0|0,3:2|0:2,0:0:0:0:
105,281,184274,2,0,P|162:280|218:222,1,132.8,2|0,0:2|0:2,0:0:0:0:
224,118,184758,2,0,L|218:184,1,66.4,2|2,0:2|3:2,0:0:0:0:
214,230,185000,1,10,0:2:0:0:
214,230,185081,1,10,3:2:0:0:
282,59,185242,6,0,B|253:27|253:27|154:53,1,132.8,0|2,3:2|3:2,0:0:0:0:
81,104,185726,2,0,P|66:63|80:-1,2,99.6,8|0|8,0:2|3:2|0:2,0:0:0:0:
184,164,186371,6,0,L|171:272,1,99.5999969604493,10|0,0:2|3:2,0:0:0:0:
392,329,186694,2,0,L|380:230,1,99.5999969604493,10|2,0:2|3:2,0:0:0:0:
290,147,187016,6,0,L|277:255,1,99.5999969604493,10|2,0:2|3:2,0:0:0:0:
488,313,187339,1,10,0:2:0:0:
422,126,187500,6,0,B|464:85|464:85|475:236,1,199.199993920899,2|0,3:2|3:2,0:0:0:0:
392,329,187984,2,0,L|282:343,1,99.5999969604493,8|0,0:2|3:2,0:0:0:0:
174,355,188306,1,10,0:2:0:0:
134,349,188387,1,10,0:2:0:0:
99,328,188468,1,10,0:2:0:0:
79,292,188548,1,2,0:2:0:0:
77,252,188629,1,10,0:2:0:0:
93,215,188710,1,2,0:2:0:0:
123,189,188790,6,0,B|174:189|205:160|205:160|242:172|262:203|262:203|304:215|352:181,1,249.000009498597,6|0,3:2|0:2,0:0:0:0:
480,66,189274,2,0,L|457:196,1,124.500004749298,10|0,0:2|0:2,0:0:0:0:
291,295,189597,1,2,3:2:0:0:
324,107,189758,1,2,0:2:0:0:
482,277,189919,2,0,P|419:271|379:226,1,124.500004749298,10|2,0:2|0:2,0:0:0:0:
267,201,190242,5,0,3:2:0:0:
438,139,190403,2,0,P|467:84|450:23,2,124.500004749298,2|10|2,0:2|0:2|0:2,0:0:0:0:
212,109,190887,2,0,L|340:130,1,124.500004749298,2|2,3:2|0:2,0:0:0:0:
162,187,191210,1,10,0:2:0:0:
3,22,191371,6,0,P|87:26|120:122,1,186.750007123947,2|0,0:2|0:2,0:0:0:0:
80,179,191694,1,2,0:2:0:0:
90,290,191855,1,10,0:2:0:0:
184,350,192016,1,2,0:2:0:0:
9,346,192177,5,2,3:2:0:0:
177,218,192339,2,0,L|302:224,1,124.500004749298,2|10,0:2|0:2,0:0:0:0:
457,325,192661,1,2,0:2:0:0:
457,325,192742,1,2,0:2:0:0:
457,325,192823,6,0,P|509:278|393:256,1,249.000009498597,2|8,3:2|0:2,0:0:0:0:
351,330,193306,1,0,0:2:0:0:
237,145,193468,1,2,3:2:0:0:
191,347,193629,1,2,0:2:0:0:
332,190,193790,1,10,0:2:0:0:
137,111,193952,6,0,B|68:87|68:87|121:261,1,249.000009498597,2|0,0:2|0:2,0:0:0:0:
342,92,194435,2,0,P|275:105|231:154,1,124.500004749298,8|2,0:2|0:2,0:0:0:0:
221,185,194677,1,2,0:2:0:0:
217,228,194758,2,0,L|230:351,1,124.500004749298,2|2,3:2|0:2,0:0:0:0:
332,190,195081,1,10,0:2:0:0:
415,375,195242,6,0,B|362:320|362:320|433:156,1,249.000009498597,2|2,0:2|0:2,0:0:0:0:
229,47,195726,1,10,0:2:0:0:
178,229,195887,1,2,0:2:0:0:
178,229,195968,1,2,0:2:0:0:
178,229,196048,6,0,L|260:216,2,83.0000031661989,2|2|2,3:2|0:2|0:2,0:0:0:0:
201,327,196371,2,0,L|263:315,3,62.2500023746491,10|2|2|2,0:2|0:2|0:2|0:2,0:0:0:0:
353,359,196694,6,0,P|438:361|353:147,1,435.750016622544,2|0,3:2|0:2,0:0:0:0:
275,166,197339,5,2,3:2:0:0:
275,166,197419,1,2,0:2:0:0:
275,166,197500,2,0,L|265:97,1,62.2500023746491,2|2,0:2|0:2,0:0:0:0:
186,205,197661,1,10,0:2:0:0:
182,251,197741,1,2,0:2:0:0:
199,294,197822,1,2,0:2:0:0:
238,317,197902,1,2,0:2:0:0:
285,322,197984,6,0,L|351:314,3,62.2500023746491,2|2|2|2,3:2|0:2|0:2|0:2,0:0:0:0:
440,357,198306,2,0,L|449:233,1,124.500004749298,10|2,0:2|0:2,0:0:0:0:
349,79,198629,2,0,L|358:203,1,124.500004749298,2|0,3:2|3:2,0:0:0:0:
358,203,198871,1,8,0:2:0:0:
358,203,198952,1,8,0:2:0:0:
349,79,199113,6,0,B|183:36|272:128|92:76,1,249.000009498597,2|2,0:2|0:2,0:0:0:0:
9,24,199597,1,10,0:2:0:0:
82,237,199758,2,0,B|138:187|138:187|103:70,1,186.750007123947,2|0,0:2|0:2,0:0:0:0:
105,80,200081,1,2,0:2:0:0:
209,233,200242,1,10,0:2:0:0:
301,31,200403,6,0,B|234:0|234:0|272:186,1,249.000009498597,2|2,0:2|0:2,0:0:0:0:
347,341,200887,1,10,0:2:0:0:
452,174,201048,6,0,P|409:117|399:196,1,186.750007123947,2|0,0:2|0:2,0:0:0:0:
414,269,201371,2,0,P|463:324|473:250,1,186.750007123947,2|2,0:2|0:2,0:0:0:0:
329,248,201694,6,0,L|197:232,1,124.500004749298,14|0,0:2|0:2,0:0:0:0:
34,171,202016,1,2,0:2:0:0:
219,142,202177,1,10,0:2:0:0:
52,267,202339,1,2,3:2:0:0:
141,79,202500,2,0,L|120:218,2,124.500004749298,10|2|10,0:2|3:2|0:2,0:0:0:0:
279,54,202984,1,2,3:2:0:0:
204,267,203145,1,10,0:2:0:0:
204,267,203226,1,2,0:2:0:0:
204,267,203306,6,0,P|147:304|82:298,1,124.500004749298,2|10,3:2|0:2,0:0:0:0:
122,202,203548,2,0,P|179:165|244:171,1,124.500004749298,2|2,0:2|0:2,0:0:0:0:
299,251,203790,2,0,P|361:258|427:267,1,124.500004749298,10|0,0:2|3:2,0:0:0:0:
459,170,204032,2,0,L|335:154,1,124.500004749298,2|0,0:2|0:2,0:0:0:0:
233,167,204274,1,2,3:2:0:0:
233,167,204355,1,2,0:2:0:0:
233,167,204435,6,0,L|217:37,1,124.500004749298,10|2,0:2|3:2,0:0:0:0:
308,10,204677,1,2,0:2:0:0:
308,10,204758,2,0,L|318:75,3,62.2500023746491,10|2|2|2,0:2|0:2|3:2|0:2,0:0:0:0:
335,154,205081,5,10,0:2:0:0:
217,43,205242,1,2,3:2:0:0:
217,43,205323,1,2,0:2:0:0:
217,43,205403,2,0,B|155:7|155:7|36:53,1,186.750007123947,10|2,0:2|0:2,0:0:0:0:
23,136,205726,6,0,L|38:265,1,124.500004749298,10|2,0:2|3:2,0:0:0:0:
37,259,205968,1,2,0:2:0:0:
37,259,206048,1,10,0:2:0:0:
220,222,206210,2,0,L|288:211,2,62.2500023746491,2|2|10,3:2|0:2|0:2,0:0:0:0:
48,381,206532,5,2,3:2:0:0:
97,384,206613,1,2,0:2:0:0:
143,364,206694,2,0,L|135:292,1,62.2500023746491,10|0,0:2|0:2,0:0:0:0:
43,197,206855,2,0,L|36:258,1,62.2500023746491,2|0,3:2|0:2,0:0:0:0:
149,126,207016,5,10,0:2:0:0:
256,192,207097,12,10,209597,0:2:0:0:
256,192,221210,12,8,222177,0:2:0:0:
412,131,222500,6,0,P|291:109|238:187,1,215.79999012146,6|8,3:2|2:2,0:0:0:0:
240,172,222984,1,2,2:2:0:0:
128,293,223145,6,0,P|28:258|150:215,1,290.500002770424,2|8,3:2|2:2,0:0:0:0:
337,193,223629,1,2,2:2:0:0:
266,288,223790,6,0,B|223:328|223:328|242:157,1,215.79999012146,2|8,3:2|2:2,0:0:0:0:
240,171,224274,1,2,2:2:0:0:
401,30,224435,6,0,P|479:22|390:112,1,290.500002770424,2|8,3:2|2:2,0:0:0:0:
285,79,224919,6,0,B|145:54|222:126|62:83,1,215.79999012146,2|2,2:2|2:2,0:0:0:0:
12,276,225403,2,0,L|126:251,2,107.89999506073,8|2|0,2:2|2:2|3:2,0:0:0:0:
170,186,225887,1,2,2:2:0:0:
71,350,226048,1,10,2:2:0:0:
42,167,226210,1,2,2:2:0:0:
200,274,226371,6,0,P|264:294|341:173,1,215.79999012146,2|10,3:2|2:2,0:0:0:0:
435,26,226855,2,0,L|459:246,1,215.79999012146,2|0,2:2|3:2,0:0:0:0:
370,357,227339,2,0,L|481:373,1,107.89999506073,8|0,2:2|3:2,0:0:0:0:
362,256,227661,5,4,3:2:0:0:
362,256,227823,1,0,2:2:0:0:
270,336,227984,2,0,B|258:300|221:285|221:285|368:254,1,215.79999012146,10|0,2:2|3:2,0:0:0:0:
190,366,228468,1,2,3:2:0:0:
264,173,228629,1,10,2:2:0:0:
370,357,228790,1,2,3:2:0:0:
370,357,228871,1,0,3:2:0:0:
370,357,228952,6,0,L|481:373,2,107.89999506073,10|0|10,2:2|3:2|2:2,0:0:0:0:
210,290,229435,2,0,P|167:219|290:202,1,215.79999012146,10|2,2:2|3:2,0:0:0:0:
391,254,229919,1,10,2:2:0:0:
253,65,230081,1,10,2:2:0:0:
253,65,230161,1,8,2:2:0:0:
253,65,230242,6,0,L|264:180,1,107.89999506073,10|0,2:2|3:2,0:0:0:0:
113,360,230564,1,10,2:2:0:0:
59,287,230726,2,0,P|112:270|177:291,1,107.89999506073,2|8,3:2|2:2,0:0:0:0:
380,339,231048,2,0,L|437:329,2,53.9499975303651,2|0|8,3:2|3:2|2:2,0:0:0:0:
287,380,231371,6,0,P|278:324|399:239,1,215.79999012146,10|0,2:2|3:2,0:0:0:0:
406,242,231774,1,0,0:0:0:0:
421,246,231855,2,0,L|409:138,1,107.89999506073,10|2,2:2|3:2,0:0:0:0:
424,142,232097,1,0,3:2:0:0:
439,146,232177,1,2,3:2:0:0:
389,44,232339,5,2,3:2:0:0:
341,31,232419,1,0,3:2:0:0:
295,42,232500,1,10,2:2:0:0:
258,75,232581,1,8,2:2:0:0:
221,108,232661,1,10,2:2:0:0:
175,119,232742,1,8,2:2:0:0:
127,106,232823,6,0,P|171:64|244:164,1,215.79999012146,6|8,3:2|2:2,0:0:0:0:
248,156,233306,1,2,2:2:0:0:
53,291,233468,6,0,B|116:245|192:286|192:286|244:246|244:246|314:285,1,290.500002770424,2|8,3:2|2:2,0:0:0:0:
438,374,233952,1,2,2:2:0:0:
441,165,234113,6,0,B|392:126|392:126|409:289,1,215.79999012146,2|8,3:2|2:2,0:0:0:0:
407,278,234597,1,2,2:2:0:0:
330,77,234758,6,0,P|283:23|265:158,1,290.500002770424,2|8,3:2|2:2,0:0:0:0:
311,283,235242,6,0,B|227:296|189:362|189:362|161:297|71:292,1,290.500002770424,2|2,2:2|2:2,0:0:0:0:
58,280,235645,1,2,0:2:0:0:
34,267,235726,2,0,L|29:157,1,107.89999506073,8|2,2:2|2:2,0:0:0:0:
194,124,236048,1,0,3:2:0:0:
126,197,236210,1,2,2:2:0:0:
255,42,236371,1,10,2:2:0:0:
272,238,236532,1,2,2:2:0:0:
98,109,236694,6,0,B|28:79|28:79|49:235,1,215.79999012146,2|10,3:2|2:2,0:0:0:0:
72,376,237177,2,0,P|93:309|220:329,1,215.79999012146,2|0,2:2|3:2,0:0:0:0:
335,352,237661,2,0,L|449:362,1,107.89999506073,10|0,2:2|3:2,0:0:0:0:
489,249,237984,5,4,3:2:0:0:
489,249,238145,1,0,0:2:0:0:
370,189,238306,2,0,B|405:143|468:151|468:151|448:211|491:251,1,215.79999012146,10|0,2:2|3:2,0:0:0:0:
410,64,238790,2,0,P|352:81|307:124,2,107.89999506073,2|10|10,3:2|2:2|2:2,0:0:0:0:
277,193,239274,5,10,2:2:0:0:
292,16,239435,1,10,3:2:0:0:
292,16,239516,1,0,3:2:0:0:
292,16,239597,1,10,2:2:0:0:
395,180,239758,2,0,L|386:299,1,107.89999506073,10|0,2:2|3:2,0:0:0:0:
481,328,240000,1,0,3:2:0:0:
481,328,240081,6,0,L|485:271,2,53.9499975303651,2|0|2,3:2|3:2|3:2,0:0:0:0:
283,376,240403,1,10,2:2:0:0:
283,376,240484,1,8,2:2:0:0:
283,376,240564,6,0,L|280:255,1,107.89999506073,10|0,2:2|3:2,0:0:0:0:
56,148,240887,2,0,L|53:255,1,107.89999506073,10|2,2:2|3:2,0:0:0:0:
170,373,241210,6,0,L|167:252,1,107.89999506073,8|2,2:2|3:2,0:0:0:0:
161,47,241532,1,10,2:2:0:0:
332,205,241694,6,0,P|401:222|330:97,1,290.500002770424,6|2,3:2|3:2,0:0:0:0:
360,85,242097,1,0,0:0:0:0:
340,94,242177,2,0,L|232:100,1,107.89999506073,10|2,2:2|3:2,0:0:0:0:
218,108,242419,1,0,3:2:0:0:
204,116,242500,5,0,3:2:0:0:
86,200,242661,1,2,3:2:0:0:
86,216,242742,2,0,L|94:335,1,107.89999506073,8|0,2:2|3:2,0:0:0:0:
11,354,242984,1,10,2:2:0:0:
9,337,243064,1,8,2:2:0:0:
8,321,243145,1,4,3:2:0:0:
210,235,243468,6,0,L|329:254,1,107.89999506073,10|0,2:2|2:2,0:0:0:0:
503,238,243790,1,2,3:2:0:0:
319,342,243952,1,2,3:2:0:0:
346,155,244113,1,10,2:2:0:0:
468,316,244274,2,0,B|415:357|415:357|419:204,1,215.79999012146,2|0,3:2|2:2,0:0:0:0:
417,13,244758,6,0,L|435:138,1,107.89999506073,10|0,2:2|2:2,0:0:0:0:
260,257,245081,1,2,3:2:0:0:
285,64,245242,1,2,3:2:0:0:
418,208,245403,1,10,2:2:0:0:
244,161,245564,6,0,L|362:146,1,107.89999506073,2|0,3:2|2:2,0:0:0:0:
184,72,245887,2,0,L|66:57,2,107.89999506073,2|10|2,3:2|2:2|2:2,0:0:0:0:
308,231,246371,1,2,3:2:0:0:
143,165,246532,1,2,3:2:0:0:
285,64,246694,1,10,2:2:0:0:
209,245,246855,6,0,P|139:265|41:151,1,215.79999012146,2|0,3:2|3:2,0:0:0:0:
128,58,247339,2,0,L|143:171,1,107.89999506073,10|2,2:2|3:2,0:0:0:0:
194,351,247661,2,0,L|208:244,1,107.89999506073,2|2,2:2|3:2,0:0:0:0:
345,143,247984,1,10,2:2:0:0:
355,130,248064,1,8,2:2:0:0:
364,117,248145,2,0,P|434:97|388:196,1,215.79999012146,6|0,3:2|3:2,0:0:0:0:
315,249,248629,6,0,L|186:243,1,107.89999506073,8|2,2:2|3:2,0:0:0:0:
34,169,248952,2,0,L|163:163,1,107.89999506073,8|2,2:2|3:2,0:0:0:0:
337,163,249274,1,10,2:2:0:0:
281,82,249435,1,2,3:2:0:0:
207,243,249597,6,0,L|220:367,1,107.89999506073,10|0,2:2|3:2,0:0:0:0:
405,252,249919,2,0,L|416:144,1,107.89999506073,10|2,2:2|3:2,0:0:0:0:
304,250,250242,6,0,L|317:374,1,107.89999506073,8|0,2:2|3:2,0:0:0:0:
501,268,250564,2,0,L|512:160,1,107.89999506073,10|2,2:2|3:2,0:0:0:0:
305,85,250887,5,10,2:2:0:0:
405,252,251048,1,0,3:2:0:0:
476,61,251210,1,10,2:2:0:0:
405,252,251371,2,0,L|396:142,1,107.89999506073,2|8,3:2|2:2,0:0:0:0:
262,5,251694,1,2,3:2:0:0:
293,169,251855,1,10,2:2:0:0:
397,27,252016,1,2,3:2:0:0:
293,169,252177,6,0,L|178:187,1,107.89999506073,8|2,2:2|3:2,0:0:0:0:
14,238,252500,2,0,L|129:256,1,107.89999506073,10|2,2:2|3:2,0:0:0:0:
274,78,252823,6,0,L|159:96,1,107.89999506073,8|2,2:2|3:2,0:0:0:0:
211,276,253145,2,0,L|326:294,1,107.89999506073,10|2,2:2|3:2,0:0:0:0:
477,377,253468,6,0,P|429:357|406:306,1,107.89999506073,6|0,3:2|3:2,0:0:0:0:
406,309,253710,1,0,3:2:0:0:
406,309,253790,1,0,3:2:0:0:
472,172,253952,2,0,B|514:130|514:130|493:284,1,215.79999012146,14|0,2:2|3:2,0:0:0:0:
492,284,254355,1,0,3:2:0:0:
492,284,254435,1,0,3:2:0:0:
427,84,254597,6,0,B|299:63|363:132|194:95,1,215.79999012146,12|0,2:2|3:2,0:0:0:0:
131,90,255000,1,0,3:2:0:0:
131,91,255081,2,0,L|120:158,1,62.2500023746491,0|0,3:2|0:0,0:0:0:0:
110,238,255242,5,10,2:2:0:0:
150,260,255323,1,8,2:2:0:0:
196,267,255403,1,10,2:2:0:0:
241,256,255484,1,8,2:2:0:0:
280,230,255564,1,8,2:2:0:0:
318,203,255645,1,8,2:2:0:0:
363,193,255726,1,10,2:2:0:0:
409,199,255806,1,8,2:2:0:0:
450,222,255887,1,14,2:2:0:0:
256,192,255968,12,0,257016,3:0:0:0:
348,323,257339,5,10,0:0:0:0:
136,281,257500,1,0,3:0:0:0:
136,281,257581,1,0,3:0:0:0:
136,281,257661,1,0,3:0:0:0:
411,256,257823,5,10,0:0:0:0:
177,384,257984,1,0,3:0:0:0:
177,384,258064,1,0,3:0:0:0:
177,384,258145,1,0,3:0:0:0:
432,166,258306,5,10,0:0:0:0:
256,192,258387,12,0,259919,0:0:0:0:
