osu file format v14

[General]
AudioFilename: zero.mp3
AudioLeadIn: 0
PreviewTime: 54196
Countdown: 0
SampleSet: Soft
StackLeniency: 0.3
Mode: 0
LetterboxInBreaks: 0
WidescreenStoryboard: 1

[Editor]
Bookmarks: 68225
DistanceSpacing: 0.9
BeatDivisor: 4
GridSize: 32
TimelineZoom: 1.85

[Metadata]
Title:ZERO!! (TV Size)
TitleUnicode:ZERO!! (TV Size)
Artist:Kuribayashi Minami
ArtistUnicode:栗林みな実
Creator:kanpakyin
Version:Normal
Source:はたらく魔王さま!
Tags:op opening short hataraku maou-sama! the devil is a part timer! anime japanese pop jpop j-pop 中土智博 nakatsuchi tomohiro Roger ][ -GH- ][ Momochikun KantoKun Kyle Y Kyle_Y Nardoxyribonucleic neonat
BeatmapID:2489534
BeatmapSetID:166027

[Difficulty]
HPDrainRate:5
CircleSize:3.5
OverallDifficulty:4
ApproachRate:6
SliderMultiplier:1
SliderTickRate:1

[Events]
//Background and Video events
0,0,"bg.jpg",0,0
Video,99,"Video.mp4"
//Break Periods
//Storyboard Layer 0 (Background)
//Storyboard Layer 1 (Fail)
//Storyboard Layer 2 (Pass)
//Storyboard Layer 3 (Foreground)
//Storyboard Layer 4 (Overlay)
//Storyboard Sound Samples

[TimingPoints]
501,329.67032967033,4,2,1,70,1,0
542,-100,4,2,2,70,0,0
1160,-100,4,2,2,100,0,0
1201,-100,4,2,2,70,0,0
2314,-100,4,2,1,70,0,0
2561,-100,4,2,2,70,0,0
3055,-100,4,2,1,70,0,0
3220,-100,4,2,2,70,0,0
3797,-100,4,2,2,100,0,0
4951,-100,4,2,1,70,0,0
8413,-100,4,2,6,100,0,0
10061,-100,4,2,2,80,0,0
10143,-100,4,2,1,70,0,0
10555,-100,4,2,3,70,0,0
11050,-100,4,2,1,80,0,0
11091,-100,4,2,2,75,0,0
19621,-100,4,2,6,90,0,0
20528,-100,4,2,2,70,0,0
21105,-100,4,2,6,60,0,0
21270,-100,4,2,2,75,0,0
26874,-100,4,2,1,80,0,0
26957,-100,4,2,2,75,0,0
29511,-100,4,2,6,100,0,0
30830,-100,4,2,2,75,0,0
31077,-100,4,2,1,75,0,0
31242,-100,4,2,2,75,0,0
32149,-100,4,2,1,80,0,0
32231,-100,4,2,4,75,0,0
37259,-100,4,2,4,65,0,0
37424,-100,4,2,1,80,0,0
37506,-100,4,2,2,75,0,0
40061,-100,4,2,1,75,0,0
40143,-100,4,2,2,75,0,0
42204,-100,4,2,2,65,0,0
42369,-100,4,2,2,100,0,0
42451,-100,4,2,2,70,0,0
42616,-100,4,2,1,80,0,0
42781,-100,4,2,5,75,0,0
47808,-100,4,2,5,90,0,0
47973,-100,4,2,1,75,0,0
48055,-100,4,2,5,75,0,0
49044,-100,4,2,1,75,0,0
49209,-100,4,2,5,75,0,0
50281,-100,4,2,2,75,0,0
50363,-100,4,2,1,75,0,0
50693,-100,4,2,5,75,0,0
51187,-100,4,2,3,60,0,0
51352,-100,4,2,5,70,0,0
51682,-100,4,2,2,70,0,0
52176,-100,4,2,1,60,0,0
52753,-100,4,2,2,70,0,0
52918,-100,4,2,2,60,0,0
53001,-100,4,2,2,70,0,0
53907,-100,4,2,0,70,0,0
53948,-100,4,2,2,70,0,0
54237,-100,4,2,3,80,0,0
54566,-100,4,2,1,80,0,1
54649,-100,4,2,6,80,0,1
59841,-100,4,2,2,80,0,1
59924,-100,4,2,6,80,0,1
64127,-100,4,2,1,65,0,1
64209,-100,4,2,6,80,0,1
64621,-100,4,2,6,60,0,1
65116,-100,4,2,1,80,0,1
65198,-100,4,2,6,80,0,1
70391,-100,4,2,1,80,0,1
70473,-100,4,2,6,75,0,1
75665,-100,4,2,1,75,0,1
75748,-100,4,2,6,65,0,1
77891,-100,4,2,2,85,0,1
78138,-100,4,2,1,75,0,0
78179,-100,4,2,5,75,0,0
83413,-100,4,2,1,70,0,0
83660,-100,4,2,5,75,0,0
86132,-100,4,2,2,75,0,0
86380,-100,4,2,6,85,0,0
86627,-100,4,2,6,75,0,0
87369,-100,4,2,3,75,0,0

[Colours]
Combo1 : 66,121,183
Combo2 : 146,160,180
Combo3 : 118,106,166
Combo4 : 198,117,117

[HitObjects]
114,298,501,6,0,L|280:279,1,150,4|0,0:2|3:0,0:0:0:0:
298,308,1160,2,0,P|336:320|400:287,1,100,4|0,0:0|0:0,0:0:0:0:
461,244,1819,6,0,B|482:146|482:146|461:84,1,150,0|0,0:0|3:0,0:0:0:0:
429,71,2479,2,0,L|311:81,1,100,4|0,0:0|3:0,0:0:0:0:
254,29,3138,1,4,3:2:0:0:
164,129,3632,5,0,0:0:0:0:
164,129,3797,2,0,P|106:141|67:9,1,200,4|0,0:0|0:0,0:0:0:0:
183,50,4951,1,0,3:0:0:0:
183,50,5116,2,0,L|286:76,1,100,8|4,0:0|0:3,0:0:0:0:
288,164,5775,6,0,B|361:162|345:223|440:211,1,150,4|0,3:2|0:0,0:0:0:0:
455,245,6435,2,0,L|418:349,1,100,4|0,0:0|0:0,0:0:0:0:
332,351,7094,2,0,B|281:337|281:337|246:354|246:354|167:332,1,150,0|0,0:0|0:0,0:0:0:0:
153,312,7753,1,0,1:0:0:0:
145,267,7918,1,0,3:0:0:0:
254,187,8413,5,2,3:2:0:0:
340,209,8742,2,0,B|376:183|370:113|370:113|312:83,1,150,2|2,3:2|3:2,0:0:0:0:
261,34,9566,1,2,3:2:0:0:
223,59,9731,1,0,0:0:0:0:
177,59,9896,2,0,L|110:46,1,50,0|8,3:0|0:0,0:0:0:0:
72,120,10391,5,0,0:0:0:0:
89,161,10555,1,8,0:0:0:0:
108,201,10720,1,8,0:0:0:0:
184,248,11050,6,0,P|193:289|161:354,1,100,4|8,3:2|0:0,0:0:0:0:
103,285,11709,1,0,0:0:0:0:
184,248,12039,2,0,L|335:283,1,150,8|2,0:0|0:0,0:0:0:0:
358,316,12698,2,0,P|400:312|438:266,1,100,8|0,0:0|0:0,0:0:0:0:
470,186,13358,1,8,0:0:0:0:
427,107,13687,6,0,L|255:151,1,150,0|2,3:2|0:0,0:0:0:0:
237,136,14347,2,0,P|215:102|229:33,1,100,0|8,0:0|0:0,0:0:0:0:
257,17,14841,1,2,0:0:0:0:
302,18,15006,2,0,L|353:26,2,50,0|2|8,3:0|0:0|0:0,0:0:0:0:
430,144,15995,6,0,L|436:194,1,50,8|2,0:0|0:0,0:0:0:0:
455,234,16325,2,0,P|401:225|321:303,1,150,0|2,3:0|0:0,0:0:0:0:
316,368,17149,2,0,P|370:377|450:299,2,150,2|0|2,3:2|3:0|0:0,0:0:0:0:
287,333,18303,1,0,0:0:0:0:
244,317,18468,1,2,3:2:0:0:
199,323,18632,2,0,P|172:332|144:360,1,50,8|2,0:0|0:0,0:0:0:0:
131,383,18962,5,2,3:2:0:0:
59,328,19292,2,0,B|36:279|73:219|73:219|46:174,1,150,2|2,3:2|3:2,0:0:0:0:
133,145,20116,2,0,P|199:146|239:73,1,150,2|8,3:2|0:0,0:0:0:0:
310,201,21105,1,2,1:2:0:0:
310,201,21270,2,0,L|400:208,1,50,8|2,0:0|0:0,0:0:0:0:
397,229,21599,6,0,P|404:267|355:340,2,100,4|8|0,3:2|0:0|0:0,0:0:0:0:
472,177,22588,1,8,0:0:0:0:
397,125,22918,2,0,P|382:84|406:21,2,100,0|8|0,3:0|0:0|0:0,0:0:0:0:
324,178,23907,1,8,0:0:0:0:
261,113,24237,6,0,L|130:152,1,100,2|8,3:2|0:0,0:0:0:0:
136,176,24731,2,0,P|95:178|48:147,2,100,2|2|2,0:0|3:2|0:0,0:0:0:0:
179,188,25555,2,0,L|159:293,1,100,0|8,0:0|0:0,0:0:0:0:
122,310,26050,6,0,P|197:312|256:383,1,150,2|8,0:0|0:0,0:0:0:0:
324,312,26874,1,4,3:2:0:0:
300,225,27204,2,0,L|467:257,1,150,8|2,0:0|3:2,0:0:0:0:
491,246,27863,1,8,0:0:0:0:
480,156,28193,5,0,3:0:0:0:
393,133,28522,2,0,B|356:154|356:154|305:125|314:59,1,150,8|2,0:0|3:2,0:0:0:0:
324,18,29182,1,8,0:0:0:0:
410,42,29511,2,0,L|513:29,1,100,2|2,3:2|3:2,0:0:0:0:
483,162,30336,6,0,P|491:211|457:261,1,100,2|2,3:2|3:2,0:0:0:0:
383,286,30995,1,2,3:2:0:0:
339,275,31160,1,12,0:0:0:0:
316,236,31325,2,0,L|329:127,1,100,2|0,0:0|1:0,0:0:0:0:
295,105,31819,1,8,3:0:0:0:
209,132,32149,6,0,P|164:117|134:61,1,100,4|0,3:2|3:0,0:0:0:0:
221,45,32808,1,0,3:0:0:0:
209,132,33138,2,0,L|193:261,1,100,0|0,3:0|3:0,0:0:0:0:
110,256,33797,2,0,P|80:256|47:242,1,50,0|2,3:0|0:0,0:0:0:0:
37,211,34127,2,0,L|53:326,1,100,0|0,3:0|3:0,0:0:0:0:
81,342,34621,1,2,0:0:0:0:
125,348,34786,6,0,P|166:342|217:305,1,100,0|0,3:0|3:0,0:0:0:0:
260,229,35446,1,0,3:0:0:0:
294,311,35775,1,0,3:0:0:0:
380,336,36105,2,0,L|489:319,2,100,0|0|0,3:0|3:0|3:0,0:0:0:0:
361,257,37094,1,0,3:0:0:0:
361,257,37259,1,2,1:2:0:0:
361,257,37424,2,0,P|348:222|346:189,1,50,4|2,1:2|0:0,0:0:0:0:
372,173,37753,6,0,P|302:177|239:96,1,150,8|0,0:0|3:0,0:0:0:0:
260,82,38413,2,0,L|133:116,1,100,10|0,0:0|3:0,0:0:0:0:
74,95,39072,2,0,P|27:92|92:47,1,200,10|10,0:0|0:0,0:0:0:0:
163,107,40061,5,4,3:2:0:0:
129,190,40391,2,0,L|170:335,1,150,8|2,0:0|3:2,0:0:0:0:
210,352,41050,2,0,P|253:347|296:299,1,100,10|0,0:0|3:0,0:0:0:0:
312,220,41709,1,10,0:0:0:0:
411,319,42204,5,0,3:0:0:0:
411,319,42369,2,0,L|443:205,1,100,4|4,0:0|3:2,0:0:0:0:
373,160,43028,1,10,3:2:0:0:
460,139,43358,2,0,P|473:104|452:32,1,100,2|10,3:2|3:2,0:0:0:0:
428,12,43852,5,2,0:1:0:0:
382,12,44017,2,0,L|283:32,1,100,2|10,3:2|3:2,0:0:0:0:
234,107,44676,2,0,L|115:133,1,100,2|10,3:2|3:2,0:0:0:0:
85,203,45336,2,0,P|41:195|2:131,1,100,4|10,3:2|3:2,0:0:0:0:
31,117,45830,2,0,L|9:279,1,150,2|10,0:1|3:2,0:0:0:0:
99,247,46654,6,0,B|117:277|117:277|94:306|118:344,1,100,2|10,3:2|0:0,0:0:0:0:
154,360,47149,1,2,0:1:0:0:
197,346,47314,2,0,L|307:359,1,100,2|10,3:2|3:2,0:0:0:0:
338,341,47808,1,2,3:1:0:0:
379,323,47973,2,0,B|398:315|398:315|457:331|469:362,1,100,4|8,3:2|0:0,0:0:0:0:
431,223,48797,6,0,L|440:172,1,50,2|8,3:2|0:2,0:0:0:0:
477,148,49127,2,0,P|436:124|409:57,1,100,4|2,3:2|3:2,0:0:0:0:
416,34,49621,2,0,L|283:61,1,100,8|0,0:2|0:2,0:0:0:0:
273,43,50116,2,0,P|258:39|226:16,1,50,2|4,3:2|0:0,0:0:0:0:
226,109,50610,6,0,B|176:91|176:91|36:112,1,150,4|2,3:2|0:0,0:0:0:0:
43,78,51270,2,0,P|72:156|19:217,1,150,8|2,3:2|0:0,0:0:0:0:
54,249,51929,2,0,B|28:286|28:286|34:319|2:343,2,100,0|8|0,3:0|0:0|3:0,0:0:0:0:
98,255,52753,2,0,P|123:255|145:269,1,50,2|12,3:2|0:0,0:0:0:0:
214,324,53248,5,6,3:2:0:0:
259,322,53413,1,0,3:0:0:0:
297,299,53577,1,0,3:0:0:0:
311,210,53907,2,0,L|410:225,1,100,2|8,0:0|0:0,0:0:0:0:
489,268,54566,6,0,P|451:209|482:117,2,150,4|0|8,3:2|0:0|0:0,0:0:0:0:
463,304,55720,1,2,0:0:0:0:
435,340,55885,2,0,B|400:351|400:351|339:305|282:354,1,150
257,368,56544,6,0,L|153:349,1,100,0|8,3:0|0:0,0:0:0:0:
129,315,57039,1,2,0:0:0:0:
124,270,57204,2,0,P|128:242|153:208,2,50,0|2|8,3:0|0:0|0:0,0:0:0:0:
55,211,57863,6,0,L|33:70,1,100,0|8,3:0|0:0,0:0:0:0:
132,122,58522,2,0,P|151:89|130:20,2,100,0|8|0,3:0|0:0|3:0,0:0:0:0:
157,208,59511,1,8,0:0:0:0:
222,145,59841,6,0,L|356:133,1,100,4|8,3:2|0:0,0:0:0:0:
355,166,60336,1,2,0:0:0:0:
400,166,60501,2,0,B|424:128|402:74|402:74|427:58|461:78,1,150,0|2,3:0|0:0,0:0:0:0:
491,49,61160,2,0,P|496:27|491:-5,2,50,0|2|8,3:0|0:0|0:0,0:0:0:0:
508,137,61819,5,0,3:0:0:0:
464,216,62149,2,0,L|484:279,1,50,8|0,0:0|0:0,0:0:0:0:
504,300,62479,2,0,P|443:300|410:355,1,100,0|8,3:0|0:0,0:0:0:0:
380,351,62973,2,0,P|393:305|371:252,1,100,2|2,0:0|0:0,0:0:0:0:
337,232,63468,6,0,L|216:218,1,100,8|0,0:0|3:0,0:0:0:0:
208,183,63962,1,14,0:0:0:0:
198,138,64127,2,0,P|195:112|205:79,1,50,14|0,0:0|0:0,0:0:0:0:
233,57,64457,6,0,P|158:69|84:14,1,150,8|4,0:0|3:0,0:0:0:0:
71,69,65116,2,0,L|92:180,1,100,4|8,3:2|0:0,0:0:0:0:
44,172,65610,6,0,B|23:220|23:220|71:275|19:341,1,150,2|8,0:0|0:0,0:0:0:0:
76,334,66270,2,0,L|178:326,1,100,2|2,0:0|0:0,0:0:0:0:
213,350,66764,1,8,0:0:0:0:
298,377,67094,5,0,3:0:0:0:
357,309,67424,1,8,0:0:0:0:
362,264,67588,2,0,L|346:148,1,100,2|2,0:0|0:0,0:0:0:0:
377,130,68083,2,0,B|394:96|394:96|378:23,1,100,8|0,0:0|3:0,0:0:0:0:
291,16,68742,5,8,0:0:0:0:
248,31,68907,1,2,0:0:0:0:
205,46,69072,2,0,L|73:20,1,100,0|8,3:0|0:0,0:0:0:0:
64,41,69566,2,0,P|55:84|85:139,1,100,2|2,0:0|0:0,0:0:0:0:
116,157,70061,1,8,0:0:0:0:
189,104,70391,5,4,3:2:0:0:
200,193,70720,2,0,B|179:240|130:245|130:245|149:284|130:321,1,150,8|0,0:0|0:0,0:0:0:0:
111,338,71380,2,0,L|224:322,1,100,8|0,0:0|3:0,0:0:0:0:
281,269,72039,2,0,P|270:320|311:372,1,100,8|0,0:0|3:0,0:0:0:0:
361,302,72698,5,8,0:0:0:0:
426,363,73028,1,4,3:2:0:0:
508,327,73358,2,0,L|454:185,1,150,8|0,0:0|0:0,0:0:0:0:
491,160,74017,6,0,P|514:117|502:60,1,100,8|0,0:0|3:0,0:0:0:0:
417,48,74676,1,8,0:0:0:0:
380,130,75006,1,0,3:0:0:0:
454,186,75336,1,8,0:0:0:0:
454,275,75665,6,0,L|463:329,2,50,14|0|10,3:2|3:0|0:0,0:0:0:0:
370,309,76325,2,0,L|340:348,2,50,10|0|10,0:0|3:0|0:0,0:0:0:0:
282,288,76984,6,0,L|225:301,2,50,10|0|10,0:0|3:0|0:0,0:0:0:0:
236,209,77643,2,0,P|232:185|246:152,1,50,10|0,0:0|3:0,0:0:0:0:
264,123,77973,1,2,0:0:0:0:
252,79,78138,6,0,L|70:96,1,150,4|2,3:2|1:2,0:0:0:0:
59,172,78962,1,0,3:0:0:0:
88,256,79292,2,0,P|39:260|-7:230,1,100,2|0,1:2|3:0,0:0:0:0:
59,172,79951,5,2,1:2:0:0:
147,187,80281,1,0,3:0:0:0:
177,271,80610,2,0,L|160:329,1,50,2|0,1:2|0:0,0:0:0:0:
190,354,80940,2,0,P|141:343|79:383,2,100,0|2|0,3:0|1:2|3:0,0:0:0:0:
276,377,81929,6,0,L|427:333,1,150,2|0,1:2|0:0,0:0:0:0:
448,300,82588,2,0,P|463:260|433:193,1,100,2|0,1:2|3:0,0:0:0:0:
357,196,83248,1,2,1:2:0:0:
321,168,83413,1,0,3:0:0:0:
315,123,83577,2,0,B|292:89|304:46|304:46|351:30|381:81|442:47,1,200,4|0,3:2|3:0,0:0:0:0:
492,110,84566,1,2,1:2:0:0:
429,174,84896,5,0,3:0:0:0:
457,208,85061,1,0,0:0:0:0:
460,252,85226,1,0,1:0:0:0:
387,305,85555,2,0,P|360:303|332:289,1,50,0|0,3:0|3:0,0:0:0:0:
309,260,85885,2,0,B|286:250|286:250|234:268|234:268|198:261,1,100,2|6,1:2|3:2,0:0:0:0:
157,194,86544,6,0,L|100:204,1,50,2|0,3:2|0:0,0:0:0:0:
34,149,87039,1,2,1:2:0:0:
53,61,87369,1,8,0:0:0:0:
