osu file format v14

[General]
AudioFilename: zero.mp3
AudioLeadIn: 0
PreviewTime: 54196
Countdown: 0
SampleSet: Normal
StackLeniency: 0.9
Mode: 1
LetterboxInBreaks: 0
WidescreenStoryboard: 1

[Editor]
DistanceSpacing: 1.2
BeatDivisor: 4
GridSize: 8
TimelineZoom: 1.7

[Metadata]
Title:ZERO!! (TV Size)
TitleUnicode:ZERO!! (TV Size)
Artist:Kuribayashi Minami
ArtistUnicode:栗林みな実
Creator:kanpakyin
Version:Futsuu
Source:はたらく魔王さま!
Tags:op opening short hataraku maou-sama! the devil is a part timer! anime japanese pop jpop j-pop 中土智博 nakatsuchi tomohiro Roger ][ -GH- ][ Momochikun KantoKun Kyle Y Kyle_Y Nardoxyribonucleic neonat
BeatmapID:2508795
BeatmapSetID:166027

[Difficulty]
HPDrainRate:7
CircleSize:4.2
OverallDifficulty:4
ApproachRate:9
SliderMultiplier:1.4
SliderTickRate:1

[Events]
//Background and Video events
0,0,"bg.jpg",0,100
Video,99,"Video.mp4"
//Break Periods
//Storyboard Layer 0 (Background)
//Storyboard Layer 1 (Fail)
//Storyboard Layer 2 (Pass)
//Storyboard Layer 3 (Foreground)
//Storyboard Layer 4 (Overlay)
//Storyboard Sound Samples

[TimingPoints]
501,329.67032967033,4,1,0,80,1,0
54566,-100,4,1,0,85,0,1
78138,-100,4,1,0,80,0,0

[Colours]
Combo1 : 66,121,183
Combo2 : 146,160,180
Combo3 : 118,106,166
Combo4 : 198,117,117

[HitObjects]
441,129,501,5,4,0:0:0:0:
441,129,1160,1,8,0:0:0:0:
429,125,1819,1,0,0:0:0:0:
429,125,2314,1,0,0:0:0:0:
429,125,2479,1,8,0:0:0:0:
411,104,2808,1,0,0:0:0:0:
411,104,3138,1,0,0:0:0:0:
390,105,3797,1,8,0:0:0:0:
411,91,5116,1,8,0:0:0:0:
411,91,5446,1,8,0:0:0:0:
408,98,5610,1,0,0:0:0:0:
411,91,5775,1,12,0:0:0:0:
405,96,6435,1,0,0:0:0:0:
400,92,7094,1,8,0:0:0:0:
400,92,7753,1,8,0:0:0:0:
394,94,7918,1,0,0:0:0:0:
400,92,8413,1,8,0:0:0:0:
400,92,8742,1,8,0:0:0:0:
403,89,9072,1,0,0:0:0:0:
403,79,9237,1,8,0:0:0:0:
392,83,9566,1,8,0:0:0:0:
382,74,9731,1,0,0:0:0:0:
402,85,10061,1,8,0:0:0:0:
388,69,10555,1,12,0:0:0:0:
402,74,10720,1,12,0:0:0:0:
402,74,11050,1,0,0:0:0:0:
387,88,11380,1,8,0:0:0:0:
383,91,12039,1,8,0:0:0:0:
387,88,12204,1,0,0:0:0:0:
386,84,12533,1,0,0:0:0:0:
386,83,12698,1,8,0:0:0:0:
386,80,12863,1,0,0:0:0:0:
382,68,13358,1,8,0:0:0:0:
379,68,13687,1,0,0:0:0:0:
362,77,14017,1,8,0:0:0:0:
348,68,14182,1,0,0:0:0:0:
348,66,14511,1,0,0:0:0:0:
348,66,14676,1,8,0:0:0:0:
353,59,15006,1,0,0:0:0:0:
349,59,15336,1,8,0:0:0:0:
346,56,15995,1,8,0:0:0:0:
350,71,16325,1,0,0:0:0:0:
345,70,16654,1,8,0:0:0:0:
354,70,16819,1,0,0:0:0:0:
377,65,17149,1,0,0:0:0:0:
377,65,17314,1,8,0:0:0:0:
372,74,17643,1,0,0:0:0:0:
372,64,17808,1,8,0:0:0:0:
369,76,18138,1,8,0:0:0:0:
369,75,18303,1,8,0:0:0:0:
372,74,18468,1,0,0:0:0:0:
370,74,18632,1,8,0:0:0:0:
374,87,18962,1,0,0:0:0:0:
368,85,19786,1,0,0:0:0:0:
363,80,20116,1,8,0:0:0:0:
361,93,20610,1,8,0:0:0:0:
351,84,21270,1,8,0:0:0:0:
339,87,21599,1,0,0:0:0:0:
350,75,21929,1,8,0:0:0:0:
353,81,22588,1,8,0:0:0:0:
337,58,22753,1,0,0:0:0:0:
340,61,23083,1,8,0:0:0:0:
352,72,23248,1,8,0:0:0:0:
351,71,23413,1,0,0:0:0:0:
353,72,23907,1,8,0:0:0:0:
355,94,24237,1,0,0:0:0:0:
355,93,24566,1,8,0:0:0:0:
366,108,24731,1,0,0:0:0:0:
366,108,25061,1,0,0:0:0:0:
366,108,25226,1,8,0:0:0:0:
401,105,25555,1,0,0:0:0:0:
369,126,25885,1,8,0:0:0:0:
401,105,26544,1,8,0:0:0:0:
393,109,26874,1,0,0:0:0:0:
350,108,27204,1,8,0:0:0:0:
393,101,27698,1,0,0:0:0:0:
366,98,27863,1,8,0:0:0:0:
366,98,28193,1,0,0:0:0:0:
366,98,28522,1,8,0:0:0:0:
374,102,29017,1,0,0:0:0:0:
366,98,29182,1,8,0:0:0:0:
366,98,29347,1,8,0:0:0:0:
366,98,29511,1,0,0:0:0:0:
365,98,29841,1,8,0:0:0:0:
357,98,30006,1,0,0:0:0:0:
366,98,30171,1,8,0:0:0:0:
343,102,30501,1,0,0:0:0:0:
365,98,30665,1,4,0:0:0:0:
385,102,31160,1,8,0:0:0:0:
387,96,31819,1,8,0:0:0:0:
382,110,32149,1,0,0:0:0:0:
369,102,32479,1,8,0:0:0:0:
361,92,32808,1,0,0:0:0:0:
361,92,33138,1,8,0:0:0:0:
353,98,33303,1,0,0:0:0:0:
357,104,33468,1,0,0:0:0:0:
348,105,33797,1,8,0:0:0:0:
350,114,34457,1,8,0:0:0:0:
354,125,34786,1,0,0:0:0:0:
353,125,35116,1,8,0:0:0:0:
353,125,35446,1,0,0:0:0:0:
352,121,35610,1,0,0:0:0:0:
352,121,35775,1,8,0:0:0:0:
353,125,36105,1,0,0:0:0:0:
352,121,36435,1,8,0:0:0:0:
365,129,37094,1,8,0:0:0:0:
367,132,37259,1,8,0:0:0:0:
367,132,37424,1,4,0:0:0:0:
368,120,37753,1,8,0:0:0:0:
367,132,38248,1,0,0:0:0:0:
372,118,38413,1,8,0:0:0:0:
377,101,38742,1,0,0:0:0:0:
377,101,39072,1,8,0:0:0:0:
341,105,39566,1,0,0:0:0:0:
359,112,39731,1,8,0:0:0:0:
354,115,40061,1,0,0:0:0:0:
361,122,40391,1,8,0:0:0:0:
338,105,40885,1,0,0:0:0:0:
380,132,41050,1,8,0:0:0:0:
380,129,41380,1,0,0:0:0:0:
368,115,41709,1,8,0:0:0:0:
380,129,42204,1,0,0:0:0:0:
380,129,42369,1,8,0:0:0:0:
381,126,42698,1,0,0:0:0:0:
376,135,42863,1,0,0:0:0:0:
376,135,43028,1,8,0:0:0:0:
380,134,43358,1,0,0:0:0:0:
374,138,43687,1,8,0:0:0:0:
361,120,44017,1,0,0:0:0:0:
373,148,44347,1,8,0:0:0:0:
362,146,45006,1,8,0:0:0:0:
349,158,45336,1,0,0:0:0:0:
326,159,45501,1,0,0:0:0:0:
325,159,45665,1,8,0:0:0:0:
325,158,45830,1,0,0:0:0:0:
351,158,46160,1,0,0:0:0:0:
349,158,46325,1,8,0:0:0:0:
341,169,46984,1,8,0:0:0:0:
339,143,47149,1,0,0:0:0:0:
344,171,47314,1,0,0:0:0:0:
341,169,47479,1,0,0:0:0:0:
341,169,47643,1,8,0:0:0:0:
344,175,47973,1,4,0:0:0:0:
334,169,48303,1,8,0:0:0:0:
331,172,48468,1,0,0:0:0:0:
348,177,48797,1,0,0:0:0:0:
338,177,49127,1,4,0:0:0:0:
344,181,49457,1,0,0:0:0:0:
344,181,49621,1,8,0:0:0:0:
344,181,49786,1,0,0:0:0:0:
344,181,50281,1,8,0:0:0:0:
343,174,50610,1,4,0:0:0:0:
350,181,50940,1,8,0:0:0:0:
350,181,51105,1,0,0:0:0:0:
350,181,51270,1,12,0:0:0:0:
350,181,51599,1,8,0:0:0:0:
350,181,51929,1,4,0:0:0:0:
335,185,52094,1,0,0:0:0:0:
350,181,52259,1,8,0:0:0:0:
336,182,52918,1,8,0:0:0:0:
350,181,53248,1,0,0:0:0:0:
350,181,53413,1,8,0:0:0:0:
350,181,53577,1,0,0:0:0:0:
330,174,53742,1,0,0:0:0:0:
350,181,53907,1,8,0:0:0:0:
350,181,54237,1,8,0:0:0:0:
341,194,54566,1,12,0:0:0:0:
342,197,54896,1,8,0:0:0:0:
361,194,55555,1,8,0:0:0:0:
360,194,55885,1,0,0:0:0:0:
362,194,56215,1,8,0:0:0:0:
352,204,56544,1,0,0:0:0:0:
349,205,56709,1,8,0:0:0:0:
349,205,56874,1,8,0:0:0:0:
362,211,57039,1,0,0:0:0:0:
352,204,57204,1,0,0:0:0:0:
352,204,57533,1,8,0:0:0:0:
349,203,58193,1,8,0:0:0:0:
334,191,58522,1,0,0:0:0:0:
334,191,58852,1,8,0:0:0:0:
335,191,59017,1,8,0:0:0:0:
334,191,59182,1,0,0:0:0:0:
334,191,59511,1,8,0:0:0:0:
334,191,59841,1,4,0:0:0:0:
332,196,60171,1,8,0:0:0:0:
327,193,60336,1,0,0:0:0:0:
331,196,60501,1,0,0:0:0:0:
331,196,60830,1,8,0:0:0:0:
332,196,61160,1,0,0:0:0:0:
331,196,61325,1,0,0:0:0:0:
331,196,61490,1,8,0:0:0:0:
317,196,62149,1,8,0:0:0:0:
318,196,62479,1,0,0:0:0:0:
326,191,62808,1,8,0:0:0:0:
320,190,63138,1,0,0:0:0:0:
320,190,63468,1,8,0:0:0:0:
319,189,63797,1,0,0:0:0:0:
320,190,63962,1,8,0:0:0:0:
320,190,64127,1,8,0:0:0:0:
335,181,64457,1,8,0:0:0:0:
321,177,64621,1,0,0:0:0:0:
321,177,64786,1,8,0:0:0:0:
321,177,64951,1,8,0:0:0:0:
321,177,65116,1,4,0:0:0:0:
319,175,65446,1,8,0:0:0:0:
311,196,66105,1,8,0:0:0:0:
311,196,66270,1,8,0:0:0:0:
311,196,66435,1,0,0:0:0:0:
311,202,66764,1,8,0:0:0:0:
300,198,67094,1,0,0:0:0:0:
305,202,67259,1,8,0:0:0:0:
303,205,67424,1,8,0:0:0:0:
291,192,67588,1,0,0:0:0:0:
308,202,68083,1,8,0:0:0:0:
308,202,68413,1,0,0:0:0:0:
306,191,68742,1,8,0:0:0:0:
306,191,69072,1,0,0:0:0:0:
306,187,69402,1,8,0:0:0:0:
306,191,69731,1,8,0:0:0:0:
287,177,69896,1,0,0:0:0:0:
296,190,70061,1,8,0:0:0:0:
296,190,70391,1,0,0:0:0:0:
279,172,71050,1,0,0:0:0:0:
279,189,71380,1,8,0:0:0:0:
290,196,72039,1,8,0:0:0:0:
291,194,72369,1,0,0:0:0:0:
286,192,72698,1,8,0:0:0:0:
281,188,73028,1,0,0:0:0:0:
301,187,73193,1,0,0:0:0:0:
278,187,73358,1,8,0:0:0:0:
276,187,74017,1,8,0:0:0:0:
278,187,74347,1,0,0:0:0:0:
277,187,74676,1,8,0:0:0:0:
270,187,75006,1,0,0:0:0:0:
277,177,75336,1,8,0:0:0:0:
270,187,75665,1,4,0:0:0:0:
267,187,75995,1,8,0:0:0:0:
270,187,76160,1,0,0:0:0:0:
270,187,76325,1,8,0:0:0:0:
270,187,76654,1,8,0:0:0:0:
267,187,76984,1,8,0:0:0:0:
267,187,77149,1,0,0:0:0:0:
255,176,77314,1,8,0:0:0:0:
255,176,77643,1,8,0:0:0:0:
249,180,77973,1,8,0:0:0:0:
247,178,78138,1,4,0:0:0:0:
246,178,78632,1,8,0:0:0:0:
249,180,78962,1,0,0:0:0:0:
242,165,79621,1,0,0:0:0:0:
248,162,79951,1,8,0:0:0:0:
248,158,80281,1,0,0:0:0:0:
248,158,80610,1,8,0:0:0:0:
248,162,80940,1,0,0:0:0:0:
256,155,81599,1,8,0:0:0:0:
256,155,81929,1,8,0:0:0:0:
256,160,82259,1,0,0:0:0:0:
256,155,82424,1,0,0:0:0:0:
256,155,82588,1,8,0:0:0:0:
269,166,82918,1,0,0:0:0:0:
257,154,83248,1,8,0:0:0:0:
267,161,83577,1,0,0:0:0:0:
254,158,84237,1,0,0:0:0:0:
254,161,84566,1,8,0:0:0:0:
254,161,84896,1,0,0:0:0:0:
254,158,85061,1,8,0:0:0:0:
254,158,85226,1,8,0:0:0:0:
254,161,85555,1,0,0:0:0:0:
254,161,85885,1,8,0:0:0:0:
254,158,86215,1,12,0:0:0:0:
254,158,86544,1,8,0:0:0:0:
254,158,87039,1,12,0:0:0:0:
254,161,87369,1,12,0:0:0:0:
