osu file format v14

[General]
AudioFilename: zero.mp3
AudioLeadIn: 0
PreviewTime: 54190
Countdown: 1
SampleSet: Normal
StackLeniency: 0.7
Mode: 3
LetterboxInBreaks: 0
SpecialStyle: 0
WidescreenStoryboard: 0

[Editor]
DistanceSpacing: 1.1
BeatDivisor: 4
GridSize: 4
TimelineZoom: 3.099999

[Metadata]
Title:ZERO!! (TV Size)
TitleUnicode:ZERO!! (TV Size)
Artist:Kuribayashi Minami
ArtistUnicode:Kuribayashi Minami
Creator:Imoera
Version:Yusa
Source:Hataraku Maou-sama!
Tags:
BeatmapID:895815
BeatmapSetID:413031

[Difficulty]
HPDrainRate:8
CircleSize:4
OverallDifficulty:7
ApproachRate:5
SliderMultiplier:1.4
SliderTickRate:1

[Events]
//Background and Video events
0,0,"hataraku1.jpg",0,0
//Break Periods
//Storyboard Layer 0 (Background)
//Storyboard Layer 1 (Fail)
//Storyboard Layer 2 (Pass)
//Storyboard Layer 3 (Foreground)
//Storyboard Sound Samples

[TimingPoints]
495,329.67032967033,4,1,0,100,1,0
3791,-133.333333333333,4,1,0,100,0,0
3874,-200,4,1,0,100,0,0
3956,-400,4,1,0,100,0,0
4038,-1000,4,1,0,100,0,0
4780,-100,4,1,0,100,0,0
75659,-400,4,1,0,100,0,0
75742,-66.6666666666667,4,1,0,100,0,0
75989,-100,4,1,0,100,0,0
76071,-400,4,1,0,100,0,0
76154,-66.6666666666667,4,1,0,100,0,0
76319,-100,4,1,0,100,0,0
76401,-400,4,1,0,100,0,0
76484,-66.6666666666667,4,1,0,100,0,0
76648,-100,4,1,0,100,0,0
76731,-400,4,1,0,100,0,0
76813,-66.6666666666667,4,1,0,100,0,0
76978,-100,4,1,0,100,0,0
77637,-10,4,1,0,100,0,0
77885,-100,4,1,0,100,0,0
77967,-1000,4,1,0,100,0,0
78132,-100,4,1,0,100,0,0

[HitObjects]
192,192,495,5,0,0:0:0:0:
64,192,495,1,0,0:0:0:0:
320,192,495,128,0,742:0:0:0:0:
448,192,495,128,0,824:0:0:0:0:
64,192,824,1,0,0:0:0:0:
192,192,824,1,0,0:0:0:0:
448,192,989,1,0,0:0:0:0:
192,192,989,1,0,0:0:0:0:
320,192,1071,1,0,0:0:0:0:
448,192,1154,128,0,1813:0:0:0:0:
64,192,1154,128,0,1813:0:0:0:0:
192,192,1154,128,0,1648:0:0:0:0:
320,192,1484,128,0,1648:0:0:0:0:
192,192,1813,128,0,2308:0:0:0:0:
320,192,1813,128,0,2143:0:0:0:0:
448,192,2143,128,0,2308:0:0:0:0:
64,192,2308,1,0,0:0:0:0:
320,192,2308,1,0,0:0:0:0:
192,192,2390,1,0,0:0:0:0:
64,192,2473,128,0,2967:0:0:0:0:
320,192,2473,128,0,2637:0:0:0:0:
448,192,2473,128,0,3049:0:0:0:0:
320,192,2802,1,0,0:0:0:0:
192,192,2802,1,0,0:0:0:0:
448,192,3132,1,0,0:0:0:0:
320,192,3132,128,0,3626:0:0:0:0:
192,192,3132,128,0,3626:0:0:0:0:
64,192,3132,128,0,3462:0:0:0:0:
64,192,3626,1,0,0:0:0:0:
448,192,3626,1,0,0:0:0:0:
192,192,3709,1,0,0:0:0:0:
320,192,3709,1,0,0:0:0:0:
64,192,3791,1,0,0:0:0:0:
448,192,3791,1,0,0:0:0:0:
448,192,4945,1,0,0:0:0:0:
320,192,5027,1,0,0:0:0:0:
192,192,5110,1,0,0:0:0:0:
64,192,5110,1,0,0:0:0:0:
448,192,5192,1,0,0:0:0:0:
320,192,5275,1,0,0:0:0:0:
192,192,5275,1,0,0:0:0:0:
64,192,5357,1,0,0:0:0:0:
448,192,5440,1,0,0:0:0:0:
320,192,5440,1,0,0:0:0:0:
192,192,5522,1,0,0:0:0:0:
64,192,5604,1,0,0:0:0:0:
192,192,5687,1,0,0:0:0:0:
448,192,5769,128,0,7088:0:0:0:0:
64,192,5769,128,0,6058:0:0:0:0:
320,192,5769,128,0,6016:0:0:0:0:
192,192,6099,1,0,0:0:0:0:
64,192,6099,1,0,0:0:0:0:
320,192,6099,1,0,0:0:0:0:
192,192,6429,128,0,6717:0:0:0:0:
64,192,6429,128,0,6676:0:0:0:0:
320,192,6758,1,0,0:0:0:0:
64,192,6758,1,0,0:0:0:0:
192,192,6758,1,0,0:0:0:0:
64,192,7088,128,0,8242:0:0:0:0:
320,192,7088,128,0,7500:0:0:0:0:
192,192,7088,128,0,7500:0:0:0:0:
448,192,7418,128,0,7500:0:0:0:0:
320,192,7727,1,0,0:0:0:0:
192,192,7747,1,0,0:0:0:0:
448,192,7912,1,0,0:0:0:0:
320,192,7912,1,0,0:0:0:0:
448,192,8242,1,0,0:0:0:0:
320,192,8242,1,0,0:0:0:0:
192,192,8324,1,0,0:0:0:0:
64,192,8324,1,0,0:0:0:0:
320,192,8407,1,0,0:0:0:0:
448,192,8407,128,0,8571:0:0:0:0:
64,192,8571,1,0,0:0:0:0:
192,192,8571,128,0,8736:0:0:0:0:
448,192,8736,1,0,0:0:0:0:
320,192,8736,128,0,8901:0:0:0:0:
192,192,8901,1,0,0:0:0:0:
64,192,8901,128,0,9066:0:0:0:0:
448,192,9066,1,0,0:0:0:0:
320,192,9066,128,0,9231:0:0:0:0:
64,192,9231,128,0,9396:0:0:0:0:
448,192,9231,1,0,0:0:0:0:
192,192,9231,1,0,0:0:0:0:
192,192,9396,128,0,9560:0:0:0:0:
320,192,9396,1,0,0:0:0:0:
448,192,9560,1,0,0:0:0:0:
64,192,9560,128,0,9725:0:0:0:0:
320,192,9560,1,0,0:0:0:0:
320,192,9725,1,0,0:0:0:0:
192,192,9890,128,0,10055:0:0:0:0:
448,192,9890,1,0,0:0:0:0:
64,192,10055,1,0,0:0:0:0:
320,192,10055,1,0,0:0:0:0:
320,192,10220,128,0,10385:0:0:0:0:
448,192,10220,1,0,0:0:0:0:
192,192,10302,1,0,0:0:0:0:
64,192,10385,1,0,0:0:0:0:
192,192,10467,1,0,0:0:0:0:
64,192,10549,128,0,10591:0:0:0:0:
320,192,10549,128,0,10591:0:0:0:0:
448,192,10549,128,0,10962:0:0:0:0:
320,192,10714,128,0,10962:0:0:0:0:
64,192,10714,128,0,10962:0:0:0:0:
192,192,10879,128,0,11291:0:0:0:0:
64,192,11044,1,0,0:0:0:0:
448,192,11044,1,0,0:0:0:0:
320,192,11044,128,0,11291:0:0:0:0:
192,192,11374,1,0,0:0:0:0:
448,192,11374,1,0,0:0:0:0:
320,192,11538,1,0,0:0:0:0:
64,192,11538,128,0,11703:0:0:0:0:
192,192,11621,1,0,0:0:0:0:
320,192,11703,1,0,0:0:0:0:
448,192,11703,128,0,11868:0:0:0:0:
64,192,11868,1,0,0:0:0:0:
320,192,11868,1,0,0:0:0:0:
192,192,12033,1,0,0:0:0:0:
448,192,12033,1,0,0:0:0:0:
64,192,12033,1,0,0:0:0:0:
320,192,12198,1,0,0:0:0:0:
448,192,12198,128,0,12527:0:0:0:0:
64,192,12363,1,0,0:0:0:0:
192,192,12363,1,0,0:0:0:0:
320,192,12527,1,0,0:0:0:0:
192,192,12527,128,0,12857:0:0:0:0:
448,192,12692,1,0,0:0:0:0:
448,192,12857,128,0,13187:0:0:0:0:
320,192,12857,1,0,0:0:0:0:
64,192,12940,1,0,0:0:0:0:
192,192,13022,1,0,0:0:0:0:
320,192,13022,1,0,0:0:0:0:
64,192,13187,1,0,0:0:0:0:
320,192,13187,1,0,0:0:0:0:
448,192,13352,1,0,0:0:0:0:
192,192,13352,128,0,13516:0:0:0:0:
448,192,13516,128,0,13681:0:0:0:0:
320,192,13516,1,0,0:0:0:0:
192,192,13681,1,0,0:0:0:0:
64,192,13681,128,0,14011:0:0:0:0:
448,192,13846,1,0,0:0:0:0:
192,192,14011,1,0,0:0:0:0:
320,192,14011,1,0,0:0:0:0:
448,192,14176,128,0,14258:0:0:0:0:
320,192,14176,1,0,0:0:0:0:
64,192,14258,1,0,0:0:0:0:
192,192,14341,1,0,0:0:0:0:
64,192,14505,1,0,0:0:0:0:
320,192,14505,128,0,14588:0:0:0:0:
448,192,14505,1,0,0:0:0:0:
192,192,14670,1,0,0:0:0:0:
448,192,14670,1,0,0:0:0:0:
64,192,14670,1,0,0:0:0:0:
192,192,14835,128,0,14918:0:0:0:0:
320,192,15000,1,0,0:0:0:0:
448,192,15000,1,0,0:0:0:0:
64,192,15000,1,0,0:0:0:0:
64,192,15165,128,0,15659:0:0:0:0:
320,192,15165,1,0,0:0:0:0:
448,192,15330,1,0,0:0:0:0:
192,192,15330,1,0,0:0:0:0:
320,192,15495,1,0,0:0:0:0:
448,192,15577,1,0,0:0:0:0:
192,192,15659,1,0,0:0:0:0:
64,192,15824,1,0,0:0:0:0:
320,192,15824,1,0,0:0:0:0:
448,192,15824,128,0,15989:0:0:0:0:
320,192,15989,1,0,0:0:0:0:
192,192,15989,128,0,16154:0:0:0:0:
448,192,16154,1,0,0:0:0:0:
64,192,16154,1,0,0:0:0:0:
320,192,16154,128,0,16319:0:0:0:0:
64,192,16319,128,0,16813:0:0:0:0:
192,192,16319,1,0,0:0:0:0:
448,192,16319,128,0,16648:0:0:0:0:
320,192,16484,1,0,0:0:0:0:
192,192,16648,1,0,0:0:0:0:
320,192,16813,1,0,0:0:0:0:
448,192,16896,1,0,0:0:0:0:
64,192,16978,1,0,0:0:0:0:
448,192,17143,128,0,17637:0:0:0:0:
192,192,17143,1,0,0:0:0:0:
320,192,17143,1,0,0:0:0:0:
64,192,17308,1,0,0:0:0:0:
192,192,17308,1,0,0:0:0:0:
320,192,17473,128,0,17967:0:0:0:0:
192,192,17473,1,0,0:0:0:0:
64,192,17637,1,0,0:0:0:0:
64,192,17802,128,0,18297:0:0:0:0:
448,192,17802,1,0,0:0:0:0:
192,192,17967,1,0,0:0:0:0:
448,192,17967,1,0,0:0:0:0:
448,192,18132,128,0,18297:0:0:0:0:
320,192,18297,128,0,18462:0:0:0:0:
192,192,18462,128,0,18626:0:0:0:0:
64,192,18462,1,0,0:0:0:0:
64,192,18626,128,0,18791:0:0:0:0:
448,192,18626,1,0,0:0:0:0:
320,192,18626,1,0,0:0:0:0:
320,192,18791,128,0,18956:0:0:0:0:
448,192,18956,128,0,19368:0:0:0:0:
192,192,18956,1,0,0:0:0:0:
64,192,18956,1,0,0:0:0:0:
192,192,19121,1,0,0:0:0:0:
192,192,19286,128,0,19533:0:0:0:0:
64,192,19286,1,0,0:0:0:0:
320,192,19286,1,0,0:0:0:0:
64,192,19451,128,0,20934:0:0:0:0:
320,192,19615,128,0,19863:0:0:0:0:
192,192,19780,128,0,20604:0:0:0:0:
448,192,19945,128,0,20192:0:0:0:0:
320,192,20110,128,0,20440:0:0:0:0:
448,192,20275,1,0,0:0:0:0:
448,192,20440,128,0,20934:0:0:0:0:
320,192,20604,128,0,21099:0:0:0:0:
192,192,20769,128,0,21264:0:0:0:0:
64,192,21099,1,0,0:0:0:0:
448,192,21099,1,0,0:0:0:0:
448,192,21264,1,0,0:0:0:0:
64,192,21264,1,0,0:0:0:0:
320,192,21264,1,0,0:0:0:0:
192,192,21429,1,0,0:0:0:0:
448,192,21429,1,0,0:0:0:0:
320,192,21511,1,0,0:0:0:0:
448,192,21593,1,0,0:0:0:0:
64,192,21593,128,0,21923:0:0:0:0:
192,192,21593,128,0,21923:0:0:0:0:
320,192,21923,1,0,0:0:0:0:
448,192,21923,1,0,0:0:0:0:
64,192,22088,1,0,0:0:0:0:
192,192,22088,1,0,0:0:0:0:
448,192,22170,1,0,0:0:0:0:
64,192,22253,128,0,22582:0:0:0:0:
320,192,22253,1,0,0:0:0:0:
192,192,22418,1,0,0:0:0:0:
448,192,22418,1,0,0:0:0:0:
320,192,22582,1,0,0:0:0:0:
192,192,22582,1,0,0:0:0:0:
320,192,22747,128,0,23242:0:0:0:0:
448,192,22747,1,0,0:0:0:0:
64,192,22912,1,0,0:0:0:0:
192,192,22912,1,0,0:0:0:0:
448,192,23077,128,0,23571:0:0:0:0:
64,192,23077,1,0,0:0:0:0:
64,192,23242,1,0,0:0:0:0:
192,192,23242,1,0,0:0:0:0:
192,192,23407,128,0,23901:0:0:0:0:
320,192,23407,1,0,0:0:0:0:
64,192,23489,1,0,0:0:0:0:
320,192,23571,1,0,0:0:0:0:
64,192,23736,1,0,0:0:0:0:
320,192,23736,1,0,0:0:0:0:
320,192,23901,1,0,0:0:0:0:
448,192,23901,1,0,0:0:0:0:
64,192,23901,128,0,24066:0:0:0:0:
448,192,24066,128,0,24231:0:0:0:0:
64,192,24231,128,0,24725:0:0:0:0:
192,192,24231,1,0,0:0:0:0:
320,192,24231,1,0,0:0:0:0:
448,192,24396,1,0,0:0:0:0:
320,192,24560,1,0,0:0:0:0:
192,192,24560,128,0,24890:0:0:0:0:
320,192,24725,128,0,25220:0:0:0:0:
448,192,24725,1,0,0:0:0:0:
64,192,24890,1,0,0:0:0:0:
192,192,25055,1,0,0:0:0:0:
448,192,25055,128,0,25385:0:0:0:0:
64,192,25220,1,0,0:0:0:0:
192,192,25220,1,0,0:0:0:0:
320,192,25385,1,0,0:0:0:0:
64,192,25385,128,0,25879:0:0:0:0:
448,192,25549,1,0,0:0:0:0:
192,192,25549,1,0,0:0:0:0:
320,192,25714,128,0,26044:0:0:0:0:
192,192,25714,1,0,0:0:0:0:
192,192,25879,1,0,0:0:0:0:
448,192,25879,1,0,0:0:0:0:
448,192,26044,128,0,26209:0:0:0:0:
64,192,26044,1,0,0:0:0:0:
192,192,26126,1,0,0:0:0:0:
64,192,26209,128,0,26456:0:0:0:0:
320,192,26209,1,0,0:0:0:0:
192,192,26374,1,0,0:0:0:0:
448,192,26374,1,0,0:0:0:0:
320,192,26538,1,0,0:0:0:0:
448,192,26538,1,0,0:0:0:0:
64,192,26538,128,0,28187:0:0:0:0:
192,192,26703,128,0,26745:0:0:0:0:
320,192,26868,1,0,0:0:0:0:
448,192,26868,1,0,0:0:0:0:
192,192,26868,1,0,0:0:0:0:
320,192,27033,128,0,27074:0:0:0:0:
192,192,27198,1,0,0:0:0:0:
320,192,27198,1,0,0:0:0:0:
448,192,27363,128,0,27404:0:0:0:0:
320,192,27363,1,0,0:0:0:0:
192,192,27445,1,0,0:0:0:0:
448,192,27527,1,0,0:0:0:0:
320,192,27692,1,0,0:0:0:0:
448,192,27692,128,0,27734:0:0:0:0:
192,192,27857,1,0,0:0:0:0:
320,192,27857,1,0,0:0:0:0:
320,192,28022,128,0,28063:0:0:0:0:
192,192,28187,1,0,0:0:0:0:
448,192,28187,1,0,0:0:0:0:
320,192,28187,1,0,0:0:0:0:
192,192,28352,128,0,28393:0:0:0:0:
64,192,28516,1,0,0:0:0:0:
320,192,28516,1,0,0:0:0:0:
192,192,28516,1,0,0:0:0:0:
64,192,28681,128,0,28723:0:0:0:0:
192,192,28681,1,0,0:0:0:0:
320,192,28764,1,0,0:0:0:0:
448,192,28764,1,0,0:0:0:0:
64,192,28846,1,0,0:0:0:0:
192,192,28846,1,0,0:0:0:0:
320,192,29011,1,0,0:0:0:0:
448,192,29011,1,0,0:0:0:0:
192,192,29011,1,0,0:0:0:0:
320,192,29176,1,0,0:0:0:0:
448,192,29176,1,0,0:0:0:0:
64,192,29176,128,0,29835:0:0:0:0:
192,192,29341,128,0,29505:0:0:0:0:
320,192,29505,128,0,30000:0:0:0:0:
448,192,29505,1,0,0:0:0:0:
192,192,29835,128,0,30165:0:0:0:0:
448,192,29835,1,0,0:0:0:0:
448,192,30000,128,0,30412:0:0:0:0:
64,192,30165,1,0,0:0:0:0:
320,192,30165,1,0,0:0:0:0:
192,192,30247,1,0,0:0:0:0:
64,192,30330,1,0,0:0:0:0:
320,192,30330,128,0,30577:0:0:0:0:
448,192,30495,128,0,30659:0:0:0:0:
64,192,30659,1,0,0:0:0:0:
192,192,30659,1,0,0:0:0:0:
320,192,30659,1,0,0:0:0:0:
64,192,30989,1,0,0:0:0:0:
320,192,30989,1,0,0:0:0:0:
448,192,30989,1,0,0:0:0:0:
192,192,31154,1,0,0:0:0:0:
320,192,31154,1,0,0:0:0:0:
64,192,31319,1,0,0:0:0:0:
448,192,31319,128,0,31731:0:0:0:0:
320,192,31319,128,0,31731:0:0:0:0:
64,192,31648,128,0,31731:0:0:0:0:
448,192,31813,1,0,0:0:0:0:
320,192,31813,128,0,32060:0:0:0:0:
192,192,31813,128,0,32060:0:0:0:0:
64,192,31978,128,0,32060:0:0:0:0:
64,192,32143,128,0,32802:0:0:0:0:
448,192,32143,128,0,32390:0:0:0:0:
192,192,32143,128,0,32390:0:0:0:0:
320,192,32308,128,0,32555:0:0:0:0:
448,192,32473,128,0,32720:0:0:0:0:
192,192,32473,128,0,32720:0:0:0:0:
320,192,32637,128,0,32885:0:0:0:0:
448,192,32802,128,0,33049:0:0:0:0:
192,192,32802,128,0,33049:0:0:0:0:
64,192,32967,128,0,33214:0:0:0:0:
448,192,33132,128,0,33379:0:0:0:0:
192,192,33132,128,0,33379:0:0:0:0:
320,192,33297,128,0,33544:0:0:0:0:
448,192,33462,128,0,33709:0:0:0:0:
64,192,33462,128,0,33709:0:0:0:0:
192,192,33626,128,0,33874:0:0:0:0:
448,192,33791,128,0,34038:0:0:0:0:
320,192,33791,128,0,34038:0:0:0:0:
64,192,33956,128,0,34203:0:0:0:0:
448,192,34121,128,0,34368:0:0:0:0:
320,192,34121,128,0,34368:0:0:0:0:
64,192,34286,128,0,34533:0:0:0:0:
448,192,34451,128,0,34698:0:0:0:0:
192,192,34451,128,0,34698:0:0:0:0:
320,192,34615,128,0,34863:0:0:0:0:
448,192,34780,128,0,35027:0:0:0:0:
192,192,34780,128,0,35027:0:0:0:0:
64,192,34945,128,0,35192:0:0:0:0:
448,192,35110,128,0,35357:0:0:0:0:
320,192,35110,128,0,35357:0:0:0:0:
192,192,35275,128,0,35522:0:0:0:0:
448,192,35440,128,0,35687:0:0:0:0:
64,192,35440,128,0,35687:0:0:0:0:
192,192,35604,128,0,35852:0:0:0:0:
448,192,35769,128,0,36016:0:0:0:0:
320,192,35769,128,0,36016:0:0:0:0:
64,192,35934,128,0,36181:0:0:0:0:
448,192,36099,128,0,36346:0:0:0:0:
320,192,36099,128,0,36346:0:0:0:0:
192,192,36305,128,0,36511:0:0:0:0:
448,192,36429,128,0,36676:0:0:0:0:
64,192,36429,128,0,36676:0:0:0:0:
320,192,36593,128,0,36841:0:0:0:0:
448,192,36758,128,0,37005:0:0:0:0:
64,192,36758,128,0,37170:0:0:0:0:
192,192,36923,128,0,37170:0:0:0:0:
448,192,37088,128,0,37335:0:0:0:0:
320,192,37088,128,0,37253:0:0:0:0:
64,192,37253,1,0,0:0:0:0:
192,192,37335,1,0,0:0:0:0:
320,192,37418,1,0,0:0:0:0:
448,192,37418,1,0,0:0:0:0:
64,192,37418,1,0,0:0:0:0:
192,192,37500,1,0,0:0:0:0:
448,192,37582,1,0,0:0:0:0:
320,192,37665,1,0,0:0:0:0:
192,192,37747,1,0,0:0:0:0:
448,192,37747,1,0,0:0:0:0:
64,192,37747,1,0,0:0:0:0:
320,192,37830,1,0,0:0:0:0:
64,192,37912,1,0,0:0:0:0:
192,192,37995,1,0,0:0:0:0:
320,192,38077,128,0,38407:0:0:0:0:
448,192,38077,1,0,0:0:0:0:
64,192,38159,1,0,0:0:0:0:
192,192,38242,1,0,0:0:0:0:
448,192,38242,1,0,0:0:0:0:
64,192,38324,1,0,0:0:0:0:
448,192,38407,1,0,0:0:0:0:
192,192,38407,1,0,0:0:0:0:
64,192,38489,1,0,0:0:0:0:
192,192,38571,1,0,0:0:0:0:
448,192,38571,1,0,0:0:0:0:
320,192,38654,1,0,0:0:0:0:
448,192,38736,1,0,0:0:0:0:
64,192,38736,1,0,0:0:0:0:
320,192,38819,1,0,0:0:0:0:
448,192,38901,1,0,0:0:0:0:
192,192,38984,1,0,0:0:0:0:
64,192,39066,1,0,0:0:0:0:
320,192,39066,1,0,0:0:0:0:
448,192,39066,1,0,0:0:0:0:
192,192,39148,1,0,0:0:0:0:
64,192,39231,1,0,0:0:0:0:
320,192,39231,1,0,0:0:0:0:
448,192,39313,1,0,0:0:0:0:
320,192,39396,1,0,0:0:0:0:
64,192,39478,1,0,0:0:0:0:
192,192,39560,1,0,0:0:0:0:
448,192,39560,1,0,0:0:0:0:
320,192,39643,1,0,0:0:0:0:
448,192,39725,1,0,0:0:0:0:
64,192,39725,1,0,0:0:0:0:
192,192,39725,1,0,0:0:0:0:
320,192,39808,1,0,0:0:0:0:
64,192,39890,1,0,0:0:0:0:
192,192,39973,1,0,0:0:0:0:
64,192,40055,1,0,0:0:0:0:
448,192,40055,1,0,0:0:0:0:
320,192,40137,1,0,0:0:0:0:
64,192,40220,1,0,0:0:0:0:
192,192,40302,1,0,0:0:0:0:
448,192,40385,1,0,0:0:0:0:
320,192,40385,1,0,0:0:0:0:
64,192,40385,1,0,0:0:0:0:
192,192,40467,1,0,0:0:0:0:
64,192,40549,1,0,0:0:0:0:
320,192,40632,1,0,0:0:0:0:
448,192,40714,1,0,0:0:0:0:
192,192,40797,1,0,0:0:0:0:
320,192,40879,1,0,0:0:0:0:
64,192,40879,1,0,0:0:0:0:
192,192,40962,1,0,0:0:0:0:
448,192,41044,1,0,0:0:0:0:
320,192,41044,1,0,0:0:0:0:
64,192,41044,1,0,0:0:0:0:
192,192,41126,1,0,0:0:0:0:
320,192,41209,1,0,0:0:0:0:
448,192,41291,1,0,0:0:0:0:
320,192,41374,1,0,0:0:0:0:
64,192,41374,1,0,0:0:0:0:
192,192,41456,1,0,0:0:0:0:
64,192,41538,1,0,0:0:0:0:
320,192,41621,1,0,0:0:0:0:
192,192,41703,1,0,0:0:0:0:
64,192,41703,1,0,0:0:0:0:
448,192,41703,1,0,0:0:0:0:
320,192,41786,1,0,0:0:0:0:
448,192,41868,1,0,0:0:0:0:
192,192,41951,1,0,0:0:0:0:
64,192,42033,1,0,0:0:0:0:
320,192,42115,1,0,0:0:0:0:
448,192,42198,1,0,0:0:0:0:
64,192,42198,1,0,0:0:0:0:
192,192,42198,1,0,0:0:0:0:
320,192,42280,1,0,0:0:0:0:
64,192,42363,1,0,0:0:0:0:
448,192,42363,1,0,0:0:0:0:
192,192,42363,1,0,0:0:0:0:
192,192,42527,1,0,0:0:0:0:
320,192,42527,1,0,0:0:0:0:
64,192,42692,128,0,42940:0:0:0:0:
448,192,42692,128,0,42857:0:0:0:0:
320,192,42692,1,0,0:0:0:0:
192,192,42857,128,0,43022:0:0:0:0:
320,192,43022,128,0,43187:0:0:0:0:
64,192,43022,128,0,43269:0:0:0:0:
448,192,43022,1,0,0:0:0:0:
448,192,43187,128,0,43352:0:0:0:0:
64,192,43352,128,0,43599:0:0:0:0:
192,192,43352,128,0,43516:0:0:0:0:
320,192,43352,1,0,0:0:0:0:
320,192,43516,128,0,43681:0:0:0:0:
64,192,43681,128,0,43929:0:0:0:0:
448,192,43681,128,0,43846:0:0:0:0:
192,192,43681,1,0,0:0:0:0:
320,192,43846,128,0,44011:0:0:0:0:
64,192,44011,128,0,44258:0:0:0:0:
448,192,44011,128,0,44176:0:0:0:0:
192,192,44011,1,0,0:0:0:0:
192,192,44176,128,0,44341:0:0:0:0:
64,192,44341,128,0,44588:0:0:0:0:
320,192,44341,128,0,44505:0:0:0:0:
448,192,44341,1,0,0:0:0:0:
448,192,44505,128,0,44670:0:0:0:0:
64,192,44670,128,0,44918:0:0:0:0:
320,192,44670,128,0,44835:0:0:0:0:
192,192,44670,1,0,0:0:0:0:
448,192,44835,128,0,45000:0:0:0:0:
64,192,45000,128,0,45247:0:0:0:0:
192,192,45000,128,0,45165:0:0:0:0:
320,192,45000,1,0,0:0:0:0:
320,192,45165,128,0,45330:0:0:0:0:
64,192,45330,128,0,45577:0:0:0:0:
192,192,45330,128,0,45495:0:0:0:0:
448,192,45330,1,0,0:0:0:0:
320,192,45495,128,0,45659:0:0:0:0:
64,192,45659,128,0,45907:0:0:0:0:
192,192,45659,128,0,45824:0:0:0:0:
448,192,45659,1,0,0:0:0:0:
448,192,45824,128,0,45989:0:0:0:0:
64,192,45989,128,0,46236:0:0:0:0:
320,192,45989,128,0,46154:0:0:0:0:
192,192,45989,1,0,0:0:0:0:
192,192,46154,128,0,46319:0:0:0:0:
64,192,46319,128,0,46566:0:0:0:0:
448,192,46319,128,0,46484:0:0:0:0:
320,192,46319,1,0,0:0:0:0:
192,192,46484,128,0,46648:0:0:0:0:
64,192,46648,128,0,46896:0:0:0:0:
448,192,46648,128,0,46813:0:0:0:0:
320,192,46648,1,0,0:0:0:0:
192,192,46813,128,0,46978:0:0:0:0:
64,192,46978,128,0,47225:0:0:0:0:
448,192,46978,128,0,47143:0:0:0:0:
320,192,46978,1,0,0:0:0:0:
320,192,47143,128,0,47308:0:0:0:0:
64,192,47308,128,0,47555:0:0:0:0:
192,192,47308,128,0,47473:0:0:0:0:
448,192,47308,1,0,0:0:0:0:
448,192,47473,128,0,47637:0:0:0:0:
64,192,47637,128,0,47885:0:0:0:0:
320,192,47637,128,0,47802:0:0:0:0:
192,192,47637,1,0,0:0:0:0:
448,192,47802,1,0,0:0:0:0:
320,192,47885,1,0,0:0:0:0:
192,192,47967,1,0,0:0:0:0:
64,192,47967,1,0,0:0:0:0:
448,192,47967,128,0,48626:0:0:0:0:
320,192,48132,128,0,48626:0:0:0:0:
64,192,48132,1,0,0:0:0:0:
192,192,48132,1,0,0:0:0:0:
192,192,48297,128,0,48462:0:0:0:0:
64,192,48297,1,0,0:0:0:0:
64,192,48462,128,0,48626:0:0:0:0:
192,192,48626,128,0,49286:0:0:0:0:
64,192,48791,128,0,49286:0:0:0:0:
320,192,48791,1,0,0:0:0:0:
448,192,48791,1,0,0:0:0:0:
448,192,48956,128,0,49121:0:0:0:0:
320,192,48956,1,0,0:0:0:0:
320,192,49121,128,0,49286:0:0:0:0:
448,192,49286,128,0,49945:0:0:0:0:
192,192,49451,128,0,49945:0:0:0:0:
320,192,49451,1,0,0:0:0:0:
64,192,49451,1,0,0:0:0:0:
64,192,49615,128,0,49780:0:0:0:0:
320,192,49615,1,0,0:0:0:0:
320,192,49780,128,0,49945:0:0:0:0:
64,192,49945,128,0,50275:0:0:0:0:
320,192,50110,128,0,50275:0:0:0:0:
448,192,50110,128,0,50275:0:0:0:0:
192,192,50275,128,0,50522:0:0:0:0:
320,192,50440,128,0,50522:0:0:0:0:
448,192,50440,128,0,50522:0:0:0:0:
64,192,50440,128,0,50522:0:0:0:0:
448,192,50604,1,0,0:0:0:0:
320,192,50604,128,0,50625:0:0:0:0:
192,192,50604,128,0,50625:0:0:0:0:
64,192,50604,128,0,50625:0:0:0:0:
448,192,50769,1,0,0:0:0:0:
320,192,50934,1,0,0:0:0:0:
192,192,50934,128,0,50955:0:0:0:0:
64,192,50934,128,0,50955:0:0:0:0:
448,192,50934,128,0,50955:0:0:0:0:
320,192,51099,1,0,0:0:0:0:
192,192,51264,1,0,0:0:0:0:
320,192,51264,128,0,51284:0:0:0:0:
448,192,51264,128,0,51284:0:0:0:0:
64,192,51264,128,0,51284:0:0:0:0:
192,192,51429,1,0,0:0:0:0:
64,192,51593,1,0,0:0:0:0:
192,192,51593,128,0,51614:0:0:0:0:
320,192,51593,128,0,51614:0:0:0:0:
448,192,51593,128,0,51614:0:0:0:0:
64,192,51758,1,0,0:0:0:0:
64,192,51923,128,0,52088:0:0:0:0:
320,192,51923,128,0,52005:0:0:0:0:
192,192,52088,128,0,52253:0:0:0:0:
448,192,52088,128,0,52170:0:0:0:0:
320,192,52253,128,0,52418:0:0:0:0:
64,192,52253,128,0,52335:0:0:0:0:
64,192,52418,1,0,0:0:0:0:
448,192,52418,1,0,0:0:0:0:
192,192,52500,1,0,0:0:0:0:
320,192,52500,1,0,0:0:0:0:
64,192,52582,1,0,0:0:0:0:
448,192,52582,1,0,0:0:0:0:
192,192,52665,1,0,0:0:0:0:
320,192,52665,1,0,0:0:0:0:
64,192,52747,1,0,0:0:0:0:
448,192,52747,1,0,0:0:0:0:
64,192,52912,1,0,0:0:0:0:
320,192,52912,1,0,0:0:0:0:
448,192,52912,1,0,0:0:0:0:
64,192,53077,1,0,0:0:0:0:
192,192,53077,1,0,0:0:0:0:
448,192,53077,1,0,0:0:0:0:
448,192,53242,128,0,53262:0:0:0:0:
64,192,53242,128,0,53262:0:0:0:0:
320,192,53407,128,0,53571:0:0:0:0:
64,192,53407,128,0,54066:0:0:0:0:
448,192,53571,128,0,53736:0:0:0:0:
192,192,53571,128,0,53984:0:0:0:0:
320,192,53736,128,0,53901:0:0:0:0:
448,192,53901,128,0,54313:0:0:0:0:
320,192,53984,128,0,54396:0:0:0:0:
192,192,54066,128,0,54148:0:0:0:0:
64,192,54148,128,0,54560:0:0:0:0:
192,192,54231,128,0,54478:0:0:0:0:
192,192,54560,128,0,54890:0:0:0:0:
320,192,54560,128,0,54643:0:0:0:0:
448,192,54560,128,0,55797:0:0:0:0:
64,192,54643,128,0,54725:0:0:0:0:
320,192,54725,128,0,54808:0:0:0:0:
64,192,54808,128,0,54890:0:0:0:0:
320,192,54890,128,0,54973:0:0:0:0:
64,192,54973,128,0,55055:0:0:0:0:
192,192,55055,128,0,55137:0:0:0:0:
320,192,55137,128,0,55220:0:0:0:0:
192,192,55220,128,0,55549:0:0:0:0:
64,192,55220,128,0,55302:0:0:0:0:
320,192,55302,128,0,55385:0:0:0:0:
64,192,55385,128,0,55467:0:0:0:0:
320,192,55467,128,0,55549:0:0:0:0:
64,192,55549,128,0,55632:0:0:0:0:
320,192,55632,128,0,55714:0:0:0:0:
192,192,55714,128,0,55797:0:0:0:0:
320,192,55797,128,0,55879:0:0:0:0:
192,192,55879,128,0,57198:0:0:0:0:
448,192,55879,128,0,55962:0:0:0:0:
64,192,55879,128,0,56126:0:0:0:0:
320,192,55962,128,0,56044:0:0:0:0:
448,192,56044,128,0,56126:0:0:0:0:
320,192,56126,128,0,56209:0:0:0:0:
64,192,56209,128,0,56291:0:0:0:0:
320,192,56291,128,0,56374:0:0:0:0:
448,192,56374,128,0,56456:0:0:0:0:
64,192,56456,128,0,56538:0:0:0:0:
320,192,56538,128,0,56621:0:0:0:0:
64,192,56621,128,0,56868:0:0:0:0:
448,192,56621,128,0,56703:0:0:0:0:
320,192,56703,128,0,56786:0:0:0:0:
448,192,56786,128,0,56868:0:0:0:0:
320,192,56868,128,0,56951:0:0:0:0:
64,192,56951,128,0,57033:0:0:0:0:
320,192,57033,128,0,57115:0:0:0:0:
448,192,57115,128,0,57198:0:0:0:0:
64,192,57198,128,0,58516:0:0:0:0:
320,192,57198,128,0,57280:0:0:0:0:
192,192,57280,128,0,57363:0:0:0:0:
448,192,57363,128,0,57445:0:0:0:0:
320,192,57445,128,0,57527:0:0:0:0:
192,192,57527,128,0,57610:0:0:0:0:
448,192,57610,128,0,57692:0:0:0:0:
320,192,57692,128,0,57775:0:0:0:0:
448,192,57775,128,0,57857:0:0:0:0:
192,192,57857,128,0,57940:0:0:0:0:
320,192,57940,128,0,58022:0:0:0:0:
448,192,58022,128,0,58104:0:0:0:0:
192,192,58104,128,0,58187:0:0:0:0:
448,192,58187,128,0,58269:0:0:0:0:
320,192,58269,128,0,58352:0:0:0:0:
192,192,58352,128,0,58434:0:0:0:0:
448,192,58434,128,0,58516:0:0:0:0:
320,192,58516,128,0,58599:0:0:0:0:
192,192,58599,128,0,58681:0:0:0:0:
64,192,58681,128,0,58764:0:0:0:0:
320,192,58764,128,0,58846:0:0:0:0:
448,192,58846,128,0,58929:0:0:0:0:
192,192,58846,1,0,0:0:0:0:
320,192,58929,128,0,59011:0:0:0:0:
64,192,59011,128,0,59093:0:0:0:0:
192,192,59093,128,0,59176:0:0:0:0:
320,192,59176,128,0,59258:0:0:0:0:
64,192,59176,1,0,0:0:0:0:
448,192,59258,128,0,59341:0:0:0:0:
192,192,59341,128,0,59423:0:0:0:0:
64,192,59423,128,0,59505:0:0:0:0:
320,192,59505,128,0,59588:0:0:0:0:
448,192,59505,1,0,0:0:0:0:
192,192,59588,128,0,59670:0:0:0:0:
64,192,59588,1,0,0:0:0:0:
448,192,59670,128,0,59753:0:0:0:0:
320,192,59670,1,0,0:0:0:0:
192,192,59753,128,0,59835:0:0:0:0:
64,192,59835,128,0,60989:0:0:0:0:
320,192,59835,128,0,60000:0:0:0:0:
448,192,59918,128,0,60000:0:0:0:0:
192,192,60000,128,0,60165:0:0:0:0:
320,192,60082,128,0,60165:0:0:0:0:
448,192,60165,128,0,60330:0:0:0:0:
192,192,60247,128,0,60330:0:0:0:0:
320,192,60330,128,0,60495:0:0:0:0:
448,192,60412,128,0,60495:0:0:0:0:
192,192,60495,128,0,60659:0:0:0:0:
448,192,60577,128,0,60659:0:0:0:0:
320,192,60659,128,0,60824:0:0:0:0:
192,192,60742,128,0,60824:0:0:0:0:
448,192,60824,128,0,60989:0:0:0:0:
320,192,60907,128,0,61071:0:0:0:0:
192,192,60989,128,0,61154:0:0:0:0:
64,192,61071,128,0,61154:0:0:0:0:
448,192,61154,128,0,62308:0:0:0:0:
320,192,61154,128,0,61319:0:0:0:0:
192,192,61236,128,0,61319:0:0:0:0:
64,192,61319,128,0,61484:0:0:0:0:
320,192,61401,128,0,61484:0:0:0:0:
192,192,61484,128,0,61648:0:0:0:0:
320,192,61566,128,0,61648:0:0:0:0:
64,192,61648,128,0,61813:0:0:0:0:
192,192,61731,128,0,61813:0:0:0:0:
320,192,61813,128,0,61978:0:0:0:0:
64,192,61896,128,0,61978:0:0:0:0:
192,192,61978,128,0,62143:0:0:0:0:
320,192,62060,128,0,62143:0:0:0:0:
64,192,62143,128,0,62308:0:0:0:0:
320,192,62225,128,0,62308:0:0:0:0:
192,192,62308,128,0,62473:0:0:0:0:
64,192,62390,128,0,62473:0:0:0:0:
448,192,62473,128,0,62967:0:0:0:0:
320,192,62473,128,0,62802:0:0:0:0:
192,192,62637,128,0,62802:0:0:0:0:
64,192,62802,128,0,63132:0:0:0:0:
192,192,62967,128,0,63297:0:0:0:0:
320,192,62967,128,0,63132:0:0:0:0:
448,192,63132,128,0,63462:0:0:0:0:
64,192,63297,128,0,63626:0:0:0:0:
320,192,63297,128,0,63462:0:0:0:0:
192,192,63462,128,0,63791:0:0:0:0:
448,192,63626,128,0,63956:0:0:0:0:
320,192,63626,128,0,63791:0:0:0:0:
64,192,63791,128,0,63956:0:0:0:0:
320,192,63956,128,0,64121:0:0:0:0:
192,192,63956,128,0,64286:0:0:0:0:
448,192,64121,128,0,64451:0:0:0:0:
64,192,64121,128,0,64368:0:0:0:0:
320,192,64286,128,0,64451:0:0:0:0:
192,192,64451,128,0,64533:0:0:0:0:
64,192,64451,128,0,64492:0:0:0:0:
320,192,64533,128,0,64615:0:0:0:0:
448,192,64533,128,0,64574:0:0:0:0:
64,192,64615,128,0,64698:0:0:0:0:
192,192,64615,128,0,64657:0:0:0:0:
448,192,64698,128,0,64780:0:0:0:0:
320,192,64698,128,0,64739:0:0:0:0:
192,192,64780,128,0,64863:0:0:0:0:
64,192,64780,128,0,64821:0:0:0:0:
320,192,64863,128,0,65110:0:0:0:0:
448,192,64945,128,0,65110:0:0:0:0:
64,192,65027,128,0,65110:0:0:0:0:
192,192,65110,128,0,65440:0:0:0:0:
320,192,65275,128,0,65440:0:0:0:0:
64,192,65275,128,0,65522:0:0:0:0:
448,192,65440,128,0,65769:0:0:0:0:
192,192,65604,128,0,65769:0:0:0:0:
320,192,65604,128,0,65852:0:0:0:0:
64,192,65769,128,0,66099:0:0:0:0:
448,192,65934,128,0,66099:0:0:0:0:
192,192,65934,128,0,66181:0:0:0:0:
320,192,66099,128,0,66429:0:0:0:0:
448,192,66264,128,0,66429:0:0:0:0:
64,192,66264,128,0,66511:0:0:0:0:
192,192,66429,128,0,66758:0:0:0:0:
320,192,66593,128,0,66758:0:0:0:0:
448,192,66593,128,0,66841:0:0:0:0:
64,192,66758,128,0,67088:0:0:0:0:
192,192,66923,128,0,67088:0:0:0:0:
320,192,66923,128,0,67170:0:0:0:0:
448,192,67088,128,0,67418:0:0:0:0:
192,192,67253,128,0,67418:0:0:0:0:
64,192,67253,128,0,67500:0:0:0:0:
320,192,67418,128,0,67747:0:0:0:0:
192,192,67582,128,0,67747:0:0:0:0:
448,192,67582,128,0,67830:0:0:0:0:
64,192,67747,128,0,67912:0:0:0:0:
192,192,67830,128,0,67995:0:0:0:0:
320,192,67912,128,0,68077:0:0:0:0:
448,192,67995,128,0,68159:0:0:0:0:
192,192,68077,128,0,68242:0:0:0:0:
64,192,68159,128,0,68324:0:0:0:0:
448,192,68242,128,0,68407:0:0:0:0:
192,192,68324,128,0,68489:0:0:0:0:
320,192,68407,128,0,68571:0:0:0:0:
448,192,68489,128,0,68654:0:0:0:0:
64,192,68571,128,0,68736:0:0:0:0:
192,192,68654,128,0,68819:0:0:0:0:
448,192,68736,128,0,68901:0:0:0:0:
320,192,68819,128,0,68984:0:0:0:0:
192,192,68901,128,0,69066:0:0:0:0:
64,192,68984,128,0,69148:0:0:0:0:
448,192,69066,128,0,69231:0:0:0:0:
192,192,69148,128,0,69313:0:0:0:0:
320,192,69231,128,0,69396:0:0:0:0:
64,192,69313,128,0,69478:0:0:0:0:
448,192,69396,128,0,69560:0:0:0:0:
192,192,69478,128,0,69643:0:0:0:0:
320,192,69560,128,0,69725:0:0:0:0:
448,192,69643,128,0,69808:0:0:0:0:
192,192,69725,128,0,69890:0:0:0:0:
64,192,69808,128,0,69973:0:0:0:0:
320,192,69890,128,0,70055:0:0:0:0:
192,192,69973,128,0,70137:0:0:0:0:
448,192,70055,128,0,70220:0:0:0:0:
64,192,70137,128,0,70302:0:0:0:0:
192,192,70220,128,0,70385:0:0:0:0:
320,192,70302,128,0,70467:0:0:0:0:
448,192,70385,128,0,70549:0:0:0:0:
64,192,70385,128,0,70797:0:0:0:0:
192,192,70467,128,0,70714:0:0:0:0:
320,192,70549,128,0,70632:0:0:0:0:
448,192,70632,128,0,70962:0:0:0:0:
320,192,70714,128,0,70879:0:0:0:0:
192,192,70797,128,0,71126:0:0:0:0:
64,192,70879,128,0,71209:0:0:0:0:
320,192,70962,128,0,71044:0:0:0:0:
448,192,71044,128,0,71621:0:0:0:0:
320,192,71126,128,0,71291:0:0:0:0:
192,192,71209,128,0,71374:0:0:0:0:
64,192,71291,128,0,71456:0:0:0:0:
320,192,71374,128,0,71703:0:0:0:0:
192,192,71456,128,0,71538:0:0:0:0:
64,192,71538,128,0,71868:0:0:0:0:
192,192,71621,128,0,71786:0:0:0:0:
448,192,71703,128,0,72033:0:0:0:0:
320,192,71786,128,0,71951:0:0:0:0:
192,192,71868,128,0,72198:0:0:0:0:
64,192,71951,128,0,72280:0:0:0:0:
320,192,72033,128,0,72115:0:0:0:0:
448,192,72115,128,0,72239:0:0:0:0:
320,192,72198,128,0,72321:0:0:0:0:
192,192,72280,128,0,72363:0:0:0:0:
64,192,72363,128,0,72692:0:0:0:0:
320,192,72527,128,0,72692:0:0:0:0:
448,192,72527,128,0,72692:0:0:0:0:
192,192,72692,128,0,73022:0:0:0:0:
64,192,72857,128,0,73187:0:0:0:0:
320,192,72857,128,0,72940:0:0:0:0:
448,192,72857,128,0,72940:0:0:0:0:
320,192,73022,1,0,0:0:0:0:
448,192,73022,1,0,0:0:0:0:
192,192,73104,128,0,73269:0:0:0:0:
320,192,73187,128,0,73352:0:0:0:0:
448,192,73269,128,0,73434:0:0:0:0:
64,192,73269,128,0,73434:0:0:0:0:
192,192,73352,128,0,73516:0:0:0:0:
320,192,73434,128,0,73599:0:0:0:0:
64,192,73516,128,0,73681:0:0:0:0:
448,192,73516,128,0,74258:0:0:0:0:
192,192,73599,128,0,73764:0:0:0:0:
320,192,73681,128,0,73846:0:0:0:0:
64,192,73764,128,0,74011:0:0:0:0:
192,192,73846,128,0,73929:0:0:0:0:
320,192,73929,128,0,74176:0:0:0:0:
192,192,74011,128,0,74093:0:0:0:0:
64,192,74093,128,0,74423:0:0:0:0:
192,192,74176,128,0,74341:0:0:0:0:
320,192,74258,128,0,74588:0:0:0:0:
448,192,74341,128,0,74670:0:0:0:0:
192,192,74423,128,0,74505:0:0:0:0:
64,192,74505,128,0,74835:0:0:0:0:
192,192,74588,128,0,74753:0:0:0:0:
320,192,74670,128,0,75247:0:0:0:0:
448,192,74753,128,0,74918:0:0:0:0:
192,192,74835,128,0,74959:0:0:0:0:
64,192,74918,128,0,75000:0:0:0:0:
448,192,75000,128,0,75495:0:0:0:0:
64,192,75330,128,0,75495:0:0:0:0:
320,192,75330,128,0,75495:0:0:0:0:
192,192,75330,128,0,75495:0:0:0:0:
64,192,75659,1,0,0:0:0:0:
320,192,75659,1,0,0:0:0:0:
448,192,75659,1,0,0:0:0:0:
192,192,75659,1,0,0:0:0:0:
320,192,75824,1,0,0:0:0:0:
64,192,75989,1,0,0:0:0:0:
192,192,75989,1,0,0:0:0:0:
448,192,75989,1,0,0:0:0:0:
320,192,76154,1,0,0:0:0:0:
448,192,76319,1,0,0:0:0:0:
320,192,76319,1,0,0:0:0:0:
192,192,76319,1,0,0:0:0:0:
64,192,76319,1,0,0:0:0:0:
192,192,76484,1,0,0:0:0:0:
64,192,76648,1,0,0:0:0:0:
320,192,76648,1,0,0:0:0:0:
448,192,76648,1,0,0:0:0:0:
192,192,76813,1,0,0:0:0:0:
320,192,76978,1,0,0:0:0:0:
448,192,76978,1,0,0:0:0:0:
192,192,77060,1,0,0:0:0:0:
64,192,77060,1,0,0:0:0:0:
320,192,77143,1,0,0:0:0:0:
448,192,77143,1,0,0:0:0:0:
64,192,77308,1,0,0:0:0:0:
192,192,77308,1,0,0:0:0:0:
320,192,77390,1,0,0:0:0:0:
448,192,77390,1,0,0:0:0:0:
192,192,77473,1,0,0:0:0:0:
64,192,77473,1,0,0:0:0:0:
320,192,77637,1,0,0:0:0:0:
64,192,77637,1,0,0:0:0:0:
448,192,77637,1,0,0:0:0:0:
192,192,78132,1,0,0:0:0:0:
320,192,78132,1,0,0:0:0:0:
448,192,78132,1,0,0:0:0:0:
64,192,78132,128,0,78544:0:0:0:0:
320,192,78462,128,0,78626:0:0:0:0:
448,192,78626,128,0,78791:0:0:0:0:
192,192,78626,1,0,0:0:0:0:
64,192,78626,128,0,79533:0:0:0:0:
192,192,78791,128,0,78956:0:0:0:0:
320,192,78956,128,0,79121:0:0:0:0:
448,192,78956,1,0,0:0:0:0:
192,192,79121,128,0,79286:0:0:0:0:
448,192,79286,128,0,79451:0:0:0:0:
320,192,79286,1,0,0:0:0:0:
320,192,79451,128,0,79615:0:0:0:0:
448,192,79615,128,0,80110:0:0:0:0:
192,192,79615,128,0,79780:0:0:0:0:
64,192,79615,1,0,0:0:0:0:
64,192,79780,128,0,79945:0:0:0:0:
320,192,79945,128,0,80110:0:0:0:0:
192,192,79945,1,0,0:0:0:0:
192,192,80110,128,0,80275:0:0:0:0:
320,192,80275,128,0,80769:0:0:0:0:
64,192,80275,128,0,80440:0:0:0:0:
448,192,80275,1,0,0:0:0:0:
448,192,80440,128,0,80604:0:0:0:0:
64,192,80604,128,0,80769:0:0:0:0:
192,192,80604,1,0,0:0:0:0:
448,192,80769,128,0,80934:0:0:0:0:
64,192,80934,128,0,81099:0:0:0:0:
192,192,80934,1,0,0:0:0:0:
320,192,80934,1,0,0:0:0:0:
448,192,81099,128,0,81264:0:0:0:0:
64,192,81264,128,0,81429:0:0:0:0:
320,192,81264,1,0,0:0:0:0:
192,192,81264,1,0,0:0:0:0:
320,192,81429,128,0,81593:0:0:0:0:
64,192,81593,128,0,81758:0:0:0:0:
448,192,81593,1,0,0:0:0:0:
192,192,81593,1,0,0:0:0:0:
448,192,81758,128,0,81923:0:0:0:0:
64,192,81923,128,0,82088:0:0:0:0:
192,192,81923,1,0,0:0:0:0:
320,192,81923,1,0,0:0:0:0:
448,192,82088,128,0,82253:0:0:0:0:
320,192,82253,128,0,82418:0:0:0:0:
64,192,82253,1,0,0:0:0:0:
192,192,82253,1,0,0:0:0:0:
192,192,82418,128,0,82582:0:0:0:0:
64,192,82582,128,0,82747:0:0:0:0:
448,192,82582,1,0,0:0:0:0:
320,192,82582,1,0,0:0:0:0:
320,192,82747,128,0,82912:0:0:0:0:
192,192,82912,128,0,83077:0:0:0:0:
64,192,82912,1,0,0:0:0:0:
448,192,82912,1,0,0:0:0:0:
64,192,83077,128,0,83242:0:0:0:0:
448,192,83242,128,0,83407:0:0:0:0:
320,192,83242,1,0,0:0:0:0:
192,192,83242,1,0,0:0:0:0:
320,192,83407,128,0,83571:0:0:0:0:
64,192,83571,128,0,83736:0:0:0:0:
192,192,83571,128,0,83901:0:0:0:0:
448,192,83571,1,0,0:0:0:0:
320,192,83736,128,0,83901:0:0:0:0:
448,192,83901,128,0,84066:0:0:0:0:
64,192,83901,1,0,0:0:0:0:
192,192,84066,128,0,84231:0:0:0:0:
64,192,84231,128,0,84396:0:0:0:0:
320,192,84231,128,0,84560:0:0:0:0:
448,192,84231,1,0,0:0:0:0:
448,192,84396,128,0,84560:0:0:0:0:
64,192,84560,128,0,84725:0:0:0:0:
192,192,84560,1,0,0:0:0:0:
320,192,84725,128,0,84890:0:0:0:0:
192,192,84890,128,0,85055:0:0:0:0:
448,192,84890,128,0,85220:0:0:0:0:
64,192,84890,1,0,0:0:0:0:
320,192,85055,128,0,85220:0:0:0:0:
192,192,85220,1,0,0:0:0:0:
64,192,85220,128,0,85467:0:0:0:0:
192,192,85385,128,0,85632:0:0:0:0:
320,192,85549,128,0,85797:0:0:0:0:
448,192,85714,128,0,85962:0:0:0:0:
192,192,85879,128,0,86126:0:0:0:0:
320,192,86044,128,0,86209:0:0:0:0:
64,192,86209,128,0,86374:0:0:0:0:
448,192,86209,128,0,86374:0:0:0:0:
192,192,86209,1,0,0:0:0:0:
320,192,86374,128,0,86497:0:0:0:0:
64,192,86538,128,0,86703:0:0:0:0:
448,192,86538,1,0,0:0:0:0:
192,192,86538,128,0,86703:0:0:0:0:
320,192,86538,1,0,0:0:0:0:
448,192,86703,128,0,86868:0:0:0:0:
192,192,86868,128,0,86992:0:0:0:0:
448,192,87033,128,0,87198:0:0:0:0:
64,192,87033,1,0,0:0:0:0:
320,192,87033,1,0,0:0:0:0:
192,192,87033,1,0,0:0:0:0:
64,192,87198,128,0,87321:0:0:0:0:
448,192,87363,1,0,0:0:0:0:
320,192,87363,1,0,0:0:0:0:
192,192,87363,1,0,0:0:0:0:
64,192,87363,1,0,0:0:0:0:
