osu file format v14

[General]
AudioFilename: audio.mp3
AudioLeadIn: 0
PreviewTime: 54171
Countdown: 0
SampleSet: Soft
StackLeniency: 0.4
Mode: 0
LetterboxInBreaks: 0
WidescreenStoryboard: 1

[Editor]
DistanceSpacing: 2
BeatDivisor: 4
GridSize: 16
TimelineZoom: 2.3

[Metadata]
Title:WITH (TV Size)
TitleUnicode:WITH (TV Size)
Artist:Kuribayashi Minami
ArtistUnicode:栗林みな実
Creator:Azu
Version:Quarter Pounder Extra
Source:はたらく魔王さま!!
Tags:Hataraku Maou-sama!! The Devil Is a Part-Timer!! season 2 two op opening japanese anime pop j-pop jpop Xexyz Mayu Sakuma Ayana Azunyan- RugMunch Himekawa jasontime12345 Mizunashi Akari ChaosTwilly flynnfura Mugi-tan KotobukiTsumugi Alicia Florence comfy
BeatmapID:3693455
BeatmapSetID:1801396

[Difficulty]
HPDrainRate:5
CircleSize:4
OverallDifficulty:9
ApproachRate:9.3
SliderMultiplier:1.7
SliderTickRate:1

[Events]
//Background and Video events
0,0,"yuusha.jpg",0,0
Video,-250,"opening.mp4"
//Break Periods
//Storyboard Layer 0 (Background)
//Storyboard Layer 1 (Fail)
//Storyboard Layer 2 (Pass)
//Storyboard Layer 3 (Foreground)
//Storyboard Layer 4 (Overlay)
//Storyboard Sound Samples

[TimingPoints]
260,342.857142857143,4,2,1,60,1,0
11231,-133.333333333333,4,2,1,60,0,0
22202,-100,4,2,1,60,0,0
32831,-166.666666666667,4,2,1,60,0,0
33088,-166.666666666667,4,2,1,5,0,0
33174,-100,4,2,1,60,0,0
46374,-90.9090909090909,4,2,1,60,0,0
46717,-100,4,2,1,60,0,0
55117,-83.3333333333333,4,2,1,80,0,1
66517,-83.3333333333333,4,2,1,5,0,1
66602,-83.3333333333333,4,2,1,80,0,1
86660,-83.3333333333333,4,2,1,40,0,0

[Colours]
Combo1 : 255,226,140
Combo2 : 255,128,255
Combo3 : 125,184,255
Combo4 : 249,142,158

[HitObjects]
93,164,11231,6,0,P|31:125|-2:58,1,127.500004863739,4|8,0:3|0:1,0:0:0:0:
189,128,11745,2,0,P|186:200|144:263,1,127.500004863739,2|0,0:0|0:0,0:0:0:0:
110,61,12260,1,10,0:1:0:0:
110,61,12431,2,0,P|174:26|249:31,1,127.500004863739,2|0,0:0|0:0,0:0:0:0:
298,110,12945,1,10,0:1:0:0:
189,128,13117,1,2,0:0:0:0:
306,126,13288,1,10,0:1:0:0:
197,144,13460,1,2,0:0:0:0:
331,16,13631,1,10,0:1:0:0:
331,16,13802,6,0,L|311:172,1,127.500004863739,2|0,0:0|0:0,0:0:0:0:
149,282,14317,2,0,P|194:240|256:243,1,127.500004863739,10|8,0:1|0:1,0:0:0:0:
315,344,14831,1,2,0:0:0:0:
315,344,15002,1,10,0:1:0:0:
497,266,15174,6,0,L|371:241,1,127.500004863739,4|0,0:0|0:0,0:0:0:0:
256,243,15688,1,10,0:1:0:0:
385,219,15860,2,0,L|511:244,1,127.500004863739,2|0,0:0|0:0,0:0:0:0:
496,151,16374,1,10,0:1:0:0:
496,151,16545,1,2,0:0:0:0:
420,42,16717,6,0,L|481:58,1,63.7500024318696,4|0,0:3|0:0,0:0:0:0:
348,119,17060,1,10,0:1:0:0:
348,119,17231,2,0,L|286:102,1,63.7500024318696,2|8,0:0|0:1,0:0:0:0:
217,3,17574,1,2,0:0:0:0:
286,102,17745,1,10,0:1:0:0:
144,41,17917,6,0,L|227:22,1,63.7500024318696,2|8,0:0|0:1,0:0:0:0:
185,144,18260,2,0,L|48:175,1,127.500004863739,2|0,0:0|0:0,0:0:0:0:
29,75,18774,2,0,B|54:110|54:110|37:224,1,127.500004863739,10|8,0:1|0:0,0:0:0:0:
14,371,19288,1,4,0:3:0:0:
181,291,19461,5,4,3:3:0:0:
208,274,19545,1,0,3:0:0:0:
238,264,19631,1,0,3:0:0:0:
269,258,19717,1,0,3:0:0:0:
301,259,19803,1,8,3:1:0:0:
332,265,19888,1,0,3:0:0:0:
362,277,19974,1,0,3:0:0:0:
389,294,20060,1,0,3:0:0:0:
412,316,20145,5,6,3:3:0:0:
375,313,20231,1,8,3:2:0:0:
344,294,20317,1,8,3:2:0:0:
325,262,20402,1,8,3:2:0:0:
324,225,20488,1,8,3:1:0:0:
341,192,20574,1,8,3:2:0:0:
371,171,20660,2,0,P|379:152|384:120,1,31.8750012159348,6|0,0:3|0:0,0:0:0:0:
342,0,21002,5,2,0:0:0:0:
342,0,21174,1,2,0:0:0:0:
158,42,21345,2,0,L|188:50,1,31.8750012159348,8|8,0:1|0:1,0:0:0:0:
249,98,21517,2,0,L|172:77,1,63.7500024318696,8|0,0:1|0:0,0:0:0:0:
381,141,21860,1,10,0:0:0:0:
381,141,22031,1,2,0:0:0:0:
485,47,22202,6,0,B|514:99|514:99|487:241,1,170,4|8,0:0|0:0,0:0:0:0:
255,340,22717,2,0,P|302:256|372:274,1,170,4|0,0:3|0:0,0:0:0:0:
362,266,23231,1,8,0:0:0:0:
280,77,23402,6,0,L|260:245,1,170,2|8,0:0|0:1,0:0:0:0:
161,355,23917,1,10,0:0:0:0:
26,294,24088,1,2,0:0:0:0:
186,118,24260,1,10,0:1:0:0:
260,245,24431,1,10,0:1:0:0:
43,148,24602,1,10,0:0:0:0:
279,254,24774,6,0,L|468:212,1,170,4|0,0:0|0:0,0:0:0:0:
444,217,25288,1,10,0:0:0:0:
337,90,25460,2,0,L|526:48,1,170,2|0,0:0|0:0,0:0:0:0:
502,53,25974,1,10,0:0:0:0:
245,0,26145,6,0,B|225:48|225:48|260:187,2,170,2|10|2,0:0|0:1|0:0,0:0:0:0:
337,90,27002,1,8,0:1:0:0:
337,90,27174,1,8,0:1:0:0:
127,60,27345,1,10,0:0:0:0:
232,75,27517,1,2,0:0:0:0:
22,45,27688,6,0,L|64:210,1,170,4|8,0:0|0:0,0:0:0:0:
166,337,28202,2,0,B|66:300|93:370|-37:322,1,170,4|2,0:0|0:0,0:0:0:0:
220,193,28717,2,0,B|320:230|293:160|423:208,1,170,8|2,0:0|0:0,0:0:0:0:
386,196,29231,1,2,0:0:0:0:
506,232,29402,1,8,0:0:0:0:
506,232,29574,1,0,0:0:0:0:
362,383,29745,2,0,L|335:282,1,85,10|8,0:1|0:1,0:0:0:0:
512,346,30088,1,10,0:0:0:0:
443,92,30260,6,0,L|494:286,1,170,4|0,0:1|0:0,0:0:0:0:
340,62,30774,2,0,P|378:11|414:-8,1,85,10|0,0:1|0:0,0:0:0:0:
366,167,31117,2,0,P|302:159|268:137,1,85,8|0,0:0|0:0,0:0:0:0:
232,53,31460,1,2,0:0:0:0:
201,198,31631,2,0,L|300:174,1,85,6|0,0:3|0:0,0:0:0:0:
159,44,31974,2,0,L|258:20,1,85,10|0,0:0|0:0,0:0:0:0:
201,198,32317,1,8,0:1:0:0:
46,157,32488,1,8,0:0:0:0:
25,151,32573,1,8,0:0:0:0:
4,146,32659,1,8,0:0:0:0:
201,198,32831,6,0,B|210:230|210:230|191:277,1,76.4999976654053,2|0,0:0|0:0,0:0:0:0:
47,306,33174,6,0,B|79:256|148:258|148:258|160:286|206:301,1,170,4|8,0:0|0:1,0:0:0:0:
368,379,33688,2,0,P|297:328|313:246,1,170,2|0,0:0|0:0,0:0:0:0:
424,213,34202,1,10,0:1:0:0:
424,213,34374,6,0,L|538:223,1,85,2|8,0:0|0:1,0:0:0:0:
290,94,34717,2,0,B|270:147|270:147|311:266,1,170,2|0,0:0|0:0,0:0:0:0:
461,38,35231,5,10,0:1:0:0:
290,94,35402,1,2,0:0:0:0:
461,38,35574,5,10,0:1:0:0:
424,213,35745,1,2,0:0:0:0:
270,78,35917,6,0,B|222:57|222:57|95:87,1,170,4|8,0:3|0:1,0:0:0:0:
239,236,36431,2,0,L|428:189,1,170,2|0,0:0|0:0,0:0:0:0:
270,78,36945,1,10,0:1:0:0:
218,222,37117,6,0,L|205:306,1,85,4|0,0:0|0:0,0:0:0:0:
64,343,37460,1,10,0:3:0:0:
55,331,37545,1,8,0:3:0:0:
52,316,37631,2,0,P|55:284|66:265,1,42.5,8|8,0:3|0:3,0:0:0:0:
84,40,37802,5,10,0:1:0:0:
104,59,37887,1,8,0:1:0:0:
115,85,37973,1,8,0:1:0:0:
115,113,38059,1,8,0:1:0:0:
104,139,38144,1,8,0:1:0:0:
84,158,38230,1,8,0:1:0:0:
58,168,38317,2,0,P|120:139|168:134,1,85,10|2,0:0|0:0,0:0:0:0:
322,211,38660,6,0,P|244:123|256:53,1,170,4|8,0:0|0:1,0:0:0:0:
345,17,39174,2,0,L|517:54,1,170,2|0,0:0|0:0,0:0:0:0:
488,157,39688,2,0,L|529:163,1,42.5,10|0,0:1|0:0,0:0:0:0:
350,37,39860,6,0,L|457:60,1,85,2|0,0:0|0:0,0:0:0:0:
500,178,40202,2,0,L|304:135,1,170,2|0,0:0|0:0,0:0:0:0:
178,0,40717,2,0,L|204:104,1,85,4|0,0:3|0:0,0:0:0:0:
233,304,41060,2,0,L|212:222,1,85,4|0,0:3|0:0,0:0:0:0:
45,123,41402,6,0,P|110:78|226:98,1,170,6|0,0:3|0:0,0:0:0:0:
252,293,41917,1,10,0:1:0:0:
225,286,42002,1,8,0:1:0:0:
199,274,42088,1,8,0:1:0:0:
177,256,42174,1,8,0:1:0:0:
159,234,42259,1,8,0:1:0:0:
147,209,42345,1,8,0:1:0:0:
140,181,42431,1,10,0:1:0:0:
100,334,42602,5,10,0:0:0:0:
100,334,42945,1,10,0:0:0:0:
252,293,43117,1,10,0:0:0:0:
404,252,43288,1,2,0:0:0:0:
308,146,43460,5,8,0:0:0:0:
308,146,43545,1,8,0:0:0:0:
308,146,43631,2,0,L|324:196,1,42.5,10|8,0:1|0:1,0:0:0:0:
426,269,43802,2,0,L|445:335,1,42.5,10|8,0:0|0:1,0:0:0:0:
289,130,43974,1,2,0:0:0:0:
512,42,44145,6,0,L|497:157,1,85,4|0,0:0|0:0,0:0:0:0:
415,24,44402,2,0,L|404:108,1,85,2|0,0:0|0:0,0:0:0:0:
318,6,44660,2,0,L|309:74,1,42.5,10|0,0:1|0:0,0:0:0:0:
213,181,44831,6,0,P|152:202|116:202,1,85,2|8,0:0|0:1,0:0:0:0:
84,50,45088,2,0,P|133:92|151:124,1,85,10|0,0:1|0:0,0:0:0:0:
41,185,45345,2,0,P|47:165|57:146,1,42.5,10|0,0:0|0:0,0:0:0:0:
213,181,45517,5,8,0:1:0:0:
57,146,45688,1,8,0:1:0:0:
105,299,45860,1,8,0:0:0:0:
105,299,46202,5,8,0:1:0:0:
262,334,46374,2,0,L|172:361,1,93.5000028533936,10|8,0:1|0:0,0:0:0:0:
213,181,46717,1,2,0:0:0:0:
438,333,46888,6,0,L|455:218,1,85,4|0,0:3|0:0,0:0:0:0:
339,323,47145,2,0,L|351:239,1,85,2|0,0:0|0:0,0:0:0:0:
241,314,47403,2,0,L|251:246,1,42.5,10|0,0:1|0:0,0:0:0:0:
231,79,47574,6,0,P|245:130|246:168,1,85,2|0,0:0|0:0,0:0:0:0:
145,140,47831,2,0,P|122:188|99:217,1,85,2|0,0:0|0:0,0:0:0:0:
39,131,48088,2,0,P|18:141|-13:148,1,42.5,10|0,0:0|0:0,0:0:0:0:
119,38,48260,1,8,0:1:0:0:
231,79,48431,1,8,0:1:0:0:
343,120,48602,1,8,0:0:0:0:
365,32,48774,6,0,L|411:236,1,170,2|8,0:0|0:1,0:0:0:0:
249,99,49288,2,0,L|267:179,1,42.5,10|8,0:0|0:1,0:0:0:0:
229,317,49460,1,8,0:1:0:0:
229,317,49545,1,8,0:1:0:0:
229,317,49631,6,0,B|264:257|321:272|321:272|345:297|391:303,1,170,4|8,0:0|0:0,0:0:0:0:
485,197,50145,2,0,P|403:177|342:119,1,170,2|0,0:0|0:0,0:0:0:0:
315,0,50660,1,8,0:0:0:0:
249,99,50831,6,0,L|435:59,1,170,2|0,0:0|0:0,0:0:0:0:
315,0,51345,1,8,0:0:0:0:
261,136,51517,1,2,0:0:0:0:
257,124,51602,1,2,0:0:0:0:
254,112,51688,1,8,0:1:0:0:
193,224,51860,1,8,0:1:0:0:
142,50,52031,1,8,0:0:0:0:
366,174,52202,1,2,0:0:0:0:
102,275,52374,5,8,0:1:0:0:
123,303,52459,1,8,0:1:0:0:
154,323,52545,1,8,0:0:0:0:
190,332,52631,1,8,0:1:0:0:
225,327,52717,2,0,L|282:304,1,42.5,8|8,0:0|0:1,0:0:0:0:
379,149,52888,1,8,0:1:0:0:
385,186,52973,1,8,0:1:0:0:
392,225,53060,1,8,0:1:0:0:
399,264,53145,1,8,0:1:0:0:
406,302,53231,2,0,L|419:364,1,42.5,8|8,0:1|0:1,0:0:0:0:
437,84,53402,5,2,0:0:0:0:
415,344,53574,1,8,0:0:0:0:
415,344,54260,2,0,L|365:333,1,42.5,10|8,0:1|0:1,0:0:0:0:
264,311,54431,1,10,0:1:0:0:
211,218,54602,1,2,0:0:0:0:
266,126,54774,1,10,0:0:0:0:
104,218,54945,1,10,0:1:0:0:
104,218,55031,1,8,0:1:0:0:
104,218,55117,5,4,0:0:0:0:
289,115,55288,2,0,L|407:148,1,101.999996887207,2|8,0:0|0:0,0:0:0:0:
503,178,55631,1,10,0:1:0:0:
503,178,55802,1,2,0:0:0:0:
370,39,55974,1,8,0:1:0:0:
315,223,56145,1,8,0:0:0:0:
83,108,56317,6,0,P|131:90|181:82,1,101.999996887207,6|0,0:3|0:0,0:0:0:0:
200,340,56660,2,0,P|160:308|128:268,1,101.999996887207,10|8,0:1|0:0,0:0:0:0:
181,82,57003,1,0,3:0:0:0:
188,57,57088,1,0,3:0:0:0:
195,33,57174,1,10,0:1:0:0:
221,245,57345,1,10,0:1:0:0:
391,118,57517,2,0,L|279:134,1,101.999996887207,8|0,0:0|0:0,0:0:0:0:
417,330,57860,5,4,3:3:0:0:
452,317,57945,1,0,3:0:0:0:
476,287,58031,1,0,3:0:0:0:
480,250,58117,1,0,3:0:0:0:
465,215,58202,2,0,P|467:184|478:138,1,50.9999984436036,8|0,0:0|0:0,0:0:0:0:
346,384,58374,2,0,P|317:310|317:249,1,101.999996887207,2|0,0:0|0:0,0:0:0:0:
296,104,58717,1,10,0:1:0:0:
107,245,58888,2,0,P|126:228|146:213,1,50.9999984436036,8|0,0:0|0:0,0:0:0:0:
253,202,59060,6,0,L|46:156,1,203.999993774414,6|8,0:3|0:1,0:0:0:0:
91,0,59574,1,8,3:2:0:0:
116,8,59660,1,0,3:0:0:0:
116,34,59745,1,0,3:0:0:0:
91,42,59831,1,0,3:0:0:0:
77,21,59917,1,0,3:0:0:0:
53,157,60088,1,10,0:1:0:0:
183,110,60260,1,10,3:2:0:0:
53,157,60431,1,2,0:0:0:0:
313,63,60602,6,0,B|433:35|386:108|535:82,1,203.999993774414,4|8,0:0|0:0,0:0:0:0:
387,244,61117,1,2,3:0:0:0:
358,232,61202,1,0,3:0:0:0:
340,207,61288,1,0,3:0:0:0:
339,177,61374,1,0,3:0:0:0:
355,151,61459,1,10,3:1:0:0:
391,346,61631,2,0,P|475:289|478:283,1,101.999996887207,10|0,0:0|0:0,0:0:0:0:
380,137,61974,5,10,3:1:0:0:
191,266,62145,2,0,P|230:299|279:311,1,101.999996887207,2|8,0:0|0:0,0:0:0:0:
409,121,62488,1,2,0:0:0:0:
202,23,62660,5,10,0:1:0:0:
221,252,62831,1,10,0:1:0:0:
202,23,63002,1,10,0:0:0:0:
221,252,63174,1,2,0:0:0:0:
333,12,63345,1,10,0:1:0:0:
145,142,63517,5,10,0:0:0:0:
352,240,63688,1,2,0:0:0:0:
126,282,63860,1,10,0:1:0:0:
126,282,63945,1,8,0:1:0:0:
126,282,64031,1,10,0:0:0:0:
284,115,64202,1,10,0:1:0:0:
256,344,64374,1,10,0:1:0:0:
284,115,64545,5,10,0:0:0:0:
468,253,64717,1,8,0:1:0:0:
468,253,64802,1,8,0:1:0:0:
468,253,64888,1,10,0:0:0:0:
204,222,65060,1,8,0:0:0:0:
416,131,65231,6,0,L|494:151,1,50.9999984436036,10|8,0:1|0:1,0:0:0:0:
487,376,65402,1,8,3:2:0:0:
437,363,65487,1,8,3:2:0:0:
388,350,65573,1,8,3:2:0:0:
338,337,65659,1,8,3:2:0:0:
289,325,65745,2,0,L|239:312,1,50.9999984436036,8|8,3:2|3:2,0:0:0:0:
66,88,65917,1,8,3:2:0:0:
101,78,66002,1,8,3:2:0:0:
135,69,66088,5,4,3:2:0:0:
49,353,66260,2,0,B|14:300|14:300|43:164,1,152.999995330811,2|0,0:0|0:0,0:0:0:0:
114,169,66602,2,0,L|135:69,1,101.999996887207,8|0,0:1|0:0,0:0:0:0:
264,46,66945,1,10,0:1:0:0:
135,69,67117,1,10,0:0:0:0:
393,23,67288,6,0,L|507:48,1,101.999996887207,6|0,0:3|0:0,0:0:0:0:
284,167,67631,2,0,P|248:101|244:67,1,101.999996887207,10|8,0:1|0:0,0:0:0:0:
461,190,67974,1,2,3:0:0:0:
459,228,68059,1,0,3:0:0:0:
446,263,68145,1,8,3:1:0:0:
423,294,68231,1,0,3:0:0:0:
391,315,68317,2,0,L|290:291,1,101.999996887207,10|8,3:1|0:0,0:0:0:0:
128,186,68660,2,0,L|191:202,1,50.9999984436036,2|0,0:0|0:0,0:0:0:0:
130,364,68831,6,0,L|29:340,1,101.999996887207,4|0,0:3|0:0,0:0:0:0:
141,164,69174,1,8,0:0:0:0:
297,316,69345,2,0,L|396:339,1,101.999996887207,2|0,0:0|0:0,0:0:0:0:
154,142,69688,1,2,0:0:0:0:
422,75,69860,1,8,3:1:0:0:
398,70,69945,1,8,3:1:0:0:
374,65,70031,6,0,B|335:91|335:91|308:224,1,152.999995330811,4|0,0:3|0:0,0:0:0:0:
295,293,70374,1,8,0:1:0:0:
500,248,70545,1,8,3:2:0:0:
501,210,70630,1,0,3:0:0:0:
482,177,70716,1,0,3:0:0:0:
448,161,70802,1,0,3:0:0:0:
411,166,70888,2,0,L|294:200,1,101.999996887207,10|8,0:1|0:1,0:0:0:0:
167,230,71231,1,10,0:0:0:0:
0,10,71402,1,10,0:1:0:0:
17,5,71488,1,8,0:1:0:0:
37,0,71574,6,0,B|93:39|84:111|84:111|44:133|38:167,1,203.999993774414,4|8,0:0|0:0,0:0:0:0:
44,347,72088,2,0,P|96:257|196:257,1,203.999993774414,8|8,0:1|0:1,0:1:0:0:
337,338,72602,1,10,0:0:0:0:
187,252,72773,1,2,0:0:0:0:
337,338,72945,6,0,P|392:327|442:312,1,101.999996887207,2|8,0:0|0:1,0:0:0:0:
216,154,73288,2,0,P|198:207|186:257,1,101.999996887207,10|0,0:0|0:0,0:0:0:0:
447,147,73631,1,8,0:1:0:0:
216,154,73802,1,8,0:1:0:0:
447,147,73974,2,0,P|434:97|418:49,1,101.999996887207,10|0,0:0|0:0,0:0:0:0:
256,17,74317,1,8,0:1:0:0:
334,234,74488,1,8,0:0:0:0:
107,193,74660,1,0,3:0:0:0:
132,189,74745,1,0,3:0:0:0:
157,185,74831,1,8,3:1:0:0:
182,181,74917,1,0,3:0:0:0:
207,177,75002,5,8,3:2:0:0:
15,51,75174,1,8,0:1:0:0:
207,177,75345,1,8,0:1:0:0:
1,280,75517,5,8,0:0:0:0:
148,59,75688,1,8,0:1:0:0:
148,59,75774,1,8,0:1:0:0:
148,59,75860,1,8,0:0:0:0:
1,280,76031,1,8,0:0:0:0:
266,295,76202,5,8,0:1:0:0:
292,274,76287,1,8,0:1:0:0:
313,247,76373,1,8,0:0:0:0:
327,216,76459,1,8,0:1:0:0:
333,183,76544,1,8,0:1:0:0:
330,149,76630,1,8,0:1:0:0:
320,117,76717,2,0,P|304:67|297:16,1,101.999996887207,8|0,0:0|0:0,0:0:0:0:
502,319,77060,6,0,P|369:256|302:246,1,203.999993774414,4|8,0:0|0:1,0:0:0:0:
67,361,77574,2,0,P|175:358|165:241,1,203.999993774414,2|0,0:0|0:0,0:0:0:0:
17,116,78088,1,10,3:1:0:0:
25,152,78173,1,0,3:0:0:0:
51,179,78259,1,0,3:0:0:0:
88,188,78345,1,0,3:0:0:0:
124,175,78430,1,8,3:1:0:0:
379,11,78602,6,0,P|279:14|200:76,1,203.999993774414,2|0,0:0|0:0,0:0:0:0:
314,246,79117,1,10,3:1:0:0:
341,219,79202,1,0,3:0:0:0:
351,182,79288,1,0,3:0:0:0:
342,146,79374,1,0,3:0:0:0:
317,118,79459,1,10,3:1:0:0:
332,372,79631,6,0,P|439:332|476:251,1,203.999993774414,4|0,0:0|0:0,0:0:0:0:
377,85,80145,1,10,0:1:0:0:
341,219,80317,1,2,0:0:0:0:
475,255,80488,1,10,0:1:0:0:
511,121,80660,2,0,L|486:6,1,101.999996887207,10|0,0:0|0:0,0:0:0:0:
334,253,81002,6,0,L|286:36,1,203.999993774414,10|8,0:0|0:1,0:0:0:0:
334,253,81517,1,8,0:0:0:0:
90,201,81688,1,8,0:3:0:0:
117,195,81773,1,8,0:3:0:0:
146,190,81860,2,0,L|229:173,1,50.9999984436036,8|8,0:3|0:3,0:0:0:0:
0,64,82031,1,10,0:1:0:0:
222,160,82202,1,10,0:0:0:0:
27,304,82374,1,2,0:0:0:0:
139,49,82545,5,10,0:1:0:0:
166,289,82717,1,2,0:0:0:0:
361,146,82888,1,10,0:1:0:0:
83,176,83060,1,2,0:0:0:0:
364,148,83231,2,0,B|514:128|514:128|452:188,1,203.999993774414,8|8,0:1|0:0,0:0:0:0:
306,273,83745,5,6,3:3:0:0:
277,258,83830,1,0,3:0:0:0:
254,236,83916,1,0,3:0:0:0:
238,209,84002,1,0,3:0:0:0:
231,178,84088,2,0,L|245:64,1,101.999996887207,8|0,0:3|0:0,0:0:0:0:
243,76,84431,1,10,0:3:0:0:
63,246,84603,5,10,0:0:0:0:
5,4,84774,1,8,0:1:0:0:
243,76,84945,1,10,0:0:0:0:
103,108,85117,5,6,0:0:0:0:
256,192,85202,12,0,86660,0:0:0:0:
