osu file format v14

[General]
AudioFilename: Otenba Renjyo.mp3
AudioLeadIn: 0
PreviewTime: 38482
Countdown: 0
SampleSet: Soft
StackLeniency: 0.7
Mode: 3
LetterboxInBreaks: 0
SpecialStyle: 0
WidescreenStoryboard: 0

[Editor]
DistanceSpacing: 0.7
BeatDivisor: 8
GridSize: 8
TimelineZoom: 1.9

[Metadata]
Title:Otenba Koimusume
TitleUnicode:おてんば恋娘
Artist:Kurenainagi Tabibito
ArtistUnicode:紅薙 旅人
Creator:tangjinxi
Version:Beloved Tomboyish Girl
Source:東方紅魔郷 ~ the Embodiment of Scarlet Devil.
Tags:Beloved Tomboyish Girl Liverne Renjyo
BeatmapID:834301
BeatmapSetID:381363

[Difficulty]
HPDrainRate:8
CircleSize:7
OverallDifficulty:5
ApproachRate:5
SliderMultiplier:1.4
SliderTickRate:1

[Events]
//Background and Video events
0,0,"background.jpg",0,0
//Break Periods
//Storyboard Layer 0 (Background)
//Storyboard Layer 1 (Fail)
//Storyboard Layer 2 (Pass)
//Storyboard Layer 3 (Foreground)
//Storyboard Sound Samples

[TimingPoints]
0,357.142857142857,4,2,0,10,1,0

[HitObjects]
256,192,1428,5,0,0:0:0:0:
475,192,1428,1,0,0:0:0:0:
36,192,1607,5,0,0:0:0:0:
329,192,1607,1,0,0:0:0:0:
109,192,1785,1,0,0:0:0:0:
402,192,1785,1,0,0:0:0:0:
182,192,1964,1,0,0:0:0:0:
475,192,1964,1,0,0:0:0:0:
36,192,2142,1,0,0:0:0:0:
182,192,2321,1,0,0:0:0:0:
329,192,2499,1,0,0:0:0:0:
36,192,2857,1,0,0:0:0:0:
256,192,2857,1,0,0:0:0:0:
475,192,3035,1,0,0:0:0:0:
182,192,3035,1,0,0:0:0:0:
109,192,3214,1,0,0:0:0:0:
402,192,3214,1,0,0:0:0:0:
329,192,3392,1,0,0:0:0:0:
36,192,3392,1,0,0:0:0:0:
182,192,3571,1,0,0:0:0:0:
329,192,3749,1,0,0:0:0:0:
475,192,3928,1,0,0:0:0:0:
36,192,4285,1,0,0:0:0:0:
256,192,4285,1,0,0:0:0:0:
402,192,4285,1,0,0:0:0:0:
109,192,4464,1,0,0:0:0:0:
182,192,4642,1,0,0:0:0:0:
256,192,4821,1,0,0:0:0:0:
36,192,4821,1,0,0:0:0:0:
109,192,4999,1,0,0:0:0:0:
182,192,5178,1,0,0:0:0:0:
475,192,5357,1,0,0:0:0:0:
256,192,5357,1,0,0:0:0:0:
329,192,5535,1,0,0:0:0:0:
109,192,5535,1,0,0:0:0:0:
256,192,5892,1,0,0:0:0:0:
109,192,6249,1,0,0:0:0:0:
36,192,6607,1,0,0:0:0:0:
182,192,6785,1,0,0:0:0:0:
256,192,7142,1,0,0:0:0:0:
475,192,7142,1,0,0:0:0:0:
36,192,7321,1,0,0:0:0:0:
329,192,7321,1,0,0:0:0:0:
109,192,7499,1,0,0:0:0:0:
402,192,7499,1,0,0:0:0:0:
182,192,7678,1,0,0:0:0:0:
475,192,7678,1,0,0:0:0:0:
36,192,7857,1,0,0:0:0:0:
109,192,8035,1,0,0:0:0:0:
329,192,8035,1,0,0:0:0:0:
182,192,8214,1,0,0:0:0:0:
402,192,8214,1,0,0:0:0:0:
475,192,8392,1,0,0:0:0:0:
36,192,8571,1,0,0:0:0:0:
256,192,8571,1,0,0:0:0:0:
475,192,8749,1,0,0:0:0:0:
182,192,8749,1,0,0:0:0:0:
109,192,8928,1,0,0:0:0:0:
402,192,8928,1,0,0:0:0:0:
329,192,9107,1,0,0:0:0:0:
36,192,9107,1,0,0:0:0:0:
36,192,9999,1,0,0:0:0:0:
182,192,9999,1,0,0:0:0:0:
329,192,9999,1,0,0:0:0:0:
475,192,9999,1,0,0:0:0:0:
256,192,11071,1,0,0:0:0:0:
256,192,11249,128,0,12857:0:0:0:0:
36,192,12321,128,0,12499:0:0:0:0:
182,192,12499,128,0,12678:0:0:0:0:
329,192,12678,128,0,12857:0:0:0:0:
182,192,12857,128,0,13124:0:0:0:0:
109,192,12857,128,0,13482:0:0:0:0:
36,192,12857,128,0,13839:0:0:0:0:
402,192,12857,1,0,0:0:0:0:
475,192,12857,1,0,0:0:0:0:
329,192,12946,1,0,0:0:0:0:
256,192,13035,1,0,0:0:0:0:
475,192,13035,1,0,0:0:0:0:
402,192,13124,1,0,0:0:0:0:
182,192,13214,1,0,0:0:0:0:
329,192,13214,1,0,0:0:0:0:
475,192,13303,1,0,0:0:0:0:
256,192,13303,1,0,0:0:0:0:
402,192,13392,1,0,0:0:0:0:
182,192,13392,1,0,0:0:0:0:
329,192,13482,1,0,0:0:0:0:
256,192,13571,1,0,0:0:0:0:
475,192,13571,1,0,0:0:0:0:
109,192,13660,1,0,0:0:0:0:
402,192,13660,1,0,0:0:0:0:
329,192,13749,128,0,14017:0:0:0:0:
475,192,13749,1,0,0:0:0:0:
182,192,13749,1,0,0:0:0:0:
109,192,13839,1,0,0:0:0:0:
36,192,13928,1,0,0:0:0:0:
256,192,13928,128,0,14196:0:0:0:0:
402,192,13928,1,0,0:0:0:0:
109,192,14017,1,0,0:0:0:0:
475,192,14017,1,0,0:0:0:0:
182,192,14107,128,0,14285:0:0:0:0:
329,192,14107,1,0,0:0:0:0:
36,192,14196,1,0,0:0:0:0:
256,192,14285,1,0,0:0:0:0:
329,192,14285,128,0,14553:0:0:0:0:
402,192,14285,128,0,14910:0:0:0:0:
475,192,14285,128,0,15267:0:0:0:0:
109,192,14285,1,0,0:0:0:0:
182,192,14374,1,0,0:0:0:0:
256,192,14464,1,0,0:0:0:0:
36,192,14464,1,0,0:0:0:0:
109,192,14553,1,0,0:0:0:0:
329,192,14642,1,0,0:0:0:0:
36,192,14642,1,0,0:0:0:0:
256,192,14642,1,0,0:0:0:0:
182,192,14732,1,0,0:0:0:0:
109,192,14821,128,0,14910:0:0:0:0:
36,192,14821,128,0,14910:0:0:0:0:
329,192,14821,1,0,0:0:0:0:
256,192,14910,1,0,0:0:0:0:
402,192,14999,1,0,0:0:0:0:
36,192,14999,1,0,0:0:0:0:
182,192,14999,1,0,0:0:0:0:
109,192,15089,1,0,0:0:0:0:
329,192,15089,1,0,0:0:0:0:
182,192,15178,1,0,0:0:0:0:
402,192,15178,1,0,0:0:0:0:
36,192,15267,1,0,0:0:0:0:
329,192,15267,1,0,0:0:0:0:
109,192,15357,1,0,0:0:0:0:
256,192,15357,1,0,0:0:0:0:
475,192,15357,1,0,0:0:0:0:
182,192,15357,128,0,15714:0:0:0:0:
402,192,15446,1,0,0:0:0:0:
36,192,15535,128,0,15714:0:0:0:0:
329,192,15535,1,0,0:0:0:0:
475,192,15535,1,0,0:0:0:0:
256,192,15624,1,0,0:0:0:0:
109,192,15714,1,0,0:0:0:0:
402,192,15714,128,0,15982:0:0:0:0:
329,192,15714,1,0,0:0:0:0:
475,192,15714,128,0,16339:0:0:0:0:
256,192,15803,1,0,0:0:0:0:
36,192,15892,1,0,0:0:0:0:
182,192,15892,128,0,16160:0:0:0:0:
329,192,15982,1,0,0:0:0:0:
109,192,15982,1,0,0:0:0:0:
36,192,16071,1,0,0:0:0:0:
256,192,16071,128,0,16339:0:0:0:0:
109,192,16160,1,0,0:0:0:0:
402,192,16160,1,0,0:0:0:0:
329,192,16249,128,0,16517:0:0:0:0:
182,192,16249,1,0,0:0:0:0:
109,192,16339,1,0,0:0:0:0:
402,192,16339,1,0,0:0:0:0:
256,192,16428,1,0,0:0:0:0:
36,192,16428,128,0,16696:0:0:0:0:
475,192,16428,1,0,0:0:0:0:
182,192,16517,1,0,0:0:0:0:
402,192,16517,1,0,0:0:0:0:
109,192,16607,128,0,16874:0:0:0:0:
329,192,16607,1,0,0:0:0:0:
256,192,16696,1,0,0:0:0:0:
475,192,16696,1,0,0:0:0:0:
182,192,16785,128,0,17053:0:0:0:0:
402,192,16785,1,0,0:0:0:0:
36,192,16785,1,0,0:0:0:0:
329,192,16874,1,0,0:0:0:0:
475,192,16964,1,0,0:0:0:0:
109,192,16964,1,0,0:0:0:0:
256,192,16964,128,0,17142:0:0:0:0:
402,192,17053,1,0,0:0:0:0:
109,192,17142,128,0,17410:0:0:0:0:
36,192,17142,128,0,17767:0:0:0:0:
475,192,17142,128,0,17410:0:0:0:0:
329,192,17142,1,0,0:0:0:0:
182,192,17142,1,0,0:0:0:0:
256,192,17232,1,0,0:0:0:0:
402,192,17321,128,0,17589:0:0:0:0:
329,192,17321,1,0,0:0:0:0:
182,192,17321,1,0,0:0:0:0:
256,192,17410,1,0,0:0:0:0:
329,192,17499,128,0,17767:0:0:0:0:
109,192,17499,1,0,0:0:0:0:
475,192,17499,1,0,0:0:0:0:
182,192,17589,1,0,0:0:0:0:
256,192,17678,128,0,17946:0:0:0:0:
402,192,17678,1,0,0:0:0:0:
109,192,17678,1,0,0:0:0:0:
475,192,17767,1,0,0:0:0:0:
182,192,17767,1,0,0:0:0:0:
402,192,17857,128,0,18124:0:0:0:0:
36,192,17857,1,0,0:0:0:0:
329,192,17857,1,0,0:0:0:0:
182,192,17946,1,0,0:0:0:0:
475,192,18035,128,0,18303:0:0:0:0:
256,192,18035,1,0,0:0:0:0:
109,192,18035,1,0,0:0:0:0:
329,192,18124,1,0,0:0:0:0:
182,192,18124,1,0,0:0:0:0:
256,192,18214,128,0,18482:0:0:0:0:
402,192,18214,1,0,0:0:0:0:
36,192,18214,1,0,0:0:0:0:
109,192,18303,1,0,0:0:0:0:
475,192,18392,1,0,0:0:0:0:
182,192,18392,1,0,0:0:0:0:
329,192,18392,128,0,18571:0:0:0:0:
402,192,18482,1,0,0:0:0:0:
256,192,18571,1,0,0:0:0:0:
475,192,18571,1,0,0:0:0:0:
36,192,18571,128,0,19553:0:0:0:0:
182,192,18571,128,0,18839:0:0:0:0:
109,192,18571,128,0,19196:0:0:0:0:
402,192,18660,1,0,0:0:0:0:
329,192,18749,1,0,0:0:0:0:
475,192,18749,1,0,0:0:0:0:
256,192,18839,1,0,0:0:0:0:
402,192,18928,128,0,19285:0:0:0:0:
182,192,18928,1,0,0:0:0:0:
329,192,18928,1,0,0:0:0:0:
475,192,19017,1,0,0:0:0:0:
329,192,19107,128,0,19285:0:0:0:0:
256,192,19107,1,0,0:0:0:0:
182,192,19196,1,0,0:0:0:0:
256,192,19285,128,0,19642:0:0:0:0:
475,192,19285,1,0,0:0:0:0:
109,192,19285,1,0,0:0:0:0:
402,192,19374,1,0,0:0:0:0:
329,192,19464,128,0,19642:0:0:0:0:
182,192,19464,1,0,0:0:0:0:
475,192,19464,1,0,0:0:0:0:
109,192,19553,1,0,0:0:0:0:
402,192,19642,128,0,19821:0:0:0:0:
36,192,19642,1,0,0:0:0:0:
475,192,19642,1,0,0:0:0:0:
182,192,19642,1,0,0:0:0:0:
109,192,19732,1,0,0:0:0:0:
329,192,19732,1,0,0:0:0:0:
475,192,19821,128,0,19999:0:0:0:0:
36,192,19821,1,0,0:0:0:0:
256,192,19821,1,0,0:0:0:0:
109,192,19910,1,0,0:0:0:0:
256,192,19999,128,0,20357:0:0:0:0:
329,192,19999,128,0,20178:0:0:0:0:
402,192,19999,1,0,0:0:0:0:
182,192,19999,1,0,0:0:0:0:
475,192,20089,1,0,0:0:0:0:
109,192,20089,1,0,0:0:0:0:
402,192,20178,1,0,0:0:0:0:
182,192,20178,128,0,20535:0:0:0:0:
36,192,20178,1,0,0:0:0:0:
329,192,20267,1,0,0:0:0:0:
402,192,20357,1,0,0:0:0:0:
109,192,20357,1,0,0:0:0:0:
475,192,20446,1,0,0:0:0:0:
329,192,20535,128,0,20892:0:0:0:0:
402,192,20535,128,0,20714:0:0:0:0:
256,192,20535,1,0,0:0:0:0:
36,192,20535,1,0,0:0:0:0:
182,192,20624,1,0,0:0:0:0:
256,192,20714,128,0,21071:0:0:0:0:
109,192,20714,1,0,0:0:0:0:
475,192,20803,1,0,0:0:0:0:
36,192,20803,1,0,0:0:0:0:
402,192,20892,1,0,0:0:0:0:
182,192,20892,1,0,0:0:0:0:
109,192,20982,1,0,0:0:0:0:
402,192,21071,128,0,21205:0:0:0:0:
36,192,21071,1,0,0:0:0:0:
182,192,21071,1,0,0:0:0:0:
475,192,21071,128,0,21205:0:0:0:0:
329,192,21071,128,0,21205:0:0:0:0:
109,192,21160,1,0,0:0:0:0:
329,192,21249,128,0,21428:0:0:0:0:
256,192,21249,128,0,21428:0:0:0:0:
36,192,21249,1,0,0:0:0:0:
182,192,21249,128,0,21339:0:0:0:0:
402,192,21249,128,0,21428:0:0:0:0:
36,192,21339,128,0,21428:0:0:0:0:
109,192,21339,1,0,0:0:0:0:
182,192,21428,1,0,0:0:0:0:
475,192,21428,128,0,21517:0:0:0:0:
402,192,21517,128,0,21607:0:0:0:0:
256,192,21517,1,0,0:0:0:0:
109,192,21517,1,0,0:0:0:0:
329,192,21607,128,0,21696:0:0:0:0:
36,192,21607,1,0,0:0:0:0:
402,192,21696,128,0,21785:0:0:0:0:
182,192,21696,1,0,0:0:0:0:
475,192,21785,128,0,21874:0:0:0:0:
256,192,21785,1,0,0:0:0:0:
36,192,21785,1,0,0:0:0:0:
329,192,21874,1,0,0:0:0:0:
109,192,21874,1,0,0:0:0:0:
256,192,21964,128,0,22053:0:0:0:0:
402,192,21964,1,0,0:0:0:0:
182,192,21964,1,0,0:0:0:0:
36,192,21964,1,0,0:0:0:0:
329,192,22053,128,0,22142:0:0:0:0:
475,192,22053,1,0,0:0:0:0:
402,192,22142,128,0,22232:0:0:0:0:
182,192,22142,1,0,0:0:0:0:
109,192,22142,1,0,0:0:0:0:
256,192,22232,1,0,0:0:0:0:
182,192,22321,128,0,22410:0:0:0:0:
329,192,22321,1,0,0:0:0:0:
109,192,22321,1,0,0:0:0:0:
475,192,22321,1,0,0:0:0:0:
256,192,22410,128,0,22499:0:0:0:0:
36,192,22410,1,0,0:0:0:0:
329,192,22499,128,0,22589:0:0:0:0:
109,192,22499,1,0,0:0:0:0:
475,192,22499,128,0,22857:0:0:0:0:
402,192,22499,1,0,0:0:0:0:
182,192,22589,1,0,0:0:0:0:
109,192,22678,128,0,22767:0:0:0:0:
256,192,22678,1,0,0:0:0:0:
402,192,22678,128,0,22857:0:0:0:0:
36,192,22678,1,0,0:0:0:0:
182,192,22767,128,0,22857:0:0:0:0:
329,192,22767,1,0,0:0:0:0:
109,192,22857,128,0,23035:0:0:0:0:
256,192,22857,128,0,23035:0:0:0:0:
329,192,23035,1,0,0:0:0:0:
475,192,23035,1,0,0:0:0:0:
329,192,23124,128,0,23392:0:0:0:0:
475,192,23124,128,0,23392:0:0:0:0:
182,192,23392,128,0,23571:0:0:0:0:
402,192,23392,128,0,23571:0:0:0:0:
256,192,23571,128,0,23749:0:0:0:0:
475,192,23571,128,0,23749:0:0:0:0:
402,192,23749,1,0,0:0:0:0:
182,192,23749,1,0,0:0:0:0:
402,192,23839,128,0,24017:0:0:0:0:
182,192,23839,128,0,24017:0:0:0:0:
256,192,23928,1,0,0:0:0:0:
475,192,23928,1,0,0:0:0:0:
329,192,24017,1,0,0:0:0:0:
109,192,24017,1,0,0:0:0:0:
109,192,24107,128,0,24196:0:0:0:0:
329,192,24107,128,0,24196:0:0:0:0:
36,192,24285,128,0,24553:0:0:0:0:
109,192,24285,1,0,0:0:0:0:
475,192,24285,1,0,0:0:0:0:
329,192,24285,1,0,0:0:0:0:
182,192,24374,1,0,0:0:0:0:
402,192,24374,1,0,0:0:0:0:
109,192,24464,128,0,24732:0:0:0:0:
256,192,24464,1,0,0:0:0:0:
475,192,24464,1,0,0:0:0:0:
329,192,24553,1,0,0:0:0:0:
182,192,24642,128,0,24910:0:0:0:0:
256,192,24642,1,0,0:0:0:0:
475,192,24642,1,0,0:0:0:0:
36,192,24642,1,0,0:0:0:0:
402,192,24732,1,0,0:0:0:0:
329,192,24821,128,0,25089:0:0:0:0:
109,192,24821,1,0,0:0:0:0:
475,192,24821,1,0,0:0:0:0:
36,192,24910,1,0,0:0:0:0:
256,192,24910,1,0,0:0:0:0:
475,192,24999,128,0,25267:0:0:0:0:
182,192,24999,1,0,0:0:0:0:
402,192,24999,1,0,0:0:0:0:
109,192,25089,1,0,0:0:0:0:
402,192,25178,128,0,25446:0:0:0:0:
329,192,25178,1,0,0:0:0:0:
36,192,25178,1,0,0:0:0:0:
256,192,25178,1,0,0:0:0:0:
182,192,25267,1,0,0:0:0:0:
329,192,25357,128,0,25669:0:0:0:0:
475,192,25357,1,0,0:0:0:0:
36,192,25357,1,0,0:0:0:0:
256,192,25357,1,0,0:0:0:0:
109,192,25446,1,0,0:0:0:0:
182,192,25535,128,0,25803:0:0:0:0:
256,192,25535,1,0,0:0:0:0:
402,192,25535,128,0,25669:0:0:0:0:
475,192,25535,128,0,25669:0:0:0:0:
36,192,25624,1,0,0:0:0:0:
329,192,25714,1,0,0:0:0:0:
109,192,25714,128,0,25982:0:0:0:0:
402,192,25714,128,0,26205:0:0:0:0:
475,192,25714,128,0,26205:0:0:0:0:
256,192,25803,1,0,0:0:0:0:
36,192,25892,128,0,26160:0:0:0:0:
182,192,25892,1,0,0:0:0:0:
329,192,25982,1,0,0:0:0:0:
182,192,26071,128,0,26428:0:0:0:0:
256,192,26071,1,0,0:0:0:0:
109,192,26071,1,0,0:0:0:0:
329,192,26249,128,0,26741:0:0:0:0:
402,192,26249,128,0,26741:0:0:0:0:
36,192,26249,1,0,0:0:0:0:
475,192,26249,1,0,0:0:0:0:
109,192,26339,1,0,0:0:0:0:
475,192,26428,128,0,26741:0:0:0:0:
256,192,26428,1,0,0:0:0:0:
36,192,26428,1,0,0:0:0:0:
182,192,26517,1,0,0:0:0:0:
109,192,26607,128,0,26874:0:0:0:0:
256,192,26607,1,0,0:0:0:0:
182,192,26696,1,0,0:0:0:0:
329,192,26785,128,0,27142:0:0:0:0:
256,192,26785,128,0,27142:0:0:0:0:
36,192,26785,1,0,0:0:0:0:
402,192,26785,1,0,0:0:0:0:
182,192,26874,1,0,0:0:0:0:
109,192,26964,1,0,0:0:0:0:
475,192,27053,1,0,0:0:0:0:
36,192,27142,128,0,27678:0:0:0:0:
109,192,27142,128,0,27499:0:0:0:0:
182,192,27142,128,0,27321:0:0:0:0:
402,192,27142,1,0,0:0:0:0:
329,192,27232,1,0,0:0:0:0:
256,192,27232,1,0,0:0:0:0:
475,192,27321,128,0,27767:0:0:0:0:
402,192,27321,1,0,0:0:0:0:
256,192,27410,1,0,0:0:0:0:
182,192,27410,1,0,0:0:0:0:
402,192,27499,128,0,27767:0:0:0:0:
329,192,27499,1,0,0:0:0:0:
182,192,27589,1,0,0:0:0:0:
109,192,27589,1,0,0:0:0:0:
329,192,27678,128,0,27767:0:0:0:0:
256,192,27678,1,0,0:0:0:0:
36,192,27767,1,0,0:0:0:0:
329,192,27857,128,0,28035:0:0:0:0:
402,192,27857,128,0,28214:0:0:0:0:
475,192,27857,128,0,28392:0:0:0:0:
109,192,27857,1,0,0:0:0:0:
182,192,27946,1,0,0:0:0:0:
256,192,27946,1,0,0:0:0:0:
36,192,28035,128,0,28124:0:0:0:0:
109,192,28035,1,0,0:0:0:0:
256,192,28124,1,0,0:0:0:0:
329,192,28124,1,0,0:0:0:0:
109,192,28214,128,0,28348:0:0:0:0:
36,192,28214,128,0,28348:0:0:0:0:
182,192,28214,128,0,28348:0:0:0:0:
329,192,28303,1,0,0:0:0:0:
402,192,28303,1,0,0:0:0:0:
182,192,28392,128,0,28571:0:0:0:0:
109,192,28392,128,0,28571:0:0:0:0:
256,192,28392,128,0,28571:0:0:0:0:
475,192,28482,1,0,0:0:0:0:
402,192,28482,1,0,0:0:0:0:
36,192,28571,128,0,28928:0:0:0:0:
329,192,28571,128,0,29553:0:0:0:0:
109,192,28749,128,0,29553:0:0:0:0:
256,192,28749,128,0,29107:0:0:0:0:
475,192,28928,128,0,29107:0:0:0:0:
182,192,28928,128,0,29285:0:0:0:0:
402,192,29107,128,0,29285:0:0:0:0:
36,192,29107,128,0,29821:0:0:0:0:
256,192,29285,128,0,29999:0:0:0:0:
475,192,29285,128,0,29999:0:0:0:0:
182,192,29464,1,0,0:0:0:0:
402,192,29464,1,0,0:0:0:0:
402,192,29553,128,0,29821:0:0:0:0:
182,192,29553,128,0,29821:0:0:0:0:
329,192,29821,128,0,29999:0:0:0:0:
109,192,29821,128,0,29999:0:0:0:0:
36,192,29999,128,0,30267:0:0:0:0:
182,192,29999,128,0,30089:0:0:0:0:
402,192,29999,128,0,30089:0:0:0:0:
256,192,30089,128,0,30267:0:0:0:0:
475,192,30089,128,0,30178:0:0:0:0:
109,192,30178,128,0,30446:0:0:0:0:
182,192,30178,128,0,30267:0:0:0:0:
329,192,30178,128,0,30357:0:0:0:0:
402,192,30267,128,0,30446:0:0:0:0:
475,192,30267,128,0,30357:0:0:0:0:
182,192,30357,128,0,30624:0:0:0:0:
256,192,30357,128,0,30446:0:0:0:0:
36,192,30446,128,0,30535:0:0:0:0:
329,192,30446,128,0,30624:0:0:0:0:
475,192,30446,128,0,30535:0:0:0:0:
256,192,30535,128,0,30803:0:0:0:0:
109,192,30535,128,0,30624:0:0:0:0:
402,192,30624,128,0,30803:0:0:0:0:
475,192,30714,128,0,30982:0:0:0:0:
109,192,30714,128,0,30803:0:0:0:0:
36,192,30714,128,0,30892:0:0:0:0:
182,192,30803,128,0,30892:0:0:0:0:
329,192,30803,128,0,30982:0:0:0:0:
402,192,30892,128,0,31160:0:0:0:0:
109,192,30892,128,0,30982:0:0:0:0:
36,192,30982,128,0,31160:0:0:0:0:
256,192,30982,128,0,31071:0:0:0:0:
329,192,31071,128,0,31339:0:0:0:0:
109,192,31071,128,0,31160:0:0:0:0:
182,192,31160,128,0,31339:0:0:0:0:
475,192,31160,128,0,31249:0:0:0:0:
256,192,31249,128,0,31517:0:0:0:0:
402,192,31249,128,0,31339:0:0:0:0:
36,192,31249,128,0,31339:0:0:0:0:
109,192,31339,128,0,31428:0:0:0:0:
36,192,31428,128,0,32053:0:0:0:0:
182,192,31428,128,0,31607:0:0:0:0:
402,192,31428,128,0,31607:0:0:0:0:
475,192,31428,128,0,31517:0:0:0:0:
329,192,31517,128,0,31607:0:0:0:0:
109,192,31607,128,0,32053:0:0:0:0:
256,192,31607,128,0,31874:0:0:0:0:
475,192,31607,128,0,31785:0:0:0:0:
402,192,31696,128,0,31785:0:0:0:0:
182,192,31785,128,0,31964:0:0:0:0:
329,192,31785,128,0,32008:0:0:0:0:
475,192,31874,128,0,31964:0:0:0:0:
256,192,31964,128,0,32142:0:0:0:0:
402,192,31964,128,0,32142:0:0:0:0:
182,192,32053,128,0,32142:0:0:0:0:
475,192,32142,128,0,32589:0:0:0:0:
329,192,32142,128,0,32410:0:0:0:0:
109,192,32142,128,0,32321:0:0:0:0:
36,192,32142,128,0,32499:0:0:0:0:
182,192,32232,128,0,32321:0:0:0:0:
402,192,32321,128,0,32678:0:0:0:0:
256,192,32321,128,0,32589:0:0:0:0:
109,192,32410,128,0,32499:0:0:0:0:
329,192,32499,128,0,32767:0:0:0:0:
182,192,32499,128,0,32857:0:0:0:0:
36,192,32589,128,0,32678:0:0:0:0:
256,192,32678,128,0,32857:0:0:0:0:
109,192,32678,128,0,32857:0:0:0:0:
475,192,32678,1,0,0:0:0:0:
402,192,32767,1,0,0:0:0:0:
329,192,32857,1,0,0:0:0:0:
36,192,32857,1,0,0:0:0:0:
475,192,32857,1,0,0:0:0:0:
402,192,32946,1,0,0:0:0:0:
182,192,32946,1,0,0:0:0:0:
256,192,32946,1,0,0:0:0:0:
329,192,33035,1,0,0:0:0:0:
109,192,33035,1,0,0:0:0:0:
36,192,33035,1,0,0:0:0:0:
256,192,33124,1,0,0:0:0:0:
475,192,33124,1,0,0:0:0:0:
182,192,33214,1,0,0:0:0:0:
402,192,33214,1,0,0:0:0:0:
36,192,33214,1,0,0:0:0:0:
109,192,33303,1,0,0:0:0:0:
329,192,33303,1,0,0:0:0:0:
402,192,33392,1,0,0:0:0:0:
256,192,33392,1,0,0:0:0:0:
475,192,33392,1,0,0:0:0:0:
182,192,33482,1,0,0:0:0:0:
109,192,33571,1,0,0:0:0:0:
36,192,33571,1,0,0:0:0:0:
256,192,33571,1,0,0:0:0:0:
329,192,33571,1,0,0:0:0:0:
475,192,33571,1,0,0:0:0:0:
402,192,33660,1,0,0:0:0:0:
329,192,33749,1,0,0:0:0:0:
109,192,33749,1,0,0:0:0:0:
256,192,33839,1,0,0:0:0:0:
475,192,33839,1,0,0:0:0:0:
402,192,33928,1,0,0:0:0:0:
182,192,33928,1,0,0:0:0:0:
36,192,33928,1,0,0:0:0:0:
329,192,34017,1,0,0:0:0:0:
109,192,34107,128,0,34241:0:0:0:0:
36,192,34107,128,0,34241:0:0:0:0:
402,192,34107,128,0,34241:0:0:0:0:
475,192,34107,128,0,34241:0:0:0:0:
256,192,34196,1,0,0:0:0:0:
402,192,34285,1,0,0:0:0:0:
475,192,34285,1,0,0:0:0:0:
109,192,34285,1,0,0:0:0:0:
36,192,34285,1,0,0:0:0:0:
182,192,34374,1,0,0:0:0:0:
256,192,34464,1,0,0:0:0:0:
402,192,34464,1,0,0:0:0:0:
36,192,34464,1,0,0:0:0:0:
109,192,34553,1,0,0:0:0:0:
329,192,34553,1,0,0:0:0:0:
475,192,34553,1,0,0:0:0:0:
182,192,34642,1,0,0:0:0:0:
402,192,34642,1,0,0:0:0:0:
256,192,34732,1,0,0:0:0:0:
36,192,34821,128,0,34955:0:0:0:0:
109,192,34821,128,0,34955:0:0:0:0:
182,192,34821,128,0,34955:0:0:0:0:
475,192,34821,128,0,34955:0:0:0:0:
329,192,34910,1,0,0:0:0:0:
475,192,34999,1,0,0:0:0:0:
182,192,34999,1,0,0:0:0:0:
109,192,34999,1,0,0:0:0:0:
36,192,34999,1,0,0:0:0:0:
402,192,35089,1,0,0:0:0:0:
256,192,35089,1,0,0:0:0:0:
109,192,35178,1,0,0:0:0:0:
475,192,35178,1,0,0:0:0:0:
182,192,35267,1,0,0:0:0:0:
402,192,35267,1,0,0:0:0:0:
256,192,35357,1,0,0:0:0:0:
36,192,35357,1,0,0:0:0:0:
329,192,35357,1,0,0:0:0:0:
475,192,35357,1,0,0:0:0:0:
109,192,35446,1,0,0:0:0:0:
36,192,35535,128,0,35669:0:0:0:0:
329,192,35535,128,0,35669:0:0:0:0:
402,192,35535,128,0,35669:0:0:0:0:
475,192,35535,128,0,35669:0:0:0:0:
182,192,35624,1,0,0:0:0:0:
36,192,35714,1,0,0:0:0:0:
329,192,35714,1,0,0:0:0:0:
402,192,35714,1,0,0:0:0:0:
475,192,35714,1,0,0:0:0:0:
256,192,35803,1,0,0:0:0:0:
109,192,35803,1,0,0:0:0:0:
182,192,35892,1,0,0:0:0:0:
402,192,35892,1,0,0:0:0:0:
109,192,35982,1,0,0:0:0:0:
329,192,35982,1,0,0:0:0:0:
256,192,36071,1,0,0:0:0:0:
475,192,36071,1,0,0:0:0:0:
36,192,36071,1,0,0:0:0:0:
182,192,36160,1,0,0:0:0:0:
402,192,36160,1,0,0:0:0:0:
329,192,36249,1,0,0:0:0:0:
109,192,36249,1,0,0:0:0:0:
182,192,36339,1,0,0:0:0:0:
36,192,36339,1,0,0:0:0:0:
475,192,36428,1,0,0:0:0:0:
256,192,36428,1,0,0:0:0:0:
109,192,36428,1,0,0:0:0:0:
402,192,36517,1,0,0:0:0:0:
182,192,36517,1,0,0:0:0:0:
36,192,36607,1,0,0:0:0:0:
109,192,36607,1,0,0:0:0:0:
256,192,36607,1,0,0:0:0:0:
402,192,36696,1,0,0:0:0:0:
109,192,36785,1,0,0:0:0:0:
182,192,36785,1,0,0:0:0:0:
329,192,36785,1,0,0:0:0:0:
475,192,36874,1,0,0:0:0:0:
36,192,36874,1,0,0:0:0:0:
182,192,36964,1,0,0:0:0:0:
256,192,36964,1,0,0:0:0:0:
402,192,36964,1,0,0:0:0:0:
109,192,37053,1,0,0:0:0:0:
256,192,37142,1,0,0:0:0:0:
329,192,37142,1,0,0:0:0:0:
475,192,37142,1,0,0:0:0:0:
36,192,37142,1,0,0:0:0:0:
109,192,37232,1,0,0:0:0:0:
402,192,37232,1,0,0:0:0:0:
182,192,37321,1,0,0:0:0:0:
475,192,37321,1,0,0:0:0:0:
256,192,37410,1,0,0:0:0:0:
36,192,37410,1,0,0:0:0:0:
329,192,37499,1,0,0:0:0:0:
109,192,37499,1,0,0:0:0:0:
402,192,37499,1,0,0:0:0:0:
256,192,37589,1,0,0:0:0:0:
36,192,37589,1,0,0:0:0:0:
475,192,37678,1,0,0:0:0:0:
182,192,37678,1,0,0:0:0:0:
402,192,37767,1,0,0:0:0:0:
109,192,37767,1,0,0:0:0:0:
329,192,37857,1,0,0:0:0:0:
36,192,37857,1,0,0:0:0:0:
256,192,37857,1,0,0:0:0:0:
109,192,37946,1,0,0:0:0:0:
402,192,37946,1,0,0:0:0:0:
182,192,38035,1,0,0:0:0:0:
475,192,38035,1,0,0:0:0:0:
256,192,38124,1,0,0:0:0:0:
36,192,38124,1,0,0:0:0:0:
329,192,38214,1,0,0:0:0:0:
109,192,38214,1,0,0:0:0:0:
402,192,38214,1,0,0:0:0:0:
256,192,38303,1,0,0:0:0:0:
36,192,38303,1,0,0:0:0:0:
182,192,38392,1,0,0:0:0:0:
475,192,38392,1,0,0:0:0:0:
109,192,38482,1,0,0:0:0:0:
402,192,38482,1,0,0:0:0:0:
36,192,38571,1,0,0:0:0:0:
256,192,38571,1,0,0:0:0:0:
329,192,38571,1,0,0:0:0:0:
182,192,39642,1,0,0:0:0:0:
36,192,39999,1,0,0:0:0:0:
329,192,39999,1,0,0:0:0:0:
182,192,40357,1,0,0:0:0:0:
109,192,40714,1,0,0:0:0:0:
402,192,40714,1,0,0:0:0:0:
182,192,41249,1,0,0:0:0:0:
36,192,41428,1,0,0:0:0:0:
475,192,41428,1,0,0:0:0:0:
109,192,43571,1,0,0:0:0:0:
475,192,43571,1,0,0:0:0:0:
256,192,43928,1,0,0:0:0:0:
402,192,44285,1,0,0:0:0:0:
36,192,44285,1,0,0:0:0:0:
402,192,45357,1,0,0:0:0:0:
402,192,45714,1,0,0:0:0:0:
182,192,45714,1,0,0:0:0:0:
256,192,46071,1,0,0:0:0:0:
256,192,46428,1,0,0:0:0:0:
109,192,46964,1,0,0:0:0:0:
256,192,47142,1,0,0:0:0:0:
36,192,47142,1,0,0:0:0:0:
475,192,47142,1,0,0:0:0:0:
109,192,47499,1,0,0:0:0:0:
36,192,47857,1,0,0:0:0:0:
182,192,48214,1,0,0:0:0:0:
329,192,48571,1,0,0:0:0:0:
36,192,48571,1,0,0:0:0:0:
256,192,49642,1,0,0:0:0:0:
36,192,49999,1,0,0:0:0:0:
182,192,49999,1,0,0:0:0:0:
329,192,49999,1,0,0:0:0:0:
475,192,49999,1,0,0:0:0:0:
329,192,51071,1,0,0:0:0:0:
475,192,51428,1,0,0:0:0:0:
329,192,51785,1,0,0:0:0:0:
329,192,52142,1,0,0:0:0:0:
109,192,52142,1,0,0:0:0:0:
256,192,52499,1,0,0:0:0:0:
36,192,52857,1,0,0:0:0:0:
182,192,52857,1,0,0:0:0:0:
256,192,53392,1,0,0:0:0:0:
475,192,53928,1,0,0:0:0:0:
329,192,54107,1,0,0:0:0:0:
182,192,54999,1,0,0:0:0:0:
256,192,55357,1,0,0:0:0:0:
329,192,55714,1,0,0:0:0:0:
475,192,55714,1,0,0:0:0:0:
182,192,56071,1,0,0:0:0:0:
36,192,56249,1,0,0:0:0:0:
329,192,56249,1,0,0:0:0:0:
109,192,57499,1,0,0:0:0:0:
402,192,57857,1,0,0:0:0:0:
256,192,58392,1,0,0:0:0:0:
182,192,58571,128,0,59107:0:0:0:0:
256,192,58571,1,0,0:0:0:0:
402,192,58660,1,0,0:0:0:0:
475,192,58660,1,0,0:0:0:0:
36,192,58660,1,0,0:0:0:0:
109,192,58660,1,0,0:0:0:0:
329,192,58660,1,0,0:0:0:0:
256,192,58749,128,0,59642:0:0:0:0:
475,192,58839,1,0,0:0:0:0:
109,192,58839,1,0,0:0:0:0:
36,192,58839,1,0,0:0:0:0:
402,192,58839,1,0,0:0:0:0:
329,192,58928,128,0,59464:0:0:0:0:
475,192,59017,1,0,0:0:0:0:
109,192,59017,1,0,0:0:0:0:
36,192,59017,1,0,0:0:0:0:
402,192,59107,128,0,59285:0:0:0:0:
182,192,59196,1,0,0:0:0:0:
109,192,59196,1,0,0:0:0:0:
36,192,59196,1,0,0:0:0:0:
475,192,59285,128,0,59642:0:0:0:0:
109,192,59374,1,0,0:0:0:0:
182,192,59374,1,0,0:0:0:0:
402,192,59374,1,0,0:0:0:0:
36,192,59464,128,0,59821:0:0:0:0:
402,192,59553,1,0,0:0:0:0:
182,192,59553,1,0,0:0:0:0:
329,192,59553,1,0,0:0:0:0:
109,192,59642,128,0,59999:0:0:0:0:
256,192,59732,1,0,0:0:0:0:
475,192,59732,1,0,0:0:0:0:
402,192,59732,1,0,0:0:0:0:
182,192,59821,128,0,60178:0:0:0:0:
329,192,59821,1,0,0:0:0:0:
36,192,59910,1,0,0:0:0:0:
475,192,59910,1,0,0:0:0:0:
256,192,59910,1,0,0:0:0:0:
402,192,59910,1,0,0:0:0:0:
475,192,59999,128,0,61071:0:0:0:0:
256,192,60089,1,0,0:0:0:0:
329,192,60089,1,0,0:0:0:0:
109,192,60089,1,0,0:0:0:0:
36,192,60089,1,0,0:0:0:0:
402,192,60178,128,0,60892:0:0:0:0:
256,192,60267,1,0,0:0:0:0:
182,192,60267,1,0,0:0:0:0:
109,192,60267,1,0,0:0:0:0:
36,192,60267,1,0,0:0:0:0:
329,192,60357,128,0,60535:0:0:0:0:
182,192,60446,1,0,0:0:0:0:
36,192,60446,1,0,0:0:0:0:
256,192,60446,1,0,0:0:0:0:
109,192,60535,128,0,60892:0:0:0:0:
256,192,60624,1,0,0:0:0:0:
329,192,60624,1,0,0:0:0:0:
182,192,60624,1,0,0:0:0:0:
36,192,60714,128,0,61071:0:0:0:0:
256,192,60803,1,0,0:0:0:0:
182,192,60803,1,0,0:0:0:0:
329,192,60892,128,0,61339:0:0:0:0:
182,192,60982,1,0,0:0:0:0:
109,192,60982,1,0,0:0:0:0:
402,192,60982,1,0,0:0:0:0:
256,192,61071,128,0,61339:0:0:0:0:
109,192,61160,1,0,0:0:0:0:
36,192,61160,1,0,0:0:0:0:
475,192,61160,1,0,0:0:0:0:
402,192,61160,1,0,0:0:0:0:
182,192,61249,128,0,61339:0:0:0:0:
402,192,61339,1,0,0:0:0:0:
475,192,61339,1,0,0:0:0:0:
109,192,61339,1,0,0:0:0:0:
36,192,61428,128,0,61964:0:0:0:0:
256,192,61428,128,0,61517:0:0:0:0:
329,192,61428,128,0,61517:0:0:0:0:
402,192,61517,1,0,0:0:0:0:
475,192,61517,1,0,0:0:0:0:
182,192,61517,1,0,0:0:0:0:
109,192,61607,128,0,61785:0:0:0:0:
256,192,61696,1,0,0:0:0:0:
329,192,61696,1,0,0:0:0:0:
402,192,61696,1,0,0:0:0:0:
475,192,61696,1,0,0:0:0:0:
182,192,61785,128,0,62053:0:0:0:0:
109,192,61874,1,0,0:0:0:0:
329,192,61874,1,0,0:0:0:0:
402,192,61874,1,0,0:0:0:0:
475,192,61874,1,0,0:0:0:0:
256,192,61964,128,0,62053:0:0:0:0:
36,192,62053,1,0,0:0:0:0:
109,192,62053,1,0,0:0:0:0:
329,192,62053,1,0,0:0:0:0:
402,192,62053,1,0,0:0:0:0:
475,192,62142,128,0,62767:0:0:0:0:
182,192,62142,128,0,62321:0:0:0:0:
256,192,62142,128,0,62499:0:0:0:0:
109,192,62232,1,0,0:0:0:0:
329,192,62232,1,0,0:0:0:0:
402,192,62232,1,0,0:0:0:0:
36,192,62321,128,0,62767:0:0:0:0:
182,192,62410,1,0,0:0:0:0:
109,192,62410,1,0,0:0:0:0:
329,192,62410,1,0,0:0:0:0:
402,192,62499,128,0,62767:0:0:0:0:
182,192,62589,1,0,0:0:0:0:
256,192,62589,1,0,0:0:0:0:
329,192,62589,1,0,0:0:0:0:
109,192,62678,128,0,62767:0:0:0:0:
329,192,62767,1,0,0:0:0:0:
182,192,62857,128,0,63035:0:0:0:0:
256,192,62857,1,0,0:0:0:0:
36,192,62857,1,0,0:0:0:0:
402,192,62857,1,0,0:0:0:0:
475,192,62857,1,0,0:0:0:0:
109,192,62946,128,0,63124:0:0:0:0:
36,192,63035,128,0,63214:0:0:0:0:
475,192,63035,1,0,0:0:0:0:
402,192,63035,1,0,0:0:0:0:
329,192,63124,128,0,63303:0:0:0:0:
256,192,63214,1,0,0:0:0:0:
402,192,63214,128,0,63392:0:0:0:0:
109,192,63214,1,0,0:0:0:0:
182,192,63214,1,0,0:0:0:0:
475,192,63303,128,0,63482:0:0:0:0:
256,192,63392,128,0,63571:0:0:0:0:
109,192,63392,1,0,0:0:0:0:
36,192,63392,1,0,0:0:0:0:
182,192,63482,128,0,63660:0:0:0:0:
109,192,63571,128,0,63749:0:0:0:0:
329,192,63571,1,0,0:0:0:0:
402,192,63571,1,0,0:0:0:0:
475,192,63571,1,0,0:0:0:0:
36,192,63660,128,0,63839:0:0:0:0:
256,192,63660,1,0,0:0:0:0:
182,192,63749,1,0,0:0:0:0:
402,192,63749,128,0,63839:0:0:0:0:
475,192,63839,128,0,64017:0:0:0:0:
329,192,63839,1,0,0:0:0:0:
109,192,63928,1,0,0:0:0:0:
182,192,63928,1,0,0:0:0:0:
256,192,63928,1,0,0:0:0:0:
402,192,63928,128,0,64107:0:0:0:0:
36,192,64017,1,0,0:0:0:0:
329,192,64017,128,0,64196:0:0:0:0:
256,192,64107,128,0,64285:0:0:0:0:
475,192,64107,1,0,0:0:0:0:
182,192,64107,1,0,0:0:0:0:
402,192,64196,1,0,0:0:0:0:
109,192,64196,1,0,0:0:0:0:
329,192,64285,1,0,0:0:0:0:
36,192,64285,1,0,0:0:0:0:
475,192,64285,1,0,0:0:0:0:
109,192,64374,1,0,0:0:0:0:
402,192,64374,1,0,0:0:0:0:
182,192,64464,1,0,0:0:0:0:
256,192,64464,1,0,0:0:0:0:
475,192,64464,1,0,0:0:0:0:
329,192,64553,1,0,0:0:0:0:
109,192,64553,1,0,0:0:0:0:
256,192,64642,1,0,0:0:0:0:
402,192,64642,1,0,0:0:0:0:
475,192,64642,1,0,0:0:0:0:
36,192,64642,1,0,0:0:0:0:
329,192,64732,1,0,0:0:0:0:
109,192,64732,1,0,0:0:0:0:
36,192,64821,1,0,0:0:0:0:
402,192,64821,1,0,0:0:0:0:
182,192,64821,1,0,0:0:0:0:
475,192,64821,1,0,0:0:0:0:
256,192,64910,1,0,0:0:0:0:
109,192,64910,1,0,0:0:0:0:
475,192,64999,1,0,0:0:0:0:
36,192,64999,1,0,0:0:0:0:
329,192,64999,1,0,0:0:0:0:
182,192,64999,1,0,0:0:0:0:
402,192,65089,1,0,0:0:0:0:
256,192,65089,1,0,0:0:0:0:
182,192,65178,1,0,0:0:0:0:
329,192,65178,1,0,0:0:0:0:
109,192,65178,1,0,0:0:0:0:
36,192,65178,1,0,0:0:0:0:
256,192,65267,1,0,0:0:0:0:
475,192,65267,1,0,0:0:0:0:
182,192,65357,1,0,0:0:0:0:
36,192,65357,1,0,0:0:0:0:
402,192,65357,128,0,65446:0:0:0:0:
109,192,65446,1,0,0:0:0:0:
329,192,65446,128,0,65535:0:0:0:0:
182,192,65535,1,0,0:0:0:0:
402,192,65535,1,0,0:0:0:0:
475,192,65535,1,0,0:0:0:0:
256,192,65535,128,0,65624:0:0:0:0:
36,192,65714,1,0,0:0:0:0:
109,192,65714,1,0,0:0:0:0:
256,192,65714,1,0,0:0:0:0:
329,192,65714,1,0,0:0:0:0:
475,192,65803,1,0,0:0:0:0:
182,192,65803,1,0,0:0:0:0:
402,192,65892,1,0,0:0:0:0:
109,192,65892,1,0,0:0:0:0:
329,192,65982,1,0,0:0:0:0:
36,192,65982,1,0,0:0:0:0:
109,192,66071,1,0,0:0:0:0:
256,192,66071,1,0,0:0:0:0:
475,192,66071,1,0,0:0:0:0:
182,192,66160,1,0,0:0:0:0:
402,192,66160,1,0,0:0:0:0:
36,192,66249,1,0,0:0:0:0:
256,192,66249,1,0,0:0:0:0:
475,192,66249,1,0,0:0:0:0:
256,192,66339,1,0,0:0:0:0:
109,192,66339,1,0,0:0:0:0:
329,192,66383,1,0,0:0:0:0:
402,192,66428,1,0,0:0:0:0:
475,192,66428,1,0,0:0:0:0:
182,192,66428,1,0,0:0:0:0:
36,192,66517,1,0,0:0:0:0:
256,192,66517,1,0,0:0:0:0:
109,192,66607,1,0,0:0:0:0:
329,192,66607,1,0,0:0:0:0:
475,192,66607,1,0,0:0:0:0:
402,192,66696,1,0,0:0:0:0:
182,192,66696,1,0,0:0:0:0:
109,192,66785,1,0,0:0:0:0:
329,192,66785,1,0,0:0:0:0:
36,192,66785,1,0,0:0:0:0:
475,192,66785,1,0,0:0:0:0:
402,192,66874,1,0,0:0:0:0:
182,192,66874,1,0,0:0:0:0:
109,192,66964,1,0,0:0:0:0:
256,192,66964,128,0,67053:0:0:0:0:
329,192,66964,128,0,67053:0:0:0:0:
475,192,66964,1,0,0:0:0:0:
36,192,67053,1,0,0:0:0:0:
182,192,67053,1,0,0:0:0:0:
109,192,67142,1,0,0:0:0:0:
329,192,67142,1,0,0:0:0:0:
256,192,67142,1,0,0:0:0:0:
475,192,67142,1,0,0:0:0:0:
182,192,67232,1,0,0:0:0:0:
402,192,67232,1,0,0:0:0:0:
329,192,67321,1,0,0:0:0:0:
109,192,67321,1,0,0:0:0:0:
475,192,67321,1,0,0:0:0:0:
36,192,67410,1,0,0:0:0:0:
256,192,67410,1,0,0:0:0:0:
402,192,67499,1,0,0:0:0:0:
329,192,67499,1,0,0:0:0:0:
109,192,67499,1,0,0:0:0:0:
256,192,67589,1,0,0:0:0:0:
475,192,67589,1,0,0:0:0:0:
182,192,67678,1,0,0:0:0:0:
36,192,67678,128,0,67767:0:0:0:0:
329,192,67678,1,0,0:0:0:0:
256,192,67767,1,0,0:0:0:0:
109,192,67767,1,0,0:0:0:0:
475,192,67857,128,0,67946:0:0:0:0:
36,192,67857,1,0,0:0:0:0:
182,192,67857,1,0,0:0:0:0:
402,192,67857,1,0,0:0:0:0:
329,192,67857,1,0,0:0:0:0:
256,192,67946,1,0,0:0:0:0:
109,192,67946,1,0,0:0:0:0:
475,192,68035,1,0,0:0:0:0:
182,192,68035,1,0,0:0:0:0:
36,192,68035,1,0,0:0:0:0:
329,192,68124,128,0,68214:0:0:0:0:
109,192,68124,1,0,0:0:0:0:
256,192,68124,1,0,0:0:0:0:
402,192,68214,1,0,0:0:0:0:
475,192,68214,1,0,0:0:0:0:
182,192,68214,1,0,0:0:0:0:
36,192,68214,1,0,0:0:0:0:
329,192,68303,1,0,0:0:0:0:
109,192,68303,1,0,0:0:0:0:
182,192,68392,128,0,68482:0:0:0:0:
402,192,68392,1,0,0:0:0:0:
256,192,68392,1,0,0:0:0:0:
329,192,68482,1,0,0:0:0:0:
109,192,68482,1,0,0:0:0:0:
36,192,68571,1,0,0:0:0:0:
182,192,68571,1,0,0:0:0:0:
402,192,68571,1,0,0:0:0:0:
475,192,68571,1,0,0:0:0:0:
109,192,68660,1,0,0:0:0:0:
329,192,68660,1,0,0:0:0:0:
256,192,68749,1,0,0:0:0:0:
182,192,68749,1,0,0:0:0:0:
475,192,68749,1,0,0:0:0:0:
402,192,68839,1,0,0:0:0:0:
109,192,68839,1,0,0:0:0:0:
36,192,68928,1,0,0:0:0:0:
329,192,68928,1,0,0:0:0:0:
475,192,68928,1,0,0:0:0:0:
256,192,68928,1,0,0:0:0:0:
109,192,69017,1,0,0:0:0:0:
402,192,69017,1,0,0:0:0:0:
329,192,69107,1,0,0:0:0:0:
182,192,69107,1,0,0:0:0:0:
36,192,69107,1,0,0:0:0:0:
109,192,69196,1,0,0:0:0:0:
475,192,69196,1,0,0:0:0:0:
402,192,69285,1,0,0:0:0:0:
182,192,69285,1,0,0:0:0:0:
256,192,69285,1,0,0:0:0:0:
36,192,69285,1,0,0:0:0:0:
109,192,69374,1,0,0:0:0:0:
475,192,69374,1,0,0:0:0:0:
182,192,69464,1,0,0:0:0:0:
402,192,69464,1,0,0:0:0:0:
256,192,69464,1,0,0:0:0:0:
329,192,69553,1,0,0:0:0:0:
36,192,69553,1,0,0:0:0:0:
256,192,69642,1,0,0:0:0:0:
475,192,69642,1,0,0:0:0:0:
402,192,69642,128,0,69732:0:0:0:0:
109,192,69642,1,0,0:0:0:0:
36,192,69732,1,0,0:0:0:0:
329,192,69732,128,0,69821:0:0:0:0:
256,192,69821,128,0,69910:0:0:0:0:
475,192,69821,1,0,0:0:0:0:
182,192,69821,1,0,0:0:0:0:
402,192,69910,1,0,0:0:0:0:
109,192,69910,1,0,0:0:0:0:
256,192,69999,1,0,0:0:0:0:
36,192,69999,1,0,0:0:0:0:
182,192,69999,1,0,0:0:0:0:
475,192,69999,1,0,0:0:0:0:
329,192,70089,1,0,0:0:0:0:
109,192,70089,1,0,0:0:0:0:
182,192,70178,1,0,0:0:0:0:
402,192,70178,1,0,0:0:0:0:
256,192,70178,1,0,0:0:0:0:
36,192,70267,1,0,0:0:0:0:
329,192,70267,1,0,0:0:0:0:
109,192,70357,1,0,0:0:0:0:
475,192,70357,1,0,0:0:0:0:
256,192,70357,1,0,0:0:0:0:
402,192,70357,1,0,0:0:0:0:
329,192,70446,1,0,0:0:0:0:
182,192,70446,1,0,0:0:0:0:
36,192,70535,1,0,0:0:0:0:
256,192,70535,1,0,0:0:0:0:
475,192,70535,1,0,0:0:0:0:
109,192,70624,1,0,0:0:0:0:
329,192,70624,1,0,0:0:0:0:
182,192,70714,1,0,0:0:0:0:
475,192,70714,1,0,0:0:0:0:
402,192,70714,1,0,0:0:0:0:
36,192,70714,1,0,0:0:0:0:
329,192,70803,1,0,0:0:0:0:
109,192,70803,1,0,0:0:0:0:
256,192,70892,1,0,0:0:0:0:
36,192,70892,1,0,0:0:0:0:
475,192,70892,1,0,0:0:0:0:
182,192,70982,1,0,0:0:0:0:
402,192,70982,1,0,0:0:0:0:
475,192,71071,128,0,71160:0:0:0:0:
256,192,71071,128,0,71160:0:0:0:0:
109,192,71071,1,0,0:0:0:0:
329,192,71071,1,0,0:0:0:0:
402,192,71160,128,0,71249:0:0:0:0:
182,192,71160,128,0,71249:0:0:0:0:
36,192,71160,1,0,0:0:0:0:
329,192,71249,128,0,71339:0:0:0:0:
109,192,71249,128,0,71339:0:0:0:0:
475,192,71249,1,0,0:0:0:0:
256,192,71339,128,0,71428:0:0:0:0:
36,192,71339,128,0,71428:0:0:0:0:
402,192,71339,1,0,0:0:0:0:
182,192,71339,1,0,0:0:0:0:
329,192,71428,1,0,0:0:0:0:
109,192,71428,1,0,0:0:0:0:
475,192,71428,1,0,0:0:0:0:
36,192,71517,1,0,0:0:0:0:
256,192,71517,1,0,0:0:0:0:
109,192,71607,1,0,0:0:0:0:
475,192,71607,1,0,0:0:0:0:
329,192,71607,1,0,0:0:0:0:
402,192,71696,1,0,0:0:0:0:
182,192,71696,1,0,0:0:0:0:
36,192,71785,1,0,0:0:0:0:
475,192,71785,1,0,0:0:0:0:
109,192,71785,1,0,0:0:0:0:
329,192,71785,1,0,0:0:0:0:
182,192,71874,1,0,0:0:0:0:
402,192,71874,1,0,0:0:0:0:
256,192,71964,1,0,0:0:0:0:
475,192,71964,1,0,0:0:0:0:
36,192,71964,1,0,0:0:0:0:
109,192,72053,1,0,0:0:0:0:
329,192,72053,1,0,0:0:0:0:
182,192,72098,1,0,0:0:0:0:
402,192,72098,1,0,0:0:0:0:
256,192,72142,1,0,0:0:0:0:
475,192,72142,1,0,0:0:0:0:
36,192,72142,1,0,0:0:0:0:
109,192,72142,1,0,0:0:0:0:
182,192,72232,1,0,0:0:0:0:
402,192,72232,1,0,0:0:0:0:
329,192,72321,1,0,0:0:0:0:
475,192,72321,1,0,0:0:0:0:
36,192,72321,1,0,0:0:0:0:
256,192,72321,1,0,0:0:0:0:
109,192,72410,1,0,0:0:0:0:
402,192,72410,1,0,0:0:0:0:
182,192,72499,1,0,0:0:0:0:
475,192,72499,1,0,0:0:0:0:
36,192,72499,1,0,0:0:0:0:
329,192,72499,1,0,0:0:0:0:
256,192,72678,1,0,0:0:0:0:
36,192,72857,1,0,0:0:0:0:
182,192,72857,1,0,0:0:0:0:
475,192,72857,1,0,0:0:0:0:
329,192,72857,1,0,0:0:0:0:
109,192,72946,1,0,0:0:0:0:
256,192,72946,1,0,0:0:0:0:
182,192,73035,1,0,0:0:0:0:
329,192,73035,1,0,0:0:0:0:
256,192,73124,1,0,0:0:0:0:
402,192,73124,1,0,0:0:0:0:
36,192,73214,1,0,0:0:0:0:
329,192,73214,1,0,0:0:0:0:
475,192,73214,1,0,0:0:0:0:
109,192,73214,1,0,0:0:0:0:
182,192,73303,1,0,0:0:0:0:
402,192,73303,1,0,0:0:0:0:
475,192,73392,1,0,0:0:0:0:
256,192,73392,1,0,0:0:0:0:
36,192,73392,1,0,0:0:0:0:
329,192,73482,1,0,0:0:0:0:
109,192,73482,1,0,0:0:0:0:
402,192,73571,128,0,73660:0:0:0:0:
475,192,73571,128,0,73660:0:0:0:0:
256,192,73571,128,0,73660:0:0:0:0:
36,192,73571,1,0,0:0:0:0:
182,192,73571,1,0,0:0:0:0:
329,192,73660,1,0,0:0:0:0:
109,192,73660,1,0,0:0:0:0:
256,192,73749,1,0,0:0:0:0:
329,192,73839,128,0,73928:0:0:0:0:
402,192,73839,128,0,73928:0:0:0:0:
182,192,73839,128,0,73928:0:0:0:0:
36,192,73839,1,0,0:0:0:0:
475,192,73839,1,0,0:0:0:0:
109,192,73928,1,0,0:0:0:0:
256,192,73928,1,0,0:0:0:0:
182,192,74017,1,0,0:0:0:0:
109,192,74107,128,0,74196:0:0:0:0:
256,192,74107,128,0,74196:0:0:0:0:
329,192,74107,128,0,74196:0:0:0:0:
475,192,74107,1,0,0:0:0:0:
402,192,74196,1,0,0:0:0:0:
182,192,74196,1,0,0:0:0:0:
36,192,74285,128,0,74374:0:0:0:0:
109,192,74285,128,0,74374:0:0:0:0:
256,192,74285,128,0,74374:0:0:0:0:
329,192,74285,128,0,74374:0:0:0:0:
475,192,74285,1,0,0:0:0:0:
182,192,74374,1,0,0:0:0:0:
402,192,74374,1,0,0:0:0:0:
329,192,74464,1,0,0:0:0:0:
256,192,74553,128,0,74642:0:0:0:0:
182,192,74553,128,0,74642:0:0:0:0:
402,192,74553,128,0,74642:0:0:0:0:
475,192,74553,128,0,74642:0:0:0:0:
36,192,74553,1,0,0:0:0:0:
109,192,74642,1,0,0:0:0:0:
329,192,74642,1,0,0:0:0:0:
256,192,74732,1,0,0:0:0:0:
402,192,74821,128,0,74910:0:0:0:0:
329,192,74821,128,0,74910:0:0:0:0:
182,192,74821,128,0,74910:0:0:0:0:
109,192,74821,128,0,74910:0:0:0:0:
475,192,74821,1,0,0:0:0:0:
36,192,74910,1,0,0:0:0:0:
182,192,74999,128,0,75089:0:0:0:0:
256,192,74999,128,0,75089:0:0:0:0:
402,192,74999,128,0,75089:0:0:0:0:
329,192,74999,1,0,0:0:0:0:
109,192,74999,1,0,0:0:0:0:
475,192,75089,1,0,0:0:0:0:
256,192,75178,1,0,0:0:0:0:
109,192,75267,128,0,75357:0:0:0:0:
182,192,75267,128,0,75357:0:0:0:0:
329,192,75267,128,0,75357:0:0:0:0:
36,192,75267,1,0,0:0:0:0:
475,192,75267,1,0,0:0:0:0:
256,192,75357,1,0,0:0:0:0:
402,192,75357,1,0,0:0:0:0:
182,192,75446,1,0,0:0:0:0:
36,192,75535,128,0,75624:0:0:0:0:
256,192,75535,128,0,75624:0:0:0:0:
109,192,75535,128,0,75624:0:0:0:0:
329,192,75535,1,0,0:0:0:0:
475,192,75535,1,0,0:0:0:0:
182,192,75624,1,0,0:0:0:0:
402,192,75714,128,0,75803:0:0:0:0:
256,192,75714,1,0,0:0:0:0:
109,192,75714,128,0,75803:0:0:0:0:
329,192,75714,128,0,75803:0:0:0:0:
36,192,75714,128,0,75803:0:0:0:0:
182,192,75803,128,0,75892:0:0:0:0:
475,192,75803,128,0,75892:0:0:0:0:
256,192,75892,128,0,75982:0:0:0:0:
36,192,75892,128,0,75982:0:0:0:0:
402,192,75892,128,0,75982:0:0:0:0:
109,192,75982,128,0,76071:0:0:0:0:
329,192,75982,128,0,76071:0:0:0:0:
475,192,76071,128,0,76160:0:0:0:0:
256,192,76071,128,0,76160:0:0:0:0:
182,192,76071,128,0,76160:0:0:0:0:
109,192,76160,128,0,76249:0:0:0:0:
402,192,76160,128,0,76249:0:0:0:0:
329,192,76249,128,0,76339:0:0:0:0:
36,192,76249,128,0,76339:0:0:0:0:
256,192,76249,128,0,76339:0:0:0:0:
182,192,76339,128,0,76428:0:0:0:0:
475,192,76339,128,0,76428:0:0:0:0:
402,192,76428,128,0,76517:0:0:0:0:
109,192,76428,128,0,76517:0:0:0:0:
36,192,76428,128,0,76517:0:0:0:0:
256,192,76428,128,0,76517:0:0:0:0:
182,192,76517,128,0,76607:0:0:0:0:
329,192,76517,128,0,76607:0:0:0:0:
475,192,76607,128,0,76696:0:0:0:0:
256,192,76607,128,0,76696:0:0:0:0:
36,192,76607,128,0,76696:0:0:0:0:
109,192,76696,128,0,76785:0:0:0:0:
329,192,76696,128,0,76785:0:0:0:0:
182,192,76785,128,0,76874:0:0:0:0:
36,192,76785,128,0,76874:0:0:0:0:
402,192,76785,128,0,76874:0:0:0:0:
256,192,76874,128,0,76964:0:0:0:0:
475,192,76874,128,0,76964:0:0:0:0:
402,192,76964,128,0,77053:0:0:0:0:
182,192,76964,128,0,77053:0:0:0:0:
109,192,77053,128,0,77142:0:0:0:0:
329,192,77053,128,0,77142:0:0:0:0:
36,192,77142,128,0,77232:0:0:0:0:
256,192,77142,128,0,77232:0:0:0:0:
402,192,77142,1,0,0:0:0:0:
475,192,77142,1,0,0:0:0:0:
329,192,77232,128,0,77321:0:0:0:0:
109,192,77232,128,0,77321:0:0:0:0:
182,192,77321,128,0,77410:0:0:0:0:
475,192,77321,128,0,77410:0:0:0:0:
256,192,77321,128,0,77410:0:0:0:0:
402,192,77410,128,0,77499:0:0:0:0:
36,192,77410,128,0,77499:0:0:0:0:
329,192,77499,1,0,0:0:0:0:
256,192,77499,1,0,0:0:0:0:
475,192,77499,128,0,77589:0:0:0:0:
109,192,77499,128,0,77589:0:0:0:0:
402,192,77589,128,0,77678:0:0:0:0:
182,192,77589,128,0,77678:0:0:0:0:
329,192,77678,128,0,77767:0:0:0:0:
109,192,77678,128,0,77767:0:0:0:0:
475,192,77678,128,0,77767:0:0:0:0:
256,192,77767,1,0,0:0:0:0:
36,192,77767,128,0,77857:0:0:0:0:
402,192,77767,128,0,77857:0:0:0:0:
182,192,77812,1,0,0:0:0:0:
109,192,77857,1,0,0:0:0:0:
475,192,77857,128,0,77946:0:0:0:0:
329,192,77857,128,0,77946:0:0:0:0:
36,192,77946,128,0,78035:0:0:0:0:
256,192,77946,128,0,78035:0:0:0:0:
182,192,77946,128,0,78035:0:0:0:0:
109,192,78035,128,0,78124:0:0:0:0:
402,192,78035,128,0,78124:0:0:0:0:
475,192,78124,128,0,78214:0:0:0:0:
182,192,78124,1,0,0:0:0:0:
256,192,78124,1,0,0:0:0:0:
329,192,78124,128,0,78214:0:0:0:0:
402,192,78214,128,0,78303:0:0:0:0:
36,192,78214,128,0,78303:0:0:0:0:
109,192,78214,128,0,78303:0:0:0:0:
329,192,78303,128,0,78392:0:0:0:0:
182,192,78303,128,0,78392:0:0:0:0:
109,192,78392,1,0,0:0:0:0:
36,192,78392,1,0,0:0:0:0:
256,192,78392,128,0,78482:0:0:0:0:
475,192,78392,128,0,78482:0:0:0:0:
182,192,78482,128,0,78571:0:0:0:0:
402,192,78482,128,0,78571:0:0:0:0:
329,192,78571,1,0,0:0:0:0:
36,192,78571,128,0,78660:0:0:0:0:
475,192,78571,1,0,0:0:0:0:
256,192,78571,128,0,78660:0:0:0:0:
109,192,78660,128,0,78749:0:0:0:0:
402,192,78660,128,0,78749:0:0:0:0:
182,192,78749,128,0,78839:0:0:0:0:
329,192,78749,128,0,78839:0:0:0:0:
256,192,78839,128,0,78928:0:0:0:0:
475,192,78839,128,0,78928:0:0:0:0:
36,192,78839,128,0,78928:0:0:0:0:
402,192,78928,128,0,79017:0:0:0:0:
109,192,78928,128,0,79017:0:0:0:0:
329,192,79017,128,0,79107:0:0:0:0:
182,192,79017,128,0,79107:0:0:0:0:
109,192,79107,1,0,0:0:0:0:
256,192,79107,1,0,0:0:0:0:
402,192,79107,1,0,0:0:0:0:
36,192,79107,128,0,79196:0:0:0:0:
475,192,79107,128,0,79196:0:0:0:0:
182,192,79196,128,0,79285:0:0:0:0:
329,192,79196,128,0,79285:0:0:0:0:
109,192,79285,128,0,79374:0:0:0:0:
402,192,79285,128,0,79374:0:0:0:0:
36,192,79374,128,0,79464:0:0:0:0:
256,192,79374,128,0,79464:0:0:0:0:
475,192,79464,128,0,79553:0:0:0:0:
182,192,79464,128,0,79553:0:0:0:0:
329,192,79464,128,0,79553:0:0:0:0:
109,192,79553,128,0,79642:0:0:0:0:
256,192,79553,128,0,79642:0:0:0:0:
36,192,79642,1,0,0:0:0:0:
182,192,79642,1,0,0:0:0:0:
402,192,79642,128,0,79732:0:0:0:0:
475,192,79642,128,0,79732:0:0:0:0:
329,192,79732,128,0,79821:0:0:0:0:
109,192,79732,128,0,79821:0:0:0:0:
256,192,79821,1,0,0:0:0:0:
402,192,79821,1,0,0:0:0:0:
475,192,79821,128,0,79910:0:0:0:0:
182,192,79821,128,0,79910:0:0:0:0:
329,192,79910,128,0,79999:0:0:0:0:
36,192,79910,128,0,79999:0:0:0:0:
109,192,79999,128,0,80089:0:0:0:0:
402,192,79999,128,0,80089:0:0:0:0:
475,192,79999,128,0,80089:0:0:0:0:
182,192,80089,128,0,80178:0:0:0:0:
329,192,80089,128,0,80178:0:0:0:0:
402,192,80178,128,0,80267:0:0:0:0:
36,192,80178,128,0,80267:0:0:0:0:
256,192,80178,128,0,80267:0:0:0:0:
109,192,80267,128,0,80357:0:0:0:0:
475,192,80267,128,0,80357:0:0:0:0:
182,192,80357,128,0,80446:0:0:0:0:
329,192,80357,128,0,80446:0:0:0:0:
36,192,80357,128,0,80446:0:0:0:0:
256,192,80446,128,0,80535:0:0:0:0:
402,192,80446,128,0,80535:0:0:0:0:
36,192,80535,1,0,0:0:0:0:
109,192,80535,128,0,80624:0:0:0:0:
329,192,80535,128,0,80624:0:0:0:0:
475,192,80535,128,0,80624:0:0:0:0:
182,192,80624,1,0,0:0:0:0:
256,192,80624,128,0,80714:0:0:0:0:
329,192,80714,1,0,0:0:0:0:
402,192,80714,128,0,80803:0:0:0:0:
36,192,80714,1,0,0:0:0:0:
109,192,80714,128,0,80803:0:0:0:0:
475,192,80714,128,0,80803:0:0:0:0:
182,192,80803,128,0,80892:0:0:0:0:
256,192,80803,128,0,80892:0:0:0:0:
475,192,80892,128,0,80982:0:0:0:0:
36,192,80892,128,0,80982:0:0:0:0:
329,192,80892,128,0,80982:0:0:0:0:
109,192,80982,1,0,0:0:0:0:
402,192,80982,1,0,0:0:0:0:
182,192,80982,128,0,81071:0:0:0:0:
475,192,81071,128,0,81160:0:0:0:0:
36,192,81071,128,0,81160:0:0:0:0:
329,192,81071,128,0,81160:0:0:0:0:
402,192,81160,128,0,81249:0:0:0:0:
256,192,81160,128,0,81249:0:0:0:0:
109,192,81160,128,0,81249:0:0:0:0:
182,192,81249,1,0,0:0:0:0:
475,192,81249,1,0,0:0:0:0:
329,192,81249,128,0,81339:0:0:0:0:
256,192,81339,128,0,81428:0:0:0:0:
109,192,81428,128,0,81517:0:0:0:0:
475,192,81428,128,0,81517:0:0:0:0:
36,192,81428,1,0,0:0:0:0:
182,192,81428,1,0,0:0:0:0:
402,192,81428,1,0,0:0:0:0:
329,192,81517,128,0,81607:0:0:0:0:
256,192,81517,128,0,81607:0:0:0:0:
402,192,81607,128,0,81696:0:0:0:0:
36,192,81607,128,0,81696:0:0:0:0:
475,192,81696,128,0,81785:0:0:0:0:
182,192,81696,128,0,81785:0:0:0:0:
329,192,81785,1,0,0:0:0:0:
402,192,81785,1,0,0:0:0:0:
256,192,81785,128,0,81874:0:0:0:0:
109,192,81785,128,0,81874:0:0:0:0:
475,192,81874,128,0,81964:0:0:0:0:
36,192,81874,128,0,81964:0:0:0:0:
182,192,81964,1,0,0:0:0:0:
256,192,81964,1,0,0:0:0:0:
402,192,81964,128,0,82053:0:0:0:0:
109,192,81964,128,0,82053:0:0:0:0:
329,192,82053,128,0,82142:0:0:0:0:
36,192,82053,128,0,82142:0:0:0:0:
256,192,82142,128,0,82232:0:0:0:0:
475,192,82142,128,0,82232:0:0:0:0:
109,192,82142,128,0,82232:0:0:0:0:
402,192,82232,128,0,82321:0:0:0:0:
182,192,82232,128,0,82321:0:0:0:0:
329,192,82321,128,0,82410:0:0:0:0:
109,192,82321,128,0,82410:0:0:0:0:
256,192,82410,128,0,82499:0:0:0:0:
475,192,82410,128,0,82499:0:0:0:0:
36,192,82410,128,0,82499:0:0:0:0:
402,192,82499,128,0,82589:0:0:0:0:
182,192,82499,128,0,82589:0:0:0:0:
109,192,82499,128,0,82589:0:0:0:0:
256,192,82589,128,0,82678:0:0:0:0:
475,192,82589,128,0,82678:0:0:0:0:
329,192,82678,128,0,82767:0:0:0:0:
36,192,82678,128,0,82767:0:0:0:0:
182,192,82678,1,0,0:0:0:0:
402,192,82678,128,0,82767:0:0:0:0:
109,192,82767,128,0,82857:0:0:0:0:
256,192,82767,1,0,0:0:0:0:
329,192,82857,1,0,0:0:0:0:
402,192,82857,1,0,0:0:0:0:
475,192,82857,128,0,82946:0:0:0:0:
36,192,82857,128,0,82946:0:0:0:0:
182,192,82857,128,0,82946:0:0:0:0:
109,192,82946,128,0,83035:0:0:0:0:
256,192,82946,128,0,83035:0:0:0:0:
329,192,83035,128,0,83124:0:0:0:0:
475,192,83035,128,0,83124:0:0:0:0:
402,192,83124,128,0,83214:0:0:0:0:
109,192,83124,128,0,83214:0:0:0:0:
182,192,83124,1,0,0:0:0:0:
256,192,83124,1,0,0:0:0:0:
36,192,83214,128,0,83303:0:0:0:0:
329,192,83214,128,0,83303:0:0:0:0:
475,192,83214,128,0,83303:0:0:0:0:
182,192,83303,128,0,83392:0:0:0:0:
402,192,83303,128,0,83392:0:0:0:0:
36,192,83392,1,0,0:0:0:0:
109,192,83392,1,0,0:0:0:0:
256,192,83392,128,0,83482:0:0:0:0:
475,192,83392,128,0,83482:0:0:0:0:
329,192,83482,128,0,83571:0:0:0:0:
402,192,83571,128,0,83660:0:0:0:0:
475,192,83571,128,0,83660:0:0:0:0:
36,192,83571,128,0,83660:0:0:0:0:
182,192,83571,128,0,83660:0:0:0:0:
109,192,83660,128,0,83749:0:0:0:0:
329,192,83660,128,0,83749:0:0:0:0:
182,192,83749,128,0,83839:0:0:0:0:
402,192,83749,128,0,83839:0:0:0:0:
256,192,83839,128,0,83928:0:0:0:0:
475,192,83839,128,0,83928:0:0:0:0:
329,192,83928,128,0,84017:0:0:0:0:
36,192,83928,128,0,84017:0:0:0:0:
182,192,83928,1,0,0:0:0:0:
402,192,83928,1,0,0:0:0:0:
109,192,84017,128,0,84107:0:0:0:0:
256,192,84017,128,0,84107:0:0:0:0:
475,192,84017,128,0,84107:0:0:0:0:
402,192,84107,128,0,84196:0:0:0:0:
182,192,84107,128,0,84196:0:0:0:0:
329,192,84196,128,0,84285:0:0:0:0:
109,192,84196,128,0,84285:0:0:0:0:
36,192,84285,1,0,0:0:0:0:
256,192,84285,1,0,0:0:0:0:
182,192,84285,128,0,84374:0:0:0:0:
475,192,84285,128,0,84374:0:0:0:0:
402,192,84285,128,0,84374:0:0:0:0:
329,192,84374,128,0,84464:0:0:0:0:
109,192,84374,128,0,84464:0:0:0:0:
36,192,84464,128,0,84553:0:0:0:0:
256,192,84464,128,0,84553:0:0:0:0:
475,192,84464,128,0,84553:0:0:0:0:
182,192,84553,128,0,84642:0:0:0:0:
402,192,84553,128,0,84642:0:0:0:0:
36,192,84642,128,0,84732:0:0:0:0:
109,192,84642,128,0,84732:0:0:0:0:
329,192,84642,128,0,84732:0:0:0:0:
182,192,84732,128,0,84821:0:0:0:0:
402,192,84732,128,0,84821:0:0:0:0:
256,192,84821,128,0,84910:0:0:0:0:
36,192,84821,128,0,84910:0:0:0:0:
475,192,84821,128,0,84910:0:0:0:0:
109,192,84910,128,0,84999:0:0:0:0:
329,192,84910,128,0,84999:0:0:0:0:
475,192,84999,128,0,85089:0:0:0:0:
402,192,84999,128,0,85089:0:0:0:0:
182,192,84999,128,0,85089:0:0:0:0:
329,192,85089,128,0,85178:0:0:0:0:
109,192,85089,128,0,85178:0:0:0:0:
36,192,85178,128,0,85267:0:0:0:0:
256,192,85178,128,0,85267:0:0:0:0:
182,192,85267,128,0,85357:0:0:0:0:
475,192,85267,128,0,85357:0:0:0:0:
402,192,85267,128,0,85357:0:0:0:0:
109,192,85357,128,0,85446:0:0:0:0:
36,192,85357,128,0,85446:0:0:0:0:
329,192,85357,128,0,85446:0:0:0:0:
182,192,85446,128,0,85535:0:0:0:0:
402,192,85446,128,0,85535:0:0:0:0:
256,192,85535,128,0,85624:0:0:0:0:
475,192,85535,128,0,85624:0:0:0:0:
109,192,85535,1,0,0:0:0:0:
329,192,85535,1,0,0:0:0:0:
182,192,85624,1,0,0:0:0:0:
402,192,85624,1,0,0:0:0:0:
256,192,85714,1,0,0:0:0:0:
475,192,85714,1,0,0:0:0:0:
36,192,85714,1,0,0:0:0:0:
109,192,85803,1,0,0:0:0:0:
329,192,85803,1,0,0:0:0:0:
182,192,85892,1,0,0:0:0:0:
402,192,85892,1,0,0:0:0:0:
256,192,85982,1,0,0:0:0:0:
475,192,85982,1,0,0:0:0:0:
36,192,86071,128,0,86160:0:0:0:0:
329,192,86071,1,0,0:0:0:0:
402,192,86071,1,0,0:0:0:0:
182,192,86071,128,0,86160:0:0:0:0:
109,192,86160,128,0,86249:0:0:0:0:
256,192,86160,128,0,86249:0:0:0:0:
329,192,86249,128,0,86339:0:0:0:0:
182,192,86249,128,0,86339:0:0:0:0:
402,192,86339,128,0,86428:0:0:0:0:
256,192,86339,128,0,86428:0:0:0:0:
329,192,86428,1,0,0:0:0:0:
475,192,86428,1,0,0:0:0:0:
182,192,86428,128,0,86517:0:0:0:0:
256,192,86517,128,0,86607:0:0:0:0:
402,192,86517,1,0,0:0:0:0:
109,192,86517,128,0,86785:0:0:0:0:
182,192,86607,128,0,86696:0:0:0:0:
329,192,86607,128,0,86785:0:0:0:0:
475,192,86607,1,0,0:0:0:0:
36,192,86607,128,0,86874:0:0:0:0:
256,192,86696,128,0,86874:0:0:0:0:
475,192,86785,128,0,86964:0:0:0:0:
402,192,86785,1,0,0:0:0:0:
182,192,86785,128,0,86964:0:0:0:0:
402,192,86874,128,0,87053:0:0:0:0:
329,192,86874,1,0,0:0:0:0:
109,192,86874,128,0,87053:0:0:0:0:
329,192,86964,128,0,87142:0:0:0:0:
256,192,86964,1,0,0:0:0:0:
36,192,86964,128,0,87142:0:0:0:0:
256,192,87053,128,0,87142:0:0:0:0:
182,192,87053,1,0,0:0:0:0:
475,192,87053,1,0,0:0:0:0:
109,192,87142,1,0,0:0:0:0:
402,192,87142,1,0,0:0:0:0:
182,192,87187,1,0,0:0:0:0:
256,192,87232,1,0,0:0:0:0:
329,192,87276,1,0,0:0:0:0:
402,192,87321,1,0,0:0:0:0:
36,192,87321,128,0,87410:0:0:0:0:
475,192,87366,1,0,0:0:0:0:
109,192,87366,128,0,87455:0:0:0:0:
182,192,87410,128,0,87499:0:0:0:0:
329,192,87410,1,0,0:0:0:0:
256,192,87455,128,0,87544:0:0:0:0:
402,192,87499,1,0,0:0:0:0:
36,192,87499,1,0,0:0:0:0:
475,192,87499,1,0,0:0:0:0:
329,192,87544,1,0,0:0:0:0:
256,192,87589,1,0,0:0:0:0:
182,192,87633,1,0,0:0:0:0:
109,192,87678,1,0,0:0:0:0:
475,192,87678,128,0,87767:0:0:0:0:
36,192,87723,1,0,0:0:0:0:
402,192,87723,128,0,87812:0:0:0:0:
329,192,87767,128,0,87857:0:0:0:0:
182,192,87767,1,0,0:0:0:0:
256,192,87812,128,0,87901:0:0:0:0:
109,192,87857,1,0,0:0:0:0:
36,192,87857,1,0,0:0:0:0:
475,192,87857,1,0,0:0:0:0:
182,192,87901,1,0,0:0:0:0:
256,192,87946,1,0,0:0:0:0:
329,192,87991,1,0,0:0:0:0:
36,192,87991,128,0,88080:0:0:0:0:
402,192,88035,1,0,0:0:0:0:
109,192,88035,128,0,88124:0:0:0:0:
475,192,88080,1,0,0:0:0:0:
182,192,88080,128,0,88169:0:0:0:0:
256,192,88124,128,0,88214:0:0:0:0:
182,192,88214,1,0,0:0:0:0:
475,192,88214,1,0,0:0:0:0:
329,192,88214,1,0,0:0:0:0:
109,192,88303,1,0,0:0:0:0:
402,192,88303,1,0,0:0:0:0:
256,192,88303,1,0,0:0:0:0:
36,192,88392,1,0,0:0:0:0:
329,192,88392,1,0,0:0:0:0:
182,192,88392,1,0,0:0:0:0:
256,192,88482,1,0,0:0:0:0:
402,192,88571,128,0,88928:0:0:0:0:
36,192,88571,128,0,89285:0:0:0:0:
109,192,88571,1,0,0:0:0:0:
182,192,88571,1,0,0:0:0:0:
475,192,88571,1,0,0:0:0:0:
329,192,88660,1,0,0:0:0:0:
256,192,88660,1,0,0:0:0:0:
182,192,88749,1,0,0:0:0:0:
475,192,88749,1,0,0:0:0:0:
109,192,88839,1,0,0:0:0:0:
329,192,88839,1,0,0:0:0:0:
475,192,88928,128,0,89910:0:0:0:0:
182,192,88928,1,0,0:0:0:0:
256,192,88928,1,0,0:0:0:0:
402,192,89017,1,0,0:0:0:0:
329,192,89017,1,0,0:0:0:0:
109,192,89107,1,0,0:0:0:0:
256,192,89107,1,0,0:0:0:0:
402,192,89196,1,0,0:0:0:0:
182,192,89196,1,0,0:0:0:0:
256,192,89241,1,0,0:0:0:0:
329,192,89285,1,0,0:0:0:0:
109,192,89285,128,0,89910:0:0:0:0:
182,192,89285,1,0,0:0:0:0:
36,192,89374,1,0,0:0:0:0:
256,192,89374,1,0,0:0:0:0:
329,192,89464,1,0,0:0:0:0:
402,192,89464,1,0,0:0:0:0:
182,192,89553,1,0,0:0:0:0:
36,192,89642,1,0,0:0:0:0:
402,192,89642,1,0,0:0:0:0:
329,192,89732,1,0,0:0:0:0:
402,192,89821,128,0,89910:0:0:0:0:
182,192,89821,128,0,89910:0:0:0:0:
36,192,89821,1,0,0:0:0:0:
256,192,89821,1,0,0:0:0:0:
329,192,89910,1,0,0:0:0:0:
182,192,89999,128,0,90535:0:0:0:0:
109,192,89999,128,0,90357:0:0:0:0:
402,192,89999,128,0,90357:0:0:0:0:
475,192,89999,128,0,90535:0:0:0:0:
36,192,89999,1,0,0:0:0:0:
256,192,89999,1,0,0:0:0:0:
329,192,90089,1,0,0:0:0:0:
256,192,90178,1,0,0:0:0:0:
36,192,90267,1,0,0:0:0:0:
329,192,90357,1,0,0:0:0:0:
256,192,90357,1,0,0:0:0:0:
402,192,90446,1,0,0:0:0:0:
109,192,90446,1,0,0:0:0:0:
256,192,90535,128,0,90982:0:0:0:0:
36,192,90535,1,0,0:0:0:0:
329,192,90535,1,0,0:0:0:0:
329,192,90624,128,0,90714:0:0:0:0:
109,192,90624,1,0,0:0:0:0:
402,192,90714,128,0,90982:0:0:0:0:
36,192,90714,128,0,91339:0:0:0:0:
475,192,90714,128,0,90803:0:0:0:0:
182,192,90714,1,0,0:0:0:0:
109,192,90803,1,0,0:0:0:0:
329,192,90803,1,0,0:0:0:0:
182,192,90892,1,0,0:0:0:0:
329,192,90982,128,0,91339:0:0:0:0:
475,192,90982,1,0,0:0:0:0:
109,192,90982,128,0,91071:0:0:0:0:
402,192,91071,1,0,0:0:0:0:
182,192,91071,1,0,0:0:0:0:
256,192,91160,1,0,0:0:0:0:
475,192,91160,1,0,0:0:0:0:
182,192,91249,128,0,91339:0:0:0:0:
402,192,91249,1,0,0:0:0:0:
109,192,91249,1,0,0:0:0:0:
256,192,91339,1,0,0:0:0:0:
475,192,91339,1,0,0:0:0:0:
36,192,91428,128,0,92142:0:0:0:0:
182,192,91428,128,0,91785:0:0:0:0:
329,192,91428,128,0,91607:0:0:0:0:
402,192,91428,1,0,0:0:0:0:
109,192,91428,1,0,0:0:0:0:
256,192,91517,1,0,0:0:0:0:
475,192,91517,1,0,0:0:0:0:
402,192,91607,1,0,0:0:0:0:
109,192,91607,1,0,0:0:0:0:
329,192,91696,1,0,0:0:0:0:
475,192,91785,128,0,92499:0:0:0:0:
256,192,91785,128,0,91874:0:0:0:0:
402,192,91785,1,0,0:0:0:0:
109,192,91785,1,0,0:0:0:0:
329,192,91874,1,0,0:0:0:0:
182,192,91874,1,0,0:0:0:0:
402,192,91964,1,0,0:0:0:0:
256,192,91964,1,0,0:0:0:0:
182,192,92053,1,0,0:0:0:0:
329,192,92142,128,0,92499:0:0:0:0:
109,192,92142,128,0,92232:0:0:0:0:
256,192,92142,1,0,0:0:0:0:
402,192,92142,1,0,0:0:0:0:
182,192,92232,1,0,0:0:0:0:
36,192,92232,1,0,0:0:0:0:
109,192,92321,1,0,0:0:0:0:
402,192,92321,1,0,0:0:0:0:
256,192,92410,1,0,0:0:0:0:
36,192,92410,1,0,0:0:0:0:
402,192,92499,128,0,92767:0:0:0:0:
182,192,92499,1,0,0:0:0:0:
256,192,92589,128,0,92767:0:0:0:0:
36,192,92589,1,0,0:0:0:0:
475,192,92589,1,0,0:0:0:0:
109,192,92678,128,0,92767:0:0:0:0:
329,192,92678,1,0,0:0:0:0:
182,192,92767,1,0,0:0:0:0:
36,192,92767,1,0,0:0:0:0:
256,192,92857,128,0,93124:0:0:0:0:
329,192,92857,1,0,0:0:0:0:
402,192,92857,128,0,93214:0:0:0:0:
475,192,92857,1,0,0:0:0:0:
109,192,92857,128,0,93035:0:0:0:0:
182,192,92946,1,0,0:0:0:0:
36,192,93035,128,0,93303:0:0:0:0:
329,192,93035,1,0,0:0:0:0:
475,192,93035,1,0,0:0:0:0:
182,192,93124,1,0,0:0:0:0:
109,192,93214,128,0,93482:0:0:0:0:
475,192,93214,1,0,0:0:0:0:
256,192,93214,128,0,93303:0:0:0:0:
329,192,93303,1,0,0:0:0:0:
182,192,93392,128,0,93660:0:0:0:0:
256,192,93392,1,0,0:0:0:0:
475,192,93392,1,0,0:0:0:0:
36,192,93392,128,0,93482:0:0:0:0:
402,192,93392,1,0,0:0:0:0:
329,192,93482,1,0,0:0:0:0:
256,192,93571,128,0,93839:0:0:0:0:
402,192,93571,1,0,0:0:0:0:
475,192,93571,1,0,0:0:0:0:
109,192,93571,128,0,93660:0:0:0:0:
36,192,93660,1,0,0:0:0:0:
329,192,93660,1,0,0:0:0:0:
402,192,93749,1,0,0:0:0:0:
475,192,93749,1,0,0:0:0:0:
182,192,93749,1,0,0:0:0:0:
109,192,93839,1,0,0:0:0:0:
329,192,93839,1,0,0:0:0:0:
475,192,93928,128,0,94196:0:0:0:0:
402,192,93928,1,0,0:0:0:0:
182,192,93928,1,0,0:0:0:0:
329,192,94017,128,0,94196:0:0:0:0:
256,192,94017,1,0,0:0:0:0:
36,192,94017,1,0,0:0:0:0:
182,192,94107,128,0,94196:0:0:0:0:
109,192,94107,1,0,0:0:0:0:
402,192,94107,1,0,0:0:0:0:
36,192,94196,1,0,0:0:0:0:
256,192,94196,1,0,0:0:0:0:
475,192,94285,128,0,94374:0:0:0:0:
329,192,94285,128,0,94464:0:0:0:0:
182,192,94285,128,0,94642:0:0:0:0:
36,192,94285,128,0,94821:0:0:0:0:
109,192,94285,1,0,0:0:0:0:
402,192,94285,1,0,0:0:0:0:
256,192,94374,1,0,0:0:0:0:
475,192,94464,1,0,0:0:0:0:
109,192,94464,1,0,0:0:0:0:
329,192,94553,1,0,0:0:0:0:
402,192,94553,1,0,0:0:0:0:
475,192,94642,128,0,94999:0:0:0:0:
256,192,94642,1,0,0:0:0:0:
109,192,94642,1,0,0:0:0:0:
182,192,94732,1,0,0:0:0:0:
402,192,94732,1,0,0:0:0:0:
109,192,94821,1,0,0:0:0:0:
329,192,94821,1,0,0:0:0:0:
402,192,94910,128,0,94955:0:0:0:0:
182,192,94910,128,0,94955:0:0:0:0:
329,192,94955,128,0,94999:0:0:0:0:
109,192,94955,128,0,94999:0:0:0:0:
256,192,94999,128,0,95624:0:0:0:0:
36,192,94999,128,0,95624:0:0:0:0:
402,192,94999,1,0,0:0:0:0:
182,192,94999,1,0,0:0:0:0:
475,192,95089,1,0,0:0:0:0:
109,192,95089,1,0,0:0:0:0:
402,192,95178,1,0,0:0:0:0:
182,192,95178,1,0,0:0:0:0:
329,192,95267,1,0,0:0:0:0:
109,192,95267,1,0,0:0:0:0:
475,192,95357,1,0,0:0:0:0:
182,192,95357,1,0,0:0:0:0:
402,192,95446,1,0,0:0:0:0:
109,192,95446,1,0,0:0:0:0:
475,192,95535,128,0,95624:0:0:0:0:
329,192,95535,1,0,0:0:0:0:
182,192,95535,1,0,0:0:0:0:
109,192,95624,1,0,0:0:0:0:
402,192,95624,1,0,0:0:0:0:
36,192,95714,128,0,96428:0:0:0:0:
256,192,95714,128,0,96071:0:0:0:0:
475,192,95714,128,0,96428:0:0:0:0:
182,192,95714,1,0,0:0:0:0:
329,192,95714,1,0,0:0:0:0:
109,192,95803,1,0,0:0:0:0:
402,192,95803,1,0,0:0:0:0:
329,192,95892,1,0,0:0:0:0:
182,192,95892,1,0,0:0:0:0:
109,192,95982,1,0,0:0:0:0:
402,192,95982,1,0,0:0:0:0:
329,192,96071,1,0,0:0:0:0:
182,192,96071,1,0,0:0:0:0:
256,192,96160,1,0,0:0:0:0:
182,192,96249,1,0,0:0:0:0:
329,192,96249,1,0,0:0:0:0:
402,192,96339,1,0,0:0:0:0:
109,192,96339,1,0,0:0:0:0:
182,192,96428,1,0,0:0:0:0:
329,192,96428,1,0,0:0:0:0:
256,192,96696,1,0,0:0:0:0:
109,192,96696,1,0,0:0:0:0:
36,192,96964,1,0,0:0:0:0:
182,192,96964,1,0,0:0:0:0:
36,192,97142,1,0,0:0:0:0:
182,192,97142,1,0,0:0:0:0:
329,192,97142,1,0,0:0:0:0:
182,192,97410,1,0,0:0:0:0:
329,192,97410,1,0,0:0:0:0:
475,192,97410,1,0,0:0:0:0:
36,192,97678,1,0,0:0:0:0:
182,192,97678,1,0,0:0:0:0:
329,192,97678,1,0,0:0:0:0:
256,192,97857,1,0,0:0:0:0:
475,192,97857,1,0,0:0:0:0:
182,192,97857,1,0,0:0:0:0:
109,192,98124,1,0,0:0:0:0:
182,192,98124,1,0,0:0:0:0:
402,192,98124,1,0,0:0:0:0:
36,192,98392,1,0,0:0:0:0:
109,192,98392,1,0,0:0:0:0:
329,192,98392,1,0,0:0:0:0:
475,192,98571,128,0,98749:0:0:0:0:
182,192,98571,128,0,99017:0:0:0:0:
109,192,98571,128,0,98839:0:0:0:0:
36,192,98571,1,0,0:0:0:0:
402,192,98571,1,0,0:0:0:0:
256,192,98571,128,0,98660:0:0:0:0:
329,192,98660,1,0,0:0:0:0:
402,192,98749,128,0,99017:0:0:0:0:
256,192,98749,1,0,0:0:0:0:
36,192,98749,128,0,98839:0:0:0:0:
329,192,98839,128,0,99285:0:0:0:0:
475,192,98839,1,0,0:0:0:0:
109,192,98928,128,0,99017:0:0:0:0:
256,192,98928,128,0,99107:0:0:0:0:
36,192,98928,1,0,0:0:0:0:
475,192,99017,128,0,99196:0:0:0:0:
182,192,99107,128,0,99196:0:0:0:0:
36,192,99107,128,0,99553:0:0:0:0:
109,192,99107,1,0,0:0:0:0:
402,192,99107,1,0,0:0:0:0:
256,192,99196,1,0,0:0:0:0:
109,192,99285,128,0,99464:0:0:0:0:
402,192,99285,128,0,99374:0:0:0:0:
475,192,99285,1,0,0:0:0:0:
182,192,99285,1,0,0:0:0:0:
329,192,99374,1,0,0:0:0:0:
256,192,99374,128,0,99642:0:0:0:0:
182,192,99464,128,0,99732:0:0:0:0:
402,192,99464,1,0,0:0:0:0:
475,192,99464,128,0,99553:0:0:0:0:
329,192,99553,1,0,0:0:0:0:
109,192,99553,1,0,0:0:0:0:
329,192,99642,128,0,99732:0:0:0:0:
402,192,99642,128,0,99910:0:0:0:0:
475,192,99642,128,0,99821:0:0:0:0:
36,192,99642,128,0,100089:0:0:0:0:
256,192,99732,1,0,0:0:0:0:
109,192,99732,128,0,99910:0:0:0:0:
182,192,99821,1,0,0:0:0:0:
329,192,99821,128,0,99999:0:0:0:0:
475,192,99910,128,0,100089:0:0:0:0:
256,192,99910,1,0,0:0:0:0:
109,192,99999,128,0,100267:0:0:0:0:
182,192,99999,128,0,100178:0:0:0:0:
402,192,99999,1,0,0:0:0:0:
256,192,100089,128,0,100178:0:0:0:0:
329,192,100089,1,0,0:0:0:0:
36,192,100178,128,0,100357:0:0:0:0:
475,192,100178,1,0,0:0:0:0:
402,192,100178,128,0,100267:0:0:0:0:
182,192,100267,128,0,100535:0:0:0:0:
256,192,100267,128,0,100357:0:0:0:0:
402,192,100357,128,0,100535:0:0:0:0:
109,192,100357,1,0,0:0:0:0:
329,192,100357,128,0,100624:0:0:0:0:
475,192,100357,128,0,100446:0:0:0:0:
36,192,100446,1,0,0:0:0:0:
256,192,100446,1,0,0:0:0:0:
475,192,100535,1,0,0:0:0:0:
109,192,100624,1,0,0:0:0:0:
256,192,100669,1,0,0:0:0:0:
182,192,100714,128,0,101249:0:0:0:0:
36,192,100714,128,0,101428:0:0:0:0:
329,192,100714,128,0,100982:0:0:0:0:
475,192,100714,128,0,100803:0:0:0:0:
402,192,100714,1,0,0:0:0:0:
109,192,100803,1,0,0:0:0:0:
475,192,100892,128,0,101160:0:0:0:0:
256,192,100892,1,0,0:0:0:0:
109,192,100982,128,0,101160:0:0:0:0:
402,192,100982,1,0,0:0:0:0:
256,192,101071,1,0,0:0:0:0:
329,192,101071,128,0,101249:0:0:0:0:
402,192,101160,128,0,101339:0:0:0:0:
256,192,101249,128,0,101428:0:0:0:0:
109,192,101249,1,0,0:0:0:0:
475,192,101249,128,0,101339:0:0:0:0:
182,192,101339,128,0,101607:0:0:0:0:
329,192,101428,128,0,101517:0:0:0:0:
402,192,101428,128,0,101607:0:0:0:0:
475,192,101428,128,0,101696:0:0:0:0:
109,192,101428,1,0,0:0:0:0:
256,192,101517,1,0,0:0:0:0:
36,192,101517,128,0,101874:0:0:0:0:
329,192,101607,1,0,0:0:0:0:
109,192,101607,1,0,0:0:0:0:
402,192,101696,128,0,101785:0:0:0:0:
256,192,101696,128,0,101964:0:0:0:0:
182,192,101696,1,0,0:0:0:0:
109,192,101785,128,0,101874:0:0:0:0:
475,192,101785,1,0,0:0:0:0:
329,192,101785,128,0,101874:0:0:0:0:
402,192,101874,1,0,0:0:0:0:
36,192,101964,128,0,102232:0:0:0:0:
109,192,101964,128,0,102142:0:0:0:0:
182,192,101964,128,0,102053:0:0:0:0:
329,192,101964,1,0,0:0:0:0:
475,192,101964,128,0,102053:0:0:0:0:
402,192,102053,128,0,102232:0:0:0:0:
256,192,102053,1,0,0:0:0:0:
475,192,102142,128,0,102589:0:0:0:0:
329,192,102142,128,0,102232:0:0:0:0:
182,192,102142,128,0,102321:0:0:0:0:
109,192,102232,1,0,0:0:0:0:
256,192,102232,128,0,102410:0:0:0:0:
36,192,102321,1,0,0:0:0:0:
329,192,102321,128,0,102410:0:0:0:0:
402,192,102321,1,0,0:0:0:0:
109,192,102410,128,0,102589:0:0:0:0:
182,192,102410,1,0,0:0:0:0:
182,192,102499,128,0,102678:0:0:0:0:
402,192,102499,128,0,103035:0:0:0:0:
256,192,102499,128,0,102589:0:0:0:0:
36,192,102499,128,0,102589:0:0:0:0:
329,192,102499,1,0,0:0:0:0:
109,192,102678,128,0,102767:0:0:0:0:
36,192,102678,1,0,0:0:0:0:
475,192,102678,128,0,103124:0:0:0:0:
256,192,102678,128,0,102767:0:0:0:0:
329,192,102678,128,0,102946:0:0:0:0:
36,192,102857,1,0,0:0:0:0:
182,192,102857,128,0,102946:0:0:0:0:
109,192,102946,1,0,0:0:0:0:
256,192,102946,128,0,103035:0:0:0:0:
182,192,103035,1,0,0:0:0:0:
329,192,103035,128,0,103124:0:0:0:0:
256,192,103124,1,0,0:0:0:0:
402,192,103124,128,0,103214:0:0:0:0:
475,192,103214,1,0,0:0:0:0:
329,192,103214,128,0,103303:0:0:0:0:
36,192,103214,128,0,103482:0:0:0:0:
109,192,103214,128,0,103392:0:0:0:0:
182,192,103214,128,0,103303:0:0:0:0:
402,192,103303,1,0,0:0:0:0:
256,192,103303,128,0,103392:0:0:0:0:
329,192,103392,1,0,0:0:0:0:
182,192,103392,128,0,103482:0:0:0:0:
475,192,103392,128,0,103839:0:0:0:0:
256,192,103482,1,0,0:0:0:0:
109,192,103482,128,0,103571:0:0:0:0:
402,192,103482,128,0,103749:0:0:0:0:
36,192,103571,1,0,0:0:0:0:
182,192,103571,128,0,103660:0:0:0:0:
329,192,103571,128,0,103660:0:0:0:0:
109,192,103660,1,0,0:0:0:0:
256,192,103660,128,0,103749:0:0:0:0:
329,192,103749,128,0,103839:0:0:0:0:
182,192,103749,1,0,0:0:0:0:
402,192,103839,128,0,103928:0:0:0:0:
256,192,103839,1,0,0:0:0:0:
36,192,103839,128,0,104285:0:0:0:0:
475,192,103928,1,0,0:0:0:0:
329,192,103928,128,0,104017:0:0:0:0:
256,192,104017,128,0,104107:0:0:0:0:
402,192,104017,1,0,0:0:0:0:
109,192,104107,128,0,104285:0:0:0:0:
182,192,104107,128,0,104196:0:0:0:0:
329,192,104107,1,0,0:0:0:0:
256,192,104196,1,0,0:0:0:0:
329,192,104285,128,0,104419:0:0:0:0:
402,192,104285,128,0,104508:0:0:0:0:
475,192,104285,128,0,104598:0:0:0:0:
182,192,104285,128,0,104374:0:0:0:0:
109,192,104374,1,0,0:0:0:0:
256,192,104374,128,0,104464:0:0:0:0:
36,192,104464,128,0,104687:0:0:0:0:
329,192,104464,128,0,104553:0:0:0:0:
182,192,104464,1,0,0:0:0:0:
109,192,104553,128,0,104866:0:0:0:0:
402,192,104553,128,0,104776:0:0:0:0:
256,192,104553,1,0,0:0:0:0:
475,192,104642,128,0,104910:0:0:0:0:
329,192,104642,1,0,0:0:0:0:
182,192,104642,128,0,104776:0:0:0:0:
256,192,104732,1,0,0:0:0:0:
36,192,104732,128,0,104955:0:0:0:0:
182,192,104821,1,0,0:0:0:0:
402,192,104821,128,0,104955:0:0:0:0:
329,192,104821,128,0,105044:0:0:0:0:
109,192,104910,128,0,104999:0:0:0:0:
256,192,104910,128,0,105133:0:0:0:0:
36,192,104999,128,0,105133:0:0:0:0:
182,192,104999,1,0,0:0:0:0:
475,192,104999,1,0,0:0:0:0:
402,192,104999,128,0,105133:0:0:0:0:
329,192,105089,128,0,105267:0:0:0:0:
109,192,105178,128,0,105401:0:0:0:0:
475,192,105178,128,0,105267:0:0:0:0:
36,192,105178,1,0,0:0:0:0:
182,192,105178,128,0,105267:0:0:0:0:
256,192,105178,128,0,105312:0:0:0:0:
402,192,105178,1,0,0:0:0:0:
36,192,105357,128,0,105491:0:0:0:0:
402,192,105357,128,0,105580:0:0:0:0:
475,192,105357,1,0,0:0:0:0:
329,192,105357,128,0,105446:0:0:0:0:
256,192,105357,1,0,0:0:0:0:
109,192,105446,128,0,105624:0:0:0:0:
182,192,105446,128,0,105535:0:0:0:0:
329,192,105535,128,0,105624:0:0:0:0:
256,192,105535,128,0,105714:0:0:0:0:
36,192,105535,128,0,105714:0:0:0:0:
402,192,105624,1,0,0:0:0:0:
475,192,105624,128,0,105714:0:0:0:0:
182,192,105624,1,0,0:0:0:0:
109,192,105714,1,0,0:0:0:0:
329,192,105714,1,0,0:0:0:0:
182,192,106071,1,0,0:0:0:0:
402,192,106071,1,0,0:0:0:0:
36,192,106071,1,0,0:0:0:0:
109,192,106428,1,0,0:0:0:0:
256,192,106428,1,0,0:0:0:0:
329,192,106428,1,0,0:0:0:0:
475,192,106428,1,0,0:0:0:0:
36,192,106964,1,0,0:0:0:0:
182,192,106964,1,0,0:0:0:0:
402,192,106964,1,0,0:0:0:0:
36,192,107142,1,0,0:0:0:0:
182,192,107142,1,0,0:0:0:0:
402,192,107142,1,0,0:0:0:0:
256,192,107232,1,0,0:0:0:0:
109,192,107321,1,0,0:0:0:0:
329,192,107410,1,0,0:0:0:0:
182,192,107499,1,0,0:0:0:0:
402,192,107589,1,0,0:0:0:0:
256,192,107678,1,0,0:0:0:0:
475,192,107767,1,0,0:0:0:0:
329,192,107857,1,0,0:0:0:0:
36,192,107857,1,0,0:0:0:0:
182,192,107857,1,0,0:0:0:0:
475,192,107946,1,0,0:0:0:0:
256,192,108035,1,0,0:0:0:0:
402,192,108124,1,0,0:0:0:0:
182,192,108214,1,0,0:0:0:0:
329,192,108303,1,0,0:0:0:0:
109,192,108392,1,0,0:0:0:0:
256,192,108482,1,0,0:0:0:0:
182,192,108571,1,0,0:0:0:0:
329,192,108571,1,0,0:0:0:0:
475,192,108571,1,0,0:0:0:0:
36,192,108660,1,0,0:0:0:0:
256,192,108749,1,0,0:0:0:0:
109,192,108839,1,0,0:0:0:0:
329,192,108928,1,0,0:0:0:0:
182,192,109017,1,0,0:0:0:0:
402,192,109107,1,0,0:0:0:0:
256,192,109196,1,0,0:0:0:0:
329,192,109285,1,0,0:0:0:0:
182,192,109285,1,0,0:0:0:0:
36,192,109285,1,0,0:0:0:0:
475,192,109374,1,0,0:0:0:0:
256,192,109464,1,0,0:0:0:0:
402,192,109553,1,0,0:0:0:0:
182,192,109642,1,0,0:0:0:0:
329,192,109732,1,0,0:0:0:0:
109,192,109821,1,0,0:0:0:0:
256,192,109910,1,0,0:0:0:0:
36,192,109999,1,0,0:0:0:0:
329,192,109999,1,0,0:0:0:0:
109,192,110089,1,0,0:0:0:0:
475,192,110089,1,0,0:0:0:0:
182,192,110178,1,0,0:0:0:0:
402,192,110178,1,0,0:0:0:0:
329,192,110267,1,0,0:0:0:0:
109,192,110267,1,0,0:0:0:0:
36,192,110357,1,0,0:0:0:0:
402,192,110357,1,0,0:0:0:0:
109,192,110446,1,0,0:0:0:0:
475,192,110446,1,0,0:0:0:0:
402,192,110535,1,0,0:0:0:0:
182,192,110535,1,0,0:0:0:0:
329,192,110624,1,0,0:0:0:0:
109,192,110624,1,0,0:0:0:0:
402,192,110714,1,0,0:0:0:0:
36,192,110714,1,0,0:0:0:0:
475,192,110803,1,0,0:0:0:0:
109,192,110803,1,0,0:0:0:0:
182,192,110892,1,0,0:0:0:0:
402,192,110892,1,0,0:0:0:0:
329,192,110982,1,0,0:0:0:0:
109,192,110982,1,0,0:0:0:0:
36,192,111071,1,0,0:0:0:0:
256,192,111071,1,0,0:0:0:0:
109,192,111160,1,0,0:0:0:0:
329,192,111160,1,0,0:0:0:0:
182,192,111249,1,0,0:0:0:0:
402,192,111249,1,0,0:0:0:0:
256,192,111339,1,0,0:0:0:0:
475,192,111339,1,0,0:0:0:0:
182,192,111428,128,0,111607:0:0:0:0:
402,192,111428,128,0,111607:0:0:0:0:
109,192,111517,128,0,111696:0:0:0:0:
329,192,111517,128,0,111696:0:0:0:0:
36,192,111607,128,0,111785:0:0:0:0:
256,192,111607,128,0,111785:0:0:0:0:
475,192,111607,128,0,111785:0:0:0:0:
182,192,111696,128,0,111874:0:0:0:0:
402,192,111696,128,0,111874:0:0:0:0:
109,192,111785,128,0,111964:0:0:0:0:
329,192,111785,128,0,111964:0:0:0:0:
36,192,111874,128,0,112053:0:0:0:0:
256,192,111874,128,0,112053:0:0:0:0:
475,192,111874,128,0,112053:0:0:0:0:
402,192,111964,128,0,112232:0:0:0:0:
182,192,111964,128,0,112142:0:0:0:0:
329,192,112053,128,0,112232:0:0:0:0:
109,192,112053,128,0,112232:0:0:0:0:
256,192,112142,128,0,112321:0:0:0:0:
36,192,112142,128,0,112321:0:0:0:0:
475,192,112142,128,0,112232:0:0:0:0:
182,192,112232,128,0,112499:0:0:0:0:
109,192,112321,128,0,112678:0:0:0:0:
402,192,112321,1,0,0:0:0:0:
329,192,112321,1,0,0:0:0:0:
475,192,112321,128,0,112857:0:0:0:0:
36,192,112410,128,0,112857:0:0:0:0:
256,192,112499,1,0,0:0:0:0:
329,192,112499,1,0,0:0:0:0:
402,192,112499,128,0,112857:0:0:0:0:
182,192,112678,1,0,0:0:0:0:
256,192,112678,1,0,0:0:0:0:
329,192,112678,128,0,112857:0:0:0:0:
109,192,112857,1,0,0:0:0:0:
182,192,112857,1,0,0:0:0:0:
256,192,112857,1,0,0:0:0:0:
36,192,113749,1,0,0:0:0:0:
182,192,113928,1,0,0:0:0:0:
329,192,114107,1,0,0:0:0:0:
256,192,114285,1,0,0:0:0:0:
475,192,114285,1,0,0:0:0:0:
109,192,114285,1,0,0:0:0:0:
329,192,114821,1,0,0:0:0:0:
402,192,115357,1,0,0:0:0:0:
182,192,115535,1,0,0:0:0:0:
36,192,115714,1,0,0:0:0:0:
109,192,115892,1,0,0:0:0:0:
182,192,116071,1,0,0:0:0:0:
256,192,116249,1,0,0:0:0:0:
329,192,116428,1,0,0:0:0:0:
402,192,116607,1,0,0:0:0:0:
475,192,116785,1,0,0:0:0:0:
329,192,116964,1,0,0:0:0:0:
182,192,117142,1,0,0:0:0:0:
182,192,118392,1,0,0:0:0:0:
256,192,118571,1,0,0:0:0:0:
475,192,118571,1,0,0:0:0:0:
36,192,118571,1,0,0:0:0:0:
182,192,119107,1,0,0:0:0:0:
329,192,119107,1,0,0:0:0:0:
36,192,119642,1,0,0:0:0:0:
475,192,119642,1,0,0:0:0:0:
109,192,119821,1,0,0:0:0:0:
402,192,119821,1,0,0:0:0:0:
182,192,121071,1,0,0:0:0:0:
256,192,121249,1,0,0:0:0:0:
329,192,121428,1,0,0:0:0:0:
475,192,121428,1,0,0:0:0:0:
36,192,121428,1,0,0:0:0:0:
182,192,121607,1,0,0:0:0:0:
329,192,121785,1,0,0:0:0:0:
109,192,121964,1,0,0:0:0:0:
475,192,121964,1,0,0:0:0:0:
402,192,122142,1,0,0:0:0:0:
256,192,122321,1,0,0:0:0:0:
475,192,122499,1,0,0:0:0:0:
182,192,122499,1,0,0:0:0:0:
109,192,122857,1,0,0:0:0:0:
402,192,122857,1,0,0:0:0:0:
36,192,122857,1,0,0:0:0:0:
109,192,123214,1,0,0:0:0:0:
182,192,123214,1,0,0:0:0:0:
402,192,123571,1,0,0:0:0:0:
475,192,123571,1,0,0:0:0:0:
329,192,123928,1,0,0:0:0:0:
402,192,123928,1,0,0:0:0:0:
182,192,124285,1,0,0:0:0:0:
256,192,124285,1,0,0:0:0:0:
329,192,124285,1,0,0:0:0:0:
