osu file format v14

[General]
AudioFilename: Otenbakoimusume.mp3
AudioLeadIn: 0
PreviewTime: 84712
Countdown: 0
SampleSet: None
StackLeniency: 0.7
Mode: 3
LetterboxInBreaks: 0
SpecialStyle: 0
WidescreenStoryboard: 0

[Editor]
Bookmarks: 13998,27069,54498,79141,112141,137426
DistanceSpacing: 0.8
BeatDivisor: 4
GridSize: 8
TimelineZoom: 1.4

[Metadata]
Title:Otenba Koimusume
TitleUnicode:おてんば恋娘
Artist:Kurenainagi Tabibito
ArtistUnicode:紅薙旅人
Creator:MeowPaz
Version:5K Hard
Source:東方Project
Tags:C71 東方幻奏祀典2 ''Canon'' 東方紅魔郷 ~ the Embodiment of Scarlet Devil. Touhou Koumakyou Cirno paperlens
BeatmapID:1134875
BeatmapSetID:363320

[Difficulty]
HPDrainRate:8
CircleSize:5
OverallDifficulty:8
ApproachRate:5
SliderMultiplier:1.4
SliderTickRate:1

[Events]
//Background and Video events
0,0,"BG.jpg",0,0
//Break Periods
//Storyboard Layer 0 (Background)
//Storyboard Layer 1 (Fail)
//Storyboard Layer 2 (Pass)
//Storyboard Layer 3 (Foreground)
//Storyboard Sound Samples

[TimingPoints]
284,428.571428571429,4,2,0,5,1,0
284,-133.333333333333,4,2,0,5,0,0
25784,-117.647058823529,4,2,0,5,0,0
26212,-105.263157894737,4,2,0,5,0,0
26641,-100,4,2,0,5,0,0
85998,-100,4,2,0,5,0,1
144284,-133.333333333333,4,2,0,5,0,0

[HitObjects]
64,192,284,5,0,0:0:0:0:
153,192,498,1,0,0:0:0:0:
256,192,712,1,0,0:0:0:0:
358,192,926,1,0,0:0:0:0:
153,192,1355,1,0,0:0:0:0:
460,192,1998,1,0,0:0:0:0:
358,192,2212,1,0,0:0:0:0:
256,192,2426,1,0,0:0:0:0:
358,192,2641,1,0,0:0:0:0:
192,192,3069,1,0,0:0:0:0:
64,192,3712,1,0,0:0:0:0:
320,192,3926,1,0,0:0:0:0:
64,192,4141,1,0,0:0:0:0:
192,192,4355,1,0,0:0:0:0:
256,192,4569,1,0,0:0:0:0:
448,192,4998,1,0,0:0:0:0:
64,192,5212,1,0,0:0:0:0:
448,192,7141,1,0,0:0:0:0:
320,192,7355,1,0,0:0:0:0:
256,192,7569,1,0,0:0:0:0:
153,192,7784,1,0,0:0:0:0:
358,192,8212,1,0,0:0:0:0:
51,192,8855,1,0,0:0:0:0:
192,192,9069,1,0,0:0:0:0:
256,192,9284,1,0,0:0:0:0:
153,192,9498,1,0,0:0:0:0:
358,192,9926,1,0,0:0:0:0:
51,192,10569,1,0,0:0:0:0:
256,192,10569,1,0,0:0:0:0:
153,192,10784,1,0,0:0:0:0:
448,192,10998,1,0,0:0:0:0:
320,192,11212,1,0,0:0:0:0:
448,192,11855,1,0,0:0:0:0:
256,192,11855,1,0,0:0:0:0:
51,192,12069,1,0,0:0:0:0:
64,192,13998,1,0,0:0:0:0:
460,192,13998,1,0,0:0:0:0:
192,192,14212,1,0,0:0:0:0:
358,192,14212,1,0,0:0:0:0:
256,192,14426,1,0,0:0:0:0:
448,192,14641,1,0,0:0:0:0:
192,192,14855,1,0,0:0:0:0:
320,192,15069,1,0,0:0:0:0:
64,192,15284,1,0,0:0:0:0:
358,192,15712,1,0,0:0:0:0:
153,192,15712,1,0,0:0:0:0:
460,192,15926,1,0,0:0:0:0:
51,192,15926,1,0,0:0:0:0:
153,192,16141,1,0,0:0:0:0:
256,192,16355,1,0,0:0:0:0:
448,192,16569,1,0,0:0:0:0:
320,192,16784,1,0,0:0:0:0:
64,192,16998,1,0,0:0:0:0:
256,192,17426,1,0,0:0:0:0:
448,192,17426,1,0,0:0:0:0:
153,192,17426,1,0,0:0:0:0:
358,192,17641,1,0,0:0:0:0:
256,192,17855,1,0,0:0:0:0:
64,192,18069,1,0,0:0:0:0:
320,192,18284,1,0,0:0:0:0:
448,192,18498,1,0,0:0:0:0:
51,192,18712,1,0,0:0:0:0:
256,192,18712,1,0,0:0:0:0:
358,192,18926,1,0,0:0:0:0:
64,192,19355,1,0,0:0:0:0:
192,192,19784,1,0,0:0:0:0:
448,192,20212,1,0,0:0:0:0:
256,192,20426,1,0,0:0:0:0:
64,192,20855,1,0,0:0:0:0:
358,192,20855,1,0,0:0:0:0:
192,192,21069,1,0,0:0:0:0:
460,192,21069,1,0,0:0:0:0:
320,192,21284,1,0,0:0:0:0:
256,192,21498,1,0,0:0:0:0:
448,192,21712,1,0,0:0:0:0:
320,192,21926,1,0,0:0:0:0:
192,192,22141,1,0,0:0:0:0:
448,192,22355,1,0,0:0:0:0:
64,192,22569,1,0,0:0:0:0:
192,192,22784,1,0,0:0:0:0:
256,192,22998,1,0,0:0:0:0:
448,192,23212,1,0,0:0:0:0:
64,192,23855,1,0,0:0:0:0:
448,192,24284,1,0,0:0:0:0:
256,192,24284,1,0,0:0:0:0:
192,192,24498,1,0,0:0:0:0:
358,192,24712,1,0,0:0:0:0:
256,192,24926,1,0,0:0:0:0:
153,192,25141,1,0,0:0:0:0:
51,192,25355,1,0,0:0:0:0:
448,192,25569,1,0,0:0:0:0:
64,192,25784,1,0,0:0:0:0:
256,192,25784,1,0,0:0:0:0:
192,192,26212,1,0,0:0:0:0:
320,192,26641,1,0,0:0:0:0:
460,192,27069,1,0,0:0:0:0:
51,192,27069,1,0,0:0:0:0:
358,192,27284,1,0,0:0:0:0:
153,192,27284,1,0,0:0:0:0:
256,192,27498,1,0,0:0:0:0:
460,192,27498,1,0,0:0:0:0:
64,192,27712,1,0,0:0:0:0:
153,192,27712,1,0,0:0:0:0:
358,192,27712,128,0,28569:0:0:0:0:
256,192,27926,1,0,0:0:0:0:
51,192,28141,1,0,0:0:0:0:
153,192,28355,1,0,0:0:0:0:
256,192,28784,1,0,0:0:0:0:
460,192,28784,1,0,0:0:0:0:
358,192,28998,1,0,0:0:0:0:
153,192,28998,1,0,0:0:0:0:
51,192,29212,1,0,0:0:0:0:
256,192,29212,1,0,0:0:0:0:
460,192,29426,128,0,30069:0:0:0:0:
153,192,29426,1,0,0:0:0:0:
256,192,29641,1,0,0:0:0:0:
64,192,29855,1,0,0:0:0:0:
256,192,30069,128,0,30712:0:0:0:0:
358,192,30069,1,0,0:0:0:0:
51,192,30284,1,0,0:0:0:0:
153,192,30498,1,0,0:0:0:0:
448,192,30712,1,0,0:0:0:0:
51,192,30712,1,0,0:0:0:0:
320,192,30926,1,0,0:0:0:0:
153,192,30926,128,0,31784:0:0:0:0:
460,192,31034,1,0,0:0:0:0:
256,192,31355,1,0,0:0:0:0:
460,192,31569,1,0,0:0:0:0:
51,192,31784,1,0,0:0:0:0:
358,192,31998,128,0,32212:0:0:0:0:
256,192,32212,128,0,32426:0:0:0:0:
460,192,32212,1,0,0:0:0:0:
51,192,32426,1,0,0:0:0:0:
153,192,32426,128,0,32641:0:0:0:0:
358,192,32641,128,0,32855:0:0:0:0:
256,192,32641,1,0,0:0:0:0:
460,192,32855,128,0,33176:0:0:0:0:
51,192,32855,1,0,0:0:0:0:
153,192,33069,1,0,0:0:0:0:
358,192,33176,128,0,33498:0:0:0:0:
51,192,33284,1,0,0:0:0:0:
256,192,33498,128,0,34141:0:0:0:0:
153,192,33498,1,0,0:0:0:0:
51,192,33712,1,0,0:0:0:0:
460,192,33926,1,0,0:0:0:0:
64,192,34141,1,0,0:0:0:0:
64,192,34248,1,0,0:0:0:0:
256,192,34355,1,0,0:0:0:0:
448,192,34355,1,0,0:0:0:0:
358,192,34569,1,0,0:0:0:0:
51,192,34569,128,0,36069:0:0:0:0:
460,192,34569,1,0,0:0:0:0:
153,192,34784,1,0,0:0:0:0:
460,192,34998,128,0,35212:0:0:0:0:
256,192,34998,1,0,0:0:0:0:
358,192,35212,128,0,35641:0:0:0:0:
153,192,35212,1,0,0:0:0:0:
460,192,35426,1,0,0:0:0:0:
256,192,35641,128,0,36069:0:0:0:0:
153,192,35641,1,0,0:0:0:0:
460,192,35855,1,0,0:0:0:0:
192,192,36069,1,0,0:0:0:0:
320,192,36069,1,0,0:0:0:0:
51,192,36284,1,0,0:0:0:0:
153,192,36284,128,0,36926:0:0:0:0:
460,192,36284,128,0,37569:0:0:0:0:
256,192,36498,1,0,0:0:0:0:
320,192,36712,1,0,0:0:0:0:
256,192,36926,128,0,37569:0:0:0:0:
51,192,36926,1,0,0:0:0:0:
358,192,37141,1,0,0:0:0:0:
153,192,37355,1,0,0:0:0:0:
51,192,37569,128,0,37784:0:0:0:0:
358,192,37569,1,0,0:0:0:0:
153,192,37784,128,0,37998:0:0:0:0:
358,192,37891,1,0,0:0:0:0:
460,192,37998,1,0,0:0:0:0:
256,192,37998,1,0,0:0:0:0:
448,192,38212,1,0,0:0:0:0:
320,192,38426,1,0,0:0:0:0:
51,192,38426,1,0,0:0:0:0:
256,192,38641,1,0,0:0:0:0:
153,192,38855,1,0,0:0:0:0:
51,192,39069,128,0,39391:0:0:0:0:
460,192,39069,1,0,0:0:0:0:
358,192,39284,1,0,0:0:0:0:
153,192,39391,128,0,39712:0:0:0:0:
460,192,39498,1,0,0:0:0:0:
256,192,39498,1,0,0:0:0:0:
358,192,39712,128,0,40034:0:0:0:0:
256,192,39712,1,0,0:0:0:0:
51,192,39712,1,0,0:0:0:0:
153,192,39926,1,0,0:0:0:0:
460,192,40034,128,0,40355:0:0:0:0:
51,192,40141,1,0,0:0:0:0:
256,192,40355,128,0,40998:0:0:0:0:
153,192,40355,1,0,0:0:0:0:
358,192,40569,1,0,0:0:0:0:
51,192,40784,1,0,0:0:0:0:
358,192,40998,1,0,0:0:0:0:
358,192,41105,1,0,0:0:0:0:
153,192,41212,1,0,0:0:0:0:
64,192,41212,1,0,0:0:0:0:
256,192,41426,1,0,0:0:0:0:
460,192,41426,128,0,42712:0:0:0:0:
358,192,41426,1,0,0:0:0:0:
153,192,41641,1,0,0:0:0:0:
51,192,41855,128,0,42069:0:0:0:0:
358,192,41855,1,0,0:0:0:0:
153,192,42069,128,0,42498:0:0:0:0:
256,192,42069,1,0,0:0:0:0:
358,192,42284,1,0,0:0:0:0:
256,192,42498,128,0,42712:0:0:0:0:
51,192,42712,1,0,0:0:0:0:
192,192,42926,1,0,0:0:0:0:
320,192,42926,1,0,0:0:0:0:
51,192,43141,128,0,44426:0:0:0:0:
460,192,43141,1,0,0:0:0:0:
256,192,43141,128,0,43784:0:0:0:0:
358,192,43141,1,0,0:0:0:0:
153,192,43355,1,0,0:0:0:0:
358,192,43569,1,0,0:0:0:0:
460,192,43784,128,0,44426:0:0:0:0:
153,192,43784,1,0,0:0:0:0:
256,192,43998,1,0,0:0:0:0:
358,192,44212,1,0,0:0:0:0:
256,192,44426,128,0,44641:0:0:0:0:
153,192,44426,1,0,0:0:0:0:
358,192,44641,128,0,44855:0:0:0:0:
153,192,44748,1,0,0:0:0:0:
51,192,44855,1,0,0:0:0:0:
256,192,44855,1,0,0:0:0:0:
256,192,45069,128,0,45284:0:0:0:0:
460,192,45069,1,0,0:0:0:0:
51,192,45284,128,0,45498:0:0:0:0:
358,192,45284,1,0,0:0:0:0:
153,192,45498,128,0,45712:0:0:0:0:
460,192,45498,1,0,0:0:0:0:
256,192,45712,128,0,45926:0:0:0:0:
358,192,45712,1,0,0:0:0:0:
358,192,45926,128,0,46141:0:0:0:0:
51,192,45926,1,0,0:0:0:0:
256,192,46141,128,0,46355:0:0:0:0:
460,192,46141,1,0,0:0:0:0:
64,192,46355,1,0,0:0:0:0:
153,192,46355,128,0,46569:0:0:0:0:
460,192,46355,1,0,0:0:0:0:
358,192,46569,128,0,47641:0:0:0:0:
256,192,46569,1,0,0:0:0:0:
51,192,46569,1,0,0:0:0:0:
153,192,46784,1,0,0:0:0:0:
51,192,46998,1,0,0:0:0:0:
256,192,47212,1,0,0:0:0:0:
460,192,47426,1,0,0:0:0:0:
51,192,47641,1,0,0:0:0:0:
153,192,47855,1,0,0:0:0:0:
153,192,47962,1,0,0:0:0:0:
256,192,48069,1,0,0:0:0:0:
460,192,48069,128,0,48284:0:0:0:0:
192,192,48284,1,0,0:0:0:0:
51,192,48284,1,0,0:0:0:0:
358,192,48284,128,0,48926:0:0:0:0:
153,192,48498,1,0,0:0:0:0:
256,192,48712,1,0,0:0:0:0:
153,192,48926,128,0,49569:0:0:0:0:
460,192,48926,1,0,0:0:0:0:
256,192,49141,1,0,0:0:0:0:
460,192,49355,1,0,0:0:0:0:
256,192,49569,128,0,49784:0:0:0:0:
51,192,49569,1,0,0:0:0:0:
51,192,49784,1,0,0:0:0:0:
358,192,49784,1,0,0:0:0:0:
460,192,49784,128,0,51069:0:0:0:0:
153,192,49998,1,0,0:0:0:0:
256,192,49998,1,0,0:0:0:0:
358,192,50212,1,0,0:0:0:0:
51,192,50426,1,0,0:0:0:0:
256,192,50641,1,0,0:0:0:0:
51,192,50855,1,0,0:0:0:0:
153,192,51069,1,0,0:0:0:0:
256,192,51284,128,0,51498:0:0:0:0:
460,192,51284,1,0,0:0:0:0:
153,192,51498,128,0,51712:0:0:0:0:
358,192,51605,1,0,0:0:0:0:
448,192,51712,1,0,0:0:0:0:
256,192,51712,1,0,0:0:0:0:
51,192,51712,128,0,52141:0:0:0:0:
358,192,51926,1,0,0:0:0:0:
256,192,52141,128,0,52355:0:0:0:0:
153,192,52141,1,0,0:0:0:0:
358,192,52355,128,0,52998:0:0:0:0:
460,192,52355,1,0,0:0:0:0:
153,192,52569,1,0,0:0:0:0:
51,192,52784,1,0,0:0:0:0:
256,192,52998,128,0,53426:0:0:0:0:
153,192,52998,1,0,0:0:0:0:
51,192,53212,1,0,0:0:0:0:
448,192,53212,1,0,0:0:0:0:
153,192,53426,1,0,0:0:0:0:
358,192,53426,1,0,0:0:0:0:
51,192,53426,128,0,54284:0:0:0:0:
460,192,53641,1,0,0:0:0:0:
153,192,53855,1,0,0:0:0:0:
460,192,54069,1,0,0:0:0:0:
256,192,54284,1,0,0:0:0:0:
358,192,54498,1,0,0:0:0:0:
153,192,54498,1,0,0:0:0:0:
460,192,54712,1,0,0:0:0:0:
256,192,54712,1,0,0:0:0:0:
460,192,54819,1,0,0:0:0:0:
153,192,54926,1,0,0:0:0:0:
51,192,54926,1,0,0:0:0:0:
358,192,54926,1,0,0:0:0:0:
448,192,55141,1,0,0:0:0:0:
64,192,55141,1,0,0:0:0:0:
256,192,55141,1,0,0:0:0:0:
358,192,55141,1,0,0:0:0:0:
153,192,55355,1,0,0:0:0:0:
320,192,55569,1,0,0:0:0:0:
256,192,55569,1,0,0:0:0:0:
153,192,55784,1,0,0:0:0:0:
448,192,55998,1,0,0:0:0:0:
358,192,56212,1,0,0:0:0:0:
256,192,56212,1,0,0:0:0:0:
51,192,56426,1,0,0:0:0:0:
153,192,56426,1,0,0:0:0:0:
256,192,56641,1,0,0:0:0:0:
460,192,56641,1,0,0:0:0:0:
51,192,56855,1,0,0:0:0:0:
358,192,56855,1,0,0:0:0:0:
153,192,56855,1,0,0:0:0:0:
256,192,57069,1,0,0:0:0:0:
64,192,57284,1,0,0:0:0:0:
192,192,57498,1,0,0:0:0:0:
256,192,57498,1,0,0:0:0:0:
448,192,57712,1,0,0:0:0:0:
358,192,57926,1,0,0:0:0:0:
64,192,58141,1,0,0:0:0:0:
256,192,58141,1,0,0:0:0:0:
320,192,58355,1,0,0:0:0:0:
153,192,58355,1,0,0:0:0:0:
256,192,58462,1,0,0:0:0:0:
64,192,58569,1,0,0:0:0:0:
448,192,58569,1,0,0:0:0:0:
256,192,58784,1,0,0:0:0:0:
320,192,58998,1,0,0:0:0:0:
448,192,58998,1,0,0:0:0:0:
64,192,59212,1,0,0:0:0:0:
256,192,59212,1,0,0:0:0:0:
320,192,59426,1,0,0:0:0:0:
448,192,59641,1,0,0:0:0:0:
153,192,59641,1,0,0:0:0:0:
64,192,59855,1,0,0:0:0:0:
320,192,59855,1,0,0:0:0:0:
192,192,60069,1,0,0:0:0:0:
460,192,60069,1,0,0:0:0:0:
64,192,60284,1,0,0:0:0:0:
256,192,60284,1,0,0:0:0:0:
358,192,60284,1,0,0:0:0:0:
460,192,60498,1,0,0:0:0:0:
153,192,60712,1,0,0:0:0:0:
358,192,60712,1,0,0:0:0:0:
51,192,60926,1,0,0:0:0:0:
256,192,60926,1,0,0:0:0:0:
460,192,61141,1,0,0:0:0:0:
358,192,61141,1,0,0:0:0:0:
192,192,61355,1,0,0:0:0:0:
256,192,61355,1,0,0:0:0:0:
51,192,61569,1,0,0:0:0:0:
358,192,61569,1,0,0:0:0:0:
51,192,61676,1,0,0:0:0:0:
256,192,61784,1,0,0:0:0:0:
460,192,61784,1,0,0:0:0:0:
192,192,61998,1,0,0:0:0:0:
358,192,61998,1,0,0:0:0:0:
51,192,61998,1,0,0:0:0:0:
256,192,62212,1,0,0:0:0:0:
460,192,62212,1,0,0:0:0:0:
460,192,62426,1,0,0:0:0:0:
153,192,62426,1,0,0:0:0:0:
51,192,62641,1,0,0:0:0:0:
358,192,62641,1,0,0:0:0:0:
192,192,62855,1,0,0:0:0:0:
460,192,62855,1,0,0:0:0:0:
358,192,63069,1,0,0:0:0:0:
256,192,63069,1,0,0:0:0:0:
192,192,63284,1,0,0:0:0:0:
64,192,63284,1,0,0:0:0:0:
460,192,63498,1,0,0:0:0:0:
358,192,63498,1,0,0:0:0:0:
64,192,63712,1,0,0:0:0:0:
256,192,63712,1,0,0:0:0:0:
153,192,63712,1,0,0:0:0:0:
460,192,63926,1,0,0:0:0:0:
256,192,63926,1,0,0:0:0:0:
51,192,64141,1,0,0:0:0:0:
358,192,64141,1,0,0:0:0:0:
153,192,64355,1,0,0:0:0:0:
460,192,64355,1,0,0:0:0:0:
256,192,64355,1,0,0:0:0:0:
51,192,64569,1,0,0:0:0:0:
358,192,64569,1,0,0:0:0:0:
153,192,64784,1,0,0:0:0:0:
256,192,64784,1,0,0:0:0:0:
64,192,64998,1,0,0:0:0:0:
460,192,64998,1,0,0:0:0:0:
358,192,64998,1,0,0:0:0:0:
192,192,65212,1,0,0:0:0:0:
256,192,65212,1,0,0:0:0:0:
51,192,65212,1,0,0:0:0:0:
358,192,65319,1,0,0:0:0:0:
448,192,65426,1,0,0:0:0:0:
256,192,65426,1,0,0:0:0:0:
153,192,65641,1,0,0:0:0:0:
358,192,65641,1,0,0:0:0:0:
256,192,65855,1,0,0:0:0:0:
51,192,65855,1,0,0:0:0:0:
460,192,66069,1,0,0:0:0:0:
358,192,66069,1,0,0:0:0:0:
256,192,66284,1,0,0:0:0:0:
153,192,66284,1,0,0:0:0:0:
460,192,66498,1,0,0:0:0:0:
51,192,66498,1,0,0:0:0:0:
358,192,66712,1,0,0:0:0:0:
256,192,66712,1,0,0:0:0:0:
192,192,66926,1,0,0:0:0:0:
51,192,66926,1,0,0:0:0:0:
448,192,67141,1,0,0:0:0:0:
256,192,67141,1,0,0:0:0:0:
358,192,67141,1,0,0:0:0:0:
153,192,67355,1,0,0:0:0:0:
448,192,67569,1,0,0:0:0:0:
51,192,67569,1,0,0:0:0:0:
320,192,67784,1,0,0:0:0:0:
256,192,67784,1,0,0:0:0:0:
192,192,67998,1,0,0:0:0:0:
51,192,67998,1,0,0:0:0:0:
460,192,68212,1,0,0:0:0:0:
358,192,68212,1,0,0:0:0:0:
256,192,68426,1,0,0:0:0:0:
51,192,68426,1,0,0:0:0:0:
256,192,68534,1,0,0:0:0:0:
153,192,68641,1,0,0:0:0:0:
358,192,68641,1,0,0:0:0:0:
51,192,68855,1,0,0:0:0:0:
448,192,68855,1,0,0:0:0:0:
153,192,68855,1,0,0:0:0:0:
256,192,69069,1,0,0:0:0:0:
460,192,69069,1,0,0:0:0:0:
320,192,69284,1,0,0:0:0:0:
64,192,69284,1,0,0:0:0:0:
448,192,69498,1,0,0:0:0:0:
153,192,69498,1,0,0:0:0:0:
320,192,69712,1,0,0:0:0:0:
256,192,69712,1,0,0:0:0:0:
64,192,69926,1,0,0:0:0:0:
153,192,69926,1,0,0:0:0:0:
448,192,70141,1,0,0:0:0:0:
256,192,70141,1,0,0:0:0:0:
320,192,70355,1,0,0:0:0:0:
153,192,70355,1,0,0:0:0:0:
64,192,70569,1,0,0:0:0:0:
358,192,70569,1,0,0:0:0:0:
256,192,70569,1,0,0:0:0:0:
460,192,70784,1,0,0:0:0:0:
51,192,70784,1,0,0:0:0:0:
153,192,70998,1,0,0:0:0:0:
460,192,70998,1,0,0:0:0:0:
358,192,71212,1,0,0:0:0:0:
51,192,71212,1,0,0:0:0:0:
256,192,71426,1,0,0:0:0:0:
460,192,71426,1,0,0:0:0:0:
358,192,71641,1,0,0:0:0:0:
51,192,71641,1,0,0:0:0:0:
256,192,71855,1,0,0:0:0:0:
460,192,71855,1,0,0:0:0:0:
192,192,72069,1,0,0:0:0:0:
358,192,72069,1,0,0:0:0:0:
256,192,72176,1,0,0:0:0:0:
64,192,72284,1,0,0:0:0:0:
448,192,72284,1,0,0:0:0:0:
153,192,72284,1,0,0:0:0:0:
358,192,72498,1,0,0:0:0:0:
51,192,72498,1,0,0:0:0:0:
192,192,72712,1,0,0:0:0:0:
448,192,72712,1,0,0:0:0:0:
320,192,72926,1,0,0:0:0:0:
256,192,72926,1,0,0:0:0:0:
64,192,73141,1,0,0:0:0:0:
460,192,73141,1,0,0:0:0:0:
192,192,73355,1,0,0:0:0:0:
256,192,73355,1,0,0:0:0:0:
448,192,73569,1,0,0:0:0:0:
64,192,73569,1,0,0:0:0:0:
358,192,73569,1,0,0:0:0:0:
51,192,73784,1,0,0:0:0:0:
358,192,73784,1,0,0:0:0:0:
256,192,73784,1,0,0:0:0:0:
448,192,73998,1,0,0:0:0:0:
153,192,73998,1,0,0:0:0:0:
256,192,74212,1,0,0:0:0:0:
64,192,74426,1,0,0:0:0:0:
320,192,74426,1,0,0:0:0:0:
448,192,74641,1,0,0:0:0:0:
256,192,74641,1,0,0:0:0:0:
153,192,74855,1,0,0:0:0:0:
358,192,74855,128,0,75176:0:0:0:0:
153,192,75176,128,0,75498:0:0:0:0:
51,192,75176,1,0,0:0:0:0:
256,192,75498,128,0,75712:0:0:0:0:
460,192,75498,1,0,0:0:0:0:
448,192,75712,1,0,0:0:0:0:
64,192,75712,128,0,76355:0:0:0:0:
358,192,75712,1,0,0:0:0:0:
256,192,75926,1,0,0:0:0:0:
320,192,76141,1,0,0:0:0:0:
153,192,76141,1,0,0:0:0:0:
448,192,76355,128,0,76998:0:0:0:0:
256,192,76355,1,0,0:0:0:0:
358,192,76355,1,0,0:0:0:0:
192,192,76569,1,0,0:0:0:0:
256,192,76784,1,0,0:0:0:0:
192,192,76998,128,0,77426:0:0:0:0:
320,192,76998,1,0,0:0:0:0:
51,192,76998,1,0,0:0:0:0:
256,192,77212,1,0,0:0:0:0:
64,192,77426,128,0,77855:0:0:0:0:
448,192,77426,1,0,0:0:0:0:
358,192,77426,1,0,0:0:0:0:
256,192,77641,1,0,0:0:0:0:
320,192,77855,1,0,0:0:0:0:
153,192,77855,1,0,0:0:0:0:
448,192,78069,1,0,0:0:0:0:
256,192,78069,1,0,0:0:0:0:
51,192,78284,1,0,0:0:0:0:
358,192,78284,1,0,0:0:0:0:
460,192,78498,1,0,0:0:0:0:
256,192,78498,1,0,0:0:0:0:
153,192,78712,1,0,0:0:0:0:
51,192,78712,1,0,0:0:0:0:
153,192,79034,1,0,0:0:0:0:
64,192,79141,1,0,0:0:0:0:
320,192,79141,1,0,0:0:0:0:
448,192,79141,1,0,0:0:0:0:
256,192,79141,1,0,0:0:0:0:
153,192,79355,1,0,0:0:0:0:
256,192,79569,1,0,0:0:0:0:
51,192,79784,1,0,0:0:0:0:
448,192,79998,1,0,0:0:0:0:
192,192,79998,1,0,0:0:0:0:
358,192,79998,1,0,0:0:0:0:
256,192,80212,1,0,0:0:0:0:
460,192,80426,1,0,0:0:0:0:
64,192,80641,1,0,0:0:0:0:
153,192,80641,1,0,0:0:0:0:
358,192,80641,1,0,0:0:0:0:
153,192,80855,1,0,0:0:0:0:
64,192,80855,1,0,0:0:0:0:
358,192,80855,1,0,0:0:0:0:
256,192,81069,1,0,0:0:0:0:
51,192,81284,1,0,0:0:0:0:
460,192,81498,1,0,0:0:0:0:
256,192,81498,1,0,0:0:0:0:
153,192,81498,1,0,0:0:0:0:
256,192,81712,1,0,0:0:0:0:
460,192,81712,1,0,0:0:0:0:
153,192,81712,1,0,0:0:0:0:
358,192,81926,1,0,0:0:0:0:
51,192,82141,1,0,0:0:0:0:
51,192,82248,1,0,0:0:0:0:
448,192,82355,1,0,0:0:0:0:
153,192,82355,1,0,0:0:0:0:
358,192,82355,1,0,0:0:0:0:
256,192,82569,1,0,0:0:0:0:
358,192,82569,1,0,0:0:0:0:
64,192,82569,1,0,0:0:0:0:
460,192,82569,1,0,0:0:0:0:
153,192,82784,1,0,0:0:0:0:
256,192,82998,1,0,0:0:0:0:
64,192,83212,1,0,0:0:0:0:
448,192,83212,1,0,0:0:0:0:
153,192,83212,1,0,0:0:0:0:
64,192,83426,1,0,0:0:0:0:
448,192,83426,1,0,0:0:0:0:
256,192,83426,1,0,0:0:0:0:
358,192,83426,1,0,0:0:0:0:
320,192,83641,1,0,0:0:0:0:
192,192,83641,1,0,0:0:0:0:
448,192,83855,1,0,0:0:0:0:
192,192,83855,1,0,0:0:0:0:
320,192,84069,1,0,0:0:0:0:
64,192,84069,1,0,0:0:0:0:
192,192,84284,1,0,0:0:0:0:
64,192,84284,1,0,0:0:0:0:
448,192,84284,1,0,0:0:0:0:
358,192,84391,1,0,0:0:0:0:
256,192,84498,1,0,0:0:0:0:
153,192,84605,1,0,0:0:0:0:
460,192,84712,128,0,85141:0:0:0:0:
51,192,84712,1,0,0:0:0:0:
358,192,84712,1,0,0:0:0:0:
153,192,84819,1,0,0:0:0:0:
358,192,84926,1,0,0:0:0:0:
256,192,85034,1,0,0:0:0:0:
358,192,85141,1,0,0:0:0:0:
51,192,85141,1,0,0:0:0:0:
153,192,85141,128,0,85569:0:0:0:0:
256,192,85248,1,0,0:0:0:0:
51,192,85355,1,0,0:0:0:0:
460,192,85355,1,0,0:0:0:0:
358,192,85462,1,0,0:0:0:0:
256,192,85569,128,0,85891:0:0:0:0:
51,192,85569,1,0,0:0:0:0:
460,192,85569,1,0,0:0:0:0:
358,192,85676,1,0,0:0:0:0:
153,192,85784,1,0,0:0:0:0:
460,192,85784,1,0,0:0:0:0:
51,192,85891,1,0,0:0:0:0:
460,192,85998,1,0,0:0:0:0:
153,192,85998,1,0,0:0:0:0:
358,192,85998,1,0,0:0:0:0:
358,192,86212,1,0,0:0:0:0:
64,192,86426,1,0,0:0:0:0:
256,192,86426,1,0,0:0:0:0:
153,192,86641,1,0,0:0:0:0:
358,192,86641,1,0,0:0:0:0:
448,192,86855,1,0,0:0:0:0:
256,192,86855,1,0,0:0:0:0:
153,192,87069,1,0,0:0:0:0:
64,192,87284,1,0,0:0:0:0:
460,192,87284,1,0,0:0:0:0:
358,192,87284,1,0,0:0:0:0:
153,192,87391,1,0,0:0:0:0:
256,192,87498,1,0,0:0:0:0:
320,192,87712,128,0,88141:0:0:0:0:
64,192,87712,1,0,0:0:0:0:
256,192,87926,1,0,0:0:0:0:
448,192,88141,128,0,88462:0:0:0:0:
192,192,88141,1,0,0:0:0:0:
51,192,88141,1,0,0:0:0:0:
64,192,88462,1,0,0:0:0:0:
192,192,88516,1,0,0:0:0:0:
256,192,88569,1,0,0:0:0:0:
460,192,88784,1,0,0:0:0:0:
64,192,88998,1,0,0:0:0:0:
153,192,88998,1,0,0:0:0:0:
256,192,88998,1,0,0:0:0:0:
320,192,89212,1,0,0:0:0:0:
256,192,89212,1,0,0:0:0:0:
358,192,89319,1,0,0:0:0:0:
256,192,89319,1,0,0:0:0:0:
51,192,89426,1,0,0:0:0:0:
460,192,89426,1,0,0:0:0:0:
153,192,89426,1,0,0:0:0:0:
153,192,89641,1,0,0:0:0:0:
256,192,89855,1,0,0:0:0:0:
320,192,89855,1,0,0:0:0:0:
51,192,89855,1,0,0:0:0:0:
460,192,90069,1,0,0:0:0:0:
153,192,90069,1,0,0:0:0:0:
460,192,90176,1,0,0:0:0:0:
153,192,90176,1,0,0:0:0:0:
256,192,90284,1,0,0:0:0:0:
51,192,90284,128,0,90605:0:0:0:0:
358,192,90498,1,0,0:0:0:0:
153,192,90605,128,0,90926:0:0:0:0:
256,192,90712,1,0,0:0:0:0:
460,192,90712,1,0,0:0:0:0:
358,192,90926,128,0,91141:0:0:0:0:
460,192,91141,1,0,0:0:0:0:
51,192,91141,1,0,0:0:0:0:
256,192,91355,1,0,0:0:0:0:
153,192,91569,1,0,0:0:0:0:
358,192,91569,1,0,0:0:0:0:
460,192,91569,128,0,91998:0:0:0:0:
256,192,91784,1,0,0:0:0:0:
51,192,91998,1,0,0:0:0:0:
153,192,91998,1,0,0:0:0:0:
358,192,91998,128,0,92426:0:0:0:0:
153,192,92212,1,0,0:0:0:0:
448,192,92426,1,0,0:0:0:0:
256,192,92426,1,0,0:0:0:0:
51,192,92426,1,0,0:0:0:0:
153,192,92534,1,0,0:0:0:0:
256,192,92641,1,0,0:0:0:0:
320,192,92855,1,0,0:0:0:0:
448,192,92855,1,0,0:0:0:0:
51,192,92855,128,0,93712:0:0:0:0:
192,192,93069,1,0,0:0:0:0:
256,192,93069,1,0,0:0:0:0:
153,192,93284,1,0,0:0:0:0:
448,192,93284,1,0,0:0:0:0:
358,192,93284,1,0,0:0:0:0:
256,192,93498,1,0,0:0:0:0:
460,192,93498,1,0,0:0:0:0:
153,192,93712,1,0,0:0:0:0:
358,192,93712,1,0,0:0:0:0:
256,192,93926,1,0,0:0:0:0:
448,192,94141,1,0,0:0:0:0:
64,192,94141,1,0,0:0:0:0:
153,192,94141,1,0,0:0:0:0:
320,192,94248,1,0,0:0:0:0:
256,192,94355,1,0,0:0:0:0:
153,192,94462,1,0,0:0:0:0:
460,192,94569,1,0,0:0:0:0:
51,192,94569,128,0,94998:0:0:0:0:
358,192,94784,1,0,0:0:0:0:
256,192,94998,1,0,0:0:0:0:
460,192,94998,1,0,0:0:0:0:
153,192,94998,128,0,95319:0:0:0:0:
460,192,95319,1,0,0:0:0:0:
358,192,95373,1,0,0:0:0:0:
256,192,95426,1,0,0:0:0:0:
460,192,95641,1,0,0:0:0:0:
51,192,95855,1,0,0:0:0:0:
320,192,95855,1,0,0:0:0:0:
256,192,95855,1,0,0:0:0:0:
153,192,96069,1,0,0:0:0:0:
256,192,96069,1,0,0:0:0:0:
153,192,96176,1,0,0:0:0:0:
256,192,96176,1,0,0:0:0:0:
64,192,96284,1,0,0:0:0:0:
460,192,96284,1,0,0:0:0:0:
358,192,96284,1,0,0:0:0:0:
358,192,96498,1,0,0:0:0:0:
256,192,96712,1,0,0:0:0:0:
153,192,96712,1,0,0:0:0:0:
460,192,96712,1,0,0:0:0:0:
51,192,96926,1,0,0:0:0:0:
460,192,97141,128,0,97998:0:0:0:0:
153,192,97141,1,0,0:0:0:0:
51,192,97355,1,0,0:0:0:0:
358,192,97462,128,0,97998:0:0:0:0:
256,192,97462,1,0,0:0:0:0:
153,192,97784,128,0,97998:0:0:0:0:
51,192,97784,1,0,0:0:0:0:
51,192,97998,128,0,98855:0:0:0:0:
256,192,97998,1,0,0:0:0:0:
256,192,98319,128,0,98855:0:0:0:0:
358,192,98319,1,0,0:0:0:0:
358,192,98641,128,0,98855:0:0:0:0:
460,192,98641,1,0,0:0:0:0:
460,192,98855,128,0,99712:0:0:0:0:
153,192,98855,1,0,0:0:0:0:
153,192,99176,128,0,99712:0:0:0:0:
51,192,99176,1,0,0:0:0:0:
256,192,99498,128,0,99712:0:0:0:0:
358,192,99498,1,0,0:0:0:0:
358,192,99712,1,0,0:0:0:0:
51,192,99712,1,0,0:0:0:0:
153,192,99926,1,0,0:0:0:0:
256,192,99926,1,0,0:0:0:0:
358,192,100141,1,0,0:0:0:0:
460,192,100141,1,0,0:0:0:0:
51,192,100141,1,0,0:0:0:0:
153,192,100355,1,0,0:0:0:0:
460,192,100355,1,0,0:0:0:0:
256,192,100569,1,0,0:0:0:0:
358,192,100569,1,0,0:0:0:0:
51,192,100784,1,0,0:0:0:0:
153,192,100998,1,0,0:0:0:0:
358,192,100998,1,0,0:0:0:0:
460,192,100998,128,0,101426:0:0:0:0:
256,192,101212,1,0,0:0:0:0:
51,192,101426,128,0,101855:0:0:0:0:
358,192,101426,128,0,101855:0:0:0:0:
153,192,101426,1,0,0:0:0:0:
256,192,101641,1,0,0:0:0:0:
153,192,101855,128,0,102176:0:0:0:0:
256,192,101855,1,0,0:0:0:0:
460,192,101855,1,0,0:0:0:0:
256,192,102069,1,0,0:0:0:0:
460,192,102176,1,0,0:0:0:0:
358,192,102230,1,0,0:0:0:0:
256,192,102284,1,0,0:0:0:0:
460,192,102498,1,0,0:0:0:0:
51,192,102605,128,0,102926:0:0:0:0:
256,192,102712,1,0,0:0:0:0:
358,192,102712,1,0,0:0:0:0:
153,192,102926,128,0,103141:0:0:0:0:
460,192,102926,1,0,0:0:0:0:
460,192,103141,128,0,103569:0:0:0:0:
256,192,103141,128,0,103569:0:0:0:0:
51,192,103355,1,0,0:0:0:0:
153,192,103569,1,0,0:0:0:0:
358,192,103569,1,0,0:0:0:0:
358,192,103784,128,0,104212:0:0:0:0:
51,192,103784,1,0,0:0:0:0:
153,192,103998,1,0,0:0:0:0:
256,192,104212,1,0,0:0:0:0:
358,192,104426,1,0,0:0:0:0:
153,192,104426,1,0,0:0:0:0:
460,192,104426,128,0,104641:0:0:0:0:
256,192,104641,128,0,105284:0:0:0:0:
51,192,104641,1,0,0:0:0:0:
358,192,104855,1,0,0:0:0:0:
460,192,105069,1,0,0:0:0:0:
153,192,105284,1,0,0:0:0:0:
51,192,105284,1,0,0:0:0:0:
358,192,105498,1,0,0:0:0:0:
256,192,105605,1,0,0:0:0:0:
460,192,105712,1,0,0:0:0:0:
51,192,105712,128,0,106034:0:0:0:0:
256,192,105926,1,0,0:0:0:0:
153,192,106034,128,0,106355:0:0:0:0:
460,192,106141,1,0,0:0:0:0:
358,192,106141,1,0,0:0:0:0:
256,192,106355,128,0,106569:0:0:0:0:
460,192,106569,1,0,0:0:0:0:
358,192,106569,1,0,0:0:0:0:
51,192,106569,1,0,0:0:0:0:
153,192,106784,1,0,0:0:0:0:
51,192,106998,1,0,0:0:0:0:
256,192,106998,1,0,0:0:0:0:
358,192,106998,128,0,107212:0:0:0:0:
460,192,107212,128,0,107426:0:0:0:0:
153,192,107212,1,0,0:0:0:0:
256,192,107426,1,0,0:0:0:0:
153,192,107641,1,0,0:0:0:0:
51,192,107855,1,0,0:0:0:0:
460,192,107855,1,0,0:0:0:0:
358,192,107855,1,0,0:0:0:0:
460,192,108069,1,0,0:0:0:0:
358,192,108176,1,0,0:0:0:0:
256,192,108284,1,0,0:0:0:0:
51,192,108284,128,0,108605:0:0:0:0:
153,192,108498,1,0,0:0:0:0:
358,192,108605,128,0,108926:0:0:0:0:
460,192,108712,1,0,0:0:0:0:
153,192,108712,1,0,0:0:0:0:
256,192,108926,128,0,109355:0:0:0:0:
51,192,108926,1,0,0:0:0:0:
153,192,109141,1,0,0:0:0:0:
460,192,109355,1,0,0:0:0:0:
358,192,109569,1,0,0:0:0:0:
153,192,109569,1,0,0:0:0:0:
51,192,109569,128,0,109998:0:0:0:0:
256,192,109784,1,0,0:0:0:0:
460,192,109998,1,0,0:0:0:0:
358,192,109998,1,0,0:0:0:0:
256,192,109998,1,0,0:0:0:0:
153,192,110212,1,0,0:0:0:0:
358,192,110212,1,0,0:0:0:0:
256,192,110426,1,0,0:0:0:0:
51,192,110426,1,0,0:0:0:0:
358,192,110426,1,0,0:0:0:0:
153,192,110641,1,0,0:0:0:0:
460,192,110641,1,0,0:0:0:0:
358,192,110855,1,0,0:0:0:0:
256,192,110855,1,0,0:0:0:0:
460,192,111069,1,0,0:0:0:0:
358,192,111284,1,0,0:0:0:0:
51,192,111284,1,0,0:0:0:0:
153,192,111284,1,0,0:0:0:0:
358,192,111498,1,0,0:0:0:0:
460,192,111605,1,0,0:0:0:0:
256,192,111712,128,0,112141:0:0:0:0:
51,192,111712,1,0,0:0:0:0:
358,192,111926,1,0,0:0:0:0:
51,192,112141,128,0,112569:0:0:0:0:
153,192,112141,1,0,0:0:0:0:
460,192,112141,1,0,0:0:0:0:
358,192,112355,1,0,0:0:0:0:
460,192,112569,128,0,112998:0:0:0:0:
256,192,112569,1,0,0:0:0:0:
153,192,112784,1,0,0:0:0:0:
358,192,112998,128,0,113426:0:0:0:0:
51,192,112998,1,0,0:0:0:0:
256,192,112998,1,0,0:0:0:0:
153,192,113212,1,0,0:0:0:0:
256,192,113426,1,0,0:0:0:0:
51,192,113426,1,0,0:0:0:0:
460,192,113426,1,0,0:0:0:0:
153,192,113641,1,0,0:0:0:0:
256,192,113855,1,0,0:0:0:0:
460,192,113855,1,0,0:0:0:0:
358,192,114069,1,0,0:0:0:0:
153,192,114069,1,0,0:0:0:0:
51,192,114284,1,0,0:0:0:0:
256,192,114284,1,0,0:0:0:0:
358,192,114498,1,0,0:0:0:0:
153,192,114712,1,0,0:0:0:0:
460,192,114712,1,0,0:0:0:0:
51,192,114712,1,0,0:0:0:0:
358,192,114819,1,0,0:0:0:0:
256,192,114926,1,0,0:0:0:0:
460,192,115141,1,0,0:0:0:0:
153,192,115141,128,0,115569:0:0:0:0:
256,192,115355,1,0,0:0:0:0:
460,192,115569,1,0,0:0:0:0:
358,192,115569,1,0,0:0:0:0:
51,192,115569,128,0,115891:0:0:0:0:
460,192,115891,1,0,0:0:0:0:
358,192,115944,1,0,0:0:0:0:
256,192,115998,1,0,0:0:0:0:
51,192,116212,1,0,0:0:0:0:
460,192,116426,1,0,0:0:0:0:
256,192,116426,1,0,0:0:0:0:
358,192,116426,1,0,0:0:0:0:
153,192,116641,1,0,0:0:0:0:
256,192,116641,1,0,0:0:0:0:
153,192,116748,1,0,0:0:0:0:
256,192,116748,1,0,0:0:0:0:
51,192,116855,1,0,0:0:0:0:
460,192,116855,1,0,0:0:0:0:
358,192,116855,1,0,0:0:0:0:
358,192,117069,1,0,0:0:0:0:
153,192,117284,1,0,0:0:0:0:
256,192,117284,1,0,0:0:0:0:
460,192,117284,1,0,0:0:0:0:
51,192,117498,1,0,0:0:0:0:
358,192,117498,1,0,0:0:0:0:
51,192,117605,1,0,0:0:0:0:
358,192,117605,1,0,0:0:0:0:
460,192,117712,128,0,118034:0:0:0:0:
256,192,117712,1,0,0:0:0:0:
153,192,117926,1,0,0:0:0:0:
358,192,118034,128,0,118355:0:0:0:0:
51,192,118141,1,0,0:0:0:0:
256,192,118141,1,0,0:0:0:0:
153,192,118355,128,0,118569:0:0:0:0:
51,192,118569,1,0,0:0:0:0:
460,192,118569,1,0,0:0:0:0:
256,192,118784,1,0,0:0:0:0:
358,192,118998,1,0,0:0:0:0:
153,192,118998,1,0,0:0:0:0:
51,192,118998,128,0,119426:0:0:0:0:
256,192,119212,1,0,0:0:0:0:
460,192,119426,1,0,0:0:0:0:
358,192,119426,1,0,0:0:0:0:
153,192,119426,128,0,119855:0:0:0:0:
358,192,119641,1,0,0:0:0:0:
256,192,119855,1,0,0:0:0:0:
51,192,119855,1,0,0:0:0:0:
460,192,119855,1,0,0:0:0:0:
358,192,119962,1,0,0:0:0:0:
256,192,120069,1,0,0:0:0:0:
153,192,120284,1,0,0:0:0:0:
51,192,120284,1,0,0:0:0:0:
460,192,120284,128,0,121141:0:0:0:0:
256,192,120498,1,0,0:0:0:0:
358,192,120498,1,0,0:0:0:0:
153,192,120712,1,0,0:0:0:0:
358,192,120712,1,0,0:0:0:0:
51,192,120712,1,0,0:0:0:0:
256,192,120926,1,0,0:0:0:0:
51,192,120926,1,0,0:0:0:0:
358,192,121141,1,0,0:0:0:0:
153,192,121141,1,0,0:0:0:0:
256,192,121355,1,0,0:0:0:0:
460,192,121569,1,0,0:0:0:0:
358,192,121569,1,0,0:0:0:0:
51,192,121569,1,0,0:0:0:0:
153,192,121676,1,0,0:0:0:0:
256,192,121784,1,0,0:0:0:0:
358,192,121891,1,0,0:0:0:0:
460,192,121998,128,0,122426:0:0:0:0:
51,192,121998,1,0,0:0:0:0:
153,192,122212,1,0,0:0:0:0:
256,192,122426,1,0,0:0:0:0:
358,192,122426,128,0,122748:0:0:0:0:
51,192,122426,1,0,0:0:0:0:
51,192,122748,1,0,0:0:0:0:
153,192,122801,1,0,0:0:0:0:
256,192,122855,1,0,0:0:0:0:
51,192,123069,1,0,0:0:0:0:
153,192,123284,1,0,0:0:0:0:
460,192,123284,1,0,0:0:0:0:
256,192,123284,1,0,0:0:0:0:
358,192,123498,1,0,0:0:0:0:
256,192,123498,1,0,0:0:0:0:
358,192,123605,1,0,0:0:0:0:
256,192,123605,1,0,0:0:0:0:
51,192,123712,1,0,0:0:0:0:
460,192,123712,1,0,0:0:0:0:
153,192,123712,1,0,0:0:0:0:
153,192,123926,1,0,0:0:0:0:
256,192,124141,1,0,0:0:0:0:
51,192,124141,1,0,0:0:0:0:
358,192,124141,1,0,0:0:0:0:
460,192,124355,1,0,0:0:0:0:
358,192,124569,1,0,0:0:0:0:
51,192,124569,128,0,125426:0:0:0:0:
256,192,124891,128,0,125426:0:0:0:0:
153,192,124891,1,0,0:0:0:0:
460,192,125212,128,0,125426:0:0:0:0:
358,192,125212,1,0,0:0:0:0:
358,192,125426,128,0,126284:0:0:0:0:
153,192,125426,1,0,0:0:0:0:
153,192,125748,128,0,126284:0:0:0:0:
256,192,125748,1,0,0:0:0:0:
256,192,126069,128,0,126284:0:0:0:0:
51,192,126069,1,0,0:0:0:0:
51,192,126284,128,0,127141:0:0:0:0:
460,192,126284,1,0,0:0:0:0:
460,192,126605,128,0,127141:0:0:0:0:
358,192,126605,1,0,0:0:0:0:
256,192,126926,128,0,127141:0:0:0:0:
153,192,126926,1,0,0:0:0:0:
153,192,127141,1,0,0:0:0:0:
358,192,127141,1,0,0:0:0:0:
358,192,127355,1,0,0:0:0:0:
256,192,127355,1,0,0:0:0:0:
51,192,127569,1,0,0:0:0:0:
153,192,127569,1,0,0:0:0:0:
460,192,127569,1,0,0:0:0:0:
358,192,127784,1,0,0:0:0:0:
51,192,127784,1,0,0:0:0:0:
153,192,127998,1,0,0:0:0:0:
256,192,127998,1,0,0:0:0:0:
460,192,128212,1,0,0:0:0:0:
51,192,128426,128,0,128855:0:0:0:0:
153,192,128426,1,0,0:0:0:0:
358,192,128426,1,0,0:0:0:0:
256,192,128641,1,0,0:0:0:0:
358,192,128855,1,0,0:0:0:0:
153,192,128855,128,0,129284:0:0:0:0:
460,192,128855,128,0,129284:0:0:0:0:
256,192,129069,1,0,0:0:0:0:
256,192,129284,1,0,0:0:0:0:
358,192,129284,128,0,129605:0:0:0:0:
51,192,129284,1,0,0:0:0:0:
256,192,129498,1,0,0:0:0:0:
51,192,129605,1,0,0:0:0:0:
153,192,129659,1,0,0:0:0:0:
256,192,129712,1,0,0:0:0:0:
51,192,129926,1,0,0:0:0:0:
460,192,130034,128,0,130355:0:0:0:0:
153,192,130141,1,0,0:0:0:0:
256,192,130141,1,0,0:0:0:0:
51,192,130355,1,0,0:0:0:0:
358,192,130355,128,0,130569:0:0:0:0:
256,192,130569,128,0,130998:0:0:0:0:
51,192,130569,128,0,130998:0:0:0:0:
460,192,130784,1,0,0:0:0:0:
153,192,130998,1,0,0:0:0:0:
358,192,130998,1,0,0:0:0:0:
460,192,131212,1,0,0:0:0:0:
153,192,131212,128,0,131641:0:0:0:0:
358,192,131426,1,0,0:0:0:0:
256,192,131641,1,0,0:0:0:0:
358,192,131855,1,0,0:0:0:0:
51,192,131855,128,0,132069:0:0:0:0:
153,192,131855,1,0,0:0:0:0:
460,192,132069,1,0,0:0:0:0:
256,192,132069,128,0,132712:0:0:0:0:
153,192,132284,1,0,0:0:0:0:
51,192,132498,1,0,0:0:0:0:
460,192,132712,1,0,0:0:0:0:
358,192,132712,1,0,0:0:0:0:
51,192,132926,1,0,0:0:0:0:
153,192,133034,1,0,0:0:0:0:
460,192,133141,128,0,133462:0:0:0:0:
256,192,133141,1,0,0:0:0:0:
256,192,133355,1,0,0:0:0:0:
358,192,133462,128,0,133784:0:0:0:0:
51,192,133569,1,0,0:0:0:0:
153,192,133569,1,0,0:0:0:0:
256,192,133784,128,0,133998:0:0:0:0:
153,192,133998,1,0,0:0:0:0:
51,192,133998,1,0,0:0:0:0:
460,192,133998,1,0,0:0:0:0:
256,192,134212,1,0,0:0:0:0:
153,192,134319,1,0,0:0:0:0:
51,192,134426,1,0,0:0:0:0:
358,192,134426,1,0,0:0:0:0:
460,192,134426,1,0,0:0:0:0:
153,192,134641,1,0,0:0:0:0:
358,192,134641,1,0,0:0:0:0:
256,192,134855,1,0,0:0:0:0:
153,192,135069,128,0,135498:0:0:0:0:
358,192,135069,1,0,0:0:0:0:
460,192,135284,1,0,0:0:0:0:
256,192,135284,1,0,0:0:0:0:
358,192,135498,128,0,136141:0:0:0:0:
51,192,135498,128,0,136141:0:0:0:0:
460,192,135498,1,0,0:0:0:0:
256,192,135712,1,0,0:0:0:0:
153,192,135926,1,0,0:0:0:0:
460,192,136141,1,0,0:0:0:0:
256,192,136141,128,0,136569:0:0:0:0:
153,192,136355,1,0,0:0:0:0:
358,192,136569,128,0,136998:0:0:0:0:
51,192,136569,1,0,0:0:0:0:
153,192,136784,1,0,0:0:0:0:
51,192,136998,1,0,0:0:0:0:
256,192,136998,1,0,0:0:0:0:
153,192,137212,1,0,0:0:0:0:
460,192,137212,1,0,0:0:0:0:
358,192,137212,1,0,0:0:0:0:
460,192,137426,128,0,140855:0:0:0:0:
256,192,137426,1,0,0:0:0:0:
51,192,137426,1,0,0:0:0:0:
153,192,137641,1,0,0:0:0:0:
358,192,137855,1,0,0:0:0:0:
153,192,137855,1,0,0:0:0:0:
51,192,137962,1,0,0:0:0:0:
256,192,138069,1,0,0:0:0:0:
153,192,138176,1,0,0:0:0:0:
358,192,138284,1,0,0:0:0:0:
153,192,138498,1,0,0:0:0:0:
256,192,138605,1,0,0:0:0:0:
51,192,138712,1,0,0:0:0:0:
153,192,138712,1,0,0:0:0:0:
358,192,138819,1,0,0:0:0:0:
256,192,138926,1,0,0:0:0:0:
153,192,139141,1,0,0:0:0:0:
256,192,139355,1,0,0:0:0:0:
153,192,139462,1,0,0:0:0:0:
51,192,139569,1,0,0:0:0:0:
358,192,139569,1,0,0:0:0:0:
256,192,139676,1,0,0:0:0:0:
358,192,139784,1,0,0:0:0:0:
153,192,139891,1,0,0:0:0:0:
51,192,139998,1,0,0:0:0:0:
256,192,140212,1,0,0:0:0:0:
153,192,140319,1,0,0:0:0:0:
51,192,140426,1,0,0:0:0:0:
358,192,140426,1,0,0:0:0:0:
256,192,140641,128,0,140855:0:0:0:0:
358,192,140855,1,0,0:0:0:0:
153,192,140855,1,0,0:0:0:0:
51,192,140855,128,0,144284:0:0:0:0:
256,192,141069,1,0,0:0:0:0:
358,192,141176,1,0,0:0:0:0:
460,192,141284,1,0,0:0:0:0:
153,192,141284,1,0,0:0:0:0:
256,192,141391,1,0,0:0:0:0:
460,192,141498,1,0,0:0:0:0:
256,192,141712,1,0,0:0:0:0:
460,192,141926,1,0,0:0:0:0:
358,192,142034,1,0,0:0:0:0:
153,192,142141,1,0,0:0:0:0:
256,192,142141,1,0,0:0:0:0:
358,192,142248,1,0,0:0:0:0:
460,192,142355,1,0,0:0:0:0:
153,192,142569,1,0,0:0:0:0:
358,192,142784,1,0,0:0:0:0:
256,192,142891,1,0,0:0:0:0:
460,192,142998,1,0,0:0:0:0:
153,192,142998,1,0,0:0:0:0:
358,192,143105,1,0,0:0:0:0:
256,192,143212,1,0,0:0:0:0:
358,192,143426,1,0,0:0:0:0:
153,192,143641,128,0,143855:0:0:0:0:
358,192,143641,1,0,0:0:0:0:
460,192,143855,128,0,144069:0:0:0:0:
256,192,143855,1,0,0:0:0:0:
358,192,144069,128,0,144284:0:0:0:0:
153,192,144069,1,0,0:0:0:0:
256,192,144284,128,0,145998:0:0:0:0:
153,192,144284,1,0,0:0:0:0:
460,192,144284,1,0,0:0:0:0:
51,192,145355,1,0,0:0:0:0:
153,192,145569,1,0,0:0:0:0:
358,192,145784,1,0,0:0:0:0:
460,192,145998,128,0,146641:0:0:0:0:
51,192,145998,1,0,0:0:0:0:
153,192,146641,1,0,0:0:0:0:
358,192,146641,128,0,147284:0:0:0:0:
256,192,147284,1,0,0:0:0:0:
51,192,147284,128,0,147498:0:0:0:0:
358,192,147498,1,0,0:0:0:0:
153,192,147498,128,0,147712:0:0:0:0:
460,192,147712,128,0,149855:0:0:0:0:
256,192,148569,1,0,0:0:0:0:
153,192,148784,1,0,0:0:0:0:
51,192,148998,1,0,0:0:0:0:
153,192,149212,1,0,0:0:0:0:
256,192,149426,1,0,0:0:0:0:
358,192,149426,1,0,0:0:0:0:
153,192,149748,1,0,0:0:0:0:
51,192,149748,1,0,0:0:0:0:
153,192,150069,1,0,0:0:0:0:
256,192,150069,1,0,0:0:0:0:
51,192,150284,1,0,0:0:0:0:
256,192,150498,128,0,150712:0:0:0:0:
153,192,150712,128,0,150926:0:0:0:0:
460,192,150712,1,0,0:0:0:0:
51,192,150926,128,0,151141:0:0:0:0:
358,192,150926,1,0,0:0:0:0:
460,192,151141,1,0,0:0:0:0:
256,192,151141,128,0,152855:0:0:0:0:
153,192,151141,1,0,0:0:0:0:
358,192,151569,1,0,0:0:0:0:
153,192,151784,1,0,0:0:0:0:
51,192,152212,1,0,0:0:0:0:
358,192,152855,1,0,0:0:0:0:
51,192,152855,128,0,153498:0:0:0:0:
460,192,152855,1,0,0:0:0:0:
153,192,153498,128,0,154141:0:0:0:0:
358,192,153498,1,0,0:0:0:0:
460,192,153926,1,0,0:0:0:0:
358,192,154141,1,0,0:0:0:0:
256,192,154141,128,0,154355:0:0:0:0:
460,192,154355,128,0,156284:0:0:0:0:
51,192,154355,1,0,0:0:0:0:
153,192,154569,1,0,0:0:0:0:
358,192,154784,1,0,0:0:0:0:
256,192,154998,1,0,0:0:0:0:
153,192,155212,1,0,0:0:0:0:
51,192,155426,1,0,0:0:0:0:
358,192,155641,1,0,0:0:0:0:
256,192,155641,1,0,0:0:0:0:
153,192,155962,1,0,0:0:0:0:
51,192,155962,1,0,0:0:0:0:
153,192,156284,1,0,0:0:0:0:
256,192,156284,1,0,0:0:0:0:
358,192,156605,1,0,0:0:0:0:
153,192,156605,1,0,0:0:0:0:
51,192,156926,1,0,0:0:0:0:
256,192,156926,1,0,0:0:0:0:
460,192,157355,128,0,157569:0:0:0:0:
256,192,157569,128,0,157784:0:0:0:0:
51,192,157569,1,0,0:0:0:0:
358,192,157784,128,0,157998:0:0:0:0:
153,192,157784,1,0,0:0:0:0:
51,192,157998,128,0,159712:0:0:0:0:
460,192,157998,1,0,0:0:0:0:
256,192,157998,1,0,0:0:0:0:
153,192,158426,1,0,0:0:0:0:
358,192,158641,1,0,0:0:0:0:
256,192,159069,1,0,0:0:0:0:
153,192,159712,1,0,0:0:0:0:
358,192,159712,1,0,0:0:0:0:
256,192,159712,128,0,160355:0:0:0:0:
460,192,159926,1,0,0:0:0:0:
358,192,160141,1,0,0:0:0:0:
51,192,160355,1,0,0:0:0:0:
358,192,160355,128,0,160998:0:0:0:0:
460,192,160998,128,0,161212:0:0:0:0:
153,192,160998,1,0,0:0:0:0:
256,192,161212,128,0,163784:0:0:0:0:
51,192,161212,1,0,0:0:0:0:
358,192,161426,1,0,0:0:0:0:
153,192,161641,1,0,0:0:0:0:
51,192,161855,1,0,0:0:0:0:
153,192,162069,1,0,0:0:0:0:
460,192,162284,1,0,0:0:0:0:
358,192,162498,1,0,0:0:0:0:
51,192,162712,1,0,0:0:0:0:
153,192,162926,1,0,0:0:0:0:
358,192,163141,1,0,0:0:0:0:
153,192,164641,128,0,164855:0:0:0:0:
358,192,164641,128,0,164855:0:0:0:0:
51,192,164855,128,0,165498:0:0:0:0:
460,192,164855,1,0,0:0:0:0:
256,192,164855,1,0,0:0:0:0:
358,192,165069,1,0,0:0:0:0:
460,192,165284,1,0,0:0:0:0:
358,192,165498,1,0,0:0:0:0:
153,192,165498,128,0,166141:0:0:0:0:
460,192,166141,128,0,166355:0:0:0:0:
256,192,166141,1,0,0:0:0:0:
358,192,166355,128,0,167855:0:0:0:0:
51,192,166355,1,0,0:0:0:0:
153,192,167855,128,0,168069:0:0:0:0:
51,192,167855,1,0,0:0:0:0:
256,192,168069,128,0,169998:0:0:0:0:
460,192,168069,1,0,0:0:0:0:
51,192,168284,1,0,0:0:0:0:
460,192,168284,1,0,0:0:0:0:
358,192,168284,1,0,0:0:0:0:
153,192,168498,1,0,0:0:0:0:
51,192,168712,1,0,0:0:0:0:
358,192,168926,1,0,0:0:0:0:
460,192,169569,1,0,0:0:0:0:
51,192,169998,128,0,170855:0:0:0:0:
358,192,169998,1,0,0:0:0:0:
460,192,170426,1,0,0:0:0:0:
153,192,170426,1,0,0:0:0:0:
256,192,170855,128,0,171284:0:0:0:0:
358,192,170855,1,0,0:0:0:0:
358,192,171284,128,0,171712:0:0:0:0:
153,192,171284,1,0,0:0:0:0:
51,192,171712,1,0,0:0:0:0:
153,192,171712,1,0,0:0:0:0:
460,192,171712,1,0,0:0:0:0:
