osu file format v14

[General]
AudioFilename: Otenbakoimusume.mp3
AudioLeadIn: 0
PreviewTime: 84712
Countdown: 0
SampleSet: None
StackLeniency: 0.7
Mode: 3
LetterboxInBreaks: 0
SpecialStyle: 0
WidescreenStoryboard: 0

[Editor]
Bookmarks: 13998,27069,54498,61998,79141,112141,137426
DistanceSpacing: 0.8
BeatDivisor: 4
GridSize: 8
TimelineZoom: 1

[Metadata]
Title:Otenba Koimusume
TitleUnicode:おてんば恋娘
Artist:Kurenainagi Tabibito
ArtistUnicode:紅薙旅人
Creator:MeowPaz
Version:5K Easy
Source:東方Project
Tags:C71 東方幻奏祀典2 ''Canon'' 東方紅魔郷 ~ the Embodiment of Scarlet Devil. Touhou Koumakyou Cirno paperlens
BeatmapID:1134874
BeatmapSetID:363320

[Difficulty]
HPDrainRate:6
CircleSize:5
OverallDifficulty:7
ApproachRate:5
SliderMultiplier:1.4
SliderTickRate:1

[Events]
//Background and Video events
0,0,"BG.jpg",0,0
//Break Periods
//Storyboard Layer 0 (Background)
//Storyboard Layer 1 (Fail)
//Storyboard Layer 2 (Pass)
//Storyboard Layer 3 (Foreground)
//Storyboard Sound Samples

[TimingPoints]
284,428.571428571429,4,2,0,5,1,0
284,-133.333333333333,4,2,0,5,0,0
25784,-117.647058823529,4,2,0,5,0,0
26212,-105.263157894737,4,2,0,5,0,0
26641,-100,4,2,0,5,0,0
85998,-100,4,2,0,5,0,1
144284,-133.333333333333,4,2,0,5,0,0

[HitObjects]
256,192,284,5,0,0:0:0:0:
358,192,498,1,0,0:0:0:0:
460,192,712,1,0,0:0:0:0:
153,192,926,1,0,0:0:0:0:
358,192,1355,1,0,0:0:0:0:
256,192,1998,1,0,0:0:0:0:
153,192,2212,1,0,0:0:0:0:
51,192,2426,1,0,0:0:0:0:
358,192,2641,1,0,0:0:0:0:
153,192,3069,1,0,0:0:0:0:
51,192,3712,1,0,0:0:0:0:
460,192,3926,1,0,0:0:0:0:
460,192,4998,1,0,0:0:0:0:
153,192,5212,1,0,0:0:0:0:
460,192,7141,1,0,0:0:0:0:
358,192,7355,1,0,0:0:0:0:
256,192,7569,1,0,0:0:0:0:
51,192,7784,1,0,0:0:0:0:
358,192,8212,1,0,0:0:0:0:
51,192,8855,1,0,0:0:0:0:
153,192,9069,1,0,0:0:0:0:
256,192,9284,1,0,0:0:0:0:
460,192,9498,1,0,0:0:0:0:
153,192,9926,1,0,0:0:0:0:
460,192,10569,1,0,0:0:0:0:
51,192,10784,1,0,0:0:0:0:
358,192,10998,1,0,0:0:0:0:
256,192,11212,1,0,0:0:0:0:
51,192,11855,1,0,0:0:0:0:
358,192,12069,1,0,0:0:0:0:
51,192,13998,1,0,0:0:0:0:
256,192,14212,1,0,0:0:0:0:
153,192,14426,1,0,0:0:0:0:
358,192,14641,1,0,0:0:0:0:
460,192,14855,1,0,0:0:0:0:
358,192,15069,1,0,0:0:0:0:
256,192,15284,1,0,0:0:0:0:
460,192,15712,1,0,0:0:0:0:
256,192,15926,1,0,0:0:0:0:
358,192,16141,1,0,0:0:0:0:
153,192,16355,1,0,0:0:0:0:
51,192,16569,1,0,0:0:0:0:
153,192,16784,1,0,0:0:0:0:
256,192,16998,1,0,0:0:0:0:
51,192,17426,1,0,0:0:0:0:
460,192,17426,1,0,0:0:0:0:
256,192,18069,1,0,0:0:0:0:
460,192,18284,1,0,0:0:0:0:
358,192,18498,1,0,0:0:0:0:
256,192,18712,1,0,0:0:0:0:
51,192,18926,1,0,0:0:0:0:
256,192,19355,1,0,0:0:0:0:
460,192,19784,1,0,0:0:0:0:
153,192,20212,1,0,0:0:0:0:
51,192,20426,1,0,0:0:0:0:
358,192,20855,1,0,0:0:0:0:
153,192,21069,1,0,0:0:0:0:
256,192,21284,1,0,0:0:0:0:
51,192,21498,1,0,0:0:0:0:
358,192,21712,1,0,0:0:0:0:
256,192,21926,1,0,0:0:0:0:
51,192,22141,1,0,0:0:0:0:
256,192,22355,1,0,0:0:0:0:
153,192,22569,1,0,0:0:0:0:
358,192,22784,1,0,0:0:0:0:
256,192,22998,1,0,0:0:0:0:
460,192,23212,1,0,0:0:0:0:
153,192,23855,1,0,0:0:0:0:
460,192,24284,1,0,0:0:0:0:
51,192,24498,1,0,0:0:0:0:
358,192,24712,1,0,0:0:0:0:
256,192,24926,1,0,0:0:0:0:
153,192,25141,1,0,0:0:0:0:
51,192,25355,1,0,0:0:0:0:
256,192,25569,1,0,0:0:0:0:
460,192,25784,1,0,0:0:0:0:
153,192,26212,1,0,0:0:0:0:
358,192,26641,1,0,0:0:0:0:
153,192,27069,1,0,0:0:0:0:
256,192,27284,1,0,0:0:0:0:
358,192,27498,1,0,0:0:0:0:
51,192,27712,1,0,0:0:0:0:
460,192,27712,1,0,0:0:0:0:
358,192,28784,1,0,0:0:0:0:
256,192,28998,1,0,0:0:0:0:
153,192,29212,1,0,0:0:0:0:
460,192,29426,1,0,0:0:0:0:
358,192,29426,1,0,0:0:0:0:
51,192,30069,1,0,0:0:0:0:
153,192,30069,1,0,0:0:0:0:
358,192,30712,1,0,0:0:0:0:
153,192,30926,1,0,0:0:0:0:
51,192,32212,1,0,0:0:0:0:
153,192,32426,1,0,0:0:0:0:
256,192,32641,1,0,0:0:0:0:
153,192,32855,1,0,0:0:0:0:
358,192,33176,1,0,0:0:0:0:
460,192,33498,1,0,0:0:0:0:
358,192,33712,1,0,0:0:0:0:
256,192,34141,1,0,0:0:0:0:
153,192,34355,1,0,0:0:0:0:
51,192,34569,1,0,0:0:0:0:
358,192,34998,1,0,0:0:0:0:
460,192,35212,1,0,0:0:0:0:
256,192,35641,1,0,0:0:0:0:
51,192,36284,1,0,0:0:0:0:
460,192,36284,1,0,0:0:0:0:
358,192,36926,1,0,0:0:0:0:
153,192,37569,1,0,0:0:0:0:
51,192,37784,1,0,0:0:0:0:
51,192,39069,1,0,0:0:0:0:
460,192,39391,1,0,0:0:0:0:
153,192,39712,1,0,0:0:0:0:
358,192,40034,1,0,0:0:0:0:
256,192,40355,1,0,0:0:0:0:
256,192,40998,1,0,0:0:0:0:
358,192,41212,1,0,0:0:0:0:
460,192,41426,1,0,0:0:0:0:
153,192,41855,1,0,0:0:0:0:
51,192,42069,1,0,0:0:0:0:
256,192,42498,1,0,0:0:0:0:
460,192,43141,1,0,0:0:0:0:
51,192,43141,1,0,0:0:0:0:
153,192,43784,1,0,0:0:0:0:
358,192,44426,1,0,0:0:0:0:
460,192,44641,1,0,0:0:0:0:
256,192,45284,1,0,0:0:0:0:
51,192,45498,1,0,0:0:0:0:
256,192,45712,1,0,0:0:0:0:
460,192,45926,1,0,0:0:0:0:
153,192,46141,1,0,0:0:0:0:
358,192,46355,1,0,0:0:0:0:
256,192,46569,1,0,0:0:0:0:
51,192,48069,1,0,0:0:0:0:
256,192,48284,1,0,0:0:0:0:
153,192,48926,1,0,0:0:0:0:
256,192,49569,1,0,0:0:0:0:
460,192,49784,1,0,0:0:0:0:
256,192,51284,1,0,0:0:0:0:
153,192,51498,1,0,0:0:0:0:
51,192,51712,1,0,0:0:0:0:
358,192,52141,1,0,0:0:0:0:
256,192,52355,1,0,0:0:0:0:
153,192,52998,1,0,0:0:0:0:
51,192,53426,1,0,0:0:0:0:
153,192,54498,1,0,0:0:0:0:
256,192,54712,1,0,0:0:0:0:
358,192,54926,1,0,0:0:0:0:
51,192,55141,1,0,0:0:0:0:
460,192,55141,1,0,0:0:0:0:
460,192,56212,1,0,0:0:0:0:
358,192,56426,1,0,0:0:0:0:
256,192,56641,1,0,0:0:0:0:
51,192,56855,1,0,0:0:0:0:
358,192,56855,1,0,0:0:0:0:
153,192,57498,1,0,0:0:0:0:
460,192,57498,1,0,0:0:0:0:
51,192,58141,1,0,0:0:0:0:
256,192,58355,1,0,0:0:0:0:
460,192,58998,1,0,0:0:0:0:
358,192,59212,1,0,0:0:0:0:
51,192,59641,1,0,0:0:0:0:
153,192,59855,1,0,0:0:0:0:
256,192,60069,1,0,0:0:0:0:
460,192,60284,1,0,0:0:0:0:
51,192,60712,1,0,0:0:0:0:
256,192,60926,1,0,0:0:0:0:
358,192,61141,1,0,0:0:0:0:
153,192,61355,1,0,0:0:0:0:
460,192,61569,1,0,0:0:0:0:
358,192,61784,1,0,0:0:0:0:
51,192,61998,1,0,0:0:0:0:
256,192,61998,1,0,0:0:0:0:
460,192,62426,1,0,0:0:0:0:
358,192,62641,1,0,0:0:0:0:
51,192,62855,1,0,0:0:0:0:
153,192,63069,1,0,0:0:0:0:
358,192,63284,1,0,0:0:0:0:
256,192,63498,1,0,0:0:0:0:
153,192,63712,1,0,0:0:0:0:
460,192,63712,1,0,0:0:0:0:
358,192,64355,1,0,0:0:0:0:
51,192,64355,1,0,0:0:0:0:
153,192,64998,1,0,0:0:0:0:
358,192,64998,1,0,0:0:0:0:
51,192,65212,1,0,0:0:0:0:
460,192,65212,1,0,0:0:0:0:
256,192,65426,1,0,0:0:0:0:
153,192,65855,1,0,0:0:0:0:
460,192,66284,1,0,0:0:0:0:
358,192,66712,1,0,0:0:0:0:
51,192,67141,1,0,0:0:0:0:
153,192,67569,1,0,0:0:0:0:
460,192,67998,1,0,0:0:0:0:
256,192,68212,1,0,0:0:0:0:
358,192,68426,1,0,0:0:0:0:
153,192,68641,1,0,0:0:0:0:
51,192,68855,1,0,0:0:0:0:
460,192,68855,1,0,0:0:0:0:
153,192,69284,1,0,0:0:0:0:
256,192,69498,1,0,0:0:0:0:
460,192,69712,1,0,0:0:0:0:
358,192,69926,1,0,0:0:0:0:
51,192,70141,1,0,0:0:0:0:
256,192,70355,1,0,0:0:0:0:
51,192,70569,1,0,0:0:0:0:
358,192,70569,1,0,0:0:0:0:
256,192,70998,1,0,0:0:0:0:
51,192,71212,1,0,0:0:0:0:
358,192,71426,1,0,0:0:0:0:
256,192,71641,1,0,0:0:0:0:
153,192,71855,1,0,0:0:0:0:
358,192,72069,1,0,0:0:0:0:
51,192,72284,1,0,0:0:0:0:
460,192,72284,1,0,0:0:0:0:
153,192,72712,1,0,0:0:0:0:
358,192,72926,1,0,0:0:0:0:
256,192,73141,1,0,0:0:0:0:
460,192,73355,1,0,0:0:0:0:
153,192,73569,1,0,0:0:0:0:
51,192,73569,1,0,0:0:0:0:
358,192,73784,1,0,0:0:0:0:
460,192,73784,1,0,0:0:0:0:
256,192,74426,1,0,0:0:0:0:
358,192,74641,1,0,0:0:0:0:
51,192,74855,1,0,0:0:0:0:
460,192,75176,1,0,0:0:0:0:
256,192,75498,1,0,0:0:0:0:
460,192,75712,1,0,0:0:0:0:
51,192,75712,1,0,0:0:0:0:
153,192,76355,1,0,0:0:0:0:
358,192,76355,1,0,0:0:0:0:
256,192,76998,1,0,0:0:0:0:
460,192,76998,1,0,0:0:0:0:
51,192,77426,1,0,0:0:0:0:
358,192,77426,1,0,0:0:0:0:
460,192,77855,1,0,0:0:0:0:
358,192,78069,1,0,0:0:0:0:
256,192,78284,1,0,0:0:0:0:
51,192,78498,1,0,0:0:0:0:
153,192,78712,1,0,0:0:0:0:
256,192,79141,1,0,0:0:0:0:
460,192,79141,1,0,0:0:0:0:
51,192,79998,1,0,0:0:0:0:
358,192,80641,1,0,0:0:0:0:
358,192,80855,1,0,0:0:0:0:
153,192,81498,1,0,0:0:0:0:
153,192,81712,1,0,0:0:0:0:
256,192,82355,1,0,0:0:0:0:
256,192,82569,1,0,0:0:0:0:
51,192,82569,1,0,0:0:0:0:
460,192,83212,1,0,0:0:0:0:
460,192,83426,1,0,0:0:0:0:
51,192,83641,1,0,0:0:0:0:
153,192,83855,1,0,0:0:0:0:
256,192,84069,1,0,0:0:0:0:
51,192,84284,1,0,0:0:0:0:
460,192,84284,1,0,0:0:0:0:
153,192,84712,128,0,85141:0:0:0:0:
358,192,85141,128,0,85569:0:0:0:0:
256,192,85569,128,0,85998:0:0:0:0:
51,192,85998,1,0,0:0:0:0:
460,192,85998,1,0,0:0:0:0:
358,192,86426,1,0,0:0:0:0:
256,192,86641,1,0,0:0:0:0:
153,192,86855,1,0,0:0:0:0:
51,192,87284,1,0,0:0:0:0:
153,192,87391,1,0,0:0:0:0:
256,192,87498,1,0,0:0:0:0:
460,192,87712,128,0,88141:0:0:0:0:
358,192,88141,128,0,88462:0:0:0:0:
153,192,88462,128,0,88998:0:0:0:0:
460,192,89212,1,0,0:0:0:0:
256,192,89426,1,0,0:0:0:0:
358,192,90069,1,0,0:0:0:0:
256,192,90284,128,0,90605:0:0:0:0:
153,192,90605,128,0,90926:0:0:0:0:
358,192,90926,128,0,91141:0:0:0:0:
51,192,91141,1,0,0:0:0:0:
460,192,91569,128,0,91998:0:0:0:0:
153,192,91998,128,0,92426:0:0:0:0:
460,192,92426,1,0,0:0:0:0:
358,192,92534,1,0,0:0:0:0:
256,192,92641,1,0,0:0:0:0:
51,192,92855,1,0,0:0:0:0:
460,192,92855,128,0,93712:0:0:0:0:
460,192,94141,1,0,0:0:0:0:
358,192,94248,1,0,0:0:0:0:
256,192,94355,1,0,0:0:0:0:
153,192,94462,1,0,0:0:0:0:
51,192,94569,128,0,94998:0:0:0:0:
153,192,94998,128,0,95319:0:0:0:0:
358,192,95319,128,0,95855:0:0:0:0:
51,192,96069,1,0,0:0:0:0:
256,192,96284,1,0,0:0:0:0:
460,192,97141,1,0,0:0:0:0:
358,192,97462,1,0,0:0:0:0:
256,192,97784,1,0,0:0:0:0:
51,192,97998,1,0,0:0:0:0:
153,192,98319,1,0,0:0:0:0:
256,192,98641,1,0,0:0:0:0:
460,192,98855,1,0,0:0:0:0:
358,192,99176,1,0,0:0:0:0:
256,192,99498,1,0,0:0:0:0:
51,192,99712,1,0,0:0:0:0:
460,192,99712,1,0,0:0:0:0:
358,192,100569,1,0,0:0:0:0:
51,192,100998,128,0,101426:0:0:0:0:
256,192,101426,128,0,101855:0:0:0:0:
358,192,101855,128,0,102176:0:0:0:0:
153,192,102176,128,0,102605:0:0:0:0:
256,192,102605,1,0,0:0:0:0:
358,192,102926,1,0,0:0:0:0:
460,192,103141,128,0,103784:0:0:0:0:
358,192,103784,128,0,104426:0:0:0:0:
256,192,104426,1,0,0:0:0:0:
51,192,104641,128,0,105284:0:0:0:0:
460,192,105498,1,0,0:0:0:0:
358,192,105605,1,0,0:0:0:0:
153,192,105712,1,0,0:0:0:0:
256,192,106034,1,0,0:0:0:0:
51,192,106355,1,0,0:0:0:0:
256,192,106569,1,0,0:0:0:0:
460,192,106569,1,0,0:0:0:0:
153,192,106998,1,0,0:0:0:0:
256,192,107212,128,0,107855:0:0:0:0:
460,192,108069,1,0,0:0:0:0:
358,192,108176,1,0,0:0:0:0:
51,192,108284,1,0,0:0:0:0:
153,192,108605,1,0,0:0:0:0:
256,192,108926,1,0,0:0:0:0:
460,192,109569,128,0,109998:0:0:0:0:
153,192,109998,128,0,110855:0:0:0:0:
460,192,110855,1,0,0:0:0:0:
51,192,111498,1,0,0:0:0:0:
153,192,111605,1,0,0:0:0:0:
256,192,111712,1,0,0:0:0:0:
358,192,112141,128,0,112569:0:0:0:0:
153,192,112569,128,0,112998:0:0:0:0:
256,192,112998,128,0,113426:0:0:0:0:
51,192,113426,1,0,0:0:0:0:
460,192,113426,1,0,0:0:0:0:
153,192,113855,1,0,0:0:0:0:
256,192,114069,1,0,0:0:0:0:
358,192,114284,1,0,0:0:0:0:
460,192,114712,1,0,0:0:0:0:
358,192,114819,1,0,0:0:0:0:
256,192,114926,1,0,0:0:0:0:
51,192,115141,128,0,115569:0:0:0:0:
153,192,115569,128,0,115891:0:0:0:0:
358,192,115891,128,0,116426:0:0:0:0:
51,192,116641,1,0,0:0:0:0:
256,192,116855,1,0,0:0:0:0:
358,192,117498,1,0,0:0:0:0:
256,192,117712,128,0,118034:0:0:0:0:
358,192,118034,128,0,118355:0:0:0:0:
153,192,118355,128,0,118569:0:0:0:0:
460,192,118569,1,0,0:0:0:0:
51,192,118998,128,0,119426:0:0:0:0:
358,192,119426,128,0,119855:0:0:0:0:
51,192,119855,1,0,0:0:0:0:
153,192,119962,1,0,0:0:0:0:
256,192,120069,1,0,0:0:0:0:
51,192,120284,128,0,121141:0:0:0:0:
460,192,120284,1,0,0:0:0:0:
51,192,121569,1,0,0:0:0:0:
153,192,121676,1,0,0:0:0:0:
256,192,121784,1,0,0:0:0:0:
358,192,121891,1,0,0:0:0:0:
460,192,121998,128,0,122426:0:0:0:0:
358,192,122426,128,0,122748:0:0:0:0:
153,192,122748,128,0,123284:0:0:0:0:
460,192,123498,1,0,0:0:0:0:
256,192,123712,1,0,0:0:0:0:
51,192,124569,1,0,0:0:0:0:
153,192,124891,1,0,0:0:0:0:
256,192,125212,1,0,0:0:0:0:
460,192,125426,1,0,0:0:0:0:
358,192,125748,1,0,0:0:0:0:
256,192,126069,1,0,0:0:0:0:
51,192,126284,1,0,0:0:0:0:
153,192,126605,1,0,0:0:0:0:
256,192,126926,1,0,0:0:0:0:
460,192,127141,1,0,0:0:0:0:
51,192,127141,1,0,0:0:0:0:
358,192,127569,1,0,0:0:0:0:
256,192,127784,1,0,0:0:0:0:
153,192,127998,1,0,0:0:0:0:
460,192,128426,128,0,128855:0:0:0:0:
256,192,128855,128,0,129284:0:0:0:0:
153,192,129284,128,0,129605:0:0:0:0:
460,192,129605,128,0,130034:0:0:0:0:
256,192,130034,1,0,0:0:0:0:
153,192,130355,1,0,0:0:0:0:
51,192,130569,128,0,131212:0:0:0:0:
153,192,131212,128,0,131855:0:0:0:0:
256,192,131855,1,0,0:0:0:0:
460,192,132069,128,0,132712:0:0:0:0:
51,192,132926,1,0,0:0:0:0:
153,192,133034,1,0,0:0:0:0:
358,192,133141,1,0,0:0:0:0:
256,192,133462,1,0,0:0:0:0:
460,192,133784,1,0,0:0:0:0:
51,192,133998,1,0,0:0:0:0:
256,192,134212,1,0,0:0:0:0:
153,192,134319,1,0,0:0:0:0:
256,192,134426,1,0,0:0:0:0:
358,192,134641,1,0,0:0:0:0:
460,192,135069,1,0,0:0:0:0:
153,192,135498,128,0,136141:0:0:0:0:
256,192,136141,128,0,136569:0:0:0:0:
51,192,136569,128,0,136998:0:0:0:0:
460,192,136569,1,0,0:0:0:0:
256,192,137212,1,0,0:0:0:0:
460,192,137426,128,0,140855:0:0:0:0:
51,192,140855,128,0,144284:0:0:0:0:
460,192,143641,1,0,0:0:0:0:
358,192,143855,1,0,0:0:0:0:
256,192,144069,1,0,0:0:0:0:
460,192,144284,1,0,0:0:0:0:
51,192,145355,1,0,0:0:0:0:
153,192,145569,1,0,0:0:0:0:
256,192,145784,1,0,0:0:0:0:
460,192,145998,1,0,0:0:0:0:
358,192,146641,1,0,0:0:0:0:
153,192,147284,1,0,0:0:0:0:
51,192,147498,1,0,0:0:0:0:
256,192,148569,1,0,0:0:0:0:
358,192,148784,1,0,0:0:0:0:
460,192,148998,1,0,0:0:0:0:
358,192,149212,1,0,0:0:0:0:
256,192,149426,1,0,0:0:0:0:
51,192,149748,1,0,0:0:0:0:
256,192,150069,1,0,0:0:0:0:
153,192,150284,1,0,0:0:0:0:
460,192,150712,1,0,0:0:0:0:
358,192,150926,1,0,0:0:0:0:
256,192,151141,1,0,0:0:0:0:
51,192,151569,1,0,0:0:0:0:
153,192,151784,1,0,0:0:0:0:
358,192,152212,1,0,0:0:0:0:
51,192,152855,1,0,0:0:0:0:
460,192,152855,1,0,0:0:0:0:
153,192,153498,1,0,0:0:0:0:
460,192,153926,1,0,0:0:0:0:
358,192,154141,1,0,0:0:0:0:
256,192,154355,1,0,0:0:0:0:
51,192,154569,1,0,0:0:0:0:
153,192,154784,1,0,0:0:0:0:
256,192,154998,1,0,0:0:0:0:
358,192,155212,1,0,0:0:0:0:
460,192,155426,1,0,0:0:0:0:
153,192,155641,1,0,0:0:0:0:
256,192,155962,1,0,0:0:0:0:
51,192,156284,1,0,0:0:0:0:
153,192,156605,1,0,0:0:0:0:
358,192,156926,1,0,0:0:0:0:
256,192,157569,1,0,0:0:0:0:
153,192,157784,1,0,0:0:0:0:
51,192,157998,1,0,0:0:0:0:
460,192,158426,1,0,0:0:0:0:
358,192,158641,1,0,0:0:0:0:
256,192,159069,1,0,0:0:0:0:
153,192,159712,1,0,0:0:0:0:
256,192,159926,1,0,0:0:0:0:
358,192,160141,1,0,0:0:0:0:
256,192,160355,1,0,0:0:0:0:
153,192,160998,1,0,0:0:0:0:
51,192,161212,1,0,0:0:0:0:
256,192,161426,1,0,0:0:0:0:
358,192,161641,1,0,0:0:0:0:
460,192,161855,1,0,0:0:0:0:
358,192,162069,1,0,0:0:0:0:
256,192,162284,1,0,0:0:0:0:
153,192,162498,1,0,0:0:0:0:
51,192,162712,1,0,0:0:0:0:
153,192,162926,1,0,0:0:0:0:
256,192,163141,1,0,0:0:0:0:
358,192,164641,1,0,0:0:0:0:
153,192,164855,1,0,0:0:0:0:
256,192,165069,1,0,0:0:0:0:
51,192,165284,1,0,0:0:0:0:
153,192,165498,1,0,0:0:0:0:
256,192,166141,1,0,0:0:0:0:
460,192,166355,1,0,0:0:0:0:
51,192,167855,1,0,0:0:0:0:
153,192,168069,1,0,0:0:0:0:
358,192,168284,1,0,0:0:0:0:
256,192,168498,1,0,0:0:0:0:
358,192,168712,1,0,0:0:0:0:
460,192,168926,1,0,0:0:0:0:
51,192,169569,1,0,0:0:0:0:
256,192,169998,1,0,0:0:0:0:
153,192,170426,128,0,170855:0:0:0:0:
358,192,170855,128,0,171284:0:0:0:0:
256,192,171284,128,0,171712:0:0:0:0:
51,192,171712,1,0,0:0:0:0:
460,192,171712,1,0,0:0:0:0:
