osu file format v14

[General]
AudioFilename: audio.mp3
AudioLeadIn: 0
PreviewTime: 0
Countdown: 0
SampleSet: Normal
StackLeniency: 0.7
Mode: 0
LetterboxInBreaks: 0
WidescreenStoryboard: 0

[Editor]
Bookmarks: 85933,155367,188153,215796,279653,326796
DistanceSpacing: 1
BeatDivisor: 4
GridSize: 32
TimelineZoom: 1.7

[Metadata]
Title:Beloved Tomboyish Girl
TitleUnicode:おてんば恋娘
Artist:Kurenainagi Tabibito
ArtistUnicode:紅薙旅人
Creator:Peplsxx
Version:Silent Freeze
Source:東方紅魔郷 ~ Embodiment of Scarlet Devil.
Tags:Otenba Koimusume Cirno Touhou th6 Liverne Ice Fairy Theme "Canon" Gensou Shiten 2 Chirno Chiruno
BeatmapID:1563327
BeatmapSetID:741104

[Difficulty]
HPDrainRate:4.9
CircleSize:4.2
OverallDifficulty:7.9
ApproachRate:9
SliderMultiplier:1.5
SliderTickRate:2

[Events]
//Background and Video events
0,0,"Cirno.png",0,0
//Break Periods
2,5353,6332
2,12210,13264
//Storyboard Layer 0 (Background)
//Storyboard Layer 1 (Fail)
//Storyboard Layer 2 (Pass)
//Storyboard Layer 3 (Foreground)
//Storyboard Sound Samples

[TimingPoints]
225,428.571428571429,4,1,1,45,1,0
439,-100,4,1,1,30,0,0
653,-100,4,1,1,20,0,0
1296,-100,4,1,1,15,0,0
1939,-100,4,1,1,35,0,0
2367,-100,4,1,1,15,0,0
3653,-100,4,1,1,35,0,0
4296,-100,4,1,1,15,0,0
4725,-200,4,1,1,25,0,0
4939,-200,4,1,1,45,0,0
5153,-200,4,1,1,15,0,0
7081,-100,4,1,1,45,0,0
7296,-100,4,1,1,30,0,0
7510,-100,4,1,1,20,0,0
8796,-100,4,1,1,35,0,0
9225,-100,4,1,1,15,0,0
10510,-100,4,1,1,45,0,0
10939,-100,4,1,1,25,0,0
11582,-100,4,1,1,15,0,0
11796,-200,4,1,1,45,0,0
12010,-200,4,1,1,15,0,0
13938,-100,4,1,1,45,0,0
14367,-100,4,1,1,35,0,0
14796,-100,4,1,1,30,0,0
15225,-100,4,1,1,15,0,0
15653,-100,4,1,1,35,0,0
16510,-100,4,1,1,25,0,0
16939,-100,4,1,1,15,0,0
17367,-200,4,1,1,45,0,0
17796,-200,4,1,1,15,0,0
18010,-200,4,1,1,25,0,0
18224,-100,4,1,1,35,0,0
18439,-100,4,1,1,25,0,0
18653,-100,4,1,1,40,0,0
20153,-100,4,1,1,25,0,0
20367,-100,4,1,1,35,0,0
20582,-100,4,1,1,15,0,0
20796,-100,4,1,1,45,0,0
21225,-100,4,1,1,25,0,0
21439,-100,4,1,1,20,0,0
21653,-100,4,1,1,35,0,0
21867,-100,4,1,1,15,0,0
22082,-100,4,1,1,20,0,0
22725,-100,4,1,1,25,0,0
23367,-100,4,1,1,35,0,0
23796,-100,4,1,1,15,0,0
24225,-100,4,1,1,45,0,0
24439,-100,4,1,1,15,0,0
24653,-100,4,1,1,35,0,0
24867,-100,4,1,1,15,0,0
25082,-100,4,1,1,20,0,0
25510,-100,4,1,1,40,0,0
25725,-100,4,1,1,30,0,0
26153,-100,4,1,1,15,0,0
26796,-100,4,1,1,65,0,0
30974,-100,4,1,1,35,0,0
31081,-100,4,1,1,65,0,0
55510,-83.3333333333333,4,1,1,65,0,0
63760,-83.3333333333333,4,1,1,35,0,0
63867,-83.3333333333333,4,1,1,90,0,0
64082,-83.3333333333333,4,1,1,65,0,0
64189,-83.3333333333333,4,1,1,35,0,0
64296,-83.3333333333333,4,1,1,80,0,0
64510,-83.3333333333333,4,1,1,65,0,0
85938,-200,4,1,1,40,0,0
86796,-200,4,1,1,30,0,0
87225,-200,4,1,2,40,0,0
90653,-200,4,1,2,10,0,0
91081,-200,4,1,2,15,0,0
91938,-200,4,1,2,40,0,0
93224,-200,4,1,2,20,0,0
93653,-200,4,1,2,15,0,0
94081,-200,4,1,2,40,0,0
96010,-200,4,1,2,20,0,0
96224,-200,4,1,2,40,0,0
97082,-200,4,1,2,35,0,0
97939,-200,4,1,2,20,0,0
98796,-200,4,1,2,15,0,0
99224,-200,4,1,2,40,0,0
100081,-200,4,1,2,10,0,0
100939,-200,4,1,2,20,0,0
101367,-200,4,1,2,25,0,0
102225,-200,4,1,2,20,0,0
102653,-200,4,1,2,15,0,0
102867,-200,4,1,1,20,0,0
103082,-200,4,1,2,25,0,0
103725,-200,4,1,2,30,0,0
103939,-200,4,1,2,15,0,0
104367,-200,4,1,2,20,0,0
104796,-200,4,1,2,25,0,0
105653,-200,4,1,2,30,0,0
106510,-200,4,1,2,45,0,0
106939,-200,4,1,2,30,0,0
107367,-200,4,1,2,15,0,0
107796,-200,4,1,2,20,0,0
108225,-200,4,1,2,15,0,0
109082,-200,4,1,2,20,0,0
109939,-200,4,1,1,15,0,0
111225,-200,4,1,2,20,0,0
111653,-200,4,1,2,25,0,0
112082,-200,4,1,2,30,0,0
113367,-200,4,1,2,40,0,0
113796,-200,4,1,2,30,0,0
114225,-200,4,1,2,20,0,0
116796,-200,4,1,2,10,0,0
117225,-200,4,1,2,20,0,0
118082,-200,4,1,2,25,0,0
118510,-200,4,1,2,10,0,0
118939,-200,4,1,2,15,0,0
119367,-200,4,1,2,30,0,0
121082,-200,4,1,2,15,0,0
121510,-200,4,1,2,20,0,0
123439,-200,4,1,2,25,0,0
125796,-200,4,1,2,15,0,0
126653,-200,4,1,2,40,0,0
127510,-200,4,1,2,30,0,0
127939,-200,4,1,2,20,0,0
128367,-200,4,1,2,30,0,0
130939,-200,4,1,2,35,0,0
131796,-200,4,1,2,20,0,0
133082,-200,4,1,2,35,0,0
136081,-133.333333333333,4,1,1,40,0,0
138224,-100,4,1,1,65,0,0
140796,-83.3333333333333,4,1,1,55,0,0
142938,-76.9230769230769,4,1,1,55,0,0
143367,-71.4285714285714,4,1,1,55,0,0
143796,-66.6666666666667,4,1,1,55,0,0
144225,-66.6666666666667,4,1,1,75,0,1
151082,-66.6666666666667,4,1,1,85,0,1
156117,-66.6666666666667,4,1,1,55,0,1
156225,-66.6666666666667,4,1,1,85,0,1
156975,-66.6666666666667,4,1,1,55,0,1
157082,-66.6666666666667,4,1,1,85,0,1
183546,-66.6666666666667,4,1,1,55,0,1
183653,-66.6666666666667,4,1,1,85,0,1
184403,-66.6666666666667,4,1,1,55,0,1
184510,-66.6666666666667,4,1,1,85,0,1
193189,-66.6666666666667,4,1,1,25,0,1
193296,-55.5555555555556,4,1,1,85,0,1
193725,-66.6666666666667,4,1,1,85,0,1
195653,-66.6666666666667,4,1,1,55,0,0
199082,-66.6666666666667,4,1,1,40,0,0
199725,-66.6666666666667,4,1,1,55,0,0
201867,-133.333333333333,4,1,1,50,0,0
203367,-133.333333333333,4,1,1,30,0,0
203582,-133.333333333333,4,1,1,50,0,0
204225,-133.333333333333,4,1,1,45,0,0
215367,-133.333333333333,4,1,1,25,0,0
215796,-133.333333333333,4,1,1,55,0,0
221367,-133.333333333333,4,1,1,15,0,0
222867,-133.333333333333,4,1,1,55,0,0
222975,-133.333333333333,4,1,1,15,0,0
223082,-133.333333333333,4,1,1,60,0,0
225653,-133.333333333333,4,1,1,20,0,0
226082,-133.333333333333,4,1,1,60,0,0
228867,-133.333333333333,4,1,1,30,0,0
229082,-133.333333333333,4,1,1,60,0,0
229296,-133.333333333333,4,1,1,30,0,0
229510,-133.333333333333,4,1,1,60,0,0
229725,-133.333333333333,4,1,1,30,0,0
229939,-100,4,1,1,60,0,0
242153,-100,4,1,1,30,0,0
242260,-100,4,1,1,60,0,0
249117,-100,4,1,1,40,0,0
250510,-100,4,1,1,60,0,0
257367,-83.3333333333333,4,1,1,70,0,0
283939,-66.6666666666667,4,1,1,65,0,0
284796,-83.3333333333333,4,1,1,65,0,0
313939,-76.9230769230769,4,1,1,65,0,0
314796,-71.4285714285714,4,1,1,65,0,0
315225,-66.6666666666667,4,1,1,65,0,0
315653,-62.5,4,1,1,95,0,1
327546,-62.5,4,1,1,35,0,1
327653,-62.5,4,1,1,95,0,1
328403,-62.5,4,1,1,35,0,1
328510,-62.5,4,1,1,95,0,1
333332,-62.5,4,1,1,15,0,1
333439,-62.5,4,1,1,95,0,1
334510,-55.5555555555556,4,1,1,45,0,1
334725,-55.5555555555556,4,1,1,55,0,1
334939,-55.5555555555556,4,1,1,65,0,1
335153,-55.5555555555556,4,1,1,75,0,1
335367,-62.5,4,1,1,95,0,1
337617,-62.5,4,1,1,25,0,1
337725,-62.5,4,1,1,95,0,1
338475,-62.5,4,1,1,25,0,1
338582,-62.5,4,1,1,95,0,1
341796,-62.5,4,1,1,100,0,1
343082,-55.5555555555556,4,1,1,100,0,1
343510,-62.5,4,1,1,100,0,1
353367,-62.5,4,1,1,50,0,1
354225,-62.5,4,1,1,100,0,1
354975,-62.5,4,1,1,40,0,1
355082,-62.5,4,1,1,100,0,1
355832,-62.5,4,1,1,40,0,1
355939,-62.5,4,1,1,100,0,1
361832,-62.5,4,1,1,50,0,1
361939,-50,4,1,1,60,0,1
362153,-50,4,1,1,80,0,1
362367,-50,4,1,1,90,0,1
362582,-50,4,1,1,100,0,1
362796,-62.5,4,1,1,100,0,1
364617,-62.5,4,1,1,20,0,1
364725,-52.6315789473684,4,1,1,100,0,1
365153,-62.5,4,1,1,100,0,1
367082,-62.5,4,1,1,85,0,0
370510,-62.5,4,1,1,45,0,0
371153,-62.5,4,1,1,85,0,0
373939,-133.333333333333,4,1,1,55,0,0
376510,-133.333333333333,4,1,1,35,0,0
376939,-133.333333333333,4,1,1,55,0,0
382725,-133.333333333333,4,1,1,35,0,0
383153,-133.333333333333,4,1,1,55,0,0
386582,-133.333333333333,4,1,1,35,0,0
387225,-133.333333333333,4,1,1,55,0,0
400296,-133.333333333333,4,1,1,15,0,0
400510,-133.333333333333,4,1,1,55,0,0
400725,-133.333333333333,4,1,1,15,0,0
400939,-133.333333333333,4,1,1,55,0,0
401153,-133.333333333333,4,1,1,15,0,0
401367,-200,4,1,1,65,0,0

[HitObjects]
336,40,225,5,4,0:0:0:0:
360,120,439,2,0,B|395:101|395:101|419:57,2,75
152,160,1296,1,0,0:0:0:0:
152,160,1939,5,0,0:0:0:0:
128,240,2153,2,0,B|92:221|92:221|68:177,2,75
376,320,3010,1,0,0:0:0:0:
376,320,3653,5,0,0:0:0:0:
456,280,3867,2,0,L|488:192,1,75
376,320,4296,1,0,0:0:0:0:
256,192,4725,5,0,0:0:0:0:
256,192,4939,2,0,L|256:240,1,37.5,4|0,0:0|0:0,0:0:0:0:
112,72,7082,5,4,0:0:0:0:
194,105,7296,2,0,B|199:68|199:68|192:32,2,75
144,296,8153,1,0,0:0:0:0:
144,296,8796,5,0,0:0:0:0:
64,256,9010,2,0,B|56:292|56:292|61:329,2,75
376,136,9867,1,0,0:0:0:0:
376,136,10510,5,0,0:0:0:0:
440,200,10725,2,0,L|395:260,1,75
376,136,11153,1,0,0:0:0:0:
256,192,11582,5,0,0:0:0:0:
256,192,11796,2,0,L|256:144,1,37.5,4|0,0:0|0:0,0:0:0:0:
256,192,13939,5,4,0:0:0:0:
256,112,14153,1,0,0:0:0:0:
256,112,14367,2,0,B|294:113|294:113|326:144,1,75
144,208,14796,2,0,L|192:112,1,75
176,352,15225,2,0,L|224:256,1,75
256,192,15653,6,0,B|294:211|294:211|320:256,1,75
112,144,16082,2,0,B|72:141|72:141|32:160,1,75
208,112,16510,2,0,L|240:32,1,75
304,240,16939,1,0,0:0:0:0:
304,240,17367,6,0,L|272:320,1,75,4|0,0:0|0:0,0:0:0:0:
192,208,18010,1,0,0:0:0:0:
368,288,18225,6,0,L|336:368,1,75
112,336,18653,1,0,0:0:0:0:
192,208,18867,1,0,0:0:0:0:
192,208,19296,5,0,0:0:0:0:
112,336,19725,1,0,0:0:0:0:
128,176,20153,1,0,0:0:0:0:
128,176,20367,2,0,L|80:256,1,75
256,240,20796,5,4,0:0:0:0:
192,352,21010,1,0,0:0:0:0:
256,240,21225,2,0,L|256:320,1,75
368,304,21653,2,0,L|448:256,1,75
352,192,22082,2,0,L|432:144,1,75
248,112,22510,6,0,L|168:160,1,75
118,289,22939,2,0,L|198:241,1,75
29,339,23367,1,0,0:0:0:0:
280,195,23796,1,0,2:0:0:0:
280,341,24225,6,0,L|280:266,1,75,4|0,0:0|0:0,0:0:0:0:
208,109,24653,2,0,L|208:184,1,75
400,272,25082,1,0,0:0:0:0:
393,160,25296,1,0,0:0:0:0:
400,272,25510,5,0,0:0:0:0:
336,64,25725,1,0,0:0:0:0:
232,192,26153,1,0,0:0:0:0:
128,320,26582,1,0,0:0:0:0:
208,320,27010,5,0,0:0:0:0:
208,320,27225,2,0,L|208:232,1,75
272,128,27653,1,0,0:0:0:0:
144,32,27867,1,0,0:0:0:0:
272,128,28082,2,0,L|272:208,1,75,8|0,0:0|0:0,0:0:0:0:
272,48,28510,1,0,0:0:0:0:
400,128,28725,5,0,0:0:0:0:
144,128,28939,2,0,L|144:208,1,75,8|0,0:0|0:0,0:0:0:0:
312,344,29367,1,0,0:0:0:0:
408,232,29582,1,0,0:0:0:0:
272,176,29796,2,0,B|235:191|235:191|208:240,1,75,8|0,0:0|0:0,0:0:0:0:
126,336,30225,6,0,L|126:256,1,75
104,168,30546,1,2,0:0:0:0:
88,120,30653,2,0,L|129:51,1,75,8|0,0:0|0:0,0:0:0:0:
223,106,30975,1,8,0:0:0:0:
257,68,31082,2,0,L|340:40,1,75,2|0,2:0|0:0,0:0:0:0:
288,264,31510,2,0,L|288:339,1,75,8|0,0:0|0:0,0:0:0:0:
288,208,31939,5,0,0:0:0:0:
384,64,32153,1,0,0:0:0:0:
480,144,32367,1,8,0:0:0:0:
476,259,32582,1,0,0:0:0:0:
416,304,32796,2,0,L|480:256,1,75,2|0,2:0|0:0,0:0:0:0:
408,216,33117,1,2,2:0:0:0:
408,216,33225,2,0,L|328:280,1,75,0|2,0:0|2:0,0:0:0:0:
504,144,33653,1,2,2:0:0:0:
360,24,33867,6,2,L|328:72,1,37.5,2|2,2:0|0:0,1:0:0:0:
256,80,34082,2,8,L|288:128,1,37.5
376,128,34296,2,0,L|328:208,1,75
320,304,34725,5,0,0:0:0:0:
192,240,34939,2,0,L|192:320,1,75,8|0,0:0|0:0,0:0:0:0:
320,304,35367,1,2,2:0:0:0:
128,208,35582,1,0,0:0:0:0:
272,112,35796,2,0,L|272:208,1,75,8|0,0:0|0:0,0:0:0:0:
374,247,36225,6,0,B|366:207|366:207|382:167,1,75
189,138,36653,1,8,0:0:0:0:
272,272,36867,1,0,0:0:0:0:
272,112,37082,2,0,B|280:72|280:72|264:32,1,75
208,80,37403,1,2,0:0:0:0:
144,112,37510,2,0,L|144:192,1,75,8|0,0:0|0:0,0:0:0:0:
208,160,37832,1,8,0:0:0:0:
80,208,37939,2,0,L|80:304,1,75
224,320,38367,6,0,L|144:320,1,75,8|0,0:0|0:0,0:0:0:0:
253,242,38796,1,0,0:0:0:0:
253,242,38903,2,0,B|290:259|290:259|314:301,1,75,2|0,2:0|0:0,0:0:0:0:
416,272,39225,5,2,2:0:0:0:
416,272,39332,2,0,L|464:352,1,75
368,200,39653,2,0,L|320:120,1,75,2|0,2:0|0:0,0:0:0:0:
392,56,39975,5,2,2:0:0:0:
392,56,40082,2,2,L|448:144,1,75,0|2,0:0|2:0,0:0:0:0:
288,56,40510,1,4,0:0:0:0:
88,104,40725,6,2,L|136:136,1,37.5
128,208,40939,2,8,L|168:184,1,37.5
192,112,41153,2,0,L|272:160,1,75
302,298,41582,5,0,0:0:0:0:
464,272,41796,2,0,L|384:224,1,75,8|0,0:0|0:0,0:0:0:0:
256,150,42225,1,2,2:0:0:0:
480,96,42439,1,0,0:0:0:0:
368,80,42653,2,0,L|368:155,1,75,8|0,0:0|0:0,0:0:0:0:
262,348,43082,6,0,L|182:316,1,75,4|0,0:0|0:0,0:0:0:0:
312,322,43510,1,8,0:0:0:0:
359,207,43725,1,0,0:0:0:0:
261,130,43939,2,0,B|235:102|235:102|181:90,1,75
198,163,44260,1,2,0:0:0:0:
199,233,44367,2,0,B|163:225|163:225|137:197,1,75
139,120,44689,1,0,0:0:0:0:
82,83,44796,2,0,L|18:131,1,75
16,320,45225,5,2,2:0:0:0:
160,320,45439,1,2,2:0:0:0:
16,320,45653,5,2,2:0:0:0:
96,208,45867,1,0,2:0:0:0:
256,224,46082,1,2,2:0:0:0:
328,80,46296,1,0,0:0:0:0:
192,96,46510,2,0,L|192:176,1,75,4|0,0:0|2:0,0:0:0:0:
416,96,46939,6,0,L|416:48,2,37.5,8|2|0,0:0|2:0|0:0,0:0:0:0:
352,160,47260,1,0,0:0:0:0:
352,160,47367,2,0,L|352:256,1,75,2|0,2:0|0:0,0:0:0:0:
352,304,47689,1,2,0:0:0:0:
272,248,47796,2,8,L|224:264,1,37.5
280,328,48010,5,0,0:0:0:0:
192,176,48225,2,0,L|112:208,1,75,4|0,0:0|0:0,0:0:0:0:
32,240,48653,1,8,0:0:0:0:
192,176,48867,1,0,0:0:0:0:
0,64,49082,2,0,L|0:144,1,75,2|0,2:0|0:0,0:0:0:0:
253,127,49510,1,8,0:0:0:0:
108,61,49725,1,0,0:0:0:0:
184,248,49939,2,0,L|184:328,1,75,2|0,2:0|0:0,0:0:0:0:
328,368,50367,2,0,L|328:288,1,75,8|0,0:0|0:0,0:0:0:0:
480,136,50796,6,0,L|410:189,1,75,2|0,0:0|0:0,0:0:0:0:
368,152,51117,1,2,0:0:0:0:
320,120,51225,2,0,L|240:184,1,75,8|0,0:0|0:0,0:0:0:0:
208,136,51546,1,8,0:0:0:0:
160,96,51653,2,0,L|218:49,1,75
88,48,52082,5,8,0:0:0:0:
144,216,52296,1,0,0:0:0:0:
320,224,52510,2,0,L|384:288,1,75,2|0,2:0|0:0,0:0:0:0:
160,112,52939,2,0,L|102:159,1,75,8|0,0:0|0:0,0:0:0:0:
336,112,53367,6,0,L|400:176,1,75,2|0,2:0|0:0,0:0:0:0:
272,160,53689,1,2,2:0:0:0:
272,160,53796,2,0,L|208:208,1,75,0|2,0:0|2:0,0:0:0:0:
48,96,54225,2,0,L|112:48,1,75,2|0,2:0|0:0,0:0:0:0:
128,144,54546,1,0,0:0:0:0:
208,101,54653,2,8,L|208:64,1,37.5
212,205,54867,1,0,0:0:0:0:
304,160,55082,2,0,L|304:256,1,75,4|0,0:0|0:0,0:0:0:0:
143,229,55510,5,8,0:0:0:0:
303,117,55725,1,0,0:0:0:0:
223,277,55939,1,2,2:0:0:0:
207,85,56153,1,0,0:0:0:0:
304,235,56367,2,0,L|304:331,1,89.9999972534181,8|0,0:0|0:0,0:0:0:0:
424,256,56796,6,0,L|424:160,1,89.9999972534181,2|0,2:0|0:0,0:0:0:0:
223,277,57225,1,8,0:0:0:0:
304,96,57439,1,0,0:0:0:0:
112,96,57653,2,0,L|112:192,1,89.9999972534181,2|0,2:0|0:0,0:0:0:0:
179,160,57975,1,2,0:0:0:0:
43,229,58082,2,0,L|43:139,1,89.9999972534181,8|0,0:0|0:0,0:0:0:0:
179,230,58403,1,8,0:0:0:0:
112,249,58510,2,0,L|112:339,1,89.9999972534181
352,304,58939,5,8,0:0:0:0:
352,176,59153,1,0,0:0:0:0:
288,240,59367,1,2,2:0:0:0:
415,240,59582,1,0,0:0:0:0:
288,112,59796,2,0,L|224:176,1,89.9999972534181,8|0,0:0|0:0,0:0:0:0:
352,304,60225,5,2,2:0:0:0:
496,304,60439,1,0,0:0:0:0:
495,154,60653,1,8,0:0:0:0:
353,153,60867,1,0,0:0:0:0:
233,254,61082,2,0,B|196:230|196:230|169:174,1,89.9999972534181,4|0,0:0|0:0,0:0:0:0:
224,128,61403,1,0,0:0:0:0:
144,112,61510,2,8,L|96:160,1,44.999998626709
48,281,61725,1,0,0:0:0:0:
48,281,61939,6,0,L|112:217,1,89.9999972534181,2|0,2:0|0:0,0:0:0:0:
208,320,62367,2,0,L|272:256,1,89.9999972534181,8|0,0:0|0:0,0:0:0:0:
256,64,62796,6,0,L|320:128,1,89.9999972534181,2|0,2:0|0:0,0:0:0:0:
432,32,63225,2,0,L|496:96,1,89.9999972534181,8|0,0:0|0:0,0:0:0:0:
384,88,63546,1,0,2:0:0:0:
464,176,63653,2,0,L|416:128,1,44.999998626709,4|0,0:0|0:0,0:0:0:0:
440,264,63867,2,0,L|472:296,1,44.999998626709,2|0,2:0|0:0,0:0:0:0:
384,216,64082,2,0,L|336:168,1,44.999998626709
360,304,64296,6,0,L|392:336,1,44.999998626709,2|0,2:0|0:0,0:0:0:0:
296,248,64510,2,0,L|216:168,1,89.9999972534181
296,136,64832,1,2,0:0:0:0:
157,195,64939,2,0,L|85:123,1,89.9999972534181,2|0,2:0|0:0,0:0:0:0:
256,48,65260,5,8,0:0:0:0:
256,48,65367,2,0,L|192:112,1,89.9999972534181,2|0,2:0|0:0,0:0:0:0:
320,112,65689,1,0,0:0:0:0:
320,112,65796,2,0,L|368:64,1,44.999998626709,2|0,2:0|0:0,0:0:0:0:
240,192,66010,1,0,0:0:0:0:
240,192,66225,2,0,L|176:256,1,89.9999972534181,2|0,2:0|0:0,0:0:0:0:
144,176,66546,1,0,0:0:0:0:
144,176,66653,2,0,L|80:240,1,89.9999972534181,2|0,2:0|0:0,0:0:0:0:
288,48,67082,6,0,L|352:112,1,89.9999972534181,4|0,0:0|0:0,0:0:0:0:
240,112,67403,1,2,0:0:0:0:
240,112,67510,2,0,B|208:80|208:80|208:32,1,89.9999972534181,2|2,2:0|2:0,0:0:0:0:
65,126,67939,2,0,B|65:175|65:175|27:205,1,89.9999972534181,2|0,2:0|0:0,0:0:0:0:
144,176,68260,1,0,0:0:0:0:
240,112,68367,2,8,L|240:192,1,44.999998626709
144,96,68582,1,0,0:0:0:0:
416,160,68796,6,0,L|416:256,1,89.9999972534181,2|0,2:0|0:0,0:0:0:0:
188,210,69225,1,8,0:0:0:0:
36,274,69439,1,0,0:0:0:0:
76,378,69653,1,2,2:0:0:0:
188,370,69867,1,0,0:0:0:0:
188,210,70082,1,8,0:0:0:0:
160,80,70296,5,0,0:0:0:0:
320,176,70510,2,0,L|320:272,1,89.9999972534181,2|0,2:0|0:0,0:0:0:0:
240,64,70939,1,8,0:0:0:0:
96,176,71153,5,0,0:0:0:0:
240,64,71367,2,0,L|240:176,1,89.9999972534181,2|0,2:0|0:0,0:0:0:0:
304,112,71689,1,2,0:0:0:0:
176,176,71796,2,0,L|176:288,1,89.9999972534181,8|0,0:0|0:0,0:0:0:0:
240,224,72117,1,8,0:0:0:0:
112,288,72225,2,0,L|112:384,1,89.9999972534181,2|0,2:0|0:0,0:0:0:0:
297,345,72653,5,8,0:0:0:0:
371,151,72867,1,0,0:0:0:0:
169,93,73082,2,0,B|155:136|155:136|179:183,1,89.9999972534181,2|0,2:0|0:0,0:0:0:0:
368,316,73510,5,8,0:0:0:0:
245,134,73725,1,0,0:0:0:0:
447,61,73939,2,0,B|483:87|483:87|491:139,1,89.9999972534181,2|0,2:0|0:0,0:0:0:0:
331,250,74367,6,0,L|419:209,1,89.9999972534181,8|0,0:0|0:0,0:0:0:0:
290,334,74796,2,0,L|202:375,1,89.9999972534181,2|0,2:0|0:0,0:0:0:0:
195,295,75117,1,0,0:0:0:0:
132,244,75225,2,8,L|67:276,1,44.999998626709
212,206,75439,5,0,2:0:0:0:
240,32,75653,2,0,L|320:80,1,89.9999972534181,2|0,2:0|0:0,0:0:0:0:
476,167,76082,1,8,0:0:0:0:
304,272,76296,1,0,0:0:0:0:
476,167,76510,2,0,L|476:71,1,89.9999972534181,2|0,2:0|0:0,0:0:0:0:
304,272,76939,1,8,0:0:0:0:
144,160,77153,1,0,0:0:0:0:
304,182,77367,2,0,L|304:272,1,89.9999972534181,2|0,2:0|0:0,0:0:0:0:
144,250,77796,2,0,L|144:160,1,89.9999972534181,8|0,0:0|0:0,0:0:0:0:
304,182,78225,6,0,L|304:272,1,89.9999972534181,2|0,2:0|0:0,0:0:0:0:
384,208,78546,1,2,0:0:0:0:
240,160,78653,1,8,0:0:0:0:
240,160,78975,5,8,0:0:0:0:
240,160,79082,2,0,L|240:256,1,89.9999972534181,4|0,0:0|0:0,0:0:0:0:
240,368,79510,1,8,0:0:0:0:
384,240,79725,1,0,0:0:0:0:
240,368,79939,6,0,L|240:256,1,89.9999972534181,2|0,2:0|0:0,0:0:0:0:
80,320,80367,1,8,0:0:0:0:
240,208,80582,5,0,0:0:0:0:
80,320,80796,2,0,L|80:224,1,89.9999972534181,2|0,2:0|0:0,0:0:0:0:
240,208,81225,1,8,0:0:0:0:
80,96,81439,5,0,0:0:0:0:
240,208,81653,2,0,L|240:112,1,89.9999972534181,2|0,2:0|0:0,0:0:0:0:
224,48,81975,1,0,0:0:0:0:
168,112,82082,2,8,L|120:176,1,44.999998626709
312,104,82296,1,0,0:0:0:0:
432,144,82510,2,0,L|432:240,1,89.9999972534181,4|0,0:0|0:0,0:0:0:0:
416,384,82939,6,0,B|416:320|416:320|352:272|352:272|352:128,1,269.999991760254
336,352,83796,1,0,0:0:0:0:
237,233,84010,1,0,0:0:0:0:
495,186,84225,2,0,L|471:272,1,89.9999972534181,2|0,2:0|0:0,0:0:0:0:
352,144,84653,5,8,0:0:0:0:
280,80,84867,1,0,0:0:0:0:
240,304,85082,5,8,0:0:0:0:
336,304,85296,1,0,0:0:0:0:
152,128,85510,6,0,L|120:176,2,44.999998626709,8|0|0,0:0|0:0|0:0,0:0:0:0:
256,32,85939,6,0,L|256:192,1,150,4|2,0:0|2:0,0:0:0:0:
352,98,87225,1,2,0:0:0:0:
438,20,87653,2,2,B|463:47|463:47|473:92,1,75
256,192,88510,1,2,0:0:0:0:
256,192,89153,1,2,0:0:0:0:
347,290,89367,2,0,B|297:272|297:272|372:207|309:113,1,225,2|0,0:0|0:0,0:0:0:0:
200,32,91082,1,6,0:0:0:0:
200,32,91939,6,2,L|200:112,2,75
292,141,93225,1,2,0:0:0:0:
160,208,93653,2,2,L|160:128,2,75
176,56,94939,2,2,B|214:68|214:68|232:112,1,75
144,288,96010,1,2,0:0:0:0:
144,288,96225,2,2,B|107:270|107:270|88:232,1,75
240,208,97082,6,2,L|240:288,1,75
352,192,97939,2,2,L|352:112,1,75
240,217,98796,1,6,0:0:0:0:
96,192,99225,2,2,B|105:155|105:155|144:128,1,75
176,272,100082,6,2,L|176:192,1,75
320,200,100939,1,2,0:0:0:0:
240,112,101367,2,2,L|240:32,1,75,6|2,0:0|0:0,0:0:0:0:
384,112,102225,1,2,0:0:0:0:
248,184,102653,1,0,0:0:0:0:
248,184,102867,2,6,L|248:232,1,37.5,4|2,0:0|0:0,0:0:0:0:
208,320,103510,1,0,0:0:0:0:
208,320,103725,2,0,L|191:275,1,37.5,2|0,0:0|0:0,0:0:0:0:
160,154,104367,2,2,L|160:192,1,37.5
80,235,104796,6,2,L|80:160,1,75
240,320,105653,2,2,B|260:298|260:298|257:266,2,56.25
96,352,106510,1,2,0:0:0:0:
192,264,106939,1,2,0:0:0:0:
272,192,107153,2,2,L|240:224,1,37.5,2|0,0:0|0:0,0:0:0:0:
365,108,107796,1,2,0:0:0:0:
350,179,108225,2,2,B|378:179|378:179|408:169,2,56.25
256,32,109082,2,2,L|256:112,1,75
256,320,109939,1,4,0:0:0:0:
256,320,111225,5,2,0:0:0:0:
192,272,111439,1,2,0:0:0:0:
256,224,111653,1,2,0:0:0:0:
368,272,112082,2,2,L|368:192,1,75
256,80,112939,2,2,L|256:160,1,75
144,192,113796,5,2,0:0:0:0:
352,192,114225,1,2,0:0:0:0:
144,192,114653,2,2,L|144:272,1,75
352,192,115510,2,2,L|352:112,1,75
256,192,116367,1,2,0:0:0:0:
208,256,116582,2,2,B|226:269|226:269|256:272,1,37.5
352,192,117225,2,2,L|352:272,1,75
192,80,118082,2,2,L|192:160,1,75
192,288,118939,1,6,0:0:0:0:
352,240,119367,6,2,L|352:160,1,75
256,48,120225,2,2,L|256:128,1,75
176,192,121082,1,2,0:0:0:0:
176,192,121510,2,2,L|112:128,1,75
246,253,122367,1,2,0:0:0:0:
361,253,122796,2,2,L|425:189,1,75
320,48,123439,1,2,0:0:0:0:
320,48,123653,2,2,L|384:112,1,75
260,144,124510,1,6,0:0:0:0:
160,161,124939,6,2,B|169:201|169:201|196:226,1,75
320,128,125796,1,2,0:0:0:0:
320,304,126225,1,2,0:0:0:0:
320,128,126653,6,2,B|279:129|279:129|240:112,1,75,6|2,0:0|0:0,0:0:0:0:
296,48,127510,1,2,0:0:0:0:
296,208,127939,1,2,0:0:0:0:
296,208,128367,2,2,L|216:208,1,75
96,128,129225,2,2,L|176:128,1,75
296,128,130082,1,2,0:0:0:0:
96,208,130510,1,2,0:0:0:0:
256,352,130939,5,0,0:0:0:0:
256,352,131153,2,2,L|256:304,1,37.5
256,88,131796,1,2,0:0:0:0:
256,168,132010,1,2,0:0:0:0:
256,168,132225,2,2,L|256:248,1,75
256,80,133082,5,6,0:0:0:0:
168,75,133510,2,2,B|168:114|168:114|200:155,1,75
336,16,134367,2,2,L|336:64,1,37.5
336,176,134796,1,2,0:0:0:0:
474,120,135225,2,2,B|489:152|489:152|487:192,1,75
308,280,136082,6,2,B|337:232|337:232|336:176,1,112.500004291535,2|2,2:0|2:0,2:0:0:0:
112,144,137153,1,0,0:0:0:0:
112,144,137367,2,0,B|112:87|112:87|157:41,1,112.500004291535,4|0,0:0|0:0,0:0:0:0:
384,32,138010,1,2,2:0:0:0:
408,48,138117,1,0,0:0:0:0:
432,64,138225,2,0,L|432:160,1,75,2|0,2:0|0:0,0:0:0:0:
304,144,138653,2,0,L|304:240,1,75,2|0,2:0|0:0,0:0:0:0:
391,210,138975,1,2,2:0:0:0:
391,210,139082,1,2,2:0:0:0:
338,77,139296,5,0,0:0:0:0:
216,240,139510,2,0,L|216:320,1,75,2|0,2:0|0:0,0:0:0:0:
351,339,139832,1,0,0:0:0:0:
351,339,139939,2,0,L|351:243,1,75,2|0,2:0|0:0,0:0:0:0:
247,138,140367,1,2,2:0:0:0:
360,34,140582,1,0,0:0:0:0:
128,32,140796,6,0,B|96:64|96:64|96:112,1,89.9999972534181,4|0,0:0|0:0,0:0:0:0:
288,288,141225,2,0,B|291:242|291:242|256:208,1,89.9999972534181,2|0,2:0|0:0,0:0:0:0:
176,96,141653,6,0,B|172:141|172:141|208:176,1,89.9999972534181,4|0,0:0|0:0,0:0:0:0:
336,352,142082,2,0,B|368:320|368:320|368:272,1,89.9999972534181,2|0,2:0|0:0,0:0:0:0:
464,128,142510,6,0,L|480:64,3,44.999998626709,4|0|0|0,0:0|0:0|0:0|0:0,0:0:0:0:
368,144,142939,6,0,L|352:208,3,48.7499977684022,4|0|0|0,0:0|0:0|0:0|0:0,0:0:0:0:
304,80,143367,6,0,L|320:0,3,52.4999983978272,4|0|0|0,0:0|0:0|0:0|0:0,0:0:0:0:
208,112,143796,6,0,L|192:192,3,56.2500021457673,4|0|0|0,0:0|0:0|0:0|0:0,0:0:0:0:
144,256,144225,1,4,0:0:0:0:
336,256,144439,1,0,0:0:0:0:
128,64,144653,2,0,L|128:176,1,112.500004291535,2|0,2:0|0:0,0:0:0:0:
208,119,144975,1,2,2:0:0:0:
208,119,145082,2,0,L|208:247,1,112.500004291535
112,256,145403,1,0,0:0:0:0:
168,328,145510,2,2,B|195:337|195:337|235:322,2,56.2500021457673,2|2|2,2:0|2:0|2:0,2:0:0:0:
325,201,145939,6,2,B|324:262|324:262|277:295,1,112.500004291535,2|0,2:0|0:0,2:0:0:0:
229,84,146367,2,2,B|268:42|268:42|334:49,1,112.500004291535,2|2,2:0|2:0,2:0:0:0:
299,117,146689,1,0,0:0:0:0:
237,158,146796,2,0,B|180:148|180:148|151:101,1,112.500004291535,2|0,2:0|0:0,0:0:0:0:
86,47,147117,1,0,0:0:0:0:
62,129,147225,6,0,L|117:228,1,112.500004291535,2|0,2:0|0:0,0:0:0:0:
335,324,147653,2,0,L|380:194,1,112.500004291535,2|0,2:0|0:0,0:0:0:0:
215,325,148082,2,0,B|171:286|171:286|167:229,1,112.500004291535,4|2,0:0|2:0,0:0:0:0:
237,218,148403,1,2,2:0:0:0:
97,274,148510,1,2,2:0:0:0:
232,48,148725,1,0,0:0:0:0:
312,88,148832,1,2,2:0:0:0:
312,88,148939,2,0,L|312:200,1,112.500004291535,0|2,0:0|2:0,0:0:0:0:
395,51,149367,2,0,B|348:14|348:14|272:0,1,112.500004291535,2|0,2:0|0:0,0:0:0:0:
176,128,149796,6,0,L|176:240,1,112.500004291535,2|0,2:0|0:0,0:0:0:0:
176,320,150117,5,0,0:0:0:0:
96,288,150225,2,0,L|96:112,1,168.750006437302,2|0,2:0|0:0,0:0:0:0:
161,60,150653,1,2,2:0:0:0:
241,76,150760,1,2,2:0:0:0:
241,156,150867,1,2,2:0:0:0:
432,352,151082,6,0,B|379:333|379:333|336:272,1,112.500004291535,2|0,2:0|0:0,0:0:0:0:
464,200,151510,2,0,B|424:158|424:158|416:88,1,112.500004291535,2|0,2:0|0:0,0:0:0:0:
398,8,151832,1,0,0:0:0:0:
307,39,151939,2,0,L|227:119,1,112.500004291535,2|0,2:0|0:0,0:0:0:0:
81,225,152367,5,2,2:0:0:0:
145,289,152475,1,2,2:0:0:0:
209,353,152582,1,2,2:0:0:0:
228,252,152689,1,2,2:0:0:0:
228,252,152796,2,0,L|329:353,1,112.500004291535,2|0,2:0|0:0,0:0:0:0:
368,48,153225,6,0,L|368:160,1,112.500004291535,2|0,2:0|0:0,0:0:0:0:
453,107,153546,1,2,2:0:0:0:
454,182,153653,2,0,B|422:230|422:230|358:246,1,112.500004291535,2|0,2:0|0:0,0:0:0:0:
281,234,153975,1,0,0:0:0:0:
248,154,154082,2,2,B|224:103|224:103|168:74,1,112.500004291535,2|2,2:0|2:0,2:0:0:0:
455,184,154510,2,0,L|455:296,1,112.500004291535,2|0,2:0|0:0,0:0:0:0:
167,271,154939,2,0,L|167:159,1,112.500004291535
240,104,155260,1,2,2:0:0:0:
320,80,155367,6,0,L|320:192,1,112.500004291535,4|0,0:0|0:0,0:0:0:0:
432,272,155689,1,2,2:0:0:0:
432,272,155796,2,0,L|432:208,1,56.2500021457673
432,112,156010,2,0,L|496:112,1,56.2500021457673,2|0,2:0|0:0,0:0:0:0:
320,272,156225,6,0,L|208:272,1,112.500004291535,4|0,0:0|0:0,0:0:0:0:
432,215,156546,1,2,2:0:0:0:
432,215,156653,2,0,L|432:279,1,56.2500021457673
320,176,156867,2,0,L|320:112,1,56.2500021457673,2|0,2:0|0:0,0:0:0:0:
192,48,157082,6,0,L|192:160,1,112.500004291535,4|0,0:0|0:0,0:0:0:0:
112,304,157403,1,2,2:0:0:0:
112,304,157510,2,2,L|112:192,1,112.500004291535,0|2,0:0|2:0,2:0:0:0:
338,43,157939,6,0,B|387:70|387:70|402:139,1,112.500004291535,4|0,0:0|0:0,0:0:0:0:
144,48,158367,2,0,B|123:101|123:101|69:123,1,112.500004291535,2|0,2:0|0:0,0:0:0:0:
65,47,158689,1,0,0:0:0:0:
192,128,158796,2,0,L|192:240,1,112.500004291535,2|0,2:0|0:0,0:0:0:0:
128,208,159117,1,2,2:0:0:0:
254,264,159225,2,2,L|254:376,1,112.500004291535,2|2,2:0|2:0,2:0:0:0:
464,176,159653,6,0,B|464:116|464:116|432:48,1,112.500004291535,6|0,2:0|0:0,0:0:0:0:
275,156,160082,2,2,B|275:214|275:214|243:284,1,112.500004291535,2|2,2:0|2:0,2:0:0:0:
385,221,160403,1,0,0:0:0:0:
362,135,160510,2,0,B|338:80|338:80|283:43,1,112.500004291535,2|0,2:0|0:0,0:0:0:0:
192,15,160832,1,2,2:0:0:0:
192,16,160939,2,0,L|192:128,1,112.500004291535,2|2,2:0|2:0,0:0:0:0:
326,271,161367,5,6,2:0:0:0:
48,208,161582,1,0,0:0:0:0:
48,208,161796,2,0,B|96:96,1,112.500004291535,2|0,2:0|0:0,0:0:0:0:
152,144,162117,1,2,2:0:0:0:
16,80,162225,2,0,B|48:32|48:32|112:24,1,112.500004291535,2|0,2:0|0:0,0:0:0:0:
177,63,162546,1,0,0:0:0:0:
230,164,162653,2,2,L|269:58,1,112.500004291535,2|2,2:0|2:0,2:0:0:0:
160,352,163082,6,0,L|199:246,1,112.500004291535,4|0,0:0|0:0,0:0:0:0:
416,288,163510,2,2,L|480:272,1,56.2500021457673,2|2,2:0|2:0,2:0:0:0:
376,224,163725,2,0,L|312:208,1,56.2500021457673,2|0,2:0|0:0,0:0:0:0:
408,144,163939,2,0,L|456:32,1,112.500004291535,2|0,2:0|0:0,0:0:0:0:
347,53,164260,1,2,2:0:0:0:
248,65,164367,2,0,L|200:193,1,112.500004291535,0|2,0:0|2:0,0:0:0:0:
64,48,164796,5,6,2:0:0:0:
32,224,165010,1,0,0:0:0:0:
32,224,165225,2,0,L|160:288,1,112.500004291535,2|0,2:0|0:0,0:0:0:0:
48,304,165546,1,0,0:0:0:0:
144,208,165653,2,0,L|272:272,1,112.500004291535,2|0,2:0|0:0,0:0:0:0:
192,304,165975,1,2,2:0:0:0:
356,242,166082,2,0,L|256:192,1,112.500004291535,0|2,0:0|2:0,0:0:0:0:
356,323,166403,5,0,0:0:0:0:
356,323,166510,2,0,B|413:300|413:300|436:243,1,112.500004291535,2|0,2:0|0:0,0:0:0:0:
348,159,166832,1,2,2:0:0:0:
415,106,166939,2,0,L|312:60,1,112.500004291535,0|2,0:0|2:0,0:0:0:0:
48,112,167367,2,0,L|192:176,1,112.500004291535,4|2,0:0|2:0,0:0:0:0:
176,96,167689,1,0,0:0:0:0:
96,208,167796,2,0,L|96:320,1,112.500004291535,2|0,2:0|0:0,0:0:0:0:
336,240,168225,5,4,0:0:0:0:
176,96,168439,1,0,0:0:0:0:
336,240,168653,2,0,L|336:128,1,112.500004291535,2|0,2:0|0:0,0:0:0:0:
416,178,168975,1,2,2:0:0:0:
415,90,169082,2,0,B|383:42|383:42|319:42,1,112.500004291535,0|2,0:0|2:0,0:0:0:0:
336,128,169403,1,0,0:0:0:0:
258,80,169510,2,0,B|242:128|242:128|274:192,1,112.500004291535,2|0,2:0|0:0,0:0:0:0:
336,128,169832,1,2,2:0:0:0:
336,224,169939,2,0,L|336:336,1,112.500004291535,0|2,0:0|2:0,0:0:0:0:
245,272,170367,6,0,L|133:272,1,112.500004291535,4|0,0:0|0:0,0:0:0:0:
149,192,170689,1,2,2:0:0:0:
37,192,170796,2,0,L|149:192,1,112.500004291535,0|2,0:0|2:0,0:0:0:0:
132,112,171117,5,0,0:0:0:0:
245,112,171225,2,0,L|133:112,1,112.500004291535,2|0,2:0|0:0,0:0:0:0:
254,29,171653,2,0,B|311:44|311:44|338:102,1,112.500004291535,2|0,2:0|0:0,0:0:0:0:
336,336,172082,6,0,L|336:224,1,112.500004291535,2|0,2:0|0:0,0:0:0:0:
288,176,172403,1,2,2:0:0:0:
404,268,172510,2,0,L|404:380,1,112.500004291535,0|2,0:0|2:0,0:0:0:0:
480,352,172832,1,0,0:0:0:0:
480,240,172939,2,2,L|432:192,2,56.2500021457673,2|2|2,2:0|2:0|2:0,2:0:0:0:
200,207,173367,6,0,B|152:175|152:175|152:111,1,112.500004291535,4|0,0:0|0:0,0:0:0:0:
224,16,173796,2,0,L|224:128,1,112.500004291535,2|0,2:0|0:0,0:0:0:0:
190,295,174117,1,2,2:0:0:0:
296,264,174225,2,0,L|296:152,1,112.500004291535,0|2,0:0|2:0,0:0:0:0:
215,216,174546,1,0,0:0:0:0:
267,335,174653,2,0,L|379:335,1,112.500004291535,2|0,2:0|0:0,0:0:0:0:
112,352,175082,6,0,B|54:337|54:337|22:275,1,112.500004291535,4|0,0:0|0:0,0:0:0:0:
101,167,175510,2,0,L|101:279,1,112.500004291535,0|2,0:0|2:0,0:0:0:0:
28,202,175832,1,2,2:0:0:0:
167,140,175939,1,2,2:0:0:0:
265,281,176153,1,2,2:0:0:0:
302,336,176260,1,0,0:0:0:0:
368,344,176367,2,0,B|425:322|425:322|448:248,1,112.500004291535,0|2,0:0|2:0,0:0:0:0:
448,64,176796,2,0,L|448:192,1,112.500004291535,2|0,2:0|0:0,0:0:0:0:
233,119,177225,6,0,B|279:86|279:86|290:15,1,112.500004291535,4|0,0:0|0:0,0:0:0:0:
207,49,177546,1,2,2:0:0:0:
350,96,177653,2,0,L|350:272,1,168.750006437302
312,344,178082,1,2,2:0:0:0:
406,344,178189,1,2,2:0:0:0:
442,257,178296,1,2,2:0:0:0:
128,256,178510,6,0,B|80:288|80:288|80:352,1,112.500004291535,4|0,0:0|0:0,0:0:0:0:
296,224,178939,2,0,L|296:112,1,112.500004291535,2|0,2:0|0:0,0:0:0:0:
224,168,179260,1,2,2:0:0:0:
368,128,179367,2,0,L|368:16,1,112.500004291535,0|2,0:0|2:0,0:0:0:0:
426,277,179796,5,2,2:0:0:0:
346,309,179903,1,2,2:0:0:0:
266,277,180010,1,2,2:0:0:0:
186,309,180117,1,2,2:0:0:0:
186,309,180225,2,0,B|171:253|171:253|202:197,1,112.500004291535,6|0,2:0|0:0,0:0:0:0:
360,48,180653,6,0,L|360:160,1,112.500004291535,2|0,2:0|0:0,0:0:0:0:
440,144,180974,1,2,2:0:0:0:
280,176,181082,2,0,B|312:224|312:224|376:240,1,112.500004291535,2|2,2:0|2:0,0:0:0:0:
440,232,181403,1,0,0:0:0:0:
512,288,181510,2,0,B|464:320|464:320|400:312,1,112.500004291535,2|2,2:0|2:0,0:0:0:0:
208,112,181939,2,0,L|208:240,1,112.500004291535,2|0,2:0|0:0,0:0:0:0:
0,320,182367,2,0,L|0:192,1,112.500004291535,2|0,2:0|0:0,0:0:0:0:
48,144,182689,5,0,0:0:0:0:
128,192,182796,2,0,L|128:48,1,112.500004291535,4|0,0:0|0:0,0:0:0:0:
272,256,183117,1,2,2:0:0:0:
272,256,183225,2,0,L|272:337,1,56.2500021457673
256,144,183439,2,0,L|320:144,1,56.2500021457673,2|0,2:0|0:0,0:0:0:0:
176,272,183653,6,0,L|64:272,1,112.500004291535,4|0,0:0|0:0,0:0:0:0:
352,272,183975,1,2,2:0:0:0:
352,272,184082,2,0,L|352:215,1,56.2500021457673
176,128,184296,2,0,L|176:184,1,56.2500021457673,2|0,2:0|0:0,0:0:0:0:
272,320,184510,2,0,L|272:208,1,112.500004291535,4|0,0:0|0:0,0:0:0:0:
373,66,184832,1,2,2:0:0:0:
373,66,184939,2,0,B|428:87|428:87|452:148,1,112.500004291535,0|2,0:0|2:0,0:0:0:0:
176,32,185367,5,0,0:0:0:0:
272,208,185582,1,0,0:0:0:0:
176,32,185796,2,0,L|176:160,1,112.500004291535,2|0,2:0|0:0,0:0:0:0:
248,112,186117,1,2,2:0:0:0:
104,144,186225,2,0,L|104:256,1,112.500004291535,0|2,0:0|2:0,0:0:0:0:
176,224,186546,1,0,0:0:0:0:
32,288,186653,2,0,B|69:331|69:331|128:336,1,112.500004291535,2|0,2:0|0:0,0:0:0:0:
8,152,187082,2,0,B|18:97|18:97|72:56,1,112.500004291535,2|0,2:0|0:0,0:0:0:0:
350,241,187510,6,0,L|367:123,1,112.500004291535,2|0,2:0|0:0,0:0:0:0:
200,194,187832,1,2,2:0:0:0:
227,278,187939,2,0,B|270:241|270:241|278:185,1,112.500004291535,2|0,2:0|0:0,3:0:0:0:
266,96,188260,1,2,2:0:0:0:
193,43,188367,2,0,B|150:80|150:80|141:139,1,112.500004291535,2|0,2:0|0:0,3:0:0:0:
216,353,188796,5,2,2:0:0:0:
90,248,189010,1,2,2:0:0:0:
384,272,189225,2,0,L|288:192,1,112.500004291535,2|0,2:0|0:0,0:0:0:0:
248,264,189546,1,2,2:0:0:0:
304,112,189653,2,0,L|390:184,1,112.500004291535,0|2,0:0|2:0,0:0:0:0:
240,160,189975,1,0,0:0:0:0:
164,182,190082,2,0,B|165:128|165:128|212:86,1,112.500004291535,2|0,2:0|0:0,0:0:0:0:
440,136,190510,6,0,L|440:24,1,112.500004291535,4|0,0:0|0:0,0:0:0:0:
440,328,190939,1,2,2:0:0:0:
360,145,191153,1,0,0:0:0:0:
296,272,191260,1,0,0:0:0:0:
208,240,191367,2,0,L|208:352,1,112.500004291535,2|0,2:0|0:0,0:0:0:0:
200,160,191689,1,2,2:0:0:0:
288,192,191796,2,0,L|288:64,1,112.500004291535,0|2,0:0|2:0,0:0:0:0:
115,46,192225,5,4,0:0:0:0:
158,220,192439,1,2,2:0:0:0:
102,300,192546,1,2,2:0:0:0:
53,215,192653,2,2,P|9:196|36:239,1,112.500004291535,2|0,2:0|0:0,0:0:0:0:
43,107,192975,1,2,2:0:0:0:
128,134,193082,2,0,L|180:108,1,56.2500021457673
292,179,193296,2,0,P|248:215|259:159,1,134.999995880127,2|2,2:0|2:0,0:0:0:0:
150,356,193725,1,0,0:0:0:0:
345,338,193939,5,4,0:0:0:0:
469,240,194153,1,0,0:0:0:0:
446,48,194367,2,0,L|446:176,1,112.500004291535,2|0,2:0|0:0,0:0:0:0:
512,128,194689,1,2,2:0:0:0:
384,192,194796,2,0,L|384:304,1,112.500004291535,0|2,0:0|2:0,0:0:0:0:
460,274,195117,1,0,0:0:0:0:
313,339,195225,2,0,B|271:303|271:303|265:243,1,112.500004291535,2|0,2:0|0:0,0:0:0:0:
512,128,195653,5,4,0:0:0:0:
336,258,195867,1,0,0:0:0:0:
176,128,196082,1,2,2:0:0:0:
416,128,196296,1,0,0:0:0:0:
257,163,196403,1,0,0:0:0:0:
336,79,196510,2,0,L|336:191,1,112.500004291535,2|0,0:0|0:0,0:0:0:0:
176,127,196832,5,2,0:0:0:0:
176,240,196939,2,0,L|176:128,1,112.500004291535,0|2,0:0|0:0,0:0:0:0:
240,48,197367,2,0,L|128:48,1,112.500004291535,2|0,0:0|0:0,0:0:0:0:
60,225,197689,1,2,0:0:0:0:
6,144,197796,2,0,L|118:144,1,112.500004291535,0|2,0:0|0:0,0:0:0:0:
205,189,198117,1,0,0:0:0:0:
238,297,198225,6,0,L|203:182,1,112.500004291535,2|0,0:0|0:0,0:0:0:0:
374,125,198546,1,2,0:0:0:0:
270,61,198653,2,0,L|302:168,1,112.500004291535,0|2,0:0|0:0,0:0:0:0:
386,355,199082,5,2,2:0:0:0:
329,344,199189,1,2,2:0:0:0:
324,289,199296,1,2,2:0:0:0:
269,279,199403,1,2,2:0:0:0:
254,225,199510,2,0,L|239:160,1,56.2500021457673,4|0,0:0|0:0,0:0:0:0:
235,43,199725,5,0,0:0:0:0:
336,15,199832,1,0,0:0:0:0:
336,128,199939,2,0,L|336:16,1,112.500004291535,2|0,2:0|0:0,0:0:0:0:
260,124,200260,1,2,0:0:0:0:
400,152,200367,2,0,L|400:264,1,112.500004291535,0|2,0:0|0:0,0:0:0:0:
265,198,200796,6,0,L|152:181,1,112.500004291535,2|0,0:0|0:0,0:0:0:0:
71,139,201117,1,2,0:0:0:0:
151,91,201225,1,2,0:0:0:0:
160,336,201439,1,2,0:0:0:0:
240,304,201546,1,2,2:0:0:0:
176,256,201653,1,2,2:0:0:0:
432,264,201867,6,2,L|464:232,2,28.1250010728836,2|2|2,2:0|2:0|2:0,0:0:0:0:
400,48,202296,1,0,0:0:0:0:
352,144,202510,2,0,B|352:240|352:240|304:256|304:256|304:352,1,225.000008583069,4|0,0:0|0:0,0:0:0:0:
272,168,203582,1,0,0:0:0:0:
160,216,203796,1,2,2:0:0:0:
224,320,204010,1,0,0:0:0:0:
384,312,204225,2,0,B|439:294|439:294|464:240,1,112.500004291535,4|0,0:0|0:0,0:0:0:0:
384,112,204867,2,0,L|384:240,1,112.500004291535,2|0,2:0|0:0,0:0:0:0:
408,40,205510,1,0,0:0:0:0:
312,144,205725,6,0,L|312:16,1,112.500004291535,2|0,2:0|0:0,0:0:0:0:
256,199,206367,2,0,L|256:256,1,56.2500021457673,4|0,0:0|0:0,0:0:0:0:
64,352,206796,1,0,0:0:0:0:
160,272,207010,1,2,2:0:0:0:
160,144,207225,1,2,2:0:0:0:
64,64,207439,1,0,0:0:0:0:
224,96,207653,2,2,B|256:67|256:67|262:3,2,84.3750032186509,2|2|2,2:0|2:0|2:0,2:0:0:0:
272,256,208510,2,0,L|272:160,1,84.3750032186509,2|0,2:0|0:0,0:0:0:0:
352,64,208939,2,0,L|352:144,1,56.2500021457673,4|0,0:0|0:0,0:0:0:0:
272,256,209367,5,2,2:0:0:0:
352,272,209582,1,0,0:0:0:0:
255,353,209796,1,0,0:0:0:0:
144,292,210010,2,0,L|144:208,1,84.3750032186509,2|0,2:0|0:0,0:0:0:0:
144,128,210439,2,0,B|87:146|87:146|64:208,1,112.500004291535,2|0,2:0|0:0,0:0:0:0:
256,224,211082,1,2,2:0:0:0:
256,224,211725,2,0,L|256:336,1,112.500004291535,2|0,2:0|0:0,0:0:0:0:
102,326,212367,1,2,2:0:0:0:
6,204,212582,1,2,2:0:0:0:
152,216,212796,6,0,L|174:164,1,56.2500021457673
160,16,213225,1,2,2:0:0:0:
304,80,213439,1,2,2:0:0:0:
256,240,213653,1,0,0:0:0:0:
416,48,213867,1,2,2:0:0:0:
448,208,214082,1,0,0:0:0:0:
448,208,214189,2,0,L|480:144,1,56.2500021457673,2|0,2:0|0:0,0:0:0:0:
326,173,214510,2,0,L|262:141,1,56.2500021457673,2|0,2:0|0:0,0:0:0:0:
255,95,214832,1,2,2:0:0:0:
135,309,215153,5,2,2:0:0:0:
135,309,215796,5,4,0:0:0:0:
176,192,216010,1,0,0:0:0:0:
272,304,216225,2,0,L|272:224,1,56.2500021457673,2|0,2:0|0:0,0:0:0:0:
156,251,216653,1,0,0:0:0:0:
272,176,216867,2,0,L|272:64,1,112.500004291535,2|0,2:0|0:0,0:0:0:0:
432,128,217510,2,0,L|432:224,1,84.3750032186509,2|0,2:0|0:0,0:0:0:0:
512,128,217939,1,2,2:0:0:0:
384,64,218153,1,0,0:0:0:0:
320,184,218367,1,0,0:0:0:0:
192,96,218582,6,0,L|192:208,1,112.500004291535,2|0,2:0|0:0,0:0:0:0:
368,336,219225,2,0,L|368:272,1,56.2500021457673,2|0,2:0|0:0,0:0:0:0:
208,352,219653,1,0,0:0:0:0:
32,272,219867,1,2,2:0:0:0:
128,352,220082,1,0,0:0:0:0:
32,272,220296,1,2,2:0:0:0:
96,144,220510,1,2,2:0:0:0:
0,64,220724,1,0,0:0:0:0:
96,144,220939,1,2,2:0:0:0:
208,48,221153,5,2,2:0:0:0:
304,128,221367,2,0,L|336:96,3,28.1250010728836,2|0|0|0,2:0|0:0|0:0|0:0,0:0:0:0:
304,192,221796,2,0,L|272:224,3,28.1250010728836
368,192,222225,2,0,L|400:160,3,28.1250010728836
368,256,222653,2,0,L|336:288,1,28.1250010728836
432,240,222867,2,0,L|464:208,1,28.1250010728836,2|0,2:0|0:0,0:0:0:0:
464,112,223082,2,0,B|420:77|420:77|352:64,1,112.500004291535,4|0,0:0|0:0,0:0:0:0:
208,96,223725,2,0,B|164:130|164:130|138:183,1,112.500004291535,2|0,2:0|0:0,0:0:0:0:
297,168,224367,1,0,0:0:0:0:
352,288,224582,6,0,B|397:255|397:255|425:189,1,112.500004291535,2|0,2:0|0:0,0:0:0:0:
272,240,225225,2,0,B|223:270|223:270|155:272,1,112.500004291535,2|0,2:0|0:0,0:0:0:0:
352,64,226082,1,0,0:0:0:0:
176,16,226296,1,0,0:0:0:0:
224,160,226510,2,0,L|224:224,1,56.2500021457673,2|0,2:0|0:0,0:0:0:0:
320,112,226939,1,0,0:0:0:0:
288,240,227153,2,0,L|288:352,1,112.500004291535,2|0,2:0|0:0,0:0:0:0:
128,240,227796,1,2,2:0:0:0:
288,144,228010,1,0,0:0:0:0:
128,64,228225,5,2,2:0:0:0:
128,64,228653,2,0,B|136:38|136:38|160:16,1,56.2500021457673,4|0,0:0|0:0,0:0:0:0:
146,133,229082,2,0,B|119:139|119:139|88:129,1,56.2500021457673,2|0,2:0|0:0,0:0:0:0:
197,79,229510,2,0,B|215:98|215:98|222:130,1,56.2500021457673,2|0,2:0|0:0,0:0:0:0:
160,256,229939,5,4,0:0:0:0:
160,256,230046,2,0,L|160:352,1,75,2|0,2:0|0:0,0:0:0:0:
160,176,230367,2,0,L|198:176,1,37.5,2|0,2:0|0:0,0:0:0:0:
80,256,230582,2,0,L|16:256,1,37.5,2|0,2:0|0:0,0:0:0:0:
80,176,230796,2,0,L|80:128,1,37.5,2|0,2:0|0:0,0:0:0:0:
176,48,231010,1,0,0:0:0:0:
288,96,231117,1,2,2:0:0:0:
288,96,231225,2,0,L|288:192,1,75,0|2,0:0|2:0,0:0:0:0:
416,320,231653,2,0,L|416:240,1,75,2|0,2:0|0:0,0:0:0:0:
240,256,232082,6,0,L|277:256,1,37.5,2|0,2:0|0:0,0:0:0:0:
416,172,232296,1,2,2:0:0:0:
240,144,232510,2,0,L|240:48,1,75,2|0,2:0|0:0,0:0:0:0:
304,112,232832,1,2,2:0:0:0:
176,32,232939,2,0,L|176:112,1,75,2|2,2:0|2:0,0:0:0:0:
96,288,233367,6,0,B|59:273|59:273|48:224,1,75,2|0,2:0|0:0,0:0:0:0:
40,160,233689,1,0,0:0:0:0:
112,128,233796,2,0,L|112:176,1,37.5,2|0,2:0|0:0,0:0:0:0:
176,240,234010,2,0,L|176:192,1,37.5,2|0,2:0|0:0,0:0:0:0:
256,112,234225,2,0,L|256:208,1,75,2|0,2:0|0:0,0:0:0:0:
256,259,234546,1,2,2:0:0:0:
329,278,234653,2,0,L|329:203,1,75,0|2,0:0|2:0,0:0:0:0:
480,288,235082,6,0,L|400:288,1,75,2|0,2:0|0:0,0:0:0:0:
448,144,235403,1,2,2:0:0:0:
448,144,235510,2,0,L|448:224,1,75,0|2,0:0|2:0,0:0:0:0:
368,96,235832,1,0,0:0:0:0:
368,96,235939,2,0,L|368:16,1,75,2|0,2:0|0:0,0:0:0:0:
296,48,236260,1,0,0:0:0:0:
240,96,236367,6,0,L|240:192,1,75,4|0,0:0|0:0,0:0:0:0:
240,336,236796,1,0,0:0:0:0:
128,224,237010,1,2,2:0:0:0:
240,96,237225,1,0,0:0:0:0:
240,96,237332,2,0,L|176:96,1,37.5,2|0,2:0|0:0,0:0:0:0:
256,176,237546,1,0,0:0:0:0:
256,176,237653,2,0,B|292:161|292:161|320:112,1,75,2|0,2:0|0:0,0:0:0:0:
320,48,237975,1,2,2:0:0:0:
416,64,238082,2,0,L|416:112,1,37.5
480,192,238296,2,0,L|480:144,1,37.5,2|0,2:0|0:0,0:0:0:0:
416,224,238510,6,0,B|410:263|410:263|368:304,1,75,2|0,2:0|0:0,0:0:0:0:
160,304,238939,2,0,L|128:272,1,37.5,2|0,2:0|0:0,0:0:0:0:
224,256,239153,2,0,L|256:224,1,37.5,2|0,2:0|0:0,0:0:0:0:
160,208,239367,2,0,L|96:144,1,75,0|2,0:0|2:0,0:0:0:0:
112,48,239689,1,2,2:0:0:0:
112,48,239796,2,0,L|176:112,1,75,0|2,0:0|2:0,0:0:0:0:
408,191,240225,6,0,L|360:255,1,75,2|0,2:0|0:0,0:0:0:0:
296,159,240546,1,2,2:0:0:0:
296,159,240653,2,0,B|296:120|296:120|328:79,1,75,0|2,0:0|2:0,0:0:0:0:
121,73,241082,5,0,0:0:0:0:
121,73,241189,2,0,B|119:111|119:111|74:138,1,75,2|0,2:0|0:0,0:0:0:0:
59,229,241510,2,0,B|97:230|97:230|131:202,1,75,2|0,2:0|0:0,0:0:0:0:
219,172,241832,1,2,2:0:0:0:
219,172,241939,2,0,L|219:252,1,75
307,316,242260,1,2,2:0:0:0:
307,316,242367,2,0,L|307:220,1,75,0|2,0:0|2:0,0:0:0:0:
338,173,242689,1,0,0:0:0:0:
430,122,242796,6,0,B|430:167|430:167|462:202,1,75,2|0,2:0|0:0,0:0:0:0:
360,96,243117,1,0,0:0:0:0:
284,90,243225,2,0,B|271:132|271:132|219:148,1,75,4|0,0:0|0:0,0:0:0:0:
176,336,243653,2,0,B|136:325|136:325|112:288,1,75,2|0,2:0|0:0,0:0:0:0:
192,240,243975,1,2,2:0:0:0:
192,240,244082,2,0,L|192:144,1,75,0|2,0:0|2:0,0:0:0:0:
336,80,244510,6,0,L|336:160,1,75,2|0,2:0|0:0,0:0:0:0:
400,128,244832,1,2,2:0:0:0:
272,176,244939,2,0,L|272:256,1,75,0|2,0:0|2:0,0:0:0:0:
191,328,245367,5,0,0:0:0:0:
356,236,245582,1,2,2:0:0:0:
272,96,245796,2,0,L|272:48,1,37.5,2|0,2:0|0:0,0:0:0:0:
192,112,246010,2,0,L|192:160,1,37.5,2|0,2:0|0:0,0:0:0:0:
192,32,246225,2,0,L|112:32,1,75,2|2,2:0|2:0,0:0:0:0:
112,112,246546,1,2,2:0:0:0:
112,112,246653,2,0,L|112:208,1,75,0|2,0:0|2:0,0:0:0:0:
224,245,247082,6,0,L|224:320,1,75,2|0,2:0|0:0,0:0:0:0:
352,352,247510,1,2,2:0:0:0:
448,224,247725,1,2,2:0:0:0:
352,352,247939,5,0,0:0:0:0:
304,192,248153,1,2,2:0:0:0:
128,224,248367,1,2,2:0:0:0:
160,32,248581,1,2,2:0:0:0:
265,70,248796,2,0,L|218:128,1,75,2|0,2:0|0:0,0:0:0:0:
304,208,249225,5,2,2:0:0:0:
304,208,249333,2,0,L|304:288,1,75,2|0,2:0|0:0,0:0:0:0:
384,176,249653,2,0,L|384:80,1,75,2|0,2:0|0:0,0:0:0:0:
384,256,249975,1,2,2:0:0:0:
384,256,250082,2,0,L|464:256,1,75,0|2,0:0|2:0,0:0:0:0:
256,336,250510,5,4,0:0:0:0:
80,320,250725,2,2,L|80:272,1,37.5,2|2,2:0|2:0,2:0:0:0:
160,240,250939,2,0,L|160:144,1,75,0|2,0:0|2:0,0:0:0:0:
256,64,251367,2,0,B|289:96|289:96|304:144,1,75,2|0,2:0|0:0,0:0:0:0:
224,128,251689,1,2,2:0:0:0:
358,87,251796,2,0,B|376:123|376:123|374:183,1,75,0|2,0:0|2:0,0:0:0:0:
229,332,252225,5,2,2:0:0:0:
144,152,252439,1,0,0:0:0:0:
224,128,252546,1,2,2:0:0:0:
224,128,252653,2,0,L|224:184,1,37.5,0|2,0:0|2:0,0:0:0:0:
301,300,252975,1,0,0:0:0:0:
301,300,253082,2,0,L|301:220,1,75,2|0,2:0|0:0,0:0:0:0:
312,144,253403,5,0,0:0:0:0:
312,144,253510,2,0,B|351:154|351:154|376:182,1,75,4|0,0:0|0:0,0:0:0:0:
208,288,253939,1,2,2:0:0:0:
64,192,254153,1,0,0:0:0:0:
160,80,254367,1,2,2:0:0:0:
224,112,254475,1,0,0:0:0:0:
128,240,254689,1,2,2:0:0:0:
128,240,254796,2,0,L|128:320,1,75,0|2,0:0|2:0,0:0:0:0:
272,288,255117,5,0,0:0:0:0:
272,288,255225,2,0,L|272:208,1,75,2|0,2:0|0:0,0:0:0:0:
400,224,255653,2,0,B|437:208|437:208|453:162,1,75,2|0,2:0|0:0,0:0:0:0:
416,96,255975,1,2,2:0:0:0:
336,64,256082,2,0,L|336:144,1,75,0|2,0:0|2:0,0:0:0:0:
256,32,256403,1,0,0:0:0:0:
256,32,256510,5,0,0:0:0:0:
256,176,256725,1,2,2:0:0:0:
256,320,256939,1,2,2:0:0:0:
96,144,257153,1,0,0:0:0:0:
328,208,257367,6,0,L|328:304,1,89.9999972534181,2|0,2:0|0:0,0:0:0:0:
175,333,257796,2,0,B|174:289|174:289|207:251,1,89.9999972534181,8|0,0:0|0:0,0:0:0:0:
415,210,258225,1,2,2:0:0:0:
234,106,258439,1,2,0:0:0:0:
328,160,258653,2,0,L|328:48,1,89.9999972534181,8|0,0:0|0:0,0:0:0:0:
96,96,259082,5,2,2:0:0:0:
125,295,259296,1,0,0:0:0:0:
328,205,259510,2,0,L|328:301,1,89.9999972534181,8|0,0:0|0:0,0:0:0:0:
224,144,259939,2,0,L|224:48,1,89.9999972534181,2|0,2:0|0:0,0:0:0:0:
288,112,260260,1,2,0:0:0:0:
160,176,260367,2,0,L|160:272,1,89.9999972534181,8|0,0:0|0:0,0:0:0:0:
229,241,260689,1,0,0:0:0:0:
94,297,260796,2,0,B|124:335|124:335|175:344,1,89.9999972534181,2|0,2:0|0:0,0:0:0:0:
285,188,261225,5,8,0:0:0:0:
368,48,261439,1,0,0:0:0:0:
318,259,261653,2,0,B|338:298|338:298|382:323,1,89.9999972534181,2|0,2:0|0:0,0:0:0:0:
250,123,262082,2,0,B|230:84|230:84|186:59,1,89.9999972534181
426,254,262510,5,2,2:0:0:0:
467,349,262725,1,0,0:0:0:0:
218,220,262939,1,8,0:0:0:0:
172,313,263153,1,0,0:0:0:0:
224,64,263367,6,0,L|320:96,1,89.9999972534181,2|0,2:0|0:0,0:0:0:0:
240,144,263689,1,2,0:0:0:0:
352,32,263796,2,8,L|384:96,1,44.999998626709
320,176,264010,1,2,2:0:0:0:
160,96,264225,6,0,L|160:186,1,89.9999972534181,4|0,0:0|0:0,0:0:0:0:
288,336,264653,1,8,0:0:0:0:
400,144,264867,1,0,0:0:0:0:
160,352,265082,2,0,L|160:262,1,89.9999972534181,2|0,2:0|0:0,0:0:0:0:
256,128,265510,1,8,0:0:0:0:
384,320,265725,1,0,0:0:0:0:
256,128,265939,6,0,L|256:256,1,89.9999972534181,2|0,2:0|0:0,0:0:0:0:
176,128,266260,1,2,2:0:0:0:
176,128,266367,2,0,B|176:34,1,89.9999972534181,8|2,0:0|2:0,0:0:0:0:
336,192,266796,2,0,L|336:288,1,89.9999972534181,2|0,2:0|0:0,0:0:0:0:
416,224,267117,1,2,0:0:0:0:
336,112,267225,2,0,L|336:16,1,89.9999972534181,8|0,0:0|0:0,0:0:0:0:
416,64,267546,1,8,0:0:0:0:
263,156,267653,6,0,L|263:268,1,89.9999972534181,2|0,2:0|0:0,0:0:0:0:
112,144,268082,1,8,0:0:0:0:
272,16,268296,1,0,0:0:0:0:
32,96,268510,2,0,L|32:0,1,89.9999972534181,2|0,2:0|0:0,0:0:0:0:
194,84,268939,1,8,0:0:0:0:
34,204,269153,1,0,0:0:0:0:
218,238,269367,6,0,L|144:288,1,89.9999972534181,2|0,2:0|0:0,0:0:0:0:
288,96,269689,1,2,2:0:0:0:
288,96,269796,2,0,L|288:192,1,89.9999972534181,8|2,0:0|2:0,0:0:0:0:
112,224,270225,2,0,L|208:160,1,89.9999972534181,2|0,2:0|0:0,0:0:0:0:
224,240,270546,1,0,0:0:0:0:
160,96,270653,2,8,L|240:96,1,44.999998626709
80,160,270867,1,0,0:0:0:0:
288,96,271082,6,0,L|288:208,1,89.9999972534181,4|0,0:0|0:0,0:0:0:0:
448,240,271510,1,8,0:0:0:0:
496,48,271725,1,0,0:0:0:0:
288,96,271939,6,0,L|288:186,1,89.9999972534181,2|0,2:0|0:0,0:0:0:0:
160,288,272367,1,8,0:0:0:0:
48,128,272582,1,0,0:0:0:0:
160,288,272796,2,0,L|160:378,1,89.9999972534181,2|0,2:0|0:0,0:0:0:0:
352,138,273225,2,0,L|352:48,1,89.9999972534181,8|0,0:0|0:0,0:0:0:0:
224,246,273653,2,0,L|224:336,1,89.9999972534181,2|0,2:0|0:0,0:0:0:0:
288,272,273975,1,2,0:0:0:0:
160,224,274082,2,0,L|160:128,1,89.9999972534181,8|0,0:0|0:0,0:0:0:0:
224,160,274403,1,8,0:0:0:0:
96,112,274510,6,0,L|96:16,1,89.9999972534181,2|0,2:0|0:0,0:0:0:0:
96,288,274939,1,8,0:0:0:0:
224,89,275153,1,0,0:0:0:0:
368,248,275367,2,0,L|368:136,1,89.9999972534181,2|0,2:0|0:0,0:0:0:0:
96,288,275796,5,8,0:0:0:0:
368,248,276010,1,0,0:0:0:0:
160,96,276225,2,0,B|127:130|127:130|128:176,1,89.9999972534181,2|0,2:0|0:0,0:0:0:0:
416,320,276653,2,0,B|448:282|448:282|448:240,1,89.9999972534181,8|0,0:0|0:0,0:0:0:0:
304,48,277082,6,0,L|304:144,1,89.9999972534181,2|0,2:0|0:0,0:0:0:0:
224,208,277403,1,2,0:0:0:0:
368,176,277510,2,8,L|352:256,1,44.999998626709
224,128,277725,1,0,0:0:0:0:
405,103,277939,2,0,B|445:128|445:128|448:187,1,89.9999972534181,4|0,0:0|0:0,0:0:0:0:
144,64,278367,5,8,0:0:0:0:
304,240,278582,1,0,0:0:0:0:
288,80,278796,5,2,2:0:0:0:
96,240,279010,1,0,0:0:0:0:
152,128,279225,5,8,0:0:0:0:
264,320,279439,1,0,0:0:0:0:
434,88,279653,6,0,B|453:130|453:130|434:172,1,89.9999972534181,2|0,2:0|0:0,0:0:0:0:
264,320,280082,1,8,0:0:0:0:
152,128,280296,1,0,0:0:0:0:
336,144,280510,1,2,2:0:0:0:
160,304,280725,1,2,0:0:0:0:
120,256,280832,1,2,0:0:0:0:
80,208,280939,2,0,L|80:112,1,89.9999972534181,8|0,0:0|0:0,0:0:0:0:
145,193,281260,1,8,0:0:0:0:
16,256,281367,2,0,L|16:166,1,89.9999972534181
256,320,281796,6,0,L|352:320,1,89.9999972534181,8|0,0:0|0:0,0:0:0:0:
288,80,282225,2,0,L|176:80,1,89.9999972534181,2|0,2:0|0:0,0:0:0:0:
352,240,282653,1,0,0:0:0:0:
224,160,282867,1,2,2:0:0:0:
160,200,282975,1,0,0:0:0:0:
160,200,283082,2,0,L|160:296,1,89.9999972534181,2|0,2:0|0:0,0:0:0:0:
407,149,283510,6,0,B|411:102|411:102|398:61,1,89.9999972534181,8|0,0:0|0:0,0:0:0:0:
288,200,283939,6,0,L|288:312,1,112.500004291535
144,128,284367,2,0,L|144:16,1,112.500004291535
176,336,284796,6,0,B|132:328|132:328|96:297,1,89.9999972534181,4|0,0:0|0:0,0:0:0:0:
352,192,285225,5,8,0:0:0:0:
144,128,285440,1,0,0:0:0:0:
272,272,285654,1,2,2:0:0:0:
320,64,285868,1,0,0:0:0:0:
480,208,286082,2,0,L|480:298,1,89.9999972534181,8|0,0:0|0:0,0:0:0:0:
208,154,286511,6,0,L|208:64,1,89.9999972534181,2|0,2:0|0:0,0:0:0:0:
416,240,286940,1,8,0:0:0:0:
368,64,287154,1,0,0:0:0:0:
240,210,287368,2,0,L|240:300,1,89.9999972534181,2|0,2:0|0:0,0:0:0:0:
176,336,287690,1,2,0:0:0:0:
176,336,287797,2,0,L|176:246,1,89.9999972534181,8|0,0:0|0:0,0:0:0:0:
217,146,288118,1,8,0:0:0:0:
320,176,288225,2,0,L|416:176,1,89.9999972534181,2|0,2:0|0:0,0:0:0:0:
240,363,288654,5,8,0:0:0:0:
464,272,288868,1,0,0:0:0:0:
272,224,289082,1,2,2:0:0:0:
400,352,289297,1,0,0:0:0:0:
432,192,289510,1,8,0:0:0:0:
304,64,289725,1,0,0:0:0:0:
128,176,289940,5,2,2:0:0:0:
224,304,290154,1,0,0:0:0:0:
368,224,290368,1,8,0:0:0:0:
256,112,290582,1,0,0:0:0:0:
224,304,290797,2,0,L|160:224,1,89.9999972534181,4|0,0:0|0:0,0:0:0:0:
208,176,291118,1,0,0:0:0:0:
128,176,291225,2,8,L|80:224,1,44.999998626709
64,368,291440,1,0,0:0:0:0:
64,368,291654,6,0,L|128:304,1,89.9999972534181,2|0,2:0|0:0,0:0:0:0:
360,305,292082,2,0,L|272:320,1,89.9999972534181,8|0,0:0|0:0,0:0:0:0:
275,34,292511,6,0,L|339:98,1,89.9999972534181,2|0,2:0|0:0,0:0:0:0:
158,99,292939,2,0,L|69:113,1,89.9999972534181,8|0,0:0|0:0,0:0:0:0:
304,224,293368,1,2,2:0:0:0:
240,176,293475,2,0,L|240:272,1,89.9999972534181,2|2,2:0|0:0,0:0:0:0:
304,160,293797,1,0,0:0:0:0:
176,208,294011,1,2,2:0:0:0:
336,288,294118,1,0,0:0:0:0:
336,288,294225,2,0,L|272:352,1,89.9999972534181
384,336,294547,1,2,0:0:0:0:
416,272,294654,2,0,L|480:208,1,89.9999972534181,2|0,2:0|0:0,0:0:0:0:
464,64,294975,5,8,0:0:0:0:
464,64,295082,2,0,L|400:128,1,89.9999972534181,2|0,2:0|0:0,0:0:0:0:
304,80,295404,1,0,0:0:0:0:
304,80,295511,2,0,L|352:32,1,44.999998626709,2|0,2:0|0:0,0:0:0:0:
304,168,295725,1,0,0:0:0:0:
304,168,295940,2,0,L|240:232,1,89.9999972534181,2|0,2:0|0:0,0:0:0:0:
176,184,296261,1,0,0:0:0:0:
176,184,296368,2,0,L|112:248,1,89.9999972534181,2|0,2:0|0:0,0:0:0:0:
304,64,296797,6,0,L|368:128,1,89.9999972534181,4|0,0:0|0:0,0:0:0:0:
240,128,297118,1,2,0:0:0:0:
240,128,297225,2,0,B|208:94|208:94|208:48,1,89.9999972534181,2|2,2:0|2:0,0:0:0:0:
61,147,297654,2,0,B|60:196|60:196|16:224,1,89.9999972534181,2|0,2:0|0:0,0:0:0:0:
143,151,297975,1,0,0:0:0:0:
107,304,298082,2,8,L|107:259,1,44.999998626709
213,319,298297,1,0,0:0:0:0:
397,249,298511,6,0,B|369:217|369:217|369:169,1,89.9999972534181,2|0,2:0|0:0,0:0:0:0:
160,112,298940,1,8,0:0:0:0:
288,352,299154,1,0,0:0:0:0:
464,192,299368,1,2,2:0:0:0:
384,352,299582,1,0,0:0:0:0:
203,258,299797,1,8,0:0:0:0:
464,304,300011,5,0,0:0:0:0:
314,123,300225,2,0,L|314:219,1,89.9999972534181,2|0,2:0|0:0,0:0:0:0:
147,59,300654,1,8,0:0:0:0:
203,171,300868,5,0,0:0:0:0:
48,16,301082,2,0,L|48:128,1,89.9999972534181,2|0,2:0|0:0,0:0:0:0:
128,96,301404,1,2,0:0:0:0:
112,160,301511,2,0,L|112:272,1,89.9999972534181,8|0,0:0|0:0,0:0:0:0:
192,224,301832,1,8,0:0:0:0:
176,288,301940,2,0,L|176:384,1,89.9999972534181,2|0,2:0|0:0,0:0:0:0:
317,295,302368,5,8,0:0:0:0:
176,144,302582,1,0,0:0:0:0:
384,112,302797,2,0,L|384:208,1,89.9999972534181,2|0,2:0|0:0,0:0:0:0:
176,288,303225,5,8,0:0:0:0:
384,112,303440,1,0,0:0:0:0:
124,89,303654,2,0,B|101:130|101:130|110:178,1,89.9999972534181,2|0,2:0|0:0,0:0:0:0:
272,160,304082,5,8,0:0:0:0:
195,353,304297,1,0,0:0:0:0:
26,147,304511,2,0,L|46:246,1,89.9999972534181,4|0,0:0|0:0,0:0:0:0:
108,172,304832,1,2,2:0:0:0:
165,120,304940,2,0,L|128:96,1,44.999998626709,8|8,0:0|0:0,0:0:0:0:
192,208,305154,5,0,2:0:0:0:
231,11,305368,2,0,L|327:75,1,89.9999972534181,2|0,2:0|0:0,0:0:0:0:
480,176,305797,1,8,0:0:0:0:
288,256,306011,1,0,0:0:0:0:
480,176,306225,2,0,L|480:80,1,89.9999972534181,2|0,2:0|0:0,0:0:0:0:
288,256,306654,1,8,0:0:0:0:
112,96,306868,1,0,0:0:0:0:
288,166,307082,2,0,L|288:256,1,89.9999972534181,2|0,2:0|0:0,0:0:0:0:
112,186,307511,2,0,L|112:96,1,89.9999972534181,8|0,0:0|0:0,0:0:0:0:
288,166,307940,6,0,L|288:256,1,89.9999972534181,2|0,2:0|0:0,0:0:0:0:
360,192,308261,1,2,0:0:0:0:
224,128,308368,1,8,0:0:0:0:
224,128,308690,5,8,0:0:0:0:
224,128,308797,2,0,L|224:224,1,89.9999972534181,4|0,0:0|0:0,0:0:0:0:
224,368,309225,1,8,0:0:0:0:
416,224,309440,1,0,0:0:0:0:
224,368,309654,6,0,L|224:256,1,89.9999972534181,2|0,2:0|0:0,0:0:0:0:
48,320,310082,1,8,0:0:0:0:
224,160,310297,5,0,0:0:0:0:
48,320,310511,2,0,L|48:224,1,89.9999972534181,2|0,2:0|0:0,0:0:0:0:
224,160,310940,1,8,0:0:0:0:
48,8,311154,5,0,0:0:0:0:
224,160,311368,2,0,L|224:32,1,89.9999972534181,2|0,2:0|0:0,0:0:0:0:
288,48,311690,1,0,0:0:0:0:
160,96,311797,2,8,L|160:160,1,44.999998626709
288,176,312011,1,0,0:0:0:0:
106,48,312225,5,2,2:0:0:0:
128,224,312439,1,0,0:0:0:0:
288,304,312653,1,2,2:0:0:0:
448,240,312867,1,2,2:0:0:0:
288,304,313082,5,2,2:0:0:0:
128,224,313296,1,0,0:0:0:0:
106,48,313510,1,2,2:0:0:0:
272,112,313725,1,2,2:0:0:0:
288,304,313939,2,0,B|334:284|334:284|360:233,1,97.4999955368044
346,69,314367,6,0,L|330:1,3,48.7499977684022,4|0|0|0,0:0|0:0|0:0|0:0,0:0:0:0:
272,112,314796,6,0,L|285:176,3,52.4999983978272,4|0|0|0,0:0|0:0|0:0|0:0,0:0:0:0:
189,124,315225,6,0,L|176:57,3,56.2500021457673,4|0|0|0,0:0|0:0|0:0|0:0,0:0:0:0:
256,240,315653,1,4,0:0:0:0:
64,280,315867,1,0,0:0:0:0:
128,192,316082,2,0,B|169:236|169:236|176:304,1,120,2|0,2:0|0:0,0:0:0:0:
67,141,316403,1,2,2:0:0:0:
67,141,316510,2,0,B|26:97|26:97|19:29,1,120,2|0,2:0|0:0,0:0:0:0:
109,41,316832,1,0,0:0:0:0:
185,86,316939,2,2,B|167:110|167:110|141:124,2,60,2|2|2,2:0|2:0|2:0,2:0:0:0:
432,32,317367,6,0,L|432:176,1,120,2|0,2:0|0:0,0:0:0:0:
284,279,317796,2,0,L|284:135,1,120,2|0,2:0|0:0,0:0:0:0:
362,272,318117,1,2,2:0:0:0:
280,356,318225,2,0,B|220:347|220:347|172:311,1,120
110,232,318546,1,2,2:0:0:0:
205,197,318653,2,0,B|162:152|162:152|93:133,1,120,0|2,0:0|2:0,0:0:0:0:
288,136,319082,6,0,L|288:16,1,120,2|0,2:0|0:0,0:0:0:0:
464,208,319510,2,0,L|384:304,1,120,4|2,0:0|2:0,0:0:0:0:
320,352,319832,1,2,2:0:0:0:
400,368,319939,1,0,0:0:0:0:
208,160,320153,1,2,2:0:0:0:
288,176,320260,1,0,0:0:0:0:
248,89,320367,2,0,B|186:79|186:79|136:108,1,120,2|0,2:0|0:0,0:0:0:0:
245,252,320796,2,0,B|307:262|307:262|357:233,1,120,2|0,2:0|0:0,0:0:0:0:
169,226,321225,6,0,L|169:354,1,120,4|0,0:0|0:0,0:0:0:0:
94,292,321546,1,0,0:0:0:0:
94,207,321653,2,0,L|94:15,1,180,2|0,2:0|0:0,0:0:0:0:
172,23,322082,1,2,2:0:0:0:
239,72,322189,1,2,2:0:0:0:
321,57,322296,1,2,2:0:0:0:
452,127,322510,6,0,L|308:127,1,120,4|0,0:0|0:0,0:0:0:0:
176,192,322939,2,0,L|320:192,1,120,2|0,2:0|0:0,0:0:0:0:
304,256,323260,1,0,0:0:0:0:
320,320,323367,2,0,L|464:320,1,120,2|0,2:0|0:0,0:0:0:0:
472,128,323796,5,2,2:0:0:0:
378,110,323903,1,2,2:0:0:0:
342,27,324010,1,2,2:0:0:0:
252,14,324117,1,2,2:0:0:0:
252,14,324225,2,0,B|251:74|251:74|290:122,1,120,2|0,2:0|0:0,0:0:0:0:
311,331,324653,6,0,L|229:226,1,120,2|0,2:0|0:0,0:0:0:0:
327,225,324975,1,2,2:0:0:0:
170,279,325082,2,0,B|158:219|158:219|190:165,1,120,2|0,2:0|0:0,0:0:0:0:
268,171,325403,1,0,0:0:0:0:
113,149,325510,2,0,L|183:34,1,120,2|0,2:0|0:0,0:0:0:0:
91,248,325939,6,0,L|91:392,1,120,2|0,2:0|0:0,0:0:0:0:
400,303,326367,2,0,L|400:159,1,120,2|0,2:0|0:0,0:0:0:0:
344,120,326689,1,2,2:0:0:0:
272,168,326796,6,0,L|272:48,1,120,4|0,0:0|0:0,0:0:0:0:
144,256,327117,1,2,2:0:0:0:
144,256,327225,2,0,L|144:160,1,60
176,112,327439,2,0,L|96:112,1,60,2|0,2:0|0:0,0:0:0:0:
240,256,327653,6,0,L|384:256,1,120,4|0,0:0|0:0,0:0:0:0:
144,196,327975,1,2,2:0:0:0:
144,196,328082,2,0,L|144:272,1,60
288,160,328296,2,0,L|288:80,1,60,2|0,2:0|0:0,0:0:0:0:
56,112,328510,6,0,L|176:112,1,120,4|0,0:0|0:0,0:0:0:0:
246,256,328832,1,2,2:0:0:0:
246,256,328939,2,0,L|374:256,1,120,0|2,0:0|2:0,0:0:0:0:
352,32,329367,6,0,B|379:88|379:88|435:111,1,120,4|0,0:0|0:0,0:0:0:0:
256,57,329796,2,0,B|270:117|270:117|224:169,1,120,2|0,2:0|0:0,0:0:0:0:
176,96,330117,1,2,2:0:0:0:
305,192,330225,2,0,B|266:235|266:235|185:240,1,120
121,163,330546,1,2,2:0:0:0:
99,250,330653,2,0,L|69:374,1,120,0|2,0:0|2:0,0:0:0:0:
320,320,331082,6,0,B|376:297|376:297|411:242,1,120,2|0,2:0|0:0,0:0:0:0:
425,32,331510,2,0,B|369:55|369:55|334:110,1,120,2|0,2:0|0:0,0:0:0:0:
281,174,331832,1,2,2:0:0:0:
182,158,331939,2,0,B|192:218|192:218|251:274,1,120,2|0,2:0|0:0,0:0:0:0:
281,174,332260,1,2,2:0:0:0:
149,281,332367,2,0,B|191:325|191:325|261:353,1,120,2|2,2:0|2:0,0:0:0:0:
396,140,332796,6,0,L|384:259,1,120,2|0,2:0|0:0,0:0:0:0:
97,220,333225,2,0,L|28:209,1,60,2|0,2:0|0:0,0:0:0:0:
120,137,333439,1,2,2:0:0:0:
201,104,333546,1,0,0:0:0:0:
130,55,333653,2,0,B|70:67|70:67|30:130,1,120,2|0,2:0|0:0,0:0:0:0:
187,190,333975,1,2,2:0:0:0:
187,190,334082,2,0,B|247:173|247:173|287:115,1,120,2|0,2:0|0:0,0:0:0:0:
97,220,334510,5,2,2:0:0:0:
101,285,334617,1,0,0:0:0:0:
156,324,334725,1,2,2:0:0:0:
221,314,334832,1,0,0:0:0:0:
253,245,334939,5,2,2:0:0:0:
322,252,335046,1,0,0:0:0:0:
376,208,335154,1,2,2:0:0:0:
379,137,335261,1,0,0:0:0:0:
302,65,335367,6,0,L|302:209,1,120,4|0,0:0|0:0,0:0:0:0:
236,138,335689,1,2,2:0:0:0:
171,95,335796,2,0,L|171:239,1,120,0|2,0:0|2:0,0:0:0:0:
205,16,336225,2,0,B|140:20|140:20|94:60,1,120,2|0,2:0|0:0,0:0:0:0:
251,327,336653,2,0,L|251:199,1,120,2|0,2:0|0:0,0:0:0:0:
352,368,336975,1,2,2:0:0:0:
352,368,337082,2,0,L|352:240,1,120,0|2,0:0|2:0,0:0:0:0:
241,114,337403,1,0,0:0:0:0:
241,114,337510,2,0,L|310:90,1,60,2|0,2:0|0:0,0:0:0:0:
440,104,337725,5,2,2:0:0:0:
360,136,337832,1,2,2:0:0:0:
424,192,337939,2,0,L|424:312,1,120,0|2,0:0|2:0,0:0:0:0:
151,379,338367,2,0,L|135:322,1,60
200,253,338582,1,2,2:0:0:0:
224,334,338689,1,2,2:0:0:0:
276,277,338796,2,0,B|292:221|292:221|260:165,1,120
176,146,339117,1,2,2:0:0:0:
110,205,339225,2,0,B|82:153|82:153|102:93,1,120,0|2,0:0|2:0,0:0:0:0:
389,41,339653,6,0,B|449:53|449:53|470:110,1,120,4|0,0:0|0:0,0:0:0:0:
447,335,340082,2,0,B|390:323|390:323|365:266,1,120,2|0,2:0|0:0,0:0:0:0:
448,256,340403,1,2,2:0:0:0:
285,290,340510,2,0,B|282:227|282:227|336:190,1,120,0|2,0:0|2:0,0:0:0:0:
366,267,340832,1,0,0:0:0:0:
281,128,340939,2,0,B|339:109|339:109|393:138,1,120,2|0,2:0|0:0,0:0:0:0:
328,194,341260,1,2,2:0:0:0:
208,224,341367,2,0,L|208:368,1,120,0|2,0:0|2:0,0:0:0:0:
256,64,341796,6,0,L|137:47,1,120,4|0,0:0|0:0,0:0:0:0:
168,128,342117,1,0,0:0:0:0:
49,144,342225,2,0,L|168:128,1,120,2|0,2:0|0:0,0:0:0:0:
155,210,342546,5,0,0:0:0:0:
273,226,342653,2,0,L|154:209,1,120,2|0,2:0|0:0,0:0:0:0:
370,85,343082,6,0,L|513:108,1,134.999995880127,4|0,0:0|0:0,0:0:0:0:
328,296,343510,2,0,B|378:265|378:265|402:201,1,120,2|0,2:0|0:0,0:0:0:0:
256,165,343832,1,2,2:0:0:0:
320,216,343939,2,0,B|267:246|267:246|203:228,1,120,4|2,0:0|2:0,0:0:0:0:
256,165,344260,1,0,0:0:0:0:
193,119,344367,2,2,L|158:170,2,60,2|2|2,2:0|2:0|2:0,2:0:0:0:
392,56,344796,6,0,B|432:104|432:104|448:176,1,120,4|0,0:0|0:0,0:0:0:0:
319,307,345225,2,0,B|333:249|333:249|319:191,1,120,2|0,2:0|0:0,0:0:0:0:
144,272,345546,1,2,2:0:0:0:
232,240,345653,2,0,B|189:198|189:198|132:182,1,120,0|2,0:0|2:0,0:0:0:0:
144,272,345975,1,0,0:0:0:0:
227,141,346082,2,0,L|236:14,1,120,2|0,2:0|0:0,0:0:0:0:
32,207,346510,2,0,L|42:351,1,120,4|0,0:0|0:0,0:0:0:0:
300,243,346939,6,0,L|309:115,1,120,2|2,2:0|2:0,0:0:0:0:
368,64,347260,1,2,2:0:0:0:
384,144,347367,1,2,2:0:0:0:
104,184,347582,1,2,2:0:0:0:
120,104,347689,1,0,0:0:0:0:
120,104,347796,2,0,B|169:138|169:138|184:200,1,120,2|0,2:0|0:0,0:0:0:0:
32,48,348225,6,0,B|82:17|82:17|160:16,1,120,4|0,0:0|0:0,0:0:0:0:
240,239,348653,2,0,B|300:234|300:234|352:201,1,120,4|0,2:0|0:0,0:0:0:0:
279,150,348975,1,2,2:0:0:0:
208,96,349082,2,0,L|144:288,1,180
224,336,349510,1,2,2:0:0:0:
320,304,349617,1,2,2:0:0:0:
240,240,349725,1,2,2:0:0:0:
32,176,349939,6,0,L|80:32,1,120,4|0,0:0|0:0,0:0:0:0:
336,48,350367,2,0,L|288:192,1,120,4|0,0:0|0:0,0:0:0:0:
240,112,350689,1,2,2:0:0:0:
384,128,350796,2,0,L|421:14,1,120,4|0,0:0|0:0,0:0:0:0:
168,48,351225,5,2,2:0:0:0:
104,112,351332,1,2,2:0:0:0:
168,176,351439,1,2,2:0:0:0:
104,240,351546,1,2,2:0:0:0:
104,240,351653,2,0,L|216:312,1,120,4|0,0:0|0:0,0:0:0:0:
56,175,352082,2,0,B|25:225|25:225|40:287,1,120,4|0,0:0|0:0,0:0:0:0:
104,240,352403,1,2,2:0:0:0:
139,168,352510,2,0,B|110:115|110:115|28:86,1,120,4|0,0:0|0:0,0:0:0:0:
56,175,352832,1,0,0:0:0:0:
200,229,352939,2,0,B|219:173|219:173|201:111,1,120,4|0,0:0|0:0,0:0:0:0:
463,192,353367,6,2,B|483:221|483:221|486:270,1,60,2|2,2:0|2:0,2:0:0:0:
401,314,353582,2,2,B|408:285|408:285|406:255,1,60,2|2,2:0|2:0,2:0:0:0:
306,238,353796,2,2,B|327:269|327:269|329:316,1,60,2|2,2:0|2:0,2:0:0:0:
245,362,354011,2,2,B|252:333|252:333|250:303,1,60,2|2,2:0|2:0,2:0:0:0:
206,19,354225,6,0,L|218:139,1,120,4|0,0:0|0:0,0:0:0:0:
104,279,354546,1,2,2:0:0:0:
104,279,354653,2,0,L|97:215,1,60
100,94,354867,2,0,L|37:101,1,60,2|0,2:0|0:0,0:0:0:0:
168,227,355082,6,0,L|309:251,1,120,4|0,0:0|0:0,0:0:0:0:
61,188,355403,1,2,2:0:0:0:
61,188,355510,2,0,L|50:247,1,60
232,141,355725,2,0,L|245:61,1,60,2|0,2:0|0:0,0:0:0:0:
20,55,355939,2,0,L|145:76,1,120,4|0,0:0|0:0,0:0:0:0:
211,227,356260,1,2,2:0:0:0:
211,227,356367,2,0,L|338:214,1,120,0|2,0:0|2:0,0:0:0:0:
480,79,356796,6,0,L|337:59,1,120,6|0,2:0|0:0,0:0:0:0:
87,173,357225,2,0,L|213:155,1,120,2|0,2:0|0:0,0:0:0:0:
157,94,357546,1,2,2:0:0:0:
210,230,357653,2,0,L|352:250,1,120,4|2,0:0|2:0,0:0:0:0:
310,175,357975,1,0,0:0:0:0:
345,316,358082,2,0,L|471:302,1,120,2|0,2:0|0:0,0:0:0:0:
363,60,358510,6,0,B|417:85|417:85|432:144,1,120,4|0,0:0|0:0,0:0:0:0:
138,161,358939,2,0,B|84:136|84:136|69:77,1,120,4|0,0:0|0:0,0:0:0:0:
217,48,359260,1,0,0:0:0:0:
268,119,359367,2,0,B|293:172|293:172|266:227,1,120,4|0,0:0|0:0,0:0:0:0:
213,166,359689,1,0,0:0:0:0:
341,250,359796,2,0,L|286:368,1,120
423,319,360225,6,0,B|432:257|432:257|407:191,1,120,4|0,0:0|0:0,0:0:0:0:
336,176,360546,1,2,2:0:0:0:
341,250,360653,1,0,0:0:0:0:
110,178,360867,1,2,2:0:0:0:
189,162,360975,1,0,0:0:0:0:
159,236,361082,2,0,B|104:271|104:271|31:284,1,120,4|0,0:0|0:0,0:0:0:0:
98,345,361403,1,0,0:0:0:0:
175,327,361510,2,0,B|225:294|225:294|261:236,1,120,2|0,2:0|0:0,0:0:0:0:
265,153,361832,5,2,2:0:0:0:
265,153,361939,2,0,L|180:164,3,75,2|0|2|0,2:0|0:0|2:0|0:0,0:0:0:0:
227,80,362367,2,0,L|313:95,3,75,2|0|2|0,2:0|0:0|2:0|0:0,0:0:0:0:
320,42,362796,6,0,L|426:143,1,120,4|0,0:0|0:0,0:0:0:0:
362,186,363117,1,2,2:0:0:0:
442,53,363225,2,0,B|486:97|486:97|476:157,1,120,0|2,0:0|2:0,0:0:0:0:
276,311,363653,5,4,0:0:0:0:
334,104,363867,1,2,2:0:0:0:
249,94,363974,1,2,2:0:0:0:
278,194,364082,2,0,P|294:226|301:175,1,120,2|0,2:0|0:0,0:0:0:0:
201,161,364403,1,0,0:0:0:0:
80,207,364510,2,0,L|128:164,1,60
208,260,364725,2,0,P|161:295|179:242,1,142.49999619484,2|2,2:0|2:0,0:0:0:0:
213,53,365153,1,4,0:0:0:0:
38,155,365367,5,0,0:0:0:0:
213,53,365582,1,0,0:0:0:0:
350,191,365796,2,0,B|365:130|365:130|343:74,1,120,2|0,2:0|0:0,0:0:0:0:
279,138,366117,1,0,0:0:0:0:
432,179,366225,2,0,L|395:318,1,120,2|0,2:0|0:0,0:0:0:0:
284,357,366546,1,0,0:0:0:0:
207,255,366653,2,0,L|323:283,1,120,2|0,2:0|0:0,0:0:0:0:
35,293,367082,5,4,0:0:0:0:
125,129,367296,1,0,0:0:0:0:
284,357,367510,1,2,2:0:0:0:
401,127,367725,1,0,0:0:0:0:
488,192,367832,1,0,0:0:0:0:
488,72,367939,2,0,L|488:192,1,120,2|0,0:0|0:0,0:0:0:0:
361,167,368260,2,0,L|351:227,1,60,2|0,0:0|0:0,0:0:0:0:
384,48,368582,1,2,0:0:0:0:
384,48,368796,6,0,L|240:48,1,120,2|0,0:0|0:0,0:0:0:0:
228,128,369117,1,2,0:0:0:0:
108,128,369225,2,0,L|236:128,1,120,0|2,0:0|0:0,0:0:0:0:
240,232,369546,1,2,0:0:0:0:
152,208,369653,2,0,B|157:270|157:270|216:320,1,120
286,151,369975,1,2,0:0:0:0:
335,250,370082,2,0,B|330:188|330:188|271:138,1,120,0|2,0:0|0:0,0:0:0:0:
68,69,370510,5,2,2:0:0:0:
124,82,370617,1,2,2:0:0:0:
110,139,370724,1,2,2:0:0:0:
166,153,370831,1,2,2:0:0:0:
152,208,370939,2,0,L|222:203,1,60
339,196,371153,5,0,0:0:0:0:
406,276,371260,1,0,0:0:0:0:
406,156,371367,2,0,L|406:276,1,120,2|0,0:0|0:0,0:0:0:0:
339,267,371689,1,2,0:0:0:0:
472,331,371796,2,0,L|472:211,1,120,0|2,0:0|0:0,0:0:0:0:
239,210,372225,6,0,L|224:48,1,120,2|0,0:0|0:0,0:0:0:0:
240,16,372546,1,2,0:0:0:0:
304,64,372653,1,0,0:0:0:0:
32,144,372867,1,2,2:0:0:0:
112,176,372975,1,2,2:0:0:0:
96,96,373082,1,2,2:0:0:0:
128,256,373296,6,0,L|144:336,2,60
80,16,373725,1,0,0:0:0:0:
304,80,373939,2,0,B|304:176|304:176|256:192|256:192|256:288,1,225.000008583069,4|0,0:0|0:0,0:0:0:0:
368,256,375010,1,2,2:0:0:0:
432,176,375225,1,0,0:0:0:0:
384,80,375439,1,2,2:0:0:0:
224,80,375653,2,0,L|144:176,1,112.500004291535,4|0,0:0|0:0,0:0:0:0:
128,272,376296,1,2,2:0:0:0:
216,336,376510,1,0,0:0:0:0:
320,296,376725,5,0,0:0:0:0:
320,135,376939,2,0,L|320:192,1,56.2500021457673,2|0,2:0|0:0,0:0:0:0:
414,80,377367,2,0,L|414:255,1,168.750006437302,4|0,0:0|0:0,0:0:0:0:
336,304,378225,1,2,2:0:0:0:
256,240,378439,1,0,0:0:0:0:
160,272,378653,1,2,2:0:0:0:
64,240,378867,1,2,2:0:0:0:
83,140,379082,2,2,B|124:151|124:151|154:181,2,84.3750032186509,2|2|2,2:0|2:0|2:0,2:0:0:0:
263,196,379939,2,0,B|255:154|255:154|228:117,1,84.3750032186509,4|0,0:0|0:0,0:0:0:0:
179,66,380367,5,2,2:0:0:0:
104,18,380582,1,0,0:0:0:0:
48,87,380796,2,0,L|48:199,1,112.500004291535,4|0,0:0|0:0,0:0:0:0:
224,160,381439,2,0,L|224:288,1,112.500004291535,2|0,2:0|0:0,0:0:0:0:
384,245,382082,2,0,L|384:341,1,84.3750032186509,2|0,2:0|0:0,0:0:0:0:
464,272,382510,1,4,0:0:0:0:
430,156,382725,1,0,0:0:0:0:
336,80,382939,1,0,0:0:0:0:
216,66,383153,2,0,L|216:178,1,112.500004291535,2|0,2:0|0:0,0:0:0:0:
258,294,383796,6,0,L|208:320,1,56.2500021457673,4|0,0:0|0:0,0:0:0:0:
61,230,384225,2,0,L|112:256,1,56.2500021457673,2|0,2:0|0:0,0:0:0:0:
56,112,384653,1,0,0:0:0:0:
184,80,384867,1,2,2:0:0:0:
208,208,385082,1,0,0:0:0:0:
272,16,385296,1,2,2:0:0:0:
416,208,385510,1,0,0:0:0:0:
416,208,385617,2,0,L|432:144,1,56.2500021457673,2|0,2:0|0:0,0:0:0:0:
352,64,385939,2,0,L|336:128,1,56.2500021457673,2|0,2:0|0:0,0:0:0:0:
320,176,386260,5,2,2:0:0:0:
472,344,386582,1,2,2:0:0:0:
472,344,387225,2,0,L|392:344,1,56.2500021457673,2|0,2:0|0:0,0:0:0:0:
304,264,387653,2,0,L|432:264,1,112.500004291535,4|0,0:0|0:0,0:0:0:0:
360,184,388296,2,0,L|248:184,1,112.500004291535,2|0,2:0|0:0,0:0:0:0:
244,259,388939,2,0,L|148:259,1,84.3750032186509,2|0,2:0|0:0,0:0:0:0:
49,195,389367,2,0,B|82:244,2,56.2500021457673,2|0|0,2:0|0:0|0:0,0:0:0:0:
124,48,390010,2,0,B|108:102|108:102|142:149,1,112.500004291535,2|0,2:0|0:0,0:0:0:0:
296,48,390653,2,0,L|296:112,1,56.2500021457673,4|0,0:0|0:0,0:0:0:0:
210,225,391082,6,0,L|146:225,1,56.2500021457673,2|0,2:0|0:0,0:0:0:0:
306,225,391510,2,2,L|370:225,1,56.2500021457673,2|2,2:0|2:0,2:0:0:0:
226,273,391939,2,0,L|162:241,1,56.2500021457673,0|2,0:0|2:0,0:0:0:0:
290,177,392367,2,0,L|354:209,1,56.2500021457673,2|0,2:0|0:0,0:0:0:0:
256,80,392796,1,4,0:0:0:0:
256,80,394296,1,0,0:0:0:0:
352,90,394510,2,0,B|327:140|327:140|272:170,1,112.500004291535,4|0,0:0|0:0,0:0:0:0:
230,249,395153,2,0,B|288:251|288:251|339:221,1,112.500004291535,2|0,2:0|0:0,0:0:0:0:
410,175,395796,2,0,L|410:239,1,56.2500021457673,2|0,2:0|0:0,0:0:0:0:
208,192,397510,5,4,0:0:0:0:
256,112,397725,1,0,0:0:0:0:
256,112,397939,2,0,L|192:112,2,56.2500021457673,2|0|0,2:0|0:0|0:0,0:0:0:0:
352,88,398582,2,0,B|352:143|352:143|304:184,1,112.500004291535,2|0,2:0|0:0,0:0:0:0:
384,224,399225,2,0,L|384:336,1,112.500004291535,4|0,0:0|0:0,0:0:0:0:
192,368,400082,2,0,L|128:368,1,56.2500021457673,2|0,2:0|0:0,0:0:0:0:
240,304,400510,2,0,L|304:304,1,56.2500021457673,2|0,2:0|0:0,0:0:0:0:
192,240,400939,2,0,L|128:240,1,56.2500021457673,2|0,2:0|0:0,0:0:0:0:
256,192,401367,1,4,0:0:0:0:
