osu file format v14

[General]
AudioFilename: audio.mp3
AudioLeadIn: 0
PreviewTime: 11055
Countdown: 1
SampleSet: Normal
StackLeniency: 0.7
Mode: 0
LetterboxInBreaks: 0
WidescreenStoryboard: 1

[Editor]
Bookmarks: 59580,75930
DistanceSpacing: 1
BeatDivisor: 4
GridSize: 4
TimelineZoom: 3.8

[Metadata]
Title:Tomodachi no Uta
TitleUnicode:友達のうた
Artist:Kurahashi Yoeko
ArtistUnicode:倉橋ヨエコ
Creator:tutuhaha
Version:Advanced
Source:
Tags:The Song of Friendship
BeatmapID:1660775
BeatmapSetID:790979

[Difficulty]
HPDrainRate:3
CircleSize:3
OverallDifficulty:3
ApproachRate:6.5
SliderMultiplier:1.5
SliderTickRate:1

[Events]
//Background and Video events
0,0,"1.jpg",0,0
//Break Periods
2,68950,70175
2,73750,74975
//Storyboard Layer 0 (Background)
//Storyboard Layer 1 (Fail)
//Storyboard Layer 2 (Pass)
//Storyboard Layer 3 (Foreground)
//Storyboard Sound Samples

[TimingPoints]
350,300,4,1,1,50,1,0
650,-100,4,2,1,50,0,0
11150,-100,4,1,1,50,0,0
72350,-100,4,1,1,40,0,0
73550,-100,4,1,1,50,0,0
77150,-100,4,1,1,40,0,0
78350,-100,4,1,1,50,0,0
87950,-100,4,1,1,50,0,1
107150,-100,4,1,1,50,0,0

[Colours]
Combo1 : 255,192,0
Combo2 : 128,128,128
Combo3 : 0,181,181
Combo4 : 191,11,38

[HitObjects]
256,176,1550,5,4,0:2:0:0:
256,176,3950,6,0,L|164:176,2,75,2|0|2,0:0|0:0|0:0,0:0:0:0:
312,248,4400,1,0,0:0:0:0:
312,248,4550,2,0,P|344:200|308:100,1,150,2|2,0:0|0:0,0:0:0:0:
168,24,5150,2,0,P|133:88|155:157,1,150,2|2,0:0|0:0,0:0:0:0:
284,28,5750,2,0,L|384:28,2,75,2|0|2,0:0|0:0|0:0,0:0:0:0:
224,96,6200,1,0,0:0:0:0:
224,96,6350,5,4,0:0:0:0:
108,348,8750,5,10,0:2:0:0:
312,52,9350,1,10,0:2:0:0:
108,348,9950,2,0,B|204:332|204:332|268:340,1,150,10|0,0:2|0:0,0:0:0:0:
436,336,10550,1,10,0:2:0:0:
300,256,10850,1,10,0:2:0:0:
472,200,11150,6,0,P|452:136|352:108,1,150,4|10,0:0|0:0,0:0:0:0:
224,12,11750,2,0,L|212:176,1,150,0|10,0:0|0:0,0:0:0:0:
208,340,12350,2,0,P|160:292|60:280,2,150,0|10|0,0:0|0:0|0:0,0:0:0:0:
388,344,13250,1,10,0:0:0:0:
400,164,13550,6,0,B|328:132|328:132|272:64,1,150,0|10,0:0|0:0,0:0:0:0:
204,32,14000,1,0,0:0:0:0:
204,32,14150,2,0,P|232:76|212:192,1,150,0|10,0:0|0:0,0:0:0:0:
152,220,14600,2,0,P|88:160|0:152,1,150,0|0,0:0|0:0,0:0:0:0:
12,236,15050,1,10,0:0:0:0:
12,236,15200,2,0,B|64:328|64:328|72:376,1,150,0|0,0:0|0:0,0:0:0:0:
160,356,15650,1,10,0:0:0:0:
144,176,15950,6,0,B|104:92|104:92|100:28,1,150,0|10,0:0|0:0,0:0:0:0:
256,128,16550,1,0,0:0:0:0:
411,35,16850,1,10,0:0:0:0:
411,35,17000,2,0,B|408:92|408:92|368:176,1,150,0|0,0:0|0:0,0:0:0:0:
316,248,17450,2,0,P|240:244|176:288,2,150,10|0|10,0:0|0:0|0:0,0:0:0:0:
464,348,18350,5,0,0:0:0:0:
440,168,18650,1,10,0:0:0:0:
372,332,18950,1,0,0:0:0:0:
348,152,19250,1,10,0:0:0:0:
276,316,19550,2,0,L|272:228,1,75,0|0,0:0|0:0,0:0:0:0:
184,228,19850,2,0,L|180:140,1,75,10|0,0:0|0:0,0:0:0:0:
172,64,20150,2,0,P|244:64|320:4,1,150,0|10,0:0|0:0,0:0:0:0:
360,196,20750,5,0,0:0:0:0:
484,64,21050,1,10,0:0:0:0:
307,22,21350,2,0,P|255:58|240:168,1,150,0|10,0:0|0:0,0:0:0:0:
92,256,21950,2,0,L|104:352,1,75
188,332,22250,2,0,L|200:236,1,75,10|0,0:0|0:0,0:0:0:0:
148,184,22550,2,0,P|92:132|80:40,1,150,0|10,0:0|0:0,0:0:0:0:
256,36,23150,5,0,0:0:0:0:
148,184,23450,1,10,0:0:0:0:
328,168,23750,2,0,P|364:128|400:116,2,75,0|0|10,0:0|0:0|0:0,0:0:0:0:
276,244,24200,2,0,P|312:276|428:284,1,150,0|0,0:0|0:0,0:0:0:0:
452,212,24650,1,10,0:0:0:0:
472,124,24800,2,0,P|436:92|320:84,1,150,0|0,0:0|0:0,0:0:0:0:
284,152,25250,1,10,0:0:0:0:
184,300,25550,6,0,B|68:280|68:280|24:288,1,150,0|10,0:0|0:0,0:0:0:0:
12,200,26000,1,0,0:0:0:0:
100,176,26150,2,0,P|144:148|172:116,2,75,0|0|10,0:0|0:0|0:0,0:0:0:0:
72,92,26600,2,0,P|144:40|228:24,1,150,0|0,0:0|0:0,0:0:0:0:
292,44,27050,1,10,0:0:0:0:
292,224,27350,1,0,0:0:0:0:
448,136,27650,1,10,0:0:0:0:
292,44,27950,6,0,B|168:56|168:56|116:40,1,150,0|10,0:0|0:0,0:0:0:0:
56,36,28400,1,0,0:0:0:0:
88,120,28550,2,0,P|108:172|76:280,1,150,0|10,0:0|0:0,0:0:0:0:
244,352,29150,2,0,P|224:300|256:192,1,150,0|10,0:0|0:0,0:0:0:0:
220,124,29600,2,0,P|260:180|360:204,1,150,0|0,0:0|0:0,0:0:0:0:
420,180,30050,1,10,0:0:0:0:
300,44,30350,6,0,P|240:76|136:40,1,150,4|10,0:0|0:0,0:0:0:0:
72,48,30800,1,0,0:0:0:0:
68,136,30950,2,0,L|68:288,1,150,0|10,0:0|0:0,0:0:0:0:
140,336,31400,1,0,0:0:0:0:
176,252,31550,2,0,P|212:208|316:172,1,150,0|10,0:0|0:0,0:0:0:0:
400,320,32150,2,0,B|460:336|460:336|504:320|472:312,2,75,0|0|10,0:0|0:0|0:0,0:0:0:0:
332,260,32600,1,0,0:0:0:0:
332,260,32750,6,0,P|268:228|232:140,1,150,0|10,0:0|0:0,0:0:0:0:
260,72,33200,1,0,0:0:0:0:
328,12,33350,2,0,P|392:52|432:136,1,150,0|10,0:0|0:0,0:0:0:0:
336,272,33950,2,0,L|264:300,1,75,0|0,0:0|0:0,0:0:0:0:
196,244,34250,2,0,L|124:272,1,75,10|0,0:0|0:0,0:0:0:0:
72,200,34550,2,0,B|160:140|160:140|184:92,1,150,0|10,0:0|0:0,0:0:0:0:
344,32,35150,6,0,B|363:70|363:70|451:130,1,150,0|10,0:0|0:0,0:0:0:0:
456,220,35600,1,0,0:0:0:0:
448,308,35750,2,0,P|384:276|376:180,1,150,0|10,0:0|0:0,0:0:0:0:
292,156,36200,1,0,0:0:0:0:
260,72,36350,2,0,P|208:124|216:200,1,150,0|10,0:0|0:0,0:0:0:0:
68,300,36950,2,0,L|40:376,2,75,0|0|10,0:0|0:0|0:0,0:0:0:0:
100,216,37400,1,0,0:0:0:0:
100,216,37550,6,0,P|156:196|228:264,1,150,0|10,0:0|0:0,0:0:0:0:
248,332,38000,1,0,0:0:0:0:
316,272,38150,2,0,P|372:324|460:288,1,150,0|10,0:0|0:0,0:0:0:0:
376,144,38750,2,0,P|404:124|448:128,2,75,0|0|10,0:0|0:0|0:0,0:0:0:0:
296,184,39200,2,0,P|264:160|216:172,1,75,0|0,0:0|0:0,0:0:0:0:
92,280,39650,1,10,0:0:0:0:
270,330,39950,6,0,B|290:190|290:190|314:162,1,150,0|10,0:0|0:0,0:0:0:0:
376,144,40400,1,0,0:0:0:0:
300,96,40550,2,0,B|160:76|160:76|132:52,1,150,0|10,0:0|0:0,0:0:0:0:
76,20,41000,1,0,0:0:0:0:
72,108,41150,2,0,B|52:248|52:248|28:276,1,150,0|10,0:0|0:0,0:0:0:0:
200,348,41750,2,0,B|192:288|192:288|196:260,2,75,0|0|10,0:0|0:0|0:0,0:0:0:0:
288,336,42200,1,0,0:0:0:0:
288,336,42350,6,0,P|304:276|236:204,1,150,0|10,0:0|0:0,0:0:0:0:
176,164,42800,1,0,0:0:0:0:
100,212,42950,2,0,P|84:152|152:80,1,150,0|10,0:0|0:0,0:0:0:0:
304,32,43550,2,0,L|320:116,1,75,0|0,0:0|0:0,0:0:0:0:
272,184,43850,2,0,L|288:268,1,75,10|0,0:0|0:0,0:0:0:0:
372,232,44150,2,0,B|416:328|416:328|472:360,1,150,0|10,0:0|0:0,0:0:0:0:
484,172,44750,6,0,B|440:76|440:76|384:44,1,150,0|10,0:0|0:0,0:0:0:0:
312,48,45200,1,0,0:0:0:0:
272,128,45350,2,0,P|248:192|164:228,1,150,0|10,0:0|0:0,0:0:0:0:
92,204,45800,1,0,0:0:0:0:
56,124,45950,2,0,P|100:116|148:132,2,75,0|0|10,0:0|0:0|0:0,0:0:0:0:
116,291,46550,2,0,P|71:292|26:268,2,75,0|0|10,0:0|0:0|0:0,0:0:0:0:
92,204,47000,1,0,0:0:0:0:
178,227,47150,6,0,P|234:239|286:327,1,150,0|10,0:0|0:0,0:0:0:0:
368,344,47600,1,0,0:0:0:0:
368,256,47750,2,0,P|360:168|296:116,1,150,0|10,0:0|0:0,0:0:0:0:
156,44,48350,2,0,L|248:28,1,75,0|0,0:0|0:0,0:0:0:0:
232,120,48650,2,0,L|158:132,1,75,10|0,0:0|0:0,0:0:0:0:
76,92,48950,2,0,B|140:200|140:200|148:248,1,150,0|10,0:0|0:0,0:0:0:0:
280,344,49550,6,0,P|304:268|368:220,1,150,0|10,0:0|0:0,0:0:0:0:
440,188,50000,2,0,P|380:168|316:84,1,150,0|0,0:0|0:0,0:0:0:0:
280,24,50450,1,10,0:0:0:0:
108,72,50750,1,0,0:0:0:0:
212,220,51050,2,0,B|280:204|280:204|316:212,2,75,10|0|0,0:0|0:0|0:0,0:0:0:0:
72,332,51650,1,10,0:0:0:0:
136,164,51950,6,0,P|144:84|72:20,1,150,0|10,0:0|0:0,0:0:0:0:
60,112,52400,2,0,P|48:184|104:256,1,150,0|0,0:0|0:0,0:0:0:0:
176,244,52850,1,10,0:0:0:0:
248,80,53150,2,0,B|364:56|364:56|412:20,1,150,0|10,0:0|0:0,0:0:0:0:
436,116,53600,1,0,0:0:0:0:
436,116,53750,2,0,P|416:184|464:272,1,150,0|10,0:0|0:0,0:0:0:0:
300,360,54350,5,0,0:0:0:0:
228,196,54650,1,10,0:0:0:0:
228,196,54800,2,0,P|308:192|376:120,1,150,0|0,0:0|0:0,0:0:0:0:
372,60,55250,1,10,0:0:0:0:
192,52,55550,1,0,0:0:0:0:
144,224,55850,1,10,0:0:0:0:
144,224,56000,2,0,P|108:176|12:152,1,150,0|0,0:0|0:0,0:0:0:0:
16,240,56450,1,10,0:0:0:0:
160,348,56750,6,0,B|248:328|248:328|316:328,1,150,0|10,0:0|0:0,0:0:0:0:
392,356,57200,1,0,0:0:0:0:
296,204,57500,1,0,0:0:0:0:
476,196,57800,1,0,0:0:0:0:
296,204,58100,1,2,0:0:0:0:
392,356,58400,1,2,0:0:0:0:
392,356,58550,2,0,B|388:232|388:232|392:184,1,150,0|10,0:0|0:0,0:0:0:0:
248,96,59150,6,0,B|252:220|252:220|248:268,1,150,0|10,0:0|0:0,0:0:0:0:
164,216,59600,2,0,P|128:160|20:124,1,150,0|0,0:0|0:0,0:0:0:0:
20,208,60050,1,10,0:0:0:0:
56,32,60350,2,0,B|180:24|180:24|232:0,1,150,0|10,0:0|0:0,0:0:0:0:
264,80,60800,1,0,0:0:0:0:
264,80,60950,2,0,B|388:88|388:88|440:112,1,150,0|10,0:0|0:0,0:0:0:0:
288,232,61550,6,0,P|308:292|412:332,1,150,0|10,0:0|0:0,0:0:0:0:
448,276,62000,2,0,P|428:216|324:176,1,150,0|0,0:0|0:0,0:0:0:0:
268,144,62450,1,10,0:0:0:0:
96,192,62750,2,0,L|112:344,1,150,0|10,0:0|0:0,0:0:0:0:
200,328,63200,1,0,0:0:0:0:
200,328,63350,2,0,L|184:178,1,150,0|10,0:0|0:0,0:0:0:0:
84,28,63950,5,0,0:0:0:0:
264,52,64250,1,10,0:0:0:0:
264,52,64400,2,0,P|220:112|240:208,1,150,0|0,0:0|0:0,0:0:0:0:
288,252,64850,1,10,0:0:0:0:
428,140,65150,1,0,0:0:0:0:
264,52,65450,2,0,B|328:48|328:48|364:24,2,75,10|0|0,0:0|0:0|0:0,0:0:0:0:
84,60,66050,1,10,0:0:0:0:
212,184,66350,6,0,P|284:200|324:296,1,150,0|10,0:0|0:0,0:0:0:0:
268,332,66800,1,0,0:0:0:0:
200,272,66950,2,0,P|152:252|128:208,2,75,0|0|10,0:0|0:0|0:0,0:0:0:0:
268,332,67400,1,0,0:0:0:0:
352,172,67700,1,2,0:2:0:0:
456,320,68000,1,0,0:0:0:0:
456,320,68150,2,0,B|460:264|460:264|480:232,2,75,0|0|10,0:0|0:0|0:0,0:0:0:0:
352,172,68750,5,4,0:0:0:0:
80,72,71150,5,4,0:0:0:0:
404,232,71750,1,2,0:2:0:0:
60,332,72350,1,0,0:0:0:0:
256,52,73550,5,4,0:0:0:0:
432,72,75950,5,4,0:0:0:0:
108,232,76550,1,2,0:2:0:0:
452,332,77150,1,0,0:0:0:0:
452,332,78350,6,0,P|432:272|464:184,1,150
356,44,78950,2,0,L|364:128,1,75
248,256,79400,2,0,P|164:244|80:120,1,225
252,76,80150,1,0,0:0:0:0:
248,256,80450,1,0,0:0:0:0:
76,312,80750,6,0,B|68:192|68:192|36:152,1,150
220,228,81350,2,0,B|224:112|224:112|252:56|252:56|264:-4,2,225
364,332,82550,1,0,0:0:0:0:
420,160,82850,1,0,0:0:0:0:
244,196,83150,6,0,P|192:176|112:360,1,300,0|8,0:0|0:0,0:0:0:0:
272,296,84050,1,0,0:0:0:0:
284,116,84350,2,0,P|336:96|416:280,1,300,0|8,0:0|0:0,0:0:0:0:
256,216,85250,1,0,0:0:0:0:
104,312,85550,6,0,B|110:259|110:259|94:163,1,150,0|8,0:0|0:2,0:0:0:0:
276,172,86150,2,0,B|269:119|269:119|285:23,1,150,0|8,0:0|0:2,0:0:0:0:
428,136,86750,2,0,B|408:276|408:276|420:312,1,150,0|8,0:0|0:2,0:0:0:0:
256,192,87350,2,0,B|276:52|276:52|264:16,1,150,0|8,0:0|0:2,0:0:0:0:
184,40,87800,1,0,0:0:0:0:
184,40,87950,6,0,P|160:96|52:128,1,150,4|10,0:0|0:0,0:0:0:0:
24,304,88550,2,0,B|144:288|144:288|196:304,1,150,0|10,0:0|0:0,0:0:0:0:
252,336,89000,1,0,0:0:0:0:
252,336,89150,2,0,B|372:352|372:352|424:336,1,150,0|10,0:0|0:0,0:0:0:0:
440,168,89750,1,0,0:0:0:0:
400,344,90050,1,10,0:0:0:0:
292,200,90350,6,0,B|304:60|304:60|324:28,1,150,0|10,0:0|0:0,0:0:0:0:
400,64,90800,1,0,0:0:0:0:
400,64,90950,2,0,B|424:196|424:196|440:212,1,150,0|10,0:0|0:0,0:0:0:0:
448,296,91400,2,0,P|364:308|320:372,1,150,0|0,0:0|0:0,0:0:0:0:
256,296,91850,1,10,0:0:0:0:
187,355,92000,2,0,P|137:301|64:295,1,150,0|0,0:0|0:0,0:0:0:0:
28,212,92450,1,10,0:0:0:0:
148,76,92750,5,0,0:0:0:0:
244,228,93050,1,10,0:0:0:0:
128,364,93350,1,0,0:0:0:0:
28,212,93650,1,10,0:0:0:0:
28,212,93800,2,0,P|100:204|168:128,1,150,0|0,0:0|0:0,0:0:0:0:
168,64,94250,2,0,B|80:52|80:52|32:20|4:24,2,150,10|0|10,0:0|0:0|0:0,0:0:0:0:
256,220,95150,5,0,0:0:0:0:
256,40,95450,1,10,0:0:0:0:
164,196,95750,1,0,0:0:0:0:
344,196,96050,1,10,0:0:0:0:
344,64,96350,2,0,L|424:52,1,75,0|0,0:0|0:0,0:0:0:0:
416,144,96650,2,0,L|496:132,1,75,10|0,0:0|0:0,0:0:0:0:
492,224,96950,2,0,P|440:264|444:364,1,150,0|10,0:0|0:0,0:0:0:0:
308,216,97550,5,0,0:0:0:0:
188,348,97850,1,10,0:0:0:0:
140,176,98150,1,0,0:0:0:0:
268,304,98450,1,10,0:0:0:0:
356,148,98750,2,0,L|336:60,1,75,0|0,0:0|0:0,0:0:0:0:
248,76,99050,2,0,L|231:149,1,75,10|0,0:0|0:0,0:0:0:0:
140,148,99350,2,0,L|120:60,1,75,0|0,0:0|0:0,0:0:0:0:
32,76,99650,2,0,L|15:149,1,75,10|0,0:0|0:0,0:0:0:0:
72,220,99950,6,0,P|92:296|172:332,1,150,0|10,0:0|0:0,0:0:0:0:
196,252,100400,1,0,0:0:0:0:
204,164,100550,2,0,P|192:112|208:80,2,75,0|0|10,0:0|0:0|0:0,0:0:0:0:
284,124,101000,2,0,P|340:144|380:244,1,150,0|0,0:0|0:0,0:0:0:0:
340,300,101450,1,10,0:0:0:0:
260,344,101600,2,0,P|204:324|164:224,1,150,0|0,0:0|0:0,0:0:0:0:
204,164,102050,1,10,0:0:0:0:
348,56,102350,6,0,B|360:148|360:148|404:192,1,150,0|10,0:0|0:0,0:0:0:0:
476,236,102800,1,0,0:0:0:0:
400,288,102950,2,0,L|304:312,1,75,0|0,0:0|0:0,0:0:0:0:
240,332,103250,1,10,0:0:0:0:
240,332,103400,2,0,P|216:264|120:232,1,150,0|0,0:0|0:0,0:0:0:0:
124,144,103850,2,0,P|128:92|104:60,1,75,10|0,0:0|0:0,0:0:0:0:
40,24,104150,1,0,0:0:0:0:
32,204,104450,1,10,0:0:0:0:
160,76,104750,6,0,L|252:72,1,75,0|0,0:0|0:0,0:0:0:0:
284,148,105050,2,0,L|376:144,1,75,10|0,0:0|0:0,0:0:0:0:
396,228,105350,2,0,P|340:264|324:352,1,150,0|10,0:0|0:0,0:0:0:0:
484,264,105950,1,0,0:0:0:0:
436,92,106250,1,10,0:0:0:0:
436,92,106400,2,0,B|308:72|308:72|272:40,1,150,0|0,0:0|0:0,0:0:0:0:
212,20,106850,1,10,0:0:0:0:
44,80,107150,5,4,0:0:0:0:
256,192,107225,12,0,111950,0:0:0:0:
160,280,113150,5,0,0:0:0:0:
213,115,113450,1,8,0:0:0:0:
377,169,113750,1,0,0:0:0:0:
324,333,114050,1,8,0:2:0:0:
159,279,114350,6,0,P|188:212|76:108,1,225,0|0,0:0|0:0,0:0:0:0:
96,204,114950,2,0,P|168:172|148:32,1,225,0|0,0:0|0:0,0:0:0:0:
72,24,115550,1,0,0:0:0:0:
