osu file format v14

[General]
AudioFilename: audio.mp3
AudioLeadIn: 0
PreviewTime: 50699
Countdown: 0
SampleSet: Normal
StackLeniency: 0.7
Mode: 1
LetterboxInBreaks: 0
WidescreenStoryboard: 1

[Editor]
Bookmarks: 64921
DistanceSpacing: 0.8
BeatDivisor: 4
GridSize: 32
TimelineZoom: 2.899999

[Metadata]
Title:Q.
TitleUnicode:Q.
Artist:KurageP feat. Otomachi Una
ArtistUnicode:くらげP feat. 音街ウナ
Creator:Diva Days
Version:Oni
Source:
Tags:vocaloid アルネの事件簿 Arne's Case Book 和田たけあき Wada Takeaki 長澤 美郷 Nagasawa Misato 春太郎 Harutaro むらさき Murasaki
BeatmapID:1463685
BeatmapSetID:691692

[Difficulty]
HPDrainRate:6
CircleSize:2
OverallDifficulty:7
ApproachRate:0
SliderMultiplier:1.4
SliderTickRate:1

[Events]
//Background and Video events
0,0,"bgoni.jpg",0,65
//Break Periods
//Storyboard Layer 0 (Background)
//Storyboard Layer 1 (Fail)
//Storyboard Layer 2 (Pass)
//Storyboard Layer 3 (Foreground)
//Storyboard Sound Samples

[TimingPoints]
922,444.444444444444,4,1,0,50,1,0
6255,-100,4,1,0,85,0,0
50699,-100,4,1,0,85,0,1
64921,-100,4,1,0,85,0,0
107588,-100,4,1,0,85,0,1
121810,-100,4,1,0,85,0,0
164477,-100,4,1,0,85,0,1
182255,-100,4,1,0,85,0,0

[HitObjects]
256,192,6255,5,0,0:0:0:0:
256,192,6366,1,0,0:0:0:0:
256,192,6477,1,8,0:0:0:0:
256,192,6588,1,0,0:0:0:0:
256,192,6699,1,8,0:0:0:0:
256,192,6921,1,0,0:0:0:0:
256,192,7033,1,8,0:0:0:0:
256,192,7144,1,0,0:0:0:0:
256,192,7255,1,8,0:0:0:0:
256,192,7366,1,0,0:0:0:0:
256,192,7588,1,8,0:0:0:0:
256,192,7810,1,8,0:0:0:0:
256,192,7921,1,8,0:0:0:0:
256,192,8033,1,4,0:0:0:0:
256,192,8366,1,0,0:0:0:0:
256,192,8477,1,8,0:0:0:0:
256,192,8699,1,8,0:0:0:0:
256,192,8921,1,0,0:0:0:0:
256,192,9255,1,0,0:0:0:0:
256,192,9366,1,8,0:0:0:0:
256,192,9588,1,0,0:0:0:0:
256,192,9810,1,0,0:0:0:0:
256,192,10144,1,0,0:0:0:0:
256,192,10255,1,8,0:0:0:0:
256,192,10477,1,8,0:0:0:0:
256,192,10699,1,0,0:0:0:0:
256,192,10921,1,0,0:0:0:0:
256,192,11033,1,0,0:0:0:0:
256,192,11144,1,8,0:0:0:0:
256,192,11366,1,0,0:0:0:0:
256,192,11588,1,0,0:0:0:0:
256,192,12033,1,8,0:0:0:0:
256,192,12144,1,8,0:0:0:0:
256,192,12255,1,8,0:0:0:0:
256,192,12477,1,0,0:0:0:0:
256,192,12699,1,0,0:0:0:0:
256,192,12810,1,0,0:0:0:0:
256,192,12921,1,8,0:0:0:0:
256,192,13144,1,8,0:0:0:0:
256,192,13366,1,0,0:0:0:0:
256,192,13810,1,8,0:0:0:0:
256,192,13921,1,8,0:0:0:0:
256,192,14033,1,8,0:0:0:0:
256,192,14255,1,8,0:0:0:0:
256,192,14366,1,8,0:0:0:0:
256,192,14477,1,0,0:0:0:0:
256,192,14699,1,8,0:0:0:0:
256,192,14921,1,8,0:0:0:0:
256,192,15144,1,0,0:0:0:0:
256,192,15477,1,0,0:0:0:0:
256,192,15588,1,8,0:0:0:0:
256,192,15810,1,8,0:0:0:0:
256,192,16033,1,0,0:0:0:0:
256,192,16366,1,0,0:0:0:0:
256,192,16477,1,8,0:0:0:0:
256,192,16699,1,0,0:0:0:0:
256,192,16921,1,0,0:0:0:0:
256,192,17255,1,0,0:0:0:0:
256,192,17366,1,8,0:0:0:0:
256,192,17588,1,8,0:0:0:0:
256,192,17810,1,8,0:0:0:0:
256,192,18033,1,0,0:0:0:0:
256,192,18144,1,0,0:0:0:0:
256,192,18255,1,8,0:0:0:0:
256,192,18477,1,0,0:0:0:0:
256,192,18699,1,0,0:0:0:0:
256,192,19144,1,8,0:0:0:0:
256,192,19255,1,8,0:0:0:0:
256,192,19366,1,8,0:0:0:0:
256,192,19588,1,0,0:0:0:0:
256,192,19810,1,0,0:0:0:0:
256,192,19921,1,0,0:0:0:0:
256,192,20033,1,8,0:0:0:0:
256,192,20255,1,0,0:0:0:0:
256,192,20477,1,12,0:0:0:0:
256,192,20699,1,0,0:0:0:0:
256,192,20810,1,12,0:0:0:0:
256,192,20921,1,0,0:0:0:0:
256,192,21144,1,4,0:0:0:0:
256,192,21366,1,12,0:0:0:0:
256,192,21588,1,0,0:0:0:0:
256,192,21810,1,0,0:0:0:0:
256,192,22255,1,4,0:0:0:0:
256,192,22699,1,8,0:0:0:0:
256,192,22921,1,8,0:0:0:0:
256,192,23144,1,0,0:0:0:0:
256,192,23366,1,8,0:0:0:0:
256,192,23477,1,0,0:0:0:0:
256,192,23588,1,8,0:0:0:0:
256,192,23810,1,8,0:0:0:0:
256,192,24033,1,0,0:0:0:0:
256,192,24477,1,8,0:0:0:0:
256,192,24699,1,8,0:0:0:0:
256,192,24921,1,0,0:0:0:0:
256,192,25033,1,8,0:0:0:0:
256,192,25255,1,0,0:0:0:0:
256,192,25366,1,8,0:0:0:0:
256,192,25588,1,8,0:0:0:0:
256,192,25810,1,0,0:0:0:0:
256,192,26033,1,0,0:0:0:0:
256,192,26255,1,8,0:0:0:0:
256,192,26477,1,8,0:0:0:0:
256,192,26588,1,0,0:0:0:0:
256,192,26699,1,0,0:0:0:0:
256,192,26921,1,8,0:0:0:0:
256,192,27033,1,8,0:0:0:0:
256,192,27144,1,0,0:0:0:0:
256,192,27366,1,8,0:0:0:0:
256,192,27588,1,0,0:0:0:0:
256,192,28033,1,8,0:0:0:0:
256,192,28255,1,0,0:0:0:0:
256,192,28477,1,0,0:0:0:0:
256,192,28699,1,0,0:0:0:0:
256,192,28810,1,0,0:0:0:0:
256,192,28921,1,8,0:0:0:0:
256,192,29144,1,8,0:0:0:0:
256,192,29366,1,4,0:0:0:0:
256,192,29810,1,8,0:0:0:0:
256,192,30033,1,0,0:0:0:0:
256,192,30255,1,0,0:0:0:0:
256,192,30366,1,8,0:0:0:0:
256,192,30477,1,0,0:0:0:0:
256,192,30588,1,8,0:0:0:0:
256,192,30921,1,8,0:0:0:0:
256,192,31144,1,0,0:0:0:0:
256,192,31588,1,8,0:0:0:0:
256,192,31810,1,8,0:0:0:0:
256,192,32033,1,0,0:0:0:0:
256,192,32144,1,8,0:0:0:0:
256,192,32366,1,8,0:0:0:0:
256,192,32477,1,0,0:0:0:0:
256,192,32699,1,8,0:0:0:0:
256,192,32810,1,0,0:0:0:0:
256,192,32921,1,0,0:0:0:0:
256,192,33366,1,8,0:0:0:0:
256,192,33588,1,8,0:0:0:0:
256,192,33810,1,0,0:0:0:0:
256,192,34033,1,8,0:0:0:0:
256,192,34144,1,0,0:0:0:0:
256,192,34255,1,8,0:0:0:0:
256,192,34477,1,0,0:0:0:0:
256,192,34699,1,0,0:0:0:0:
256,192,35033,1,8,0:0:0:0:
256,192,35144,1,0,0:0:0:0:
256,192,35366,1,0,0:0:0:0:
256,192,35588,1,8,0:0:0:0:
256,192,35810,1,8,0:0:0:0:
256,192,35921,1,0,0:0:0:0:
256,192,36033,1,0,0:0:0:0:
256,192,36255,1,8,0:0:0:0:
256,192,36477,1,4,0:0:0:0:
256,192,36810,1,8,0:0:0:0:
256,192,36921,1,0,0:0:0:0:
256,192,37144,1,8,0:0:0:0:
256,192,37366,1,0,0:0:0:0:
256,192,37588,1,8,0:0:0:0:
256,192,37699,1,0,0:0:0:0:
256,192,37810,1,8,0:0:0:0:
256,192,38033,1,0,0:0:0:0:
256,192,38144,1,8,0:0:0:0:
256,192,38255,1,0,0:0:0:0:
256,192,38588,1,8,0:0:0:0:
256,192,38699,1,0,0:0:0:0:
256,192,38921,1,8,0:0:0:0:
256,192,39144,1,0,0:0:0:0:
256,192,39366,1,8,0:0:0:0:
256,192,39477,1,0,0:0:0:0:
256,192,39588,1,8,0:0:0:0:
256,192,39810,1,8,0:0:0:0:
256,192,40033,1,0,0:0:0:0:
256,192,40366,1,8,0:0:0:0:
256,192,40477,1,0,0:0:0:0:
256,192,40699,1,0,0:0:0:0:
256,192,40921,1,8,0:0:0:0:
256,192,41255,1,0,0:0:0:0:
256,192,41366,1,8,0:0:0:0:
256,192,41588,1,8,0:0:0:0:
256,192,41810,1,0,0:0:0:0:
256,192,42144,1,0,0:0:0:0:
256,192,42255,1,0,0:0:0:0:
256,192,42477,1,8,0:0:0:0:
256,192,42699,1,0,0:0:0:0:
256,192,42921,1,8,0:0:0:0:
256,192,43033,1,0,0:0:0:0:
256,192,43144,1,8,0:0:0:0:
256,192,43366,1,8,0:0:0:0:
256,192,43588,1,4,0:0:0:0:
256,192,43921,1,8,0:0:0:0:
256,192,44033,1,0,0:0:0:0:
256,192,44255,1,0,0:0:0:0:
256,192,44477,1,0,0:0:0:0:
256,192,44699,1,8,0:0:0:0:
256,192,44810,1,0,0:0:0:0:
256,192,44921,1,8,0:0:0:0:
256,192,45144,1,8,0:0:0:0:
256,192,45255,1,0,0:0:0:0:
256,192,45366,1,0,0:0:0:0:
256,192,45699,1,8,0:0:0:0:
256,192,45810,1,0,0:0:0:0:
256,192,46033,1,8,0:0:0:0:
256,192,46255,1,0,0:0:0:0:
256,192,46477,1,8,0:0:0:0:
256,192,46588,1,0,0:0:0:0:
256,192,46699,1,0,0:0:0:0:
256,192,46921,1,8,0:0:0:0:
256,192,47144,1,0,0:0:0:0:
256,192,47366,1,0,0:0:0:0:
256,192,47477,1,0,0:0:0:0:
256,192,47588,1,8,0:0:0:0:
256,192,47810,1,8,0:0:0:0:
256,192,48033,1,0,0:0:0:0:
256,192,48144,1,0,0:0:0:0:
256,192,48255,1,0,0:0:0:0:
256,192,48477,1,8,0:0:0:0:
256,192,48699,1,8,0:0:0:0:
256,192,48810,1,0,0:0:0:0:
256,192,48921,1,0,0:0:0:0:
256,192,49255,1,8,0:0:0:0:
256,192,49366,1,0,0:0:0:0:
256,192,49588,1,8,0:0:0:0:
256,192,49810,1,0,0:0:0:0:
256,192,50699,1,4,0:0:0:0:
256,192,50921,1,0,0:0:0:0:
256,192,51144,1,8,0:0:0:0:
256,192,51588,1,4,0:0:0:0:
256,192,51810,1,0,0:0:0:0:
256,192,52033,1,8,0:0:0:0:
256,192,52477,1,4,0:0:0:0:
256,192,52810,1,8,0:0:0:0:
256,192,52921,1,0,0:0:0:0:
256,192,53144,1,8,0:0:0:0:
256,192,53366,1,12,0:0:0:0:
256,192,53588,1,0,0:0:0:0:
256,192,53699,1,0,0:0:0:0:
256,192,53810,1,8,0:0:0:0:
256,192,54033,1,8,0:0:0:0:
256,192,54255,1,0,0:0:0:0:
256,192,54477,1,0,0:0:0:0:
256,192,54699,1,8,0:0:0:0:
256,192,54921,1,0,0:0:0:0:
256,192,55144,1,0,0:0:0:0:
256,192,55255,1,0,0:0:0:0:
256,192,55477,1,8,0:0:0:0:
256,192,56033,1,0,0:0:0:0:
256,192,56255,1,8,0:0:0:0:
256,192,56477,1,0,0:0:0:0:
256,192,56699,1,8,0:0:0:0:
256,192,56921,1,0,0:0:0:0:
256,192,57033,1,8,0:0:0:0:
256,192,57255,1,8,0:0:0:0:
256,192,57810,1,4,0:0:0:0:
256,192,58033,1,0,0:0:0:0:
256,192,58255,1,8,0:0:0:0:
256,192,58699,1,4,0:0:0:0:
256,192,58921,1,0,0:0:0:0:
256,192,59144,1,8,0:0:0:0:
256,192,59588,1,4,0:0:0:0:
256,192,59921,1,8,0:0:0:0:
256,192,60033,1,0,0:0:0:0:
256,192,60255,1,8,0:0:0:0:
256,192,60477,1,12,0:0:0:0:
256,192,60699,1,0,0:0:0:0:
256,192,60810,1,0,0:0:0:0:
256,192,60921,1,8,0:0:0:0:
256,192,61144,1,0,0:0:0:0:
256,192,61255,1,8,0:0:0:0:
256,192,61366,1,0,0:0:0:0:
256,192,61588,1,0,0:0:0:0:
256,192,61810,1,8,0:0:0:0:
256,192,62033,1,8,0:0:0:0:
256,192,62255,1,0,0:0:0:0:
256,192,62699,1,8,0:0:0:0:
256,192,62921,1,0,0:0:0:0:
256,192,63033,1,8,0:0:0:0:
256,192,63144,1,0,0:0:0:0:
256,192,63588,1,12,0:0:0:0:
256,192,63810,1,0,0:0:0:0:
256,192,64033,1,4,0:0:0:0:
256,192,64144,1,8,0:0:0:0:
256,192,64255,1,0,0:0:0:0:
256,192,64366,1,8,0:0:0:0:
256,192,64477,1,0,0:0:0:0:
256,192,64921,1,4,0:0:0:0:
256,192,65255,1,0,0:0:0:0:
256,192,65366,1,8,0:0:0:0:
256,192,65588,1,8,0:0:0:0:
256,192,65810,1,0,0:0:0:0:
256,192,66144,1,0,0:0:0:0:
256,192,66255,1,8,0:0:0:0:
256,192,66477,1,0,0:0:0:0:
256,192,66699,1,0,0:0:0:0:
256,192,67033,1,0,0:0:0:0:
256,192,67144,1,8,0:0:0:0:
256,192,67366,1,8,0:0:0:0:
256,192,67588,1,0,0:0:0:0:
256,192,67810,1,0,0:0:0:0:
256,192,67921,1,0,0:0:0:0:
256,192,68033,1,8,0:0:0:0:
256,192,68255,1,0,0:0:0:0:
256,192,68477,1,0,0:0:0:0:
256,192,68921,1,8,0:0:0:0:
256,192,69033,1,8,0:0:0:0:
256,192,69144,1,8,0:0:0:0:
256,192,69366,1,0,0:0:0:0:
256,192,69588,1,0,0:0:0:0:
256,192,69699,1,0,0:0:0:0:
256,192,69810,1,8,0:0:0:0:
256,192,70033,1,8,0:0:0:0:
256,192,70255,1,0,0:0:0:0:
256,192,70699,1,8,0:0:0:0:
256,192,70810,1,8,0:0:0:0:
256,192,70921,1,8,0:0:0:0:
256,192,71144,1,8,0:0:0:0:
256,192,71255,1,8,0:0:0:0:
256,192,71366,1,0,0:0:0:0:
256,192,71588,1,8,0:0:0:0:
256,192,71810,1,8,0:0:0:0:
256,192,72033,1,0,0:0:0:0:
256,192,72366,1,0,0:0:0:0:
256,192,72477,1,8,0:0:0:0:
256,192,72699,1,8,0:0:0:0:
256,192,72921,1,0,0:0:0:0:
256,192,73255,1,0,0:0:0:0:
256,192,73366,1,8,0:0:0:0:
256,192,73588,1,0,0:0:0:0:
256,192,73810,1,0,0:0:0:0:
256,192,74144,1,0,0:0:0:0:
256,192,74255,1,8,0:0:0:0:
256,192,74477,1,8,0:0:0:0:
256,192,74699,1,8,0:0:0:0:
256,192,74921,1,0,0:0:0:0:
256,192,75033,1,0,0:0:0:0:
256,192,75144,1,8,0:0:0:0:
256,192,75366,1,0,0:0:0:0:
256,192,75588,1,0,0:0:0:0:
256,192,76033,1,8,0:0:0:0:
256,192,76144,1,8,0:0:0:0:
256,192,76255,1,8,0:0:0:0:
256,192,76477,1,0,0:0:0:0:
256,192,76699,1,0,0:0:0:0:
256,192,76810,1,0,0:0:0:0:
256,192,76921,1,8,0:0:0:0:
256,192,77144,1,0,0:0:0:0:
256,192,77366,1,12,0:0:0:0:
256,192,77588,1,0,0:0:0:0:
256,192,77699,1,12,0:0:0:0:
256,192,77810,1,0,0:0:0:0:
256,192,78033,1,4,0:0:0:0:
256,192,78255,1,12,0:0:0:0:
256,192,78477,1,0,0:0:0:0:
256,192,78699,1,0,0:0:0:0:
256,192,79144,1,4,0:0:0:0:
256,192,82033,1,8,0:0:0:0:
256,192,82144,1,8,0:0:0:0:
256,192,82255,1,4,0:0:0:0:
256,192,82477,1,8,0:0:0:0:
256,192,82699,1,4,0:0:0:0:
256,192,82921,1,0,0:0:0:0:
256,192,83144,1,8,0:0:0:0:
256,192,83366,1,8,0:0:0:0:
256,192,83477,1,0,0:0:0:0:
256,192,83588,1,0,0:0:0:0:
256,192,83810,1,8,0:0:0:0:
256,192,83921,1,8,0:0:0:0:
256,192,84033,1,0,0:0:0:0:
256,192,84255,1,8,0:0:0:0:
256,192,84477,1,0,0:0:0:0:
256,192,84699,1,8,0:0:0:0:
256,192,84921,1,8,0:0:0:0:
256,192,85144,1,0,0:0:0:0:
256,192,85366,1,8,0:0:0:0:
256,192,85588,1,0,0:0:0:0:
256,192,85699,1,0,0:0:0:0:
256,192,85810,1,8,0:0:0:0:
256,192,86255,1,4,0:0:0:0:
256,192,86699,1,8,0:0:0:0:
256,192,86922,1,0,0:0:0:0:
256,192,87144,1,0,0:0:0:0:
256,192,87366,1,8,0:0:0:0:
256,192,87477,1,8,0:0:0:0:
256,192,87810,1,8,0:0:0:0:
256,192,88033,1,0,0:0:0:0:
256,192,88477,1,8,0:0:0:0:
256,192,88699,1,8,0:0:0:0:
256,192,88922,1,0,0:0:0:0:
256,192,89033,1,8,0:0:0:0:
256,192,89255,1,8,0:0:0:0:
256,192,89366,1,0,0:0:0:0:
256,192,89588,1,8,0:0:0:0:
256,192,89699,1,0,0:0:0:0:
256,192,89810,1,0,0:0:0:0:
256,192,90255,1,8,0:0:0:0:
256,192,90477,1,8,0:0:0:0:
256,192,90699,1,0,0:0:0:0:
256,192,90922,1,8,0:0:0:0:
256,192,91033,1,0,0:0:0:0:
256,192,91144,1,8,0:0:0:0:
256,192,91366,1,0,0:0:0:0:
256,192,91588,1,0,0:0:0:0:
256,192,91922,1,8,0:0:0:0:
256,192,92033,1,0,0:0:0:0:
256,192,92255,1,0,0:0:0:0:
256,192,92477,1,8,0:0:0:0:
256,192,92699,1,8,0:0:0:0:
256,192,92810,1,0,0:0:0:0:
256,192,92922,1,0,0:0:0:0:
256,192,93144,1,8,0:0:0:0:
256,192,93366,1,4,0:0:0:0:
256,192,93699,1,8,0:0:0:0:
256,192,93810,1,0,0:0:0:0:
256,192,94033,1,8,0:0:0:0:
256,192,94255,1,0,0:0:0:0:
256,192,94477,1,8,0:0:0:0:
256,192,94588,1,0,0:0:0:0:
256,192,94699,1,8,0:0:0:0:
256,192,94922,1,0,0:0:0:0:
256,192,95033,1,8,0:0:0:0:
256,192,95144,1,0,0:0:0:0:
256,192,95477,1,8,0:0:0:0:
256,192,95588,1,0,0:0:0:0:
256,192,95810,1,8,0:0:0:0:
256,192,96033,1,0,0:0:0:0:
256,192,96255,1,8,0:0:0:0:
256,192,96366,1,0,0:0:0:0:
256,192,96477,1,8,0:0:0:0:
256,192,96699,1,8,0:0:0:0:
256,192,96922,1,0,0:0:0:0:
256,192,97255,1,8,0:0:0:0:
256,192,97366,1,0,0:0:0:0:
256,192,97588,1,0,0:0:0:0:
256,192,97810,1,8,0:0:0:0:
256,192,98144,1,0,0:0:0:0:
256,192,98255,1,8,0:0:0:0:
256,192,98477,1,8,0:0:0:0:
256,192,98699,1,0,0:0:0:0:
256,192,99033,1,0,0:0:0:0:
256,192,99144,1,0,0:0:0:0:
256,192,99366,1,8,0:0:0:0:
256,192,99588,1,0,0:0:0:0:
256,192,99810,1,8,0:0:0:0:
256,192,99922,1,0,0:0:0:0:
256,192,100033,1,8,0:0:0:0:
256,192,100255,1,8,0:0:0:0:
256,192,100477,1,4,0:0:0:0:
256,192,100810,1,8,0:0:0:0:
256,192,100922,1,0,0:0:0:0:
256,192,101144,1,0,0:0:0:0:
256,192,101366,1,0,0:0:0:0:
256,192,101588,1,8,0:0:0:0:
256,192,101699,1,0,0:0:0:0:
256,192,101810,1,8,0:0:0:0:
256,192,102033,1,8,0:0:0:0:
256,192,102144,1,0,0:0:0:0:
256,192,102255,1,0,0:0:0:0:
256,192,102588,1,8,0:0:0:0:
256,192,102699,1,0,0:0:0:0:
256,192,102922,1,8,0:0:0:0:
256,192,103144,1,0,0:0:0:0:
256,192,103366,1,8,0:0:0:0:
256,192,103477,1,0,0:0:0:0:
256,192,103588,1,0,0:0:0:0:
256,192,103810,1,8,0:0:0:0:
256,192,104033,1,0,0:0:0:0:
256,192,104255,1,0,0:0:0:0:
256,192,104366,1,0,0:0:0:0:
256,192,104477,1,8,0:0:0:0:
256,192,104699,1,8,0:0:0:0:
256,192,104922,1,0,0:0:0:0:
256,192,105033,1,0,0:0:0:0:
256,192,105144,1,0,0:0:0:0:
256,192,105366,1,8,0:0:0:0:
256,192,105588,1,8,0:0:0:0:
256,192,105699,1,0,0:0:0:0:
256,192,105810,1,0,0:0:0:0:
256,192,106144,1,8,0:0:0:0:
256,192,106255,1,0,0:0:0:0:
256,192,106477,1,8,0:0:0:0:
256,192,106699,1,0,0:0:0:0:
256,192,107588,1,4,0:0:0:0:
256,192,107810,1,0,0:0:0:0:
256,192,108033,1,8,0:0:0:0:
256,192,108477,1,4,0:0:0:0:
256,192,108699,1,0,0:0:0:0:
256,192,108921,1,8,0:0:0:0:
256,192,109366,1,4,0:0:0:0:
256,192,109699,1,8,0:0:0:0:
256,192,109810,1,0,0:0:0:0:
256,192,110033,1,8,0:0:0:0:
256,192,110255,1,12,0:0:0:0:
256,192,110477,1,0,0:0:0:0:
256,192,110588,1,0,0:0:0:0:
256,192,110699,1,8,0:0:0:0:
256,192,111144,1,0,0:0:0:0:
256,192,111366,1,8,0:0:0:0:
256,192,111588,1,8,0:0:0:0:
256,192,111810,1,0,0:0:0:0:
256,192,112033,1,8,0:0:0:0:
256,192,112144,1,0,0:0:0:0:
256,192,112366,1,8,0:0:0:0:
256,192,112922,1,0,0:0:0:0:
256,192,113144,1,8,0:0:0:0:
256,192,113366,1,8,0:0:0:0:
256,192,113588,1,0,0:0:0:0:
256,192,113810,1,8,0:0:0:0:
256,192,113921,1,8,0:0:0:0:
256,192,114144,1,8,0:0:0:0:
256,192,114699,1,4,0:0:0:0:
256,192,114921,1,0,0:0:0:0:
256,192,115144,1,8,0:0:0:0:
256,192,115588,1,4,0:0:0:0:
256,192,115810,1,0,0:0:0:0:
256,192,116033,1,8,0:0:0:0:
256,192,116477,1,4,0:0:0:0:
256,192,116810,1,8,0:0:0:0:
256,192,116921,1,0,0:0:0:0:
256,192,117144,1,8,0:0:0:0:
256,192,117366,1,12,0:0:0:0:
256,192,117588,1,0,0:0:0:0:
256,192,117699,1,0,0:0:0:0:
256,192,117810,1,8,0:0:0:0:
256,192,118033,1,8,0:0:0:0:
256,192,118144,1,0,0:0:0:0:
256,192,118255,1,0,0:0:0:0:
256,192,118477,1,0,0:0:0:0:
256,192,118699,1,8,0:0:0:0:
256,192,118921,1,8,0:0:0:0:
256,192,119144,1,0,0:0:0:0:
256,192,119588,1,8,0:0:0:0:
256,192,119810,1,8,0:0:0:0:
256,192,119921,1,0,0:0:0:0:
256,192,120033,1,0,0:0:0:0:
256,192,120477,1,12,0:0:0:0:
256,192,120699,1,0,0:0:0:0:
256,192,120922,1,4,0:0:0:0:
256,192,121033,1,8,0:0:0:0:
256,192,121144,1,0,0:0:0:0:
256,192,121255,1,8,0:0:0:0:
256,192,121366,1,0,0:0:0:0:
256,192,121810,1,0,0:0:0:0:
256,192,122033,1,0,0:0:0:0:
256,192,122255,1,8,0:0:0:0:
256,192,122477,1,8,0:0:0:0:
256,192,122699,1,0,0:0:0:0:
256,192,123144,1,8,0:0:0:0:
256,192,123255,1,0,0:0:0:0:
256,192,123477,1,8,0:0:0:0:
256,192,123588,1,0,0:0:0:0:
256,192,123810,1,0,0:0:0:0:
256,192,124033,1,8,0:0:0:0:
256,192,124255,1,8,0:0:0:0:
256,192,124477,1,0,0:0:0:0:
256,192,124921,1,8,0:0:0:0:
256,192,125033,1,0,0:0:0:0:
256,192,125255,1,8,0:0:0:0:
256,192,125366,1,0,0:0:0:0:
256,192,125810,1,8,0:0:0:0:
256,192,126255,1,0,0:0:0:0:
256,192,126477,1,0,0:0:0:0:
256,192,126699,1,8,0:0:0:0:
256,192,126921,1,8,0:0:0:0:
256,192,127033,1,0,0:0:0:0:
256,192,127144,1,0,0:0:0:0:
256,192,127366,1,0,0:0:0:0:
256,192,127588,1,8,0:0:0:0:
256,192,128033,1,8,0:0:0:0:
256,192,128255,1,0,0:0:0:0:
256,192,128366,1,0,0:0:0:0:
256,192,128477,1,8,0:0:0:0:
256,192,128699,1,8,0:0:0:0:
256,192,128921,1,0,0:0:0:0:
256,192,129144,1,0,0:0:0:0:
256,192,129366,1,8,0:0:0:0:
256,192,129588,1,8,0:0:0:0:
256,192,129810,1,0,0:0:0:0:
256,192,130255,1,8,0:0:0:0:
256,192,130366,1,0,0:0:0:0:
256,192,130588,1,8,0:0:0:0:
256,192,130699,1,0,0:0:0:0:
256,192,130921,1,0,0:0:0:0:
256,192,131144,1,8,0:0:0:0:
256,192,131366,1,8,0:0:0:0:
256,192,131588,1,0,0:0:0:0:
256,192,132033,1,8,0:0:0:0:
256,192,132144,1,0,0:0:0:0:
256,192,132366,1,8,0:0:0:0:
256,192,132477,1,0,0:0:0:0:
256,192,132921,1,8,0:0:0:0:
256,192,133366,1,0,0:0:0:0:
256,192,133588,1,0,0:0:0:0:
256,192,133810,1,8,0:0:0:0:
256,192,134033,1,8,0:0:0:0:
256,192,134144,1,8,0:0:0:0:
256,192,134255,1,0,0:0:0:0:
256,192,134477,1,0,0:0:0:0:
256,192,134699,1,8,0:0:0:0:
256,192,135144,1,8,0:0:0:0:
256,192,135366,1,0,0:0:0:0:
256,192,135477,1,0,0:0:0:0:
256,192,135588,1,8,0:0:0:0:
256,192,135810,1,8,0:0:0:0:
256,192,136033,1,4,0:0:0:0:
256,192,136366,1,8,0:0:0:0:
256,192,136477,1,0,0:0:0:0:
256,192,136699,1,0,0:0:0:0:
256,192,136921,1,8,0:0:0:0:
256,192,137144,1,0,0:0:0:0:
256,192,137255,1,8,0:0:0:0:
256,192,137366,1,0,0:0:0:0:
256,192,137588,1,8,0:0:0:0:
256,192,137810,1,0,0:0:0:0:
256,192,138144,1,8,0:0:0:0:
256,192,138255,1,0,0:0:0:0:
256,192,138477,1,8,0:0:0:0:
256,192,138699,1,0,0:0:0:0:
256,192,138921,1,8,0:0:0:0:
256,192,139033,1,0,0:0:0:0:
256,192,139144,1,8,0:0:0:0:
256,192,139366,1,8,0:0:0:0:
256,192,139588,1,0,0:0:0:0:
256,192,139921,1,8,0:0:0:0:
256,192,140033,1,0,0:0:0:0:
256,192,140255,1,0,0:0:0:0:
256,192,140477,1,8,0:0:0:0:
256,192,140699,1,0,0:0:0:0:
256,192,140810,1,8,0:0:0:0:
256,192,140921,1,0,0:0:0:0:
256,192,141144,1,0,0:0:0:0:
256,192,141366,1,8,0:0:0:0:
256,192,141699,1,0,0:0:0:0:
256,192,141810,1,8,0:0:0:0:
256,192,142033,1,8,0:0:0:0:
256,192,142255,1,0,0:0:0:0:
256,192,142477,1,8,0:0:0:0:
256,192,142588,1,0,0:0:0:0:
256,192,142699,1,8,0:0:0:0:
256,192,143144,1,4,0:0:0:0:
256,192,143477,1,8,0:0:0:0:
256,192,143588,1,0,0:0:0:0:
256,192,143810,1,0,0:0:0:0:
256,192,144033,1,8,0:0:0:0:
256,192,144255,1,0,0:0:0:0:
256,192,144366,1,8,0:0:0:0:
256,192,144477,1,0,0:0:0:0:
256,192,144699,1,8,0:0:0:0:
256,192,144921,1,0,0:0:0:0:
256,192,145255,1,8,0:0:0:0:
256,192,145366,1,0,0:0:0:0:
256,192,145588,1,8,0:0:0:0:
256,192,145810,1,0,0:0:0:0:
256,192,146033,1,8,0:0:0:0:
256,192,146144,1,0,0:0:0:0:
256,192,146255,1,8,0:0:0:0:
256,192,146477,1,0,0:0:0:0:
256,192,146699,1,0,0:0:0:0:
256,192,147033,1,0,0:0:0:0:
256,192,147144,1,8,0:0:0:0:
256,192,147366,1,0,0:0:0:0:
256,192,147588,1,0,0:0:0:0:
256,192,147810,1,8,0:0:0:0:
256,192,147921,1,0,0:0:0:0:
256,192,148033,1,8,0:0:0:0:
256,192,148255,1,8,0:0:0:0:
256,192,148477,12,0,149810,0:0:0:0:
256,192,150255,5,0,0:0:0:0:
256,192,150699,1,8,0:0:0:0:
256,192,151144,1,0,0:0:0:0:
256,192,151588,1,8,0:0:0:0:
256,192,151810,1,8,0:0:0:0:
256,192,151921,1,8,0:0:0:0:
256,192,152033,1,0,0:0:0:0:
256,192,152477,1,8,0:0:0:0:
256,192,152921,1,0,0:0:0:0:
256,192,153144,1,8,0:0:0:0:
256,192,153366,1,8,0:0:0:0:
256,192,153588,1,8,0:0:0:0:
256,192,153699,1,8,0:0:0:0:
256,192,153810,1,0,0:0:0:0:
256,192,154255,1,8,0:0:0:0:
256,192,154699,1,0,0:0:0:0:
256,192,155144,1,8,0:0:0:0:
256,192,155366,1,8,0:0:0:0:
256,192,155477,1,8,0:0:0:0:
256,192,155588,1,0,0:0:0:0:
256,192,156033,1,8,0:0:0:0:
256,192,156477,1,0,0:0:0:0:
256,192,156699,1,8,0:0:0:0:
256,192,156921,1,8,0:0:0:0:
256,192,157366,1,0,0:0:0:0:
256,192,157810,1,12,0:0:0:0:
256,192,158255,1,0,0:0:0:0:
256,192,158699,1,12,0:0:0:0:
256,192,159144,1,0,0:0:0:0:
256,192,159477,1,0,0:0:0:0:
256,192,159588,1,12,0:0:0:0:
256,192,159810,1,8,0:0:0:0:
256,192,160033,1,4,0:0:0:0:
256,192,160255,1,8,0:0:0:0:
256,192,160366,1,8,0:0:0:0:
256,192,160477,1,8,0:0:0:0:
256,192,160921,1,0,0:0:0:0:
256,192,161144,1,0,0:0:0:0:
256,192,161366,1,8,0:0:0:0:
256,192,161588,1,8,0:0:0:0:
256,192,161810,1,0,0:0:0:0:
256,192,162033,1,0,0:0:0:0:
256,192,162255,1,8,0:0:0:0:
256,192,162477,1,8,0:0:0:0:
256,192,162699,1,0,0:0:0:0:
256,192,162810,1,0,0:0:0:0:
256,192,162921,1,8,0:0:0:0:
256,192,163033,1,8,0:0:0:0:
256,192,163144,1,0,0:0:0:0:
256,192,163218,1,0,0:0:0:0:
256,192,163292,1,0,0:0:0:0:
256,192,163366,1,8,0:0:0:0:
256,192,163440,1,0,0:0:0:0:
256,192,163514,1,0,0:0:0:0:
256,192,163588,1,0,0:0:0:0:
256,192,164033,1,8,0:0:0:0:
256,192,164477,1,4,0:0:0:0:
256,192,164699,1,0,0:0:0:0:
256,192,164921,1,8,0:0:0:0:
256,192,165366,1,4,0:0:0:0:
256,192,165588,1,0,0:0:0:0:
256,192,165810,1,8,0:0:0:0:
256,192,166255,1,4,0:0:0:0:
256,192,166588,1,8,0:0:0:0:
256,192,166699,1,0,0:0:0:0:
256,192,166921,1,8,0:0:0:0:
256,192,167144,1,12,0:0:0:0:
256,192,167366,1,0,0:0:0:0:
256,192,167477,1,0,0:0:0:0:
256,192,167588,1,8,0:0:0:0:
256,192,168033,1,8,0:0:0:0:
256,192,168255,1,0,0:0:0:0:
256,192,168477,1,8,0:0:0:0:
256,192,168699,1,0,0:0:0:0:
256,192,168921,1,0,0:0:0:0:
256,192,169033,1,8,0:0:0:0:
256,192,169255,1,8,0:0:0:0:
256,192,169810,1,0,0:0:0:0:
256,192,170033,1,8,0:0:0:0:
256,192,170255,1,8,0:0:0:0:
256,192,170477,1,0,0:0:0:0:
256,192,170699,1,8,0:0:0:0:
256,192,170810,1,0,0:0:0:0:
256,192,171033,1,8,0:0:0:0:
256,192,171588,1,4,0:0:0:0:
256,192,171810,1,0,0:0:0:0:
256,192,172033,1,8,0:0:0:0:
256,192,172477,1,4,0:0:0:0:
256,192,172699,1,0,0:0:0:0:
256,192,172921,1,8,0:0:0:0:
256,192,173366,1,4,0:0:0:0:
256,192,173699,1,8,0:0:0:0:
256,192,173810,1,0,0:0:0:0:
256,192,174033,1,8,0:0:0:0:
256,192,174255,1,12,0:0:0:0:
256,192,174477,1,0,0:0:0:0:
256,192,174588,1,0,0:0:0:0:
256,192,174699,1,8,0:0:0:0:
256,192,175144,1,0,0:0:0:0:
256,192,175366,1,0,0:0:0:0:
256,192,175588,1,8,0:0:0:0:
256,192,175810,1,8,0:0:0:0:
256,192,176033,1,0,0:0:0:0:
256,192,176477,1,0,0:0:0:0:
256,192,176699,1,8,0:0:0:0:
256,192,176810,1,0,0:0:0:0:
256,192,176921,1,0,0:0:0:0:
256,192,177366,1,12,0:0:0:0:
256,192,177588,1,0,0:0:0:0:
256,192,177810,1,4,0:0:0:0:
256,192,178033,1,8,0:0:0:0:
256,192,178144,1,0,0:0:0:0:
256,192,178255,1,8,0:0:0:0:
256,192,178699,1,0,0:0:0:0:
256,192,178921,1,0,0:0:0:0:
256,192,179144,1,8,0:0:0:0:
256,192,179366,1,8,0:0:0:0:
256,192,179588,1,0,0:0:0:0:
256,192,180033,1,8,0:0:0:0:
256,192,180255,1,8,0:0:0:0:
256,192,180366,1,0,0:0:0:0:
256,192,180477,1,8,0:0:0:0:
256,192,180921,1,12,0:0:0:0:
256,192,181144,1,0,0:0:0:0:
256,192,181366,1,4,0:0:0:0:
256,192,181477,1,8,0:0:0:0:
256,192,181588,1,0,0:0:0:0:
256,192,181699,1,8,0:0:0:0:
256,192,181810,1,0,0:0:0:0:
256,192,182255,1,4,0:0:0:0:
256,192,182588,1,0,0:0:0:0:
256,192,182699,1,8,0:0:0:0:
256,192,182921,1,0,0:0:0:0:
256,192,183143,1,8,0:0:0:0:
256,192,183477,1,0,0:0:0:0:
256,192,183588,1,8,0:0:0:0:
256,192,183810,1,8,0:0:0:0:
256,192,184032,1,0,0:0:0:0:
256,192,184366,1,8,0:0:0:0:
256,192,184477,1,0,0:0:0:0:
256,192,184699,1,8,0:0:0:0:
256,192,184921,1,0,0:0:0:0:
256,192,185144,1,0,0:0:0:0:
256,192,185255,1,0,0:0:0:0:
256,192,185366,1,8,0:0:0:0:
256,192,185810,1,0,0:0:0:0:
256,192,186255,1,8,0:0:0:0:
256,192,186366,1,8,0:0:0:0:
256,192,186477,1,8,0:0:0:0:
256,192,186699,1,0,0:0:0:0:
256,192,186921,1,0,0:0:0:0:
256,192,187033,1,0,0:0:0:0:
256,192,187143,1,8,0:0:0:0:
256,192,187366,1,8,0:0:0:0:
256,192,187588,1,0,0:0:0:0:
256,192,188032,1,8,0:0:0:0:
256,192,188144,1,8,0:0:0:0:
256,192,188255,1,8,0:0:0:0:
256,192,188477,1,8,0:0:0:0:
256,192,188588,1,8,0:0:0:0:
256,192,188699,1,0,0:0:0:0:
256,192,188921,1,8,0:0:0:0:
256,192,189144,1,8,0:0:0:0:
256,192,189366,1,0,0:0:0:0:
256,192,189699,1,0,0:0:0:0:
256,192,189810,1,8,0:0:0:0:
256,192,190032,1,0,0:0:0:0:
256,192,190255,1,8,0:0:0:0:
256,192,190588,1,8,0:0:0:0:
256,192,190699,1,0,0:0:0:0:
256,192,190921,1,8,0:0:0:0:
256,192,191143,1,0,0:0:0:0:
256,192,191477,1,8,0:0:0:0:
256,192,191588,1,0,0:0:0:0:
256,192,191810,1,8,0:0:0:0:
256,192,192032,1,8,0:0:0:0:
256,192,192255,1,0,0:0:0:0:
256,192,192366,1,0,0:0:0:0:
256,192,192477,1,8,0:0:0:0:
256,192,192921,1,0,0:0:0:0:
256,192,193366,1,8,0:0:0:0:
256,192,193477,1,8,0:0:0:0:
256,192,193588,1,8,0:0:0:0:
256,192,193810,1,0,0:0:0:0:
256,192,194032,1,0,0:0:0:0:
256,192,194144,1,0,0:0:0:0:
256,192,194255,1,8,0:0:0:0:
256,192,194477,1,8,0:0:0:0:
256,192,194699,1,12,0:0:0:0:
256,192,194921,1,0,0:0:0:0:
256,192,195032,1,12,0:0:0:0:
256,192,195144,1,0,0:0:0:0:
256,192,195366,1,4,0:0:0:0:
256,192,195588,1,12,0:0:0:0:
256,192,195810,1,0,0:0:0:0:
256,192,196033,1,4,0:0:0:0:
