osu file format v14

[General]
AudioFilename: audio.mp3
AudioLeadIn: 0
PreviewTime: 50699
Countdown: 0
SampleSet: Normal
StackLeniency: 0.7
Mode: 1
LetterboxInBreaks: 0
WidescreenStoryboard: 1

[Editor]
Bookmarks: 64921
DistanceSpacing: 0.8
BeatDivisor: 4
GridSize: 32
TimelineZoom: 2.899999

[Metadata]
Title:Q.
TitleUnicode:Q.
Artist:KurageP feat. Otomachi Una
ArtistUnicode:くらげP feat. 音街ウナ
Creator:Diva Days
Version:Futsuu
Source:
Tags:vocaloid アルネの事件簿 Arne's Case Book 和田たけあき Wada Takeaki 長澤 美郷 Nagasawa Misato 春太郎 Harutaro むらさき Murasaki
BeatmapID:1463830
BeatmapSetID:691692

[Difficulty]
HPDrainRate:7
CircleSize:2
OverallDifficulty:4
ApproachRate:0
SliderMultiplier:1.4
SliderTickRate:1

[Events]
//Background and Video events
0,0,"bgmuzu.jpg",0,65
//Break Periods
//Storyboard Layer 0 (Background)
//Storyboard Layer 1 (Fail)
//Storyboard Layer 2 (Pass)
//Storyboard Layer 3 (Foreground)
//Storyboard Sound Samples

[TimingPoints]
922,444.444444444444,4,1,0,50,1,0
6255,-100,4,1,0,85,0,0
50699,-100,4,1,0,85,0,1
64921,-100,4,1,0,85,0,0
107588,-100,4,1,0,85,0,1
121810,-100,4,1,0,85,0,0
164477,-100,4,1,0,85,0,1
182255,-100,4,1,0,85,0,0

[HitObjects]
256,192,6255,5,0,0:0:0:0:
256,192,6477,1,8,0:0:0:0:
256,192,6699,1,8,0:0:0:0:
256,192,7144,1,0,0:0:0:0:
256,192,7366,1,0,0:0:0:0:
256,192,7588,1,8,0:0:0:0:
256,192,8033,1,4,0:0:0:0:
256,192,8477,1,8,0:0:0:0:
256,192,8921,1,0,0:0:0:0:
256,192,9810,1,0,0:0:0:0:
256,192,10255,1,8,0:0:0:0:
256,192,10699,1,0,0:0:0:0:
256,192,11588,1,8,0:0:0:0:
256,192,12033,1,8,0:0:0:0:
256,192,12477,1,0,0:0:0:0:
256,192,12921,1,8,0:0:0:0:
256,192,13366,1,0,0:0:0:0:
256,192,14255,1,8,0:0:0:0:
256,192,14699,1,8,0:0:0:0:
256,192,15144,1,0,0:0:0:0:
256,192,15588,1,8,0:0:0:0:
256,192,16033,1,0,0:0:0:0:
256,192,16921,1,0,0:0:0:0:
256,192,17366,1,8,0:0:0:0:
256,192,17810,1,0,0:0:0:0:
256,192,18699,1,8,0:0:0:0:
256,192,19144,1,8,0:0:0:0:
256,192,19588,1,0,0:0:0:0:
256,192,20033,1,8,0:0:0:0:
256,192,20477,1,12,0:0:0:0:
256,192,21144,1,4,0:0:0:0:
256,192,21366,1,12,0:0:0:0:
256,192,22255,1,4,0:0:0:0:
256,192,22699,1,8,0:0:0:0:
256,192,23144,1,0,0:0:0:0:
256,192,23366,1,8,0:0:0:0:
256,192,24033,1,0,0:0:0:0:
256,192,24477,1,8,0:0:0:0:
256,192,24921,1,8,0:0:0:0:
256,192,25144,1,0,0:0:0:0:
256,192,25810,1,0,0:0:0:0:
256,192,26255,1,8,0:0:0:0:
256,192,26699,1,0,0:0:0:0:
256,192,27588,1,0,0:0:0:0:
256,192,28033,1,8,0:0:0:0:
256,192,28477,1,0,0:0:0:0:
256,192,28921,1,8,0:0:0:0:
256,192,29366,1,4,0:0:0:0:
256,192,29810,1,8,0:0:0:0:
256,192,30255,1,0,0:0:0:0:
256,192,30477,1,8,0:0:0:0:
256,192,31144,1,0,0:0:0:0:
256,192,31588,1,8,0:0:0:0:
256,192,32033,1,8,0:0:0:0:
256,192,32255,1,0,0:0:0:0:
256,192,32921,1,0,0:0:0:0:
256,192,33366,1,8,0:0:0:0:
256,192,33810,1,0,0:0:0:0:
256,192,34255,1,8,0:0:0:0:
256,192,34699,1,0,0:0:0:0:
256,192,35366,1,0,0:0:0:0:
256,192,35588,1,8,0:0:0:0:
256,192,36033,1,0,0:0:0:0:
256,192,36477,1,4,0:0:0:0:
256,192,37144,1,8,0:0:0:0:
256,192,37366,1,0,0:0:0:0:
256,192,37810,1,8,0:0:0:0:
256,192,38255,1,0,0:0:0:0:
256,192,38699,1,8,0:0:0:0:
256,192,39144,1,0,0:0:0:0:
256,192,39588,1,8,0:0:0:0:
256,192,40033,1,0,0:0:0:0:
256,192,40921,1,8,0:0:0:0:
256,192,41366,1,0,0:0:0:0:
256,192,41588,1,8,0:0:0:0:
256,192,41810,1,0,0:0:0:0:
256,192,42255,1,8,0:0:0:0:
256,192,42699,1,0,0:0:0:0:
256,192,43144,1,8,0:0:0:0:
256,192,43588,1,4,0:0:0:0:
256,192,44255,1,8,0:0:0:0:
256,192,44477,1,0,0:0:0:0:
256,192,44921,1,8,0:0:0:0:
256,192,45366,1,0,0:0:0:0:
256,192,46033,1,0,0:0:0:0:
256,192,46255,1,8,0:0:0:0:
256,192,46699,1,0,0:0:0:0:
256,192,47144,1,0,0:0:0:0:
256,192,47588,1,8,0:0:0:0:
256,192,48033,1,0,0:0:0:0:
256,192,48477,1,8,0:0:0:0:
256,192,48921,1,0,0:0:0:0:
256,192,49588,1,8,0:0:0:0:
256,192,49810,1,0,0:0:0:0:
256,192,50699,1,4,0:0:0:0:
256,192,51144,1,8,0:0:0:0:
256,192,51588,1,4,0:0:0:0:
256,192,52033,1,8,0:0:0:0:
256,192,52477,1,4,0:0:0:0:
256,192,53144,1,8,0:0:0:0:
256,192,53366,1,4,0:0:0:0:
256,192,53810,1,8,0:0:0:0:
256,192,54255,1,0,0:0:0:0:
256,192,54699,1,8,0:0:0:0:
256,192,54921,1,0,0:0:0:0:
256,192,55366,1,0,0:0:0:0:
256,192,55588,1,8,0:0:0:0:
256,192,56033,1,0,0:0:0:0:
256,192,56477,1,8,0:0:0:0:
256,192,56699,1,8,0:0:0:0:
256,192,57144,1,0,0:0:0:0:
256,192,57366,1,8,0:0:0:0:
256,192,57810,1,4,0:0:0:0:
256,192,58255,1,8,0:0:0:0:
256,192,58699,1,4,0:0:0:0:
256,192,59144,1,8,0:0:0:0:
256,192,59588,1,4,0:0:0:0:
256,192,60255,1,8,0:0:0:0:
256,192,60477,1,4,0:0:0:0:
256,192,60921,1,8,0:0:0:0:
256,192,61366,1,0,0:0:0:0:
256,192,61810,1,8,0:0:0:0:
256,192,62255,1,0,0:0:0:0:
256,192,62699,1,8,0:0:0:0:
256,192,62921,1,0,0:0:0:0:
256,192,63144,1,0,0:0:0:0:
256,192,63588,1,12,0:0:0:0:
256,192,64033,1,4,0:0:0:0:
256,192,64477,1,8,0:0:0:0:
256,192,64921,1,4,0:0:0:0:
256,192,65366,1,8,0:0:0:0:
256,192,65810,1,0,0:0:0:0:
256,192,66699,1,0,0:0:0:0:
256,192,67144,1,8,0:0:0:0:
256,192,67588,1,0,0:0:0:0:
256,192,68477,1,8,0:0:0:0:
256,192,68921,1,8,0:0:0:0:
256,192,69366,1,0,0:0:0:0:
256,192,69810,1,8,0:0:0:0:
256,192,70255,1,0,0:0:0:0:
256,192,71144,1,8,0:0:0:0:
256,192,71588,1,8,0:0:0:0:
256,192,72033,1,0,0:0:0:0:
256,192,72477,1,8,0:0:0:0:
256,192,72921,1,0,0:0:0:0:
256,192,73810,1,0,0:0:0:0:
256,192,74255,1,8,0:0:0:0:
256,192,74699,1,0,0:0:0:0:
256,192,75588,1,8,0:0:0:0:
256,192,76033,1,8,0:0:0:0:
256,192,76477,1,0,0:0:0:0:
256,192,76921,1,8,0:0:0:0:
256,192,77366,1,12,0:0:0:0:
256,192,78033,1,4,0:0:0:0:
256,192,78255,1,12,0:0:0:0:
256,192,79144,1,4,0:0:0:0:
256,192,82255,1,4,0:0:0:0:
256,192,82699,1,4,0:0:0:0:
256,192,83144,1,8,0:0:0:0:
256,192,83588,1,0,0:0:0:0:
256,192,84477,1,0,0:0:0:0:
256,192,84921,1,8,0:0:0:0:
256,192,85366,1,0,0:0:0:0:
256,192,85810,1,8,0:0:0:0:
256,192,86255,1,4,0:0:0:0:
256,192,86699,1,8,0:0:0:0:
256,192,87144,1,0,0:0:0:0:
256,192,87366,1,8,0:0:0:0:
256,192,88033,1,0,0:0:0:0:
256,192,88477,1,8,0:0:0:0:
256,192,88921,1,8,0:0:0:0:
256,192,89144,1,0,0:0:0:0:
256,192,89810,1,0,0:0:0:0:
256,192,90255,1,8,0:0:0:0:
256,192,90699,1,0,0:0:0:0:
256,192,91144,1,8,0:0:0:0:
256,192,91588,1,0,0:0:0:0:
256,192,92255,1,0,0:0:0:0:
256,192,92477,1,8,0:0:0:0:
256,192,92922,1,0,0:0:0:0:
256,192,93366,1,4,0:0:0:0:
256,192,94033,1,8,0:0:0:0:
256,192,94255,1,0,0:0:0:0:
256,192,94699,1,8,0:0:0:0:
256,192,95144,1,0,0:0:0:0:
256,192,95588,1,8,0:0:0:0:
256,192,96033,1,0,0:0:0:0:
256,192,96477,1,8,0:0:0:0:
256,192,96922,1,0,0:0:0:0:
256,192,97810,1,8,0:0:0:0:
256,192,98255,1,0,0:0:0:0:
256,192,98477,1,8,0:0:0:0:
256,192,98699,1,0,0:0:0:0:
256,192,99144,1,8,0:0:0:0:
256,192,99588,1,0,0:0:0:0:
256,192,100033,1,8,0:0:0:0:
256,192,100477,1,4,0:0:0:0:
256,192,101144,1,8,0:0:0:0:
256,192,101366,1,0,0:0:0:0:
256,192,101810,1,8,0:0:0:0:
256,192,102255,1,0,0:0:0:0:
256,192,102921,1,0,0:0:0:0:
256,192,103144,1,8,0:0:0:0:
256,192,103588,1,0,0:0:0:0:
256,192,104033,1,0,0:0:0:0:
256,192,104477,1,8,0:0:0:0:
256,192,104922,1,0,0:0:0:0:
256,192,105366,1,8,0:0:0:0:
256,192,105810,1,0,0:0:0:0:
256,192,106477,1,8,0:0:0:0:
256,192,106699,1,0,0:0:0:0:
256,192,107588,1,4,0:0:0:0:
256,192,108033,1,8,0:0:0:0:
256,192,108477,1,4,0:0:0:0:
256,192,108921,1,8,0:0:0:0:
256,192,109366,1,4,0:0:0:0:
256,192,110033,1,8,0:0:0:0:
256,192,110255,1,4,0:0:0:0:
256,192,110699,1,8,0:0:0:0:
256,192,111144,1,0,0:0:0:0:
256,192,111588,1,8,0:0:0:0:
256,192,111810,1,0,0:0:0:0:
256,192,112255,1,0,0:0:0:0:
256,192,112477,1,8,0:0:0:0:
256,192,112922,1,0,0:0:0:0:
256,192,113366,1,8,0:0:0:0:
256,192,113588,1,8,0:0:0:0:
256,192,114033,1,0,0:0:0:0:
256,192,114255,1,8,0:0:0:0:
256,192,114699,1,4,0:0:0:0:
256,192,115144,1,8,0:0:0:0:
256,192,115588,1,4,0:0:0:0:
256,192,116033,1,8,0:0:0:0:
256,192,116477,1,4,0:0:0:0:
256,192,117144,1,8,0:0:0:0:
256,192,117366,1,4,0:0:0:0:
256,192,117810,1,8,0:0:0:0:
256,192,118255,1,0,0:0:0:0:
256,192,118699,1,8,0:0:0:0:
256,192,119144,1,0,0:0:0:0:
256,192,119588,1,8,0:0:0:0:
256,192,119810,1,0,0:0:0:0:
256,192,120033,1,0,0:0:0:0:
256,192,120477,1,12,0:0:0:0:
256,192,120922,1,4,0:0:0:0:
256,192,121366,1,8,0:0:0:0:
256,192,121810,1,0,0:0:0:0:
256,192,122255,1,8,0:0:0:0:
256,192,122699,1,0,0:0:0:0:
256,192,123588,1,0,0:0:0:0:
256,192,124033,1,8,0:0:0:0:
256,192,124477,1,0,0:0:0:0:
256,192,124921,1,8,0:0:0:0:
256,192,125366,1,0,0:0:0:0:
256,192,126255,1,0,0:0:0:0:
256,192,127144,1,0,0:0:0:0:
256,192,127588,1,8,0:0:0:0:
256,192,128033,1,8,0:0:0:0:
256,192,128477,1,8,0:0:0:0:
256,192,128921,1,0,0:0:0:0:
256,192,129366,1,8,0:0:0:0:
256,192,129810,1,0,0:0:0:0:
256,192,130699,1,0,0:0:0:0:
256,192,131144,1,8,0:0:0:0:
256,192,131588,1,0,0:0:0:0:
256,192,132033,1,8,0:0:0:0:
256,192,132477,1,0,0:0:0:0:
256,192,133366,1,0,0:0:0:0:
256,192,133810,1,8,0:0:0:0:
256,192,134255,1,0,0:0:0:0:
256,192,134699,1,8,0:0:0:0:
256,192,135144,1,8,0:0:0:0:
256,192,135588,1,8,0:0:0:0:
256,192,136033,1,4,0:0:0:0:
256,192,136699,1,0,0:0:0:0:
256,192,136921,1,8,0:0:0:0:
256,192,137366,1,0,0:0:0:0:
256,192,137810,1,0,0:0:0:0:
256,192,138477,1,8,0:0:0:0:
256,192,138699,1,0,0:0:0:0:
256,192,139144,1,8,0:0:0:0:
256,192,139588,1,0,0:0:0:0:
256,192,140033,1,8,0:0:0:0:
256,192,140477,1,0,0:0:0:0:
256,192,140921,1,8,0:0:0:0:
256,192,141366,1,0,0:0:0:0:
256,192,142033,1,8,0:0:0:0:
256,192,142255,1,0,0:0:0:0:
256,192,142699,1,8,0:0:0:0:
256,192,143144,1,4,0:0:0:0:
256,192,143810,1,0,0:0:0:0:
256,192,144033,1,8,0:0:0:0:
256,192,144477,1,0,0:0:0:0:
256,192,144921,1,0,0:0:0:0:
256,192,145588,1,8,0:0:0:0:
256,192,145810,1,0,0:0:0:0:
256,192,146255,1,8,0:0:0:0:
256,192,146699,1,0,0:0:0:0:
256,192,147144,1,8,0:0:0:0:
256,192,147588,1,0,0:0:0:0:
256,192,148033,1,8,0:0:0:0:
256,192,148477,12,0,149810,0:0:0:0:
256,192,150255,5,0,0:0:0:0:
256,192,150699,1,8,0:0:0:0:
256,192,151588,1,8,0:0:0:0:
256,192,152477,1,8,0:0:0:0:
256,192,153366,1,8,0:0:0:0:
256,192,154255,1,8,0:0:0:0:
256,192,155144,1,8,0:0:0:0:
256,192,156033,1,8,0:0:0:0:
256,192,156921,1,8,0:0:0:0:
256,192,157366,1,0,0:0:0:0:
256,192,157810,1,12,0:0:0:0:
256,192,158255,1,0,0:0:0:0:
256,192,158699,1,12,0:0:0:0:
256,192,159144,1,0,0:0:0:0:
256,192,159588,1,12,0:0:0:0:
256,192,160033,1,4,0:0:0:0:
256,192,160477,1,8,0:0:0:0:
256,192,160921,1,0,0:0:0:0:
256,192,161144,1,0,0:0:0:0:
256,192,161366,1,8,0:0:0:0:
256,192,161810,1,0,0:0:0:0:
256,192,162033,1,0,0:0:0:0:
256,192,162255,1,8,0:0:0:0:
256,192,162699,2,0,B|416:192|416:192|288:256,1,280
256,192,164477,1,4,0:0:0:0:
256,192,164921,1,8,0:0:0:0:
256,192,165366,1,4,0:0:0:0:
256,192,165810,1,8,0:0:0:0:
256,192,166255,1,4,0:0:0:0:
256,192,166921,1,8,0:0:0:0:
256,192,167144,1,4,0:0:0:0:
256,192,167588,1,8,0:0:0:0:
256,192,168033,1,8,0:0:0:0:
256,192,168255,1,0,0:0:0:0:
256,192,168699,1,8,0:0:0:0:
256,192,168921,1,0,0:0:0:0:
256,192,169366,1,8,0:0:0:0:
256,192,169810,1,0,0:0:0:0:
256,192,170033,1,8,0:0:0:0:
256,192,170477,1,8,0:0:0:0:
256,192,170699,1,0,0:0:0:0:
256,192,171144,1,8,0:0:0:0:
256,192,171588,1,4,0:0:0:0:
256,192,172033,1,8,0:0:0:0:
256,192,172477,1,4,0:0:0:0:
256,192,172921,1,8,0:0:0:0:
256,192,173366,1,4,0:0:0:0:
256,192,174033,1,8,0:0:0:0:
256,192,174255,1,4,0:0:0:0:
256,192,174699,1,8,0:0:0:0:
256,192,175144,1,0,0:0:0:0:
256,192,175588,1,8,0:0:0:0:
256,192,176033,1,0,0:0:0:0:
256,192,176477,1,8,0:0:0:0:
256,192,176699,1,0,0:0:0:0:
256,192,176921,1,0,0:0:0:0:
256,192,177366,1,12,0:0:0:0:
256,192,177810,1,4,0:0:0:0:
256,192,178255,1,8,0:0:0:0:
256,192,178699,1,0,0:0:0:0:
256,192,179144,1,8,0:0:0:0:
256,192,179588,1,0,0:0:0:0:
256,192,180033,1,8,0:0:0:0:
256,192,180255,1,0,0:0:0:0:
256,192,180477,1,0,0:0:0:0:
256,192,180921,1,12,0:0:0:0:
256,192,181366,1,4,0:0:0:0:
256,192,181810,1,8,0:0:0:0:
256,192,182255,1,4,0:0:0:0:
256,192,182699,1,8,0:0:0:0:
256,192,183143,1,0,0:0:0:0:
256,192,184032,1,0,0:0:0:0:
256,192,184477,1,8,0:0:0:0:
256,192,184921,1,0,0:0:0:0:
256,192,185810,1,8,0:0:0:0:
256,192,186255,1,8,0:0:0:0:
256,192,186699,1,0,0:0:0:0:
256,192,187143,1,8,0:0:0:0:
256,192,187588,1,0,0:0:0:0:
256,192,188477,1,8,0:0:0:0:
256,192,188921,1,8,0:0:0:0:
256,192,189366,1,0,0:0:0:0:
256,192,189810,1,8,0:0:0:0:
256,192,190255,1,0,0:0:0:0:
256,192,191143,1,0,0:0:0:0:
256,192,191588,1,8,0:0:0:0:
256,192,192032,1,0,0:0:0:0:
256,192,192921,1,8,0:0:0:0:
256,192,193366,1,8,0:0:0:0:
256,192,193810,1,0,0:0:0:0:
256,192,194255,1,8,0:0:0:0:
256,192,194699,1,12,0:0:0:0:
256,192,195366,1,4,0:0:0:0:
256,192,195588,1,12,0:0:0:0:
256,192,196033,1,4,0:0:0:0:
