osu file format v14

[General]
AudioFilename: audio.mp3
AudioLeadIn: 0
PreviewTime: 90428
Countdown: 0
SampleSet: Normal
StackLeniency: 0.7
Mode: 1
LetterboxInBreaks: 0
WidescreenStoryboard: 1

[Editor]
Bookmarks: 5476,14203,31657,40384,44748,62201,64383,77474,86201,90565,108019,110201,114565,158196
DistanceSpacing: 1.4
BeatDivisor: 3
GridSize: 32
TimelineZoom: 1.600001

[Metadata]
Title:Chururira Chururira Daddadda!
TitleUnicode:チュルリラ・チュルリラ・ダッダッダ!
Artist:KurageP
ArtistUnicode:くらげP
Creator:Nostril
Version:Futsuu
Source:
Tags:gaston_2199 Japanese Pop J-Pop JPop WadaTakeaki 和田たけあき くらげP VOCALOID 結月ゆかり Yuzuki Yukari
BeatmapID:4577950
BeatmapSetID:2168905

[Difficulty]
HPDrainRate:7
CircleSize:3.9
OverallDifficulty:4
ApproachRate:3.9
SliderMultiplier:1
SliderTickRate:1

[Events]
//Background and Video events
Video,0,"output.mp4"
0,0,"chururira.jpg",0,30
//Break Periods
2,110196,117592
2,123287,126320
2,132014,132865
2,136378,137229
//Storyboard Layer 0 (Background)
//Storyboard Layer 1 (Fail)
//Storyboard Layer 2 (Pass)
//Storyboard Layer 3 (Foreground)
//Storyboard Layer 4 (Overlay)
//Storyboard Sound Samples

[TimingPoints]
-3258,272.727272727272,4,1,0,100,1,0
-107,-100,4,1,0,100,0,0
44741,-100,4,1,0,100,0,1
62196,-100,4,1,0,100,0,0
90560,-100,4,1,0,100,0,1
108014,-100,4,1,0,100,0,0
118651,-100,4,1,0,100,0,1
123014,-100,4,1,0,100,0,0
127378,-100,4,1,0,100,0,1
131741,-100,4,1,0,100,0,0
133923,-100,4,1,0,100,0,1
136105,-100,4,1,0,100,0,0
138287,-100,4,1,0,100,0,1
140741,-100,4,1,0,100,0,0
166923,-100,4,1,0,100,0,1
175650,-100,4,1,0,100,0,0

[HitObjects]
256,192,1105,5,4,0:0:0:0:
256,192,1560,1,0,0:0:0:0:
256,192,2105,1,0,0:0:0:0:
256,192,2741,1,12,0:0:0:0:
256,192,3014,1,12,0:0:0:0:
256,192,3287,5,4,0:0:0:0:
256,192,3742,1,0,0:0:0:0:
256,192,4287,1,0,0:0:0:0:
256,192,4923,1,4,0:0:0:0:
256,192,5196,1,4,0:0:0:0:
256,192,5469,5,12,0:0:0:0:
256,192,5741,1,8,0:0:0:0:
256,192,5924,1,0,0:0:0:0:
256,192,6196,1,8,0:0:0:0:
256,192,6469,1,0,0:0:0:0:
256,192,7105,1,12,0:0:0:0:
256,192,7378,1,12,0:0:0:0:
256,192,7651,5,4,0:0:0:0:
256,192,7923,1,8,0:0:0:0:
256,192,8106,1,0,0:0:0:0:
256,192,8378,1,8,0:0:0:0:
256,192,8651,1,0,0:0:0:0:
256,192,9287,1,4,0:0:0:0:
256,192,9560,1,4,0:0:0:0:
256,192,9832,5,12,0:0:0:0:
256,192,10104,1,8,0:0:0:0:
256,192,10287,1,0,0:0:0:0:
256,192,10559,1,8,0:0:0:0:
256,192,10832,1,0,0:0:0:0:
256,192,11468,1,12,0:0:0:0:
256,192,11741,1,12,0:0:0:0:
256,192,12014,5,12,0:0:0:0:
256,192,12286,1,8,0:0:0:0:
256,192,12469,1,0,0:0:0:0:
256,192,12741,1,8,0:0:0:0:
256,192,13014,1,0,0:0:0:0:
256,192,13650,1,4,0:0:0:0:
256,192,13923,1,4,0:0:0:0:
256,192,14196,1,4,0:0:0:0:
256,192,14741,1,8,0:0:0:0:
256,192,15287,1,0,0:0:0:0:
256,192,15560,1,8,0:0:0:0:
256,192,15832,1,0,0:0:0:0:
256,192,16378,1,8,0:0:0:0:
256,192,16923,1,8,0:0:0:0:
256,192,17469,1,8,0:0:0:0:
256,192,17741,1,8,0:0:0:0:
256,192,18014,1,0,0:0:0:0:
256,192,18560,1,8,0:0:0:0:
256,192,19105,1,8,0:0:0:0:
256,192,19651,1,0,0:0:0:0:
224,192,19923,1,8,0:0:0:0:
224,192,20196,1,0,0:0:0:0:
256,192,20741,1,0,0:0:0:0:
256,192,21287,1,8,0:0:0:0:
256,192,21832,1,8,0:0:0:0:
256,192,22105,1,0,0:0:0:0:
256,192,22378,1,8,0:0:0:0:
256,192,22923,1,8,0:0:0:0:
256,192,23468,1,8,0:0:0:0:
256,192,24014,1,0,0:0:0:0:
256,192,24287,1,8,0:0:0:0:
256,192,24559,1,0,0:0:0:0:
256,192,25105,1,8,0:0:0:0:
256,192,25650,1,8,0:0:0:0:
256,192,26196,1,8,0:0:0:0:
256,192,26468,1,8,0:0:0:0:
256,192,26741,1,0,0:0:0:0:
256,192,27287,1,8,0:0:0:0:
256,192,27832,1,8,0:0:0:0:
256,192,28378,1,0,0:0:0:0:
224,192,28650,1,8,0:0:0:0:
224,192,28923,1,0,0:0:0:0:
256,192,29468,1,0,0:0:0:0:
256,192,30014,1,8,0:0:0:0:
256,192,30559,1,8,0:0:0:0:
256,192,30832,1,0,0:0:0:0:
256,192,31105,1,8,0:0:0:0:
256,192,31651,5,4,0:0:0:0:
256,192,31923,1,8,0:0:0:0:
256,192,32105,1,8,0:0:0:0:
256,192,32196,1,0,0:0:0:0:
256,192,32469,1,8,0:0:0:0:
256,192,32741,1,0,0:0:0:0:
256,192,33014,1,8,0:0:0:0:
256,192,33196,1,8,0:0:0:0:
256,192,33287,1,0,0:0:0:0:
256,192,33560,1,8,0:0:0:0:
256,192,33832,1,0,0:0:0:0:
256,192,34105,1,8,0:0:0:0:
256,192,34287,1,8,0:0:0:0:
256,192,34378,1,0,0:0:0:0:
256,192,34651,1,8,0:0:0:0:
256,192,34923,1,0,0:0:0:0:
256,192,35196,1,8,0:0:0:0:
256,192,35378,1,8,0:0:0:0:
256,192,35469,1,0,0:0:0:0:
256,192,35651,1,0,0:0:0:0:
256,192,35742,1,8,0:0:0:0:
256,192,36014,1,0,0:0:0:0:
256,192,36287,1,12,0:0:0:0:
256,192,36560,1,0,0:0:0:0:
256,192,36833,1,12,0:0:0:0:
256,192,37105,1,0,0:0:0:0:
256,192,37378,1,12,0:0:0:0:
256,192,37651,1,0,0:0:0:0:
256,192,37924,1,12,0:0:0:0:
256,192,38196,1,8,0:0:0:0:
256,192,38469,1,12,0:0:0:0:
256,192,38923,1,8,0:0:0:0:
256,192,39014,1,8,0:0:0:0:
256,192,39196,1,8,0:0:0:0:
256,192,39560,1,8,0:0:0:0:
256,192,39832,1,0,0:0:0:0:
256,192,40378,5,4,0:0:0:0:
256,192,40651,1,8,0:0:0:0:
256,192,40832,1,0,0:0:0:0:
256,192,41105,1,0,0:0:0:0:
256,192,41469,5,12,0:0:0:0:
256,192,41741,1,0,0:0:0:0:
256,192,41923,1,8,0:0:0:0:
256,192,42196,1,8,0:0:0:0:
256,192,42560,5,4,0:0:0:0:
256,192,42833,1,4,0:0:0:0:
256,192,43105,1,12,0:0:0:0:
256,192,43378,1,4,0:0:0:0:
256,192,43651,1,12,0:0:0:0:
256,192,43924,1,4,0:0:0:0:
256,192,44196,1,12,0:0:0:0:
256,192,44741,5,12,0:0:0:0:
256,192,45014,1,0,0:0:0:0:
256,192,45196,1,0,0:0:0:0:
256,192,45287,5,8,0:0:0:0:
256,192,45560,1,0,0:0:0:0:
256,192,45741,1,0,0:0:0:0:
256,192,45832,5,8,0:0:0:0:
256,192,46105,1,0,0:0:0:0:
256,192,46378,1,8,0:0:0:0:
256,192,46923,5,8,0:0:0:0:
256,192,47196,1,0,0:0:0:0:
256,192,47469,5,8,0:0:0:0:
256,192,47651,1,0,0:0:0:0:
256,192,47742,1,8,0:0:0:0:
256,192,48014,5,8,0:0:0:0:
256,192,48287,1,0,0:0:0:0:
256,192,48560,1,8,0:0:0:0:
256,192,49105,5,8,0:0:0:0:
256,192,49378,1,0,0:0:0:0:
256,192,49560,1,0,0:0:0:0:
256,192,49651,5,8,0:0:0:0:
256,192,49924,1,0,0:0:0:0:
256,192,50105,1,0,0:0:0:0:
256,192,50196,5,8,0:0:0:0:
256,192,50469,1,0,0:0:0:0:
256,192,50742,1,8,0:0:0:0:
256,192,51287,5,8,0:0:0:0:
256,192,51560,1,0,0:0:0:0:
256,192,51833,5,8,0:0:0:0:
256,192,52015,1,0,0:0:0:0:
256,192,52106,1,8,0:0:0:0:
256,192,52378,5,8,0:0:0:0:
256,192,52651,1,8,0:0:0:0:
256,192,52924,1,0,0:0:0:0:
256,192,53469,5,12,0:0:0:0:
256,192,53742,1,8,0:0:0:0:
256,192,53924,1,0,0:0:0:0:
256,192,54015,5,8,0:0:0:0:
256,192,54288,1,8,0:0:0:0:
256,192,54469,1,0,0:0:0:0:
256,192,54560,5,8,0:0:0:0:
256,192,54833,1,0,0:0:0:0:
256,192,55106,1,8,0:0:0:0:
256,192,55651,5,8,0:0:0:0:
256,192,55924,1,0,0:0:0:0:
256,192,56197,5,8,0:0:0:0:
256,192,56378,1,8,0:0:0:0:
256,192,56470,1,8,0:0:0:0:
256,192,56742,5,0,0:0:0:0:
256,192,57015,1,8,0:0:0:0:
256,192,57288,1,0,0:0:0:0:
256,192,57833,5,0,0:0:0:0:
256,192,58106,1,8,0:0:0:0:
256,192,58288,1,8,0:0:0:0:
256,192,58379,5,0,0:0:0:0:
256,192,58652,1,8,0:0:0:0:
256,192,58833,1,8,0:0:0:0:
256,192,58924,5,0,0:0:0:0:
256,192,59197,1,8,0:0:0:0:
256,192,59469,1,0,0:0:0:0:
256,192,60015,5,8,0:0:0:0:
256,192,60288,1,8,0:0:0:0:
256,192,60469,1,8,0:0:0:0:
256,192,60561,5,8,0:0:0:0:
256,192,60834,1,0,0:0:0:0:
256,192,61014,1,0,0:0:0:0:
256,192,61106,5,0,0:0:0:0:
256,192,61379,1,0,0:0:0:0:
256,192,61652,1,8,0:0:0:0:
256,192,62196,1,0,0:0:0:0:
256,192,62741,1,0,0:0:0:0:
256,192,63287,1,0,0:0:0:0:
256,192,63560,1,0,0:0:0:0:
256,192,63832,1,0,0:0:0:0:
256,192,64378,5,12,0:0:0:0:
256,192,64650,1,8,0:0:0:0:
256,192,64833,1,0,0:0:0:0:
256,192,65105,1,8,0:0:0:0:
256,192,65378,1,0,0:0:0:0:
256,192,66014,1,12,0:0:0:0:
256,192,66287,1,12,0:0:0:0:
256,192,66560,5,12,0:0:0:0:
256,192,66832,1,8,0:0:0:0:
256,192,67015,1,0,0:0:0:0:
256,192,67287,1,8,0:0:0:0:
256,192,67560,1,0,0:0:0:0:
256,192,68196,1,4,0:0:0:0:
256,192,68469,1,4,0:0:0:0:
256,192,68741,5,4,0:0:0:0:
256,192,69286,1,8,0:0:0:0:
256,192,69832,1,0,0:0:0:0:
256,192,70105,1,8,0:0:0:0:
256,192,70377,1,0,0:0:0:0:
256,192,70923,1,8,0:0:0:0:
256,192,71468,1,8,0:0:0:0:
256,192,72014,1,8,0:0:0:0:
256,192,72286,1,8,0:0:0:0:
256,192,72559,1,0,0:0:0:0:
256,192,73105,1,8,0:0:0:0:
256,192,73650,1,8,0:0:0:0:
256,192,74196,1,0,0:0:0:0:
224,192,74468,1,8,0:0:0:0:
224,192,74741,1,0,0:0:0:0:
256,192,75286,1,0,0:0:0:0:
256,192,75832,1,0,0:0:0:0:
256,192,76377,1,8,0:0:0:0:
256,192,76650,1,0,0:0:0:0:
256,192,76923,1,8,0:0:0:0:
256,192,77469,5,4,0:0:0:0:
256,192,77741,1,8,0:0:0:0:
256,192,77923,1,8,0:0:0:0:
256,192,78014,1,0,0:0:0:0:
256,192,78287,1,8,0:0:0:0:
256,192,78559,1,0,0:0:0:0:
256,192,78832,1,8,0:0:0:0:
256,192,79014,1,8,0:0:0:0:
256,192,79105,1,0,0:0:0:0:
256,192,79378,1,8,0:0:0:0:
256,192,79650,1,0,0:0:0:0:
256,192,79923,1,8,0:0:0:0:
256,192,80105,1,8,0:0:0:0:
256,192,80196,1,0,0:0:0:0:
256,192,80469,1,8,0:0:0:0:
256,192,80741,1,0,0:0:0:0:
256,192,81014,1,8,0:0:0:0:
256,192,81196,1,8,0:0:0:0:
256,192,81287,1,0,0:0:0:0:
256,192,81469,1,0,0:0:0:0:
256,192,81560,1,8,0:0:0:0:
256,192,81832,1,0,0:0:0:0:
256,192,82105,1,12,0:0:0:0:
256,192,82378,1,0,0:0:0:0:
256,192,82651,1,12,0:0:0:0:
256,192,82923,1,0,0:0:0:0:
256,192,83196,1,12,0:0:0:0:
256,192,83469,1,0,0:0:0:0:
256,192,83742,1,12,0:0:0:0:
256,192,84014,1,8,0:0:0:0:
256,192,84287,1,12,0:0:0:0:
256,192,84741,1,8,0:0:0:0:
256,192,84832,1,8,0:0:0:0:
256,192,85014,1,8,0:0:0:0:
256,192,85378,1,8,0:0:0:0:
256,192,85650,1,0,0:0:0:0:
256,192,86196,5,4,0:0:0:0:
256,192,86469,1,8,0:0:0:0:
256,192,86650,1,0,0:0:0:0:
256,192,86923,1,0,0:0:0:0:
256,192,87287,5,12,0:0:0:0:
256,192,87559,1,0,0:0:0:0:
256,192,87741,1,8,0:0:0:0:
256,192,88014,1,8,0:0:0:0:
256,192,88378,5,4,0:0:0:0:
256,192,88651,1,12,0:0:0:0:
256,192,88923,1,4,0:0:0:0:
256,192,89196,1,4,0:0:0:0:
256,192,89469,1,12,0:0:0:0:
256,192,89742,1,4,0:0:0:0:
256,192,90014,1,12,0:0:0:0:
256,192,90560,5,12,0:0:0:0:
256,192,90833,1,0,0:0:0:0:
256,192,91015,1,0,0:0:0:0:
256,192,91106,5,8,0:0:0:0:
256,192,91379,1,0,0:0:0:0:
256,192,91560,1,0,0:0:0:0:
256,192,91651,5,8,0:0:0:0:
256,192,91924,1,0,0:0:0:0:
256,192,92197,1,8,0:0:0:0:
256,192,92742,5,8,0:0:0:0:
256,192,93015,1,0,0:0:0:0:
256,192,93288,5,8,0:0:0:0:
256,192,93470,1,0,0:0:0:0:
256,192,93561,1,8,0:0:0:0:
256,192,93833,5,8,0:0:0:0:
256,192,94106,1,0,0:0:0:0:
256,192,94379,1,8,0:0:0:0:
256,192,94924,5,8,0:0:0:0:
256,192,95197,1,0,0:0:0:0:
256,192,95379,1,0,0:0:0:0:
256,192,95470,5,8,0:0:0:0:
256,192,95743,1,0,0:0:0:0:
256,192,95924,1,0,0:0:0:0:
256,192,96015,5,8,0:0:0:0:
256,192,96288,1,0,0:0:0:0:
256,192,96561,1,8,0:0:0:0:
256,192,97106,5,8,0:0:0:0:
256,192,97379,1,0,0:0:0:0:
256,192,97652,5,8,0:0:0:0:
256,192,97834,1,0,0:0:0:0:
256,192,97925,1,8,0:0:0:0:
256,192,98197,5,8,0:0:0:0:
256,192,98470,1,8,0:0:0:0:
256,192,98743,1,0,0:0:0:0:
256,192,99288,5,12,0:0:0:0:
256,192,99561,1,8,0:0:0:0:
256,192,99743,1,0,0:0:0:0:
256,192,99834,5,8,0:0:0:0:
256,192,100107,1,8,0:0:0:0:
256,192,100288,1,0,0:0:0:0:
256,192,100379,5,8,0:0:0:0:
256,192,100560,1,8,0:0:0:0:
256,192,100652,1,0,0:0:0:0:
256,192,100925,1,8,0:0:0:0:
256,192,101470,5,8,0:0:0:0:
256,192,101743,1,0,0:0:0:0:
256,192,102016,5,8,0:0:0:0:
256,192,102197,1,8,0:0:0:0:
256,192,102289,1,8,0:0:0:0:
256,192,102561,5,0,0:0:0:0:
256,192,102834,1,8,0:0:0:0:
256,192,103107,1,0,0:0:0:0:
256,192,103652,5,0,0:0:0:0:
256,192,103925,1,8,0:0:0:0:
256,192,104107,1,8,0:0:0:0:
256,192,104198,5,0,0:0:0:0:
256,192,104471,1,8,0:0:0:0:
256,192,104652,1,8,0:0:0:0:
256,192,104743,5,0,0:0:0:0:
256,192,105016,1,8,0:0:0:0:
256,192,105288,1,0,0:0:0:0:
256,192,105834,5,8,0:0:0:0:
256,192,106107,1,8,0:0:0:0:
256,192,106288,1,8,0:0:0:0:
256,192,106380,5,8,0:0:0:0:
256,192,106653,1,0,0:0:0:0:
256,192,106833,1,0,0:0:0:0:
256,192,106925,5,0,0:0:0:0:
256,192,107198,1,0,0:0:0:0:
256,192,107471,1,8,0:0:0:0:
256,192,108015,1,0,0:0:0:0:
256,192,108560,1,0,0:0:0:0:
256,192,109106,1,0,0:0:0:0:
256,192,109379,1,0,0:0:0:0:
256,192,109651,1,0,0:0:0:0:
256,192,118923,5,8,0:0:0:0:
256,192,119468,1,8,0:0:0:0:
256,192,120014,1,8,0:0:0:0:
256,192,120286,1,0,0:0:0:0:
256,192,120559,1,8,0:0:0:0:
256,192,121104,1,8,0:0:0:0:
256,192,121377,1,0,0:0:0:0:
256,192,121650,1,8,0:0:0:0:
256,192,121923,1,8,0:0:0:0:
256,192,122195,1,8,0:0:0:0:
256,192,122468,1,0,0:0:0:0:
256,192,122741,1,8,0:0:0:0:
256,192,127651,5,8,0:0:0:0:
256,192,128196,1,8,0:0:0:0:
256,192,128742,1,8,0:0:0:0:
256,192,129014,1,0,0:0:0:0:
256,192,129287,1,8,0:0:0:0:
256,192,129832,1,8,0:0:0:0:
256,192,130105,1,0,0:0:0:0:
256,192,130378,1,8,0:0:0:0:
256,192,130651,1,8,0:0:0:0:
256,192,130923,1,8,0:0:0:0:
256,192,131196,1,0,0:0:0:0:
256,192,131469,1,8,0:0:0:0:
256,192,134196,5,8,0:0:0:0:
256,192,134469,1,0,0:0:0:0:
256,192,134741,1,8,0:0:0:0:
256,192,135014,1,0,0:0:0:0:
256,192,135287,1,8,0:0:0:0:
256,192,135559,1,8,0:0:0:0:
256,192,135832,1,8,0:0:0:0:
256,192,138560,5,8,0:0:0:0:
256,192,138833,1,0,0:0:0:0:
256,192,139105,1,8,0:0:0:0:
256,192,139378,1,0,0:0:0:0:
256,192,139651,1,8,0:0:0:0:
256,192,139923,1,8,0:0:0:0:
256,192,140196,1,8,0:0:0:0:
256,192,140469,1,8,0:0:0:0:
256,192,140741,5,12,0:0:0:0:
256,192,141287,1,8,0:0:0:0:
256,192,141832,1,0,0:0:0:0:
256,192,142105,1,8,0:0:0:0:
256,192,142287,1,0,0:0:0:0:
256,192,142923,1,8,0:0:0:0:
256,192,143196,1,0,0:0:0:0:
256,192,143469,1,8,0:0:0:0:
256,192,143651,1,8,0:0:0:0:
256,192,143923,1,0,0:0:0:0:
256,192,144287,1,0,0:0:0:0:
256,192,144560,1,8,0:0:0:0:
256,192,144832,1,8,0:0:0:0:
256,192,145105,1,0,0:0:0:0:
256,192,145651,1,8,0:0:0:0:
256,192,146105,1,0,0:0:0:0:
256,192,146469,1,8,0:0:0:0:
256,192,146741,1,0,0:0:0:0:
256,192,147287,1,0,0:0:0:0:
256,192,147560,1,8,0:0:0:0:
256,192,147833,1,0,0:0:0:0:
256,192,148015,1,0,0:0:0:0:
256,192,148287,1,8,0:0:0:0:
256,192,148651,1,8,0:0:0:0:
256,192,148924,1,0,0:0:0:0:
256,192,149196,1,0,0:0:0:0:
256,192,149469,1,8,0:0:0:0:
256,192,149741,1,8,0:0:0:0:
256,192,149923,1,0,0:0:0:0:
256,192,150014,1,8,0:0:0:0:
256,192,150287,1,8,0:0:0:0:
256,192,150469,1,8,0:0:0:0:
256,192,150560,1,8,0:0:0:0:
256,192,150832,1,8,0:0:0:0:
256,192,151014,1,0,0:0:0:0:
256,192,151105,1,8,0:0:0:0:
256,192,151378,1,8,0:0:0:0:
256,192,151651,1,0,0:0:0:0:
256,192,152196,1,0,0:0:0:0:
256,192,152741,1,8,0:0:0:0:
256,192,153287,1,8,0:0:0:0:
256,192,153832,5,4,0:0:0:0:
256,192,154105,1,8,0:0:0:0:
256,192,154286,1,0,0:0:0:0:
256,192,154559,1,0,0:0:0:0:
256,192,154923,5,12,0:0:0:0:
256,192,155195,1,0,0:0:0:0:
256,192,155377,1,8,0:0:0:0:
256,192,155650,1,8,0:0:0:0:
256,192,156014,5,4,0:0:0:0:
256,192,156287,1,12,0:0:0:0:
256,192,156559,1,4,0:0:0:0:
256,192,156832,1,4,0:0:0:0:
256,192,157105,1,12,0:0:0:0:
256,192,157378,1,4,0:0:0:0:
256,192,157650,1,12,0:0:0:0:
256,192,158196,5,12,0:0:0:0:
256,192,158742,5,12,0:0:0:0:
256,192,159287,5,12,0:0:0:0:
256,192,159560,1,4,0:0:0:0:
256,192,159833,1,12,0:0:0:0:
256,192,160378,5,12,0:0:0:0:
256,192,160924,5,12,0:0:0:0:
256,192,161469,5,12,0:0:0:0:
256,192,161742,1,4,0:0:0:0:
256,192,162015,1,12,0:0:0:0:
256,192,162560,5,12,0:0:0:0:
256,192,163106,5,12,0:0:0:0:
256,192,163651,5,12,0:0:0:0:
256,192,163924,1,4,0:0:0:0:
256,192,164197,1,12,0:0:0:0:
256,192,164742,5,12,0:0:0:0:
256,192,165288,5,12,0:0:0:0:
256,192,165833,5,4,0:0:0:0:
256,192,166106,1,12,0:0:0:0:
256,192,166379,1,12,0:0:0:0:
256,192,166924,5,12,0:0:0:0:
256,192,167197,1,8,0:0:0:0:
256,192,167379,1,0,0:0:0:0:
256,192,167470,5,8,0:0:0:0:
256,192,167743,1,8,0:0:0:0:
256,192,167924,1,0,0:0:0:0:
256,192,168015,5,8,0:0:0:0:
256,192,168196,1,8,0:0:0:0:
256,192,168288,1,0,0:0:0:0:
256,192,168561,1,8,0:0:0:0:
256,192,169106,5,8,0:0:0:0:
256,192,169379,1,0,0:0:0:0:
256,192,169652,5,8,0:0:0:0:
256,192,169833,1,8,0:0:0:0:
256,192,169925,1,8,0:0:0:0:
256,192,170197,5,0,0:0:0:0:
256,192,170470,1,8,0:0:0:0:
256,192,170743,1,0,0:0:0:0:
256,192,171288,5,0,0:0:0:0:
256,192,171561,1,8,0:0:0:0:
256,192,171743,1,8,0:0:0:0:
256,192,171834,5,0,0:0:0:0:
256,192,172107,1,8,0:0:0:0:
256,192,172288,1,8,0:0:0:0:
256,192,172379,5,0,0:0:0:0:
256,192,172652,1,8,0:0:0:0:
256,192,172924,1,0,0:0:0:0:
256,192,173470,5,8,0:0:0:0:
256,192,173743,1,8,0:0:0:0:
256,192,173924,1,8,0:0:0:0:
256,192,174016,5,8,0:0:0:0:
256,192,174289,1,0,0:0:0:0:
256,192,174469,1,0,0:0:0:0:
256,192,174561,5,0,0:0:0:0:
256,192,174834,1,0,0:0:0:0:
256,192,175107,1,8,0:0:0:0:
256,192,175651,1,0,0:0:0:0:
256,192,176196,1,0,0:0:0:0:
256,192,176742,1,0,0:0:0:0:
256,192,177015,1,0,0:0:0:0:
256,192,177287,1,0,0:0:0:0:
256,192,177832,1,0,0:0:0:0:
256,192,178378,1,0,0:0:0:0:
256,192,178924,1,0,0:0:0:0:
256,192,179197,1,0,0:0:0:0:
256,192,179469,1,0,0:0:0:0:
256,192,180014,5,12,0:0:0:0:
256,192,180286,1,8,0:0:0:0:
256,192,180469,1,0,0:0:0:0:
256,192,180741,1,8,0:0:0:0:
256,192,181014,1,0,0:0:0:0:
256,192,181650,1,12,0:0:0:0:
256,192,181923,1,12,0:0:0:0:
256,192,182196,5,4,0:0:0:0:
256,192,182468,1,8,0:0:0:0:
256,192,182651,1,0,0:0:0:0:
256,192,182923,1,8,0:0:0:0:
256,192,183196,1,0,0:0:0:0:
256,192,183832,1,4,0:0:0:0:
256,192,184105,1,4,0:0:0:0:
256,192,184377,5,12,0:0:0:0:
256,192,184649,1,8,0:0:0:0:
256,192,184832,1,0,0:0:0:0:
256,192,185104,1,8,0:0:0:0:
256,192,185377,1,0,0:0:0:0:
256,192,186013,1,12,0:0:0:0:
256,192,186286,1,12,0:0:0:0:
256,192,186559,5,12,0:0:0:0:
256,192,186831,1,8,0:0:0:0:
256,192,187014,1,0,0:0:0:0:
256,192,187286,1,8,0:0:0:0:
256,192,187559,1,0,0:0:0:0:
256,192,188195,1,4,0:0:0:0:
256,192,188468,1,4,0:0:0:0:
256,192,188741,1,4,0:0:0:0:
256,192,190378,1,8,0:0:0:0:
256,192,190560,1,0,0:0:0:0:
256,192,190651,1,8,0:0:0:0:
256,192,190832,1,4,0:0:0:0:
