osu file format v14

[General]
AudioFilename: audio.mp3
AudioLeadIn: 0
PreviewTime: -1
Countdown: 1
SampleSet: Normal
StackLeniency: 0.4
Mode: 3
LetterboxInBreaks: 0
SpecialStyle: 0
WidescreenStoryboard: 0

[Editor]
DistanceSpacing: 1
BeatDivisor: 4
GridSize: 4
TimelineZoom: 1.7

[Metadata]
Title:Dance! VR dance!
TitleUnicode:Dance! VR dance!
Artist:Kurage P(Otomachi Una)
ArtistUnicode:Kurage P(Otomachi Una)
Creator:Tangerine C
Version:Dancing in the VR world!
Source:
Tags:Tangerine C
BeatmapID:1493878
BeatmapSetID:706481

[Difficulty]
HPDrainRate:7
CircleSize:4
OverallDifficulty:5
ApproachRate:5
SliderMultiplier:1.4
SliderTickRate:1

[Events]
//Background and Video events
0,0,"Screenshot_20171218-001540.jpg",0,0
//Break Periods
2,121464,126814
//Storyboard Layer 0 (Background)
//Storyboard Layer 1 (Fail)
//Storyboard Layer 2 (Pass)
//Storyboard Layer 3 (Foreground)
//Storyboard Sound Samples

[TimingPoints]
-986,375,4,1,0,0,1,0
44014,-125,4,1,0,0,0,0
48514,-66.6666666666667,4,1,0,0,0,0
48795,-200,4,1,0,0,0,0
48889,-66.6666666666667,4,1,0,0,0,0
49170,-200,4,1,0,0,0,0
49264,-66.6666666666667,4,1,0,0,0,0
49545,-200,4,1,0,0,0,0
49639,-111.111111111111,4,1,0,0,0,0
53014,-100,4,1,0,0,0,0
54514,-66.6666666666667,4,1,0,0,0,0
54701,-200,4,1,0,0,0,0
54795,-66.6666666666667,4,1,0,0,0,0
54982,-200,4,1,0,0,0,0
55076,-66.6666666666667,4,1,0,0,0,0
55170,-200,4,1,0,0,0,0
55264,-100,4,1,0,0,0,0
68014,-57.1428571428571,4,1,0,0,0,0
68295,-200,4,1,0,0,0,0
68389,-57.1428571428571,4,1,0,0,0,0
68482,-200,4,1,0,0,0,0
68764,-57.1428571428571,4,1,0,0,0,0
69045,-200,4,1,0,0,0,0
69139,-57.1428571428571,4,1,0,0,0,0
69232,-100,4,1,0,0,0,0
71014,-57.1428571428571,4,1,0,0,0,0
71295,-200,4,1,0,0,0,0
71764,-57.1428571428571,4,1,0,0,0,0
72045,-200,4,1,0,0,0,0
72232,-100,4,1,0,0,0,0
73264,-66.6666666666667,4,1,0,0,0,0
73545,-200,4,1,0,0,0,0
73639,-66.6666666666667,4,1,0,0,0,0
74014,-57.1428571428571,4,1,0,0,0,0
74295,-200,4,1,0,0,0,0
74764,-57.1428571428571,4,1,0,0,0,0
75045,-200,4,1,0,0,0,0
75232,-100,4,1,0,0,0,0
98014,-125,4,1,0,0,0,0
102514,-66.6666666666667,4,1,0,0,0,0
102795,-200,4,1,0,0,0,0
102889,-66.6666666666667,4,1,0,0,0,0
103170,-200,4,1,0,0,0,0
103264,-66.6666666666667,4,1,0,0,0,0
103545,-200,4,1,0,0,0,0
103639,-100,4,1,0,0,0,0
108514,-66.6666666666667,4,1,0,0,0,0
108701,-100,4,1,0,0,0,0
108795,-66.6666666666667,4,1,0,0,0,0
108982,-100,4,1,0,0,0,0
109076,-50,4,1,0,0,0,0
109264,-100,4,1,0,0,0,0
159514,-66.6666666666667,4,1,0,0,0,0
159795,-200,4,1,0,0,0,0
159889,-66.6666666666667,4,1,0,0,0,0
160170,-200,4,1,0,0,0,0
160264,-66.6666666666667,4,1,0,0,0,0
160451,-200,4,1,0,0,0,0
160545,-66.6666666666667,4,1,0,0,0,0
160730,-100,4,1,0,0,0,0
171514,-66.6666666666667,4,1,0,0,0,0
171795,-200,4,1,0,0,0,0
171889,-66.6666666666667,4,1,0,0,0,0
172170,-200,4,1,0,0,0,0
172264,-66.6666666666667,4,1,0,0,0,0
172451,-200,4,1,0,0,0,0
172545,-66.6666666666667,4,1,0,0,0,0
172732,-100,4,1,0,0,0,0
174514,-57.1428571428571,4,1,0,0,0,0
174795,-100,4,1,0,0,0,0
175264,-57.1428571428571,4,1,0,0,0,0
175545,-200,4,1,0,0,0,0
175826,-100,4,1,0,0,0,0
177514,-57.1428571428571,4,1,0,0,0,0
177795,-200,4,1,0,0,0,0
178264,-57.1428571428571,4,1,0,0,0,0
178545,-200,4,1,0,0,0,0
178639,-100,4,1,0,0,0,0
179764,-66.6666666666667,4,1,0,0,0,0
180045,-200,4,1,0,0,0,0
180139,-66.6666666666667,4,1,0,0,0,0
180420,-100,4,1,0,0,0,0
180514,-50,4,1,0,0,0,0
180795,-200,4,1,0,0,0,0
180889,-100,4,1,0,0,0,0
181264,-50,4,1,0,0,0,0
181545,-200,4,1,0,0,0,0
181639,-100,4,1,0,0,0,0

[HitObjects]
448,192,5014,5,0,0:0:0:0:
320,192,5107,1,0,0:0:0:0:
64,192,5107,1,0,0:0:0:0:
192,192,5201,1,0,0:0:0:0:
64,192,5295,1,0,0:0:0:0:
448,192,5295,1,0,0:0:0:0:
192,192,5389,1,0,0:0:0:0:
448,192,5576,1,0,0:0:0:0:
320,192,5670,1,0,0:0:0:0:
192,192,5857,1,0,0:0:0:0:
64,192,5951,1,0,0:0:0:0:
64,192,6139,1,0,0:0:0:0:
320,192,6139,1,0,0:0:0:0:
192,192,6139,1,0,0:0:0:0:
448,192,6139,1,0,0:0:0:0:
448,192,6514,1,0,0:0:0:0:
192,192,6514,1,0,0:0:0:0:
64,192,6607,1,0,0:0:0:0:
320,192,6607,1,0,0:0:0:0:
448,192,6701,1,0,0:0:0:0:
192,192,6701,1,0,0:0:0:0:
64,192,6795,1,0,0:0:0:0:
320,192,6795,1,0,0:0:0:0:
448,192,6889,1,0,0:0:0:0:
192,192,6889,1,0,0:0:0:0:
64,192,7076,1,0,0:0:0:0:
320,192,7076,1,0,0:0:0:0:
448,192,7170,1,0,0:0:0:0:
192,192,7170,1,0,0:0:0:0:
320,192,7357,1,0,0:0:0:0:
64,192,7357,1,0,0:0:0:0:
448,192,7451,1,0,0:0:0:0:
192,192,7451,1,0,0:0:0:0:
192,192,7639,128,0,7826:0:0:0:0:
320,192,7639,128,0,7826:0:0:0:0:
64,192,8014,1,0,0:0:0:0:
320,192,8014,1,0,0:0:0:0:
448,192,8107,1,0,0:0:0:0:
64,192,8201,1,0,0:0:0:0:
320,192,8201,1,0,0:0:0:0:
192,192,8295,1,0,0:0:0:0:
320,192,8389,1,0,0:0:0:0:
448,192,8389,1,0,0:0:0:0:
64,192,8389,1,0,0:0:0:0:
448,192,8764,1,0,0:0:0:0:
192,192,8764,1,0,0:0:0:0:
320,192,8951,1,0,0:0:0:0:
64,192,8951,1,0,0:0:0:0:
448,192,9045,1,0,0:0:0:0:
192,192,9045,1,0,0:0:0:0:
192,192,9326,1,0,0:0:0:0:
320,192,9326,1,0,0:0:0:0:
64,192,9326,1,0,0:0:0:0:
448,192,9326,1,0,0:0:0:0:
448,192,9701,1,0,0:0:0:0:
192,192,9701,1,0,0:0:0:0:
320,192,9795,1,0,0:0:0:0:
192,192,9889,1,0,0:0:0:0:
64,192,10076,1,0,0:0:0:0:
192,192,10170,1,0,0:0:0:0:
320,192,10264,1,0,0:0:0:0:
448,192,10264,128,0,10545:0:0:0:0:
320,192,10545,1,0,0:0:0:0:
64,192,10545,1,0,0:0:0:0:
64,192,10732,1,0,0:0:0:0:
192,192,10732,1,0,0:0:0:0:
64,192,10826,1,0,0:0:0:0:
192,192,10826,1,0,0:0:0:0:
448,192,11014,1,0,0:0:0:0:
192,192,11107,1,0,0:0:0:0:
320,192,11201,1,0,0:0:0:0:
64,192,11295,1,0,0:0:0:0:
320,192,11389,1,0,0:0:0:0:
192,192,11389,1,0,0:0:0:0:
448,192,11764,1,0,0:0:0:0:
320,192,11764,1,0,0:0:0:0:
64,192,11951,1,0,0:0:0:0:
192,192,11951,1,0,0:0:0:0:
320,192,12045,1,0,0:0:0:0:
448,192,12045,1,0,0:0:0:0:
64,192,12045,1,0,0:0:0:0:
448,192,12326,1,0,0:0:0:0:
320,192,12326,1,0,0:0:0:0:
320,192,12701,1,0,0:0:0:0:
448,192,12701,1,0,0:0:0:0:
448,192,12795,1,0,0:0:0:0:
320,192,12795,1,0,0:0:0:0:
192,192,12889,1,0,0:0:0:0:
64,192,12889,1,0,0:0:0:0:
192,192,13076,1,0,0:0:0:0:
64,192,13076,1,0,0:0:0:0:
64,192,13170,1,0,0:0:0:0:
192,192,13170,1,0,0:0:0:0:
320,192,13264,1,0,0:0:0:0:
448,192,13264,1,0,0:0:0:0:
64,192,13357,1,0,0:0:0:0:
192,192,13357,1,0,0:0:0:0:
192,192,13545,1,0,0:0:0:0:
320,192,13545,1,0,0:0:0:0:
192,192,13732,1,0,0:0:0:0:
320,192,13732,1,0,0:0:0:0:
320,192,13826,1,0,0:0:0:0:
192,192,13826,1,0,0:0:0:0:
64,192,14014,1,0,0:0:0:0:
192,192,14014,1,0,0:0:0:0:
448,192,14014,1,0,0:0:0:0:
320,192,14107,1,0,0:0:0:0:
64,192,14201,1,0,0:0:0:0:
448,192,14201,1,0,0:0:0:0:
320,192,14295,1,0,0:0:0:0:
64,192,14389,1,0,0:0:0:0:
192,192,14389,1,0,0:0:0:0:
448,192,14389,1,0,0:0:0:0:
64,192,14764,1,0,0:0:0:0:
192,192,14764,1,0,0:0:0:0:
448,192,14764,1,0,0:0:0:0:
320,192,14951,1,0,0:0:0:0:
192,192,14951,1,0,0:0:0:0:
448,192,15045,1,0,0:0:0:0:
192,192,15045,1,0,0:0:0:0:
320,192,15326,1,0,0:0:0:0:
192,192,15326,1,0,0:0:0:0:
64,192,15326,1,0,0:0:0:0:
192,192,15701,1,0,0:0:0:0:
64,192,15701,1,0,0:0:0:0:
320,192,15795,1,0,0:0:0:0:
448,192,15795,1,0,0:0:0:0:
320,192,15889,1,0,0:0:0:0:
448,192,15889,1,0,0:0:0:0:
448,192,16076,1,0,0:0:0:0:
320,192,16076,1,0,0:0:0:0:
64,192,16170,1,0,0:0:0:0:
192,192,16170,1,0,0:0:0:0:
64,192,16264,1,0,0:0:0:0:
192,192,16264,1,0,0:0:0:0:
320,192,16451,1,0,0:0:0:0:
448,192,16545,1,0,0:0:0:0:
192,192,16639,1,0,0:0:0:0:
64,192,16639,1,0,0:0:0:0:
320,192,16732,1,0,0:0:0:0:
320,192,16826,1,0,0:0:0:0:
448,192,17014,1,0,0:0:0:0:
64,192,17014,1,0,0:0:0:0:
320,192,17107,1,0,0:0:0:0:
448,192,17201,1,0,0:0:0:0:
192,192,17201,1,0,0:0:0:0:
320,192,17295,1,0,0:0:0:0:
64,192,17389,1,0,0:0:0:0:
448,192,17389,1,0,0:0:0:0:
320,192,17764,1,0,0:0:0:0:
192,192,17764,1,0,0:0:0:0:
64,192,17764,1,0,0:0:0:0:
320,192,17951,1,0,0:0:0:0:
448,192,18045,1,0,0:0:0:0:
64,192,18045,1,0,0:0:0:0:
192,192,18045,1,0,0:0:0:0:
320,192,18326,1,0,0:0:0:0:
448,192,18326,1,0,0:0:0:0:
192,192,18326,1,0,0:0:0:0:
320,192,18701,1,0,0:0:0:0:
64,192,18701,1,0,0:0:0:0:
192,192,18795,1,0,0:0:0:0:
448,192,18795,1,0,0:0:0:0:
320,192,18889,1,0,0:0:0:0:
64,192,18889,1,0,0:0:0:0:
448,192,19076,1,0,0:0:0:0:
192,192,19076,1,0,0:0:0:0:
64,192,19170,1,0,0:0:0:0:
320,192,19170,1,0,0:0:0:0:
448,192,19264,1,0,0:0:0:0:
192,192,19264,1,0,0:0:0:0:
64,192,19357,1,0,0:0:0:0:
320,192,19357,1,0,0:0:0:0:
64,192,19545,1,0,0:0:0:0:
192,192,19545,1,0,0:0:0:0:
320,192,19545,1,0,0:0:0:0:
320,192,19732,1,0,0:0:0:0:
448,192,19732,1,0,0:0:0:0:
192,192,19732,1,0,0:0:0:0:
192,192,19826,1,0,0:0:0:0:
320,192,19826,1,0,0:0:0:0:
448,192,19826,1,0,0:0:0:0:
64,192,20014,1,0,0:0:0:0:
448,192,20014,1,0,0:0:0:0:
320,192,20014,128,0,20389:0:0:0:0:
448,192,20389,1,0,0:0:0:0:
64,192,20389,1,0,0:0:0:0:
192,192,20576,1,0,0:0:0:0:
64,192,20576,1,0,0:0:0:0:
448,192,20764,1,0,0:0:0:0:
192,192,20764,1,0,0:0:0:0:
320,192,20764,1,0,0:0:0:0:
64,192,21045,1,0,0:0:0:0:
448,192,21045,1,0,0:0:0:0:
320,192,21232,1,0,0:0:0:0:
448,192,21232,1,0,0:0:0:0:
64,192,21232,1,0,0:0:0:0:
192,192,21326,1,0,0:0:0:0:
448,192,21326,1,0,0:0:0:0:
448,192,21701,128,0,21889:0:0:0:0:
64,192,21701,1,0,0:0:0:0:
192,192,21795,1,0,0:0:0:0:
320,192,21889,128,0,22076:0:0:0:0:
64,192,21889,1,0,0:0:0:0:
448,192,22076,128,0,22264:0:0:0:0:
64,192,22076,1,0,0:0:0:0:
192,192,22170,1,0,0:0:0:0:
320,192,22264,128,0,22451:0:0:0:0:
64,192,22264,1,0,0:0:0:0:
192,192,22451,128,0,22826:0:0:0:0:
64,192,22451,1,0,0:0:0:0:
64,192,22826,1,0,0:0:0:0:
448,192,22826,1,0,0:0:0:0:
448,192,23014,128,0,23295:0:0:0:0:
64,192,23014,128,0,23295:0:0:0:0:
192,192,23295,128,0,23389:0:0:0:0:
320,192,23295,128,0,23389:0:0:0:0:
64,192,23389,128,0,23670:0:0:0:0:
448,192,23389,128,0,23670:0:0:0:0:
64,192,24326,1,0,0:0:0:0:
448,192,24326,128,0,24514:0:0:0:0:
320,192,24326,1,0,0:0:0:0:
320,192,24514,128,0,24795:0:0:0:0:
192,192,24514,1,0,0:0:0:0:
64,192,24795,1,0,0:0:0:0:
448,192,24795,128,0,25076:0:0:0:0:
192,192,24795,1,0,0:0:0:0:
192,192,25076,1,0,0:0:0:0:
320,192,25076,128,0,25451:0:0:0:0:
192,192,25264,1,0,0:0:0:0:
448,192,25264,1,0,0:0:0:0:
64,192,25451,1,0,0:0:0:0:
448,192,25451,128,0,25826:0:0:0:0:
192,192,25639,1,0,0:0:0:0:
320,192,25639,1,0,0:0:0:0:
64,192,25826,1,0,0:0:0:0:
192,192,26014,1,0,0:0:0:0:
320,192,26014,1,0,0:0:0:0:
192,192,26295,1,0,0:0:0:0:
448,192,26295,1,0,0:0:0:0:
320,192,26295,1,0,0:0:0:0:
192,192,26576,1,0,0:0:0:0:
64,192,26576,1,0,0:0:0:0:
448,192,26576,1,0,0:0:0:0:
192,192,26857,1,0,0:0:0:0:
320,192,26951,1,0,0:0:0:0:
64,192,26951,1,0,0:0:0:0:
64,192,27326,128,0,27514:0:0:0:0:
320,192,27326,128,0,27514:0:0:0:0:
192,192,27514,128,0,27795:0:0:0:0:
448,192,27514,128,0,27795:0:0:0:0:
320,192,27795,1,0,0:0:0:0:
64,192,28076,1,0,0:0:0:0:
192,192,28076,1,0,0:0:0:0:
448,192,28076,1,0,0:0:0:0:
320,192,28451,1,0,0:0:0:0:
192,192,28451,1,0,0:0:0:0:
448,192,28451,1,0,0:0:0:0:
320,192,28826,1,0,0:0:0:0:
64,192,28826,1,0,0:0:0:0:
192,192,28826,1,0,0:0:0:0:
192,192,29014,1,0,0:0:0:0:
320,192,29014,1,0,0:0:0:0:
192,192,29201,1,0,0:0:0:0:
448,192,29201,1,0,0:0:0:0:
448,192,29389,1,0,0:0:0:0:
320,192,29389,1,0,0:0:0:0:
64,192,29389,1,0,0:0:0:0:
320,192,29576,1,0,0:0:0:0:
448,192,29576,1,0,0:0:0:0:
192,192,29764,1,0,0:0:0:0:
64,192,29764,1,0,0:0:0:0:
192,192,30045,128,0,30701:0:0:0:0:
320,192,30045,128,0,30701:0:0:0:0:
64,192,30139,1,0,0:0:0:0:
448,192,30139,1,0,0:0:0:0:
448,192,30326,1,0,0:0:0:0:
64,192,30326,1,0,0:0:0:0:
448,192,30701,1,0,0:0:0:0:
64,192,30701,1,0,0:0:0:0:
192,192,30889,1,0,0:0:0:0:
320,192,30889,1,0,0:0:0:0:
320,192,31264,1,0,0:0:0:0:
64,192,31264,1,0,0:0:0:0:
448,192,31264,1,0,0:0:0:0:
192,192,31451,1,0,0:0:0:0:
320,192,31451,1,0,0:0:0:0:
448,192,31639,1,0,0:0:0:0:
64,192,31639,1,0,0:0:0:0:
320,192,31826,1,0,0:0:0:0:
448,192,31826,1,0,0:0:0:0:
192,192,31826,1,0,0:0:0:0:
320,192,32014,1,0,0:0:0:0:
64,192,32014,1,0,0:0:0:0:
448,192,32014,1,0,0:0:0:0:
448,192,32295,1,0,0:0:0:0:
320,192,32295,1,0,0:0:0:0:
320,192,32389,1,0,0:0:0:0:
64,192,32389,1,0,0:0:0:0:
448,192,32389,1,0,0:0:0:0:
320,192,32764,1,0,0:0:0:0:
64,192,32764,1,0,0:0:0:0:
192,192,32764,1,0,0:0:0:0:
192,192,33045,1,0,0:0:0:0:
320,192,33045,1,0,0:0:0:0:
448,192,33045,1,0,0:0:0:0:
320,192,33326,1,0,0:0:0:0:
64,192,33326,1,0,0:0:0:0:
448,192,33326,1,0,0:0:0:0:
192,192,33701,128,0,33889:0:0:0:0:
448,192,33701,128,0,33889:0:0:0:0:
64,192,33889,128,0,34076:0:0:0:0:
320,192,33889,128,0,34076:0:0:0:0:
192,192,34076,128,0,34264:0:0:0:0:
320,192,34264,1,0,0:0:0:0:
448,192,34264,128,0,34451:0:0:0:0:
192,192,34451,1,0,0:0:0:0:
64,192,34451,128,0,34826:0:0:0:0:
320,192,34451,1,0,0:0:0:0:
320,192,34826,1,0,0:0:0:0:
64,192,35014,1,0,0:0:0:0:
64,192,35264,1,0,0:0:0:0:
448,192,35264,1,0,0:0:0:0:
320,192,35264,1,0,0:0:0:0:
192,192,35389,1,0,0:0:0:0:
64,192,35389,1,0,0:0:0:0:
448,192,35389,1,0,0:0:0:0:
192,192,35764,1,0,0:0:0:0:
320,192,35764,1,0,0:0:0:0:
64,192,35764,1,0,0:0:0:0:
192,192,36045,1,0,0:0:0:0:
64,192,36045,1,0,0:0:0:0:
448,192,36045,1,0,0:0:0:0:
64,192,36326,128,0,36701:0:0:0:0:
448,192,36326,1,0,0:0:0:0:
192,192,36326,1,0,0:0:0:0:
320,192,36701,1,0,0:0:0:0:
448,192,36701,128,0,36889:0:0:0:0:
192,192,36889,1,0,0:0:0:0:
320,192,36889,128,0,37076:0:0:0:0:
192,192,37076,1,0,0:0:0:0:
64,192,37076,128,0,37264:0:0:0:0:
320,192,37264,1,0,0:0:0:0:
192,192,37264,128,0,37451:0:0:0:0:
320,192,37451,1,0,0:0:0:0:
64,192,37451,128,0,37639:0:0:0:0:
448,192,37639,1,0,0:0:0:0:
320,192,37639,128,0,37826:0:0:0:0:
448,192,37826,1,0,0:0:0:0:
192,192,38014,1,0,0:0:0:0:
64,192,38014,1,0,0:0:0:0:
320,192,38014,1,0,0:0:0:0:
320,192,38389,1,0,0:0:0:0:
448,192,38389,1,0,0:0:0:0:
320,192,38670,1,0,0:0:0:0:
64,192,38670,1,0,0:0:0:0:
448,192,38764,1,0,0:0:0:0:
192,192,38764,1,0,0:0:0:0:
320,192,39139,1,0,0:0:0:0:
192,192,39139,1,0,0:0:0:0:
64,192,39326,1,0,0:0:0:0:
448,192,39326,1,0,0:0:0:0:
64,192,39701,1,0,0:0:0:0:
320,192,39701,1,0,0:0:0:0:
320,192,40076,1,0,0:0:0:0:
192,192,40076,1,0,0:0:0:0:
448,192,40076,1,0,0:0:0:0:
448,192,40451,1,0,0:0:0:0:
192,192,40451,1,0,0:0:0:0:
64,192,40451,1,0,0:0:0:0:
320,192,40639,1,0,0:0:0:0:
192,192,40826,1,0,0:0:0:0:
448,192,40826,1,0,0:0:0:0:
64,192,40826,1,0,0:0:0:0:
320,192,41014,1,0,0:0:0:0:
448,192,41014,1,0,0:0:0:0:
64,192,41201,1,0,0:0:0:0:
448,192,41201,1,0,0:0:0:0:
192,192,41389,1,0,0:0:0:0:
320,192,41389,1,0,0:0:0:0:
320,192,41576,1,0,0:0:0:0:
64,192,41576,1,0,0:0:0:0:
448,192,41764,1,0,0:0:0:0:
320,192,41764,1,0,0:0:0:0:
64,192,41951,1,0,0:0:0:0:
192,192,41951,1,0,0:0:0:0:
320,192,41951,1,0,0:0:0:0:
192,192,42139,1,0,0:0:0:0:
448,192,42139,1,0,0:0:0:0:
64,192,42326,1,0,0:0:0:0:
320,192,42326,1,0,0:0:0:0:
320,192,42514,1,0,0:0:0:0:
448,192,42514,128,0,42795:0:0:0:0:
192,192,42514,128,0,42795:0:0:0:0:
64,192,42795,128,0,43076:0:0:0:0:
320,192,43076,1,0,0:0:0:0:
448,192,43076,128,0,43264:0:0:0:0:
192,192,43264,1,0,0:0:0:0:
448,192,44014,5,0,0:0:0:0:
320,192,44014,1,0,0:0:0:0:
64,192,44014,128,0,45139:0:0:0:0:
320,192,44576,1,0,0:0:0:0:
192,192,44576,1,0,0:0:0:0:
448,192,44764,1,0,0:0:0:0:
192,192,44764,1,0,0:0:0:0:
320,192,44764,1,0,0:0:0:0:
448,192,45139,1,0,0:0:0:0:
192,192,45139,128,0,45326:0:0:0:0:
448,192,45326,1,0,0:0:0:0:
64,192,45326,128,0,45514:0:0:0:0:
448,192,45514,128,0,45889:0:0:0:0:
192,192,45701,1,0,0:0:0:0:
64,192,45701,1,0,0:0:0:0:
320,192,45889,128,0,46264:0:0:0:0:
192,192,45889,1,0,0:0:0:0:
64,192,46264,1,0,0:0:0:0:
448,192,46264,128,0,46639:0:0:0:0:
64,192,46826,1,0,0:0:0:0:
448,192,46826,128,0,47014:0:0:0:0:
64,192,47014,1,0,0:0:0:0:
192,192,47014,128,0,47389:0:0:0:0:
320,192,47014,1,0,0:0:0:0:
64,192,47389,1,0,0:0:0:0:
448,192,47389,1,0,0:0:0:0:
64,192,47764,1,0,0:0:0:0:
320,192,47764,1,0,0:0:0:0:
448,192,47764,1,0,0:0:0:0:
192,192,48139,1,0,0:0:0:0:
320,192,48139,1,0,0:0:0:0:
192,192,48514,1,0,0:0:0:0:
320,192,48514,1,0,0:0:0:0:
448,192,48514,1,0,0:0:0:0:
320,192,48889,1,0,0:0:0:0:
64,192,48889,1,0,0:0:0:0:
448,192,48889,1,0,0:0:0:0:
64,192,49264,1,0,0:0:0:0:
192,192,49264,1,0,0:0:0:0:
320,192,49264,1,0,0:0:0:0:
192,192,49639,1,0,0:0:0:0:
320,192,49639,1,0,0:0:0:0:
448,192,49639,1,0,0:0:0:0:
64,192,50014,1,0,0:0:0:0:
448,192,50014,1,0,0:0:0:0:
320,192,50014,1,0,0:0:0:0:
448,192,50576,1,0,0:0:0:0:
64,192,50576,1,0,0:0:0:0:
320,192,50576,1,0,0:0:0:0:
448,192,50764,1,0,0:0:0:0:
64,192,50764,1,0,0:0:0:0:
192,192,50764,1,0,0:0:0:0:
192,192,51139,1,0,0:0:0:0:
320,192,51139,1,0,0:0:0:0:
448,192,51514,1,0,0:0:0:0:
64,192,51514,1,0,0:0:0:0:
448,192,51889,1,0,0:0:0:0:
192,192,51889,1,0,0:0:0:0:
320,192,52264,1,0,0:0:0:0:
64,192,52264,1,0,0:0:0:0:
192,192,52264,1,0,0:0:0:0:
192,192,52639,1,0,0:0:0:0:
320,192,52639,1,0,0:0:0:0:
448,192,52639,1,0,0:0:0:0:
448,192,53014,1,0,0:0:0:0:
192,192,53014,1,0,0:0:0:0:
64,192,53014,1,0,0:0:0:0:
320,192,53389,1,0,0:0:0:0:
64,192,53389,1,0,0:0:0:0:
192,192,53389,1,0,0:0:0:0:
448,192,53764,1,0,0:0:0:0:
192,192,53764,1,0,0:0:0:0:
64,192,53764,1,0,0:0:0:0:
448,192,54139,1,0,0:0:0:0:
64,192,54139,1,0,0:0:0:0:
320,192,54139,1,0,0:0:0:0:
448,192,54514,1,0,0:0:0:0:
320,192,54514,1,0,0:0:0:0:
192,192,54514,1,0,0:0:0:0:
320,192,54795,1,0,0:0:0:0:
64,192,54795,1,0,0:0:0:0:
448,192,54795,1,0,0:0:0:0:
448,192,55076,1,0,0:0:0:0:
192,192,55076,1,0,0:0:0:0:
64,192,55076,1,0,0:0:0:0:
64,192,55264,1,0,0:0:0:0:
192,192,55264,1,0,0:0:0:0:
320,192,55264,1,0,0:0:0:0:
64,192,55639,1,0,0:0:0:0:
192,192,55732,1,0,0:0:0:0:
448,192,55826,1,0,0:0:0:0:
320,192,55920,1,0,0:0:0:0:
64,192,56014,1,0,0:0:0:0:
448,192,56014,1,0,0:0:0:0:
192,192,56201,1,0,0:0:0:0:
320,192,56201,1,0,0:0:0:0:
448,192,56389,1,0,0:0:0:0:
320,192,56389,1,0,0:0:0:0:
64,192,56389,1,0,0:0:0:0:
192,192,56576,1,0,0:0:0:0:
448,192,56576,1,0,0:0:0:0:
448,192,56764,1,0,0:0:0:0:
320,192,56764,1,0,0:0:0:0:
64,192,56764,1,0,0:0:0:0:
64,192,57045,1,0,0:0:0:0:
320,192,57045,1,0,0:0:0:0:
192,192,57045,1,0,0:0:0:0:
64,192,57326,1,0,0:0:0:0:
192,192,57326,128,0,57701:0:0:0:0:
320,192,57326,128,0,57701:0:0:0:0:
448,192,57420,1,0,0:0:0:0:
64,192,57514,1,0,0:0:0:0:
448,192,57607,1,0,0:0:0:0:
64,192,57701,1,0,0:0:0:0:
320,192,58076,1,0,0:0:0:0:
192,192,58076,1,0,0:0:0:0:
192,192,58264,1,0,0:0:0:0:
64,192,58264,1,0,0:0:0:0:
320,192,58451,1,0,0:0:0:0:
448,192,58451,1,0,0:0:0:0:
192,192,58639,1,0,0:0:0:0:
448,192,58639,1,0,0:0:0:0:
320,192,58826,1,0,0:0:0:0:
64,192,58826,1,0,0:0:0:0:
192,192,59014,1,0,0:0:0:0:
320,192,59014,1,0,0:0:0:0:
320,192,59389,1,0,0:0:0:0:
448,192,59389,1,0,0:0:0:0:
192,192,59389,1,0,0:0:0:0:
320,192,59576,1,0,0:0:0:0:
192,192,59576,1,0,0:0:0:0:
64,192,59764,1,0,0:0:0:0:
192,192,59764,1,0,0:0:0:0:
64,192,60045,1,0,0:0:0:0:
320,192,60045,1,0,0:0:0:0:
64,192,60326,1,0,0:0:0:0:
448,192,60326,1,0,0:0:0:0:
320,192,60514,1,0,0:0:0:0:
192,192,60514,1,0,0:0:0:0:
448,192,60514,1,0,0:0:0:0:
192,192,60701,1,0,0:0:0:0:
320,192,60701,1,0,0:0:0:0:
64,192,60701,1,0,0:0:0:0:
448,192,60889,1,0,0:0:0:0:
192,192,60889,1,0,0:0:0:0:
320,192,60889,1,0,0:0:0:0:
320,192,61076,1,0,0:0:0:0:
64,192,61076,1,0,0:0:0:0:
448,192,61076,1,0,0:0:0:0:
64,192,61264,1,0,0:0:0:0:
448,192,61264,1,0,0:0:0:0:
192,192,61264,1,0,0:0:0:0:
192,192,61451,1,0,0:0:0:0:
320,192,61451,1,0,0:0:0:0:
64,192,61451,1,0,0:0:0:0:
64,192,61639,128,0,62014:0:0:0:0:
448,192,61639,128,0,62014:0:0:0:0:
192,192,62014,1,0,0:0:0:0:
320,192,62014,1,0,0:0:0:0:
448,192,62201,1,0,0:0:0:0:
64,192,62201,1,0,0:0:0:0:
192,192,62389,1,0,0:0:0:0:
448,192,62389,1,0,0:0:0:0:
192,192,62576,1,0,0:0:0:0:
64,192,62576,1,0,0:0:0:0:
320,192,62764,1,0,0:0:0:0:
448,192,62764,128,0,63045:0:0:0:0:
64,192,62764,1,0,0:0:0:0:
320,192,63045,1,0,0:0:0:0:
192,192,63045,1,0,0:0:0:0:
64,192,63326,128,0,63514:0:0:0:0:
320,192,63326,128,0,63514:0:0:0:0:
192,192,63514,1,0,0:0:0:0:
448,192,63514,1,0,0:0:0:0:
448,192,64076,1,0,0:0:0:0:
64,192,64076,1,0,0:0:0:0:
320,192,64451,1,0,0:0:0:0:
192,192,64451,1,0,0:0:0:0:
320,192,64639,1,0,0:0:0:0:
64,192,64639,1,0,0:0:0:0:
448,192,64639,1,0,0:0:0:0:
320,192,64826,1,0,0:0:0:0:
192,192,64826,1,0,0:0:0:0:
448,192,65014,1,0,0:0:0:0:
192,192,65014,1,0,0:0:0:0:
448,192,65389,128,0,65482:0:0:0:0:
192,192,65389,128,0,65482:0:0:0:0:
320,192,65482,1,0,0:0:0:0:
64,192,65482,1,0,0:0:0:0:
320,192,65764,1,0,0:0:0:0:
448,192,65764,1,0,0:0:0:0:
192,192,65764,1,0,0:0:0:0:
320,192,66045,1,0,0:0:0:0:
192,192,66045,1,0,0:0:0:0:
64,192,66045,1,0,0:0:0:0:
320,192,66326,1,0,0:0:0:0:
192,192,66326,1,0,0:0:0:0:
320,192,66701,1,0,0:0:0:0:
64,192,66701,1,0,0:0:0:0:
448,192,66701,1,0,0:0:0:0:
320,192,66889,1,0,0:0:0:0:
64,192,66889,1,0,0:0:0:0:
320,192,67264,1,0,0:0:0:0:
64,192,67264,1,0,0:0:0:0:
192,192,67357,1,0,0:0:0:0:
448,192,67357,1,0,0:0:0:0:
64,192,67451,1,0,0:0:0:0:
320,192,67451,1,0,0:0:0:0:
192,192,67545,1,0,0:0:0:0:
448,192,67545,1,0,0:0:0:0:
192,192,68014,128,0,68389:0:0:0:0:
320,192,68014,128,0,68389:0:0:0:0:
64,192,68014,1,0,0:0:0:0:
448,192,68014,1,0,0:0:0:0:
64,192,68389,1,0,0:0:0:0:
448,192,68389,1,0,0:0:0:0:
64,192,68764,128,0,69139:0:0:0:0:
448,192,68764,128,0,69139:0:0:0:0:
192,192,68764,1,0,0:0:0:0:
320,192,68764,1,0,0:0:0:0:
320,192,69139,1,0,0:0:0:0:
192,192,69139,1,0,0:0:0:0:
192,192,69514,1,0,0:0:0:0:
64,192,69514,1,0,0:0:0:0:
448,192,69514,1,0,0:0:0:0:
192,192,69701,1,0,0:0:0:0:
320,192,69701,1,0,0:0:0:0:
64,192,69701,1,0,0:0:0:0:
192,192,69889,1,0,0:0:0:0:
448,192,69889,1,0,0:0:0:0:
64,192,69889,1,0,0:0:0:0:
448,192,70264,1,0,0:0:0:0:
320,192,70264,1,0,0:0:0:0:
64,192,70264,1,0,0:0:0:0:
192,192,70451,1,0,0:0:0:0:
320,192,70451,1,0,0:0:0:0:
448,192,70451,1,0,0:0:0:0:
448,192,70639,1,0,0:0:0:0:
320,192,70639,1,0,0:0:0:0:
64,192,70639,1,0,0:0:0:0:
192,192,71014,128,0,71389:0:0:0:0:
320,192,71014,128,0,71389:0:0:0:0:
448,192,71014,1,0,0:0:0:0:
64,192,71014,1,0,0:0:0:0:
448,192,71389,1,0,0:0:0:0:
64,192,71389,1,0,0:0:0:0:
320,192,71764,1,0,0:0:0:0:
64,192,71764,128,0,72139:0:0:0:0:
192,192,71764,1,0,0:0:0:0:
448,192,71764,128,0,72139:0:0:0:0:
320,192,72139,1,0,0:0:0:0:
192,192,72139,1,0,0:0:0:0:
64,192,72326,1,0,0:0:0:0:
192,192,72326,1,0,0:0:0:0:
192,192,72514,1,0,0:0:0:0:
448,192,72514,1,0,0:0:0:0:
320,192,72514,1,0,0:0:0:0:
320,192,72795,1,0,0:0:0:0:
448,192,72795,1,0,0:0:0:0:
192,192,73076,1,0,0:0:0:0:
64,192,73076,1,0,0:0:0:0:
192,192,73264,1,0,0:0:0:0:
64,192,73264,1,0,0:0:0:0:
320,192,73264,1,0,0:0:0:0:
320,192,73639,1,0,0:0:0:0:
448,192,73639,1,0,0:0:0:0:
192,192,73639,1,0,0:0:0:0:
320,192,74014,1,0,0:0:0:0:
192,192,74014,128,0,74389:0:0:0:0:
448,192,74014,128,0,74389:0:0:0:0:
64,192,74014,1,0,0:0:0:0:
320,192,74389,1,0,0:0:0:0:
64,192,74389,1,0,0:0:0:0:
192,192,74764,1,0,0:0:0:0:
64,192,74764,128,0,75139:0:0:0:0:
320,192,74764,128,0,75139:0:0:0:0:
448,192,74764,1,0,0:0:0:0:
192,192,75139,1,0,0:0:0:0:
448,192,75139,1,0,0:0:0:0:
320,192,75514,1,0,0:0:0:0:
64,192,75514,1,0,0:0:0:0:
448,192,75514,1,0,0:0:0:0:
192,192,75701,1,0,0:0:0:0:
64,192,75701,1,0,0:0:0:0:
448,192,75701,1,0,0:0:0:0:
320,192,75889,1,0,0:0:0:0:
64,192,75889,1,0,0:0:0:0:
448,192,75889,1,0,0:0:0:0:
192,192,76264,1,0,0:0:0:0:
448,192,76264,1,0,0:0:0:0:
64,192,76264,1,0,0:0:0:0:
320,192,76451,1,0,0:0:0:0:
64,192,76451,1,0,0:0:0:0:
448,192,76451,1,0,0:0:0:0:
192,192,76639,1,0,0:0:0:0:
64,192,76639,1,0,0:0:0:0:
448,192,76639,1,0,0:0:0:0:
320,192,76826,1,0,0:0:0:0:
192,192,77014,1,0,0:0:0:0:
448,192,77014,1,0,0:0:0:0:
320,192,77389,1,0,0:0:0:0:
64,192,77389,1,0,0:0:0:0:
320,192,77764,1,0,0:0:0:0:
192,192,77764,1,0,0:0:0:0:
448,192,77764,1,0,0:0:0:0:
192,192,78045,1,0,0:0:0:0:
64,192,78045,1,0,0:0:0:0:
320,192,78326,1,0,0:0:0:0:
192,192,78326,1,0,0:0:0:0:
64,192,78701,1,0,0:0:0:0:
448,192,78701,1,0,0:0:0:0:
192,192,78889,1,0,0:0:0:0:
320,192,78889,1,0,0:0:0:0:
64,192,79076,1,0,0:0:0:0:
448,192,79076,1,0,0:0:0:0:
192,192,79076,1,0,0:0:0:0:
320,192,79076,1,0,0:0:0:0:
64,192,79264,128,0,79545:0:0:0:0:
448,192,79264,128,0,79545:0:0:0:0:
320,192,80014,1,0,0:0:0:0:
64,192,80014,1,0,0:0:0:0:
448,192,80107,1,0,0:0:0:0:
320,192,80201,1,0,0:0:0:0:
448,192,80295,1,0,0:0:0:0:
192,192,80389,1,0,0:0:0:0:
64,192,80389,1,0,0:0:0:0:
320,192,80482,1,0,0:0:0:0:
192,192,80576,1,0,0:0:0:0:
320,192,80670,1,0,0:0:0:0:
64,192,80764,1,0,0:0:0:0:
448,192,80764,1,0,0:0:0:0:
192,192,80764,1,0,0:0:0:0:
448,192,81045,1,0,0:0:0:0:
64,192,81045,1,0,0:0:0:0:
320,192,81045,1,0,0:0:0:0:
448,192,81326,1,0,0:0:0:0:
64,192,81326,1,0,0:0:0:0:
192,192,81326,1,0,0:0:0:0:
320,192,81701,1,0,0:0:0:0:
192,192,81701,1,0,0:0:0:0:
64,192,81795,1,0,0:0:0:0:
448,192,81795,1,0,0:0:0:0:
320,192,81889,1,0,0:0:0:0:
192,192,81889,1,0,0:0:0:0:
320,192,82076,1,0,0:0:0:0:
64,192,82076,1,0,0:0:0:0:
192,192,82170,1,0,0:0:0:0:
64,192,82264,1,0,0:0:0:0:
320,192,82357,1,0,0:0:0:0:
448,192,82357,1,0,0:0:0:0:
320,192,82545,1,0,0:0:0:0:
192,192,82545,1,0,0:0:0:0:
320,192,82732,1,0,0:0:0:0:
64,192,82732,1,0,0:0:0:0:
320,192,82826,1,0,0:0:0:0:
192,192,82826,1,0,0:0:0:0:
64,192,83014,1,0,0:0:0:0:
192,192,83107,1,0,0:0:0:0:
64,192,83201,1,0,0:0:0:0:
192,192,83295,1,0,0:0:0:0:
320,192,83389,1,0,0:0:0:0:
448,192,83389,1,0,0:0:0:0:
448,192,83764,1,0,0:0:0:0:
192,192,83764,1,0,0:0:0:0:
64,192,83951,1,0,0:0:0:0:
320,192,83951,1,0,0:0:0:0:
448,192,84045,1,0,0:0:0:0:
192,192,84045,1,0,0:0:0:0:
320,192,84326,1,0,0:0:0:0:
64,192,84326,1,0,0:0:0:0:
192,192,84326,1,0,0:0:0:0:
448,192,84326,1,0,0:0:0:0:
448,192,84701,1,0,0:0:0:0:
64,192,84701,1,0,0:0:0:0:
320,192,84795,1,0,0:0:0:0:
192,192,84795,1,0,0:0:0:0:
448,192,84889,1,0,0:0:0:0:
64,192,84889,1,0,0:0:0:0:
448,192,85076,1,0,0:0:0:0:
192,192,85076,1,0,0:0:0:0:
320,192,85170,1,0,0:0:0:0:
64,192,85170,1,0,0:0:0:0:
448,192,85264,1,0,0:0:0:0:
192,192,85264,1,0,0:0:0:0:
320,192,85357,1,0,0:0:0:0:
64,192,85357,1,0,0:0:0:0:
320,192,85545,1,0,0:0:0:0:
448,192,85545,1,0,0:0:0:0:
320,192,85732,1,0,0:0:0:0:
64,192,85732,1,0,0:0:0:0:
320,192,85826,1,0,0:0:0:0:
192,192,85826,128,0,86014:0:0:0:0:
64,192,85826,1,0,0:0:0:0:
320,192,86014,128,0,86295:0:0:0:0:
64,192,86295,1,0,0:0:0:0:
192,192,86295,1,0,0:0:0:0:
192,192,86389,1,0,0:0:0:0:
64,192,86389,1,0,0:0:0:0:
320,192,86764,1,0,0:0:0:0:
192,192,86764,1,0,0:0:0:0:
320,192,87045,1,0,0:0:0:0:
64,192,87045,1,0,0:0:0:0:
320,192,87326,1,0,0:0:0:0:
448,192,87326,1,0,0:0:0:0:
320,192,87701,128,0,87889:0:0:0:0:
64,192,87701,1,0,0:0:0:0:
192,192,87889,128,0,88076:0:0:0:0:
448,192,88076,128,0,88264:0:0:0:0:
320,192,88076,1,0,0:0:0:0:
64,192,88264,128,0,88451:0:0:0:0:
192,192,88264,1,0,0:0:0:0:
448,192,88451,1,0,0:0:0:0:
320,192,88451,1,0,0:0:0:0:
192,192,88639,1,0,0:0:0:0:
320,192,88639,1,0,0:0:0:0:
192,192,88826,1,0,0:0:0:0:
64,192,88826,1,0,0:0:0:0:
320,192,89014,1,0,0:0:0:0:
448,192,89014,1,0,0:0:0:0:
64,192,89295,1,0,0:0:0:0:
448,192,89295,1,0,0:0:0:0:
320,192,89389,1,0,0:0:0:0:
192,192,89389,1,0,0:0:0:0:
320,192,90139,1,0,0:0:0:0:
192,192,90139,1,0,0:0:0:0:
320,192,90326,1,0,0:0:0:0:
64,192,90326,1,0,0:0:0:0:
448,192,90326,128,0,90701:0:0:0:0:
320,192,90701,1,0,0:0:0:0:
64,192,90701,1,0,0:0:0:0:
192,192,90889,1,0,0:0:0:0:
320,192,91076,1,0,0:0:0:0:
64,192,91076,1,0,0:0:0:0:
448,192,91264,1,0,0:0:0:0:
320,192,91264,1,0,0:0:0:0:
448,192,91451,1,0,0:0:0:0:
192,192,91451,1,0,0:0:0:0:
64,192,91639,1,0,0:0:0:0:
320,192,91639,1,0,0:0:0:0:
448,192,91826,1,0,0:0:0:0:
320,192,91826,1,0,0:0:0:0:
192,192,92014,1,0,0:0:0:0:
64,192,92014,1,0,0:0:0:0:
448,192,92014,128,0,92389:0:0:0:0:
320,192,92389,1,0,0:0:0:0:
192,192,92389,1,0,0:0:0:0:
64,192,92389,1,0,0:0:0:0:
320,192,92764,1,0,0:0:0:0:
64,192,92764,1,0,0:0:0:0:
192,192,92764,1,0,0:0:0:0:
320,192,93045,1,0,0:0:0:0:
192,192,93045,1,0,0:0:0:0:
448,192,93045,1,0,0:0:0:0:
320,192,93326,1,0,0:0:0:0:
448,192,93326,1,0,0:0:0:0:
192,192,93326,1,0,0:0:0:0:
320,192,93701,1,0,0:0:0:0:
64,192,93701,1,0,0:0:0:0:
192,192,94076,1,0,0:0:0:0:
64,192,94076,1,0,0:0:0:0:
320,192,94451,1,0,0:0:0:0:
448,192,94451,1,0,0:0:0:0:
320,192,94639,1,0,0:0:0:0:
192,192,94639,1,0,0:0:0:0:
64,192,94826,1,0,0:0:0:0:
448,192,94826,1,0,0:0:0:0:
448,192,95014,1,0,0:0:0:0:
192,192,95014,1,0,0:0:0:0:
320,192,95201,1,0,0:0:0:0:
64,192,95201,1,0,0:0:0:0:
192,192,95389,1,0,0:0:0:0:
320,192,95389,1,0,0:0:0:0:
64,192,95576,1,0,0:0:0:0:
192,192,95576,1,0,0:0:0:0:
448,192,95576,1,0,0:0:0:0:
448,192,95764,1,0,0:0:0:0:
320,192,95764,1,0,0:0:0:0:
192,192,95764,1,0,0:0:0:0:
192,192,95951,1,0,0:0:0:0:
320,192,95951,1,0,0:0:0:0:
192,192,96139,1,0,0:0:0:0:
64,192,96139,1,0,0:0:0:0:
320,192,96326,1,0,0:0:0:0:
448,192,96326,1,0,0:0:0:0:
448,192,96514,1,0,0:0:0:0:
64,192,96514,1,0,0:0:0:0:
320,192,96514,128,0,96701:0:0:0:0:
448,192,96701,1,0,0:0:0:0:
192,192,96701,1,0,0:0:0:0:
64,192,96889,1,0,0:0:0:0:
192,192,96889,1,0,0:0:0:0:
320,192,96889,1,0,0:0:0:0:
320,192,97076,1,0,0:0:0:0:
448,192,97076,1,0,0:0:0:0:
448,192,97264,1,0,0:0:0:0:
64,192,97264,1,0,0:0:0:0:
320,192,98014,1,0,0:0:0:0:
448,192,98014,1,0,0:0:0:0:
192,192,98014,1,0,0:0:0:0:
320,192,98576,1,0,0:0:0:0:
64,192,98576,1,0,0:0:0:0:
192,192,98576,1,0,0:0:0:0:
320,192,98764,1,0,0:0:0:0:
448,192,98764,1,0,0:0:0:0:
192,192,98764,1,0,0:0:0:0:
320,192,99139,1,0,0:0:0:0:
64,192,99139,1,0,0:0:0:0:
320,192,99326,1,0,0:0:0:0:
448,192,99326,1,0,0:0:0:0:
448,192,99514,1,0,0:0:0:0:
64,192,99514,1,0,0:0:0:0:
320,192,99701,1,0,0:0:0:0:
64,192,99701,1,0,0:0:0:0:
448,192,99889,1,0,0:0:0:0:
64,192,99889,1,0,0:0:0:0:
64,192,100264,1,0,0:0:0:0:
320,192,100264,1,0,0:0:0:0:
320,192,100826,1,0,0:0:0:0:
192,192,100826,1,0,0:0:0:0:
320,192,101014,1,0,0:0:0:0:
448,192,101014,1,0,0:0:0:0:
64,192,101014,1,0,0:0:0:0:
320,192,101389,1,0,0:0:0:0:
192,192,101389,1,0,0:0:0:0:
320,192,101764,1,0,0:0:0:0:
448,192,101764,1,0,0:0:0:0:
64,192,101764,1,0,0:0:0:0:
320,192,102139,1,0,0:0:0:0:
192,192,102139,1,0,0:0:0:0:
448,192,102514,1,0,0:0:0:0:
192,192,102514,1,0,0:0:0:0:
320,192,102514,1,0,0:0:0:0:
448,192,102889,1,0,0:0:0:0:
64,192,102889,1,0,0:0:0:0:
320,192,102889,1,0,0:0:0:0:
64,192,103264,1,0,0:0:0:0:
192,192,103264,1,0,0:0:0:0:
320,192,103264,1,0,0:0:0:0:
448,192,103639,1,0,0:0:0:0:
64,192,103639,1,0,0:0:0:0:
320,192,103639,1,0,0:0:0:0:
320,192,103826,1,0,0:0:0:0:
192,192,103826,1,0,0:0:0:0:
192,192,104014,1,0,0:0:0:0:
64,192,104014,1,0,0:0:0:0:
320,192,104576,1,0,0:0:0:0:
448,192,104576,1,0,0:0:0:0:
64,192,104764,1,0,0:0:0:0:
192,192,104764,1,0,0:0:0:0:
448,192,105139,1,0,0:0:0:0:
64,192,105139,1,0,0:0:0:0:
320,192,105326,1,0,0:0:0:0:
192,192,105326,1,0,0:0:0:0:
448,192,105514,1,0,0:0:0:0:
320,192,105514,1,0,0:0:0:0:
64,192,105514,1,0,0:0:0:0:
192,192,105889,128,0,106264:0:0:0:0:
320,192,105889,128,0,106264:0:0:0:0:
448,192,106264,1,0,0:0:0:0:
64,192,106264,1,0,0:0:0:0:
64,192,106639,1,0,0:0:0:0:
192,192,106639,1,0,0:0:0:0:
192,192,107014,1,0,0:0:0:0:
320,192,107014,1,0,0:0:0:0:
320,192,107389,1,0,0:0:0:0:
448,192,107389,1,0,0:0:0:0:
448,192,107764,1,0,0:0:0:0:
192,192,107764,1,0,0:0:0:0:
320,192,108139,1,0,0:0:0:0:
192,192,108139,1,0,0:0:0:0:
192,192,108514,1,0,0:0:0:0:
64,192,108514,1,0,0:0:0:0:
320,192,108795,1,0,0:0:0:0:
448,192,108795,1,0,0:0:0:0:
64,192,109076,1,0,0:0:0:0:
192,192,109076,1,0,0:0:0:0:
320,192,109264,1,0,0:0:0:0:
448,192,109264,1,0,0:0:0:0:
64,192,109639,1,0,0:0:0:0:
320,192,109639,1,0,0:0:0:0:
192,192,109732,1,0,0:0:0:0:
320,192,109826,1,0,0:0:0:0:
448,192,109920,1,0,0:0:0:0:
192,192,109920,1,0,0:0:0:0:
64,192,110014,1,0,0:0:0:0:
320,192,110201,1,0,0:0:0:0:
192,192,110389,1,0,0:0:0:0:
320,192,110576,1,0,0:0:0:0:
448,192,110764,1,0,0:0:0:0:
192,192,110764,1,0,0:0:0:0:
320,192,110857,1,0,0:0:0:0:
448,192,110951,1,0,0:0:0:0:
192,192,110951,1,0,0:0:0:0:
64,192,111045,1,0,0:0:0:0:
320,192,111045,1,0,0:0:0:0:
448,192,111326,128,0,111514:0:0:0:0:
192,192,111326,128,0,111514:0:0:0:0:
320,192,111514,128,0,111701:0:0:0:0:
64,192,111514,128,0,111701:0:0:0:0:
320,192,112076,1,0,0:0:0:0:
448,192,112076,1,0,0:0:0:0:
192,192,112076,1,0,0:0:0:0:
320,192,112264,1,0,0:0:0:0:
64,192,112264,1,0,0:0:0:0:
448,192,112264,1,0,0:0:0:0:
192,192,112451,1,0,0:0:0:0:
320,192,112451,1,0,0:0:0:0:
64,192,112451,1,0,0:0:0:0:
192,192,112639,1,0,0:0:0:0:
448,192,112639,1,0,0:0:0:0:
64,192,112826,1,0,0:0:0:0:
320,192,112826,1,0,0:0:0:0:
448,192,113014,1,0,0:0:0:0:
320,192,113014,1,0,0:0:0:0:
192,192,113201,1,0,0:0:0:0:
64,192,113201,1,0,0:0:0:0:
192,192,113389,1,0,0:0:0:0:
320,192,113389,1,0,0:0:0:0:
448,192,113576,1,0,0:0:0:0:
320,192,113576,1,0,0:0:0:0:
64,192,113764,128,0,114045:0:0:0:0:
320,192,113764,128,0,114045:0:0:0:0:
192,192,113764,1,0,0:0:0:0:
448,192,114045,1,0,0:0:0:0:
64,192,114326,1,0,0:0:0:0:
192,192,114326,1,0,0:0:0:0:
448,192,114326,1,0,0:0:0:0:
320,192,114514,1,0,0:0:0:0:
64,192,114514,1,0,0:0:0:0:
192,192,114701,1,0,0:0:0:0:
448,192,114701,1,0,0:0:0:0:
320,192,114889,1,0,0:0:0:0:
64,192,114889,1,0,0:0:0:0:
192,192,115076,1,0,0:0:0:0:
448,192,115076,1,0,0:0:0:0:
64,192,115264,1,0,0:0:0:0:
320,192,115264,1,0,0:0:0:0:
448,192,115357,1,0,0:0:0:0:
192,192,115451,1,0,0:0:0:0:
192,192,115639,1,0,0:0:0:0:
64,192,115639,128,0,116014:0:0:0:0:
448,192,115639,128,0,116014:0:0:0:0:
320,192,115732,1,0,0:0:0:0:
192,192,115826,1,0,0:0:0:0:
192,192,116014,1,0,0:0:0:0:
320,192,116014,1,0,0:0:0:0:
192,192,116201,1,0,0:0:0:0:
64,192,116201,1,0,0:0:0:0:
320,192,116389,1,0,0:0:0:0:
448,192,116389,1,0,0:0:0:0:
192,192,116576,1,0,0:0:0:0:
64,192,116576,1,0,0:0:0:0:
320,192,116764,1,0,0:0:0:0:
448,192,116764,1,0,0:0:0:0:
192,192,116764,1,0,0:0:0:0:
320,192,117045,1,0,0:0:0:0:
64,192,117045,1,0,0:0:0:0:
192,192,117045,1,0,0:0:0:0:
192,192,117326,128,0,117701:0:0:0:0:
320,192,117326,128,0,117701:0:0:0:0:
64,192,117701,1,0,0:0:0:0:
448,192,117701,1,0,0:0:0:0:
320,192,118076,1,0,0:0:0:0:
192,192,118076,1,0,0:0:0:0:
448,192,118264,1,0,0:0:0:0:
64,192,118264,1,0,0:0:0:0:
320,192,118451,1,0,0:0:0:0:
192,192,118451,1,0,0:0:0:0:
448,192,118639,1,0,0:0:0:0:
64,192,118639,1,0,0:0:0:0:
320,192,118826,1,0,0:0:0:0:
64,192,118826,1,0,0:0:0:0:
192,192,119014,1,0,0:0:0:0:
448,192,119014,1,0,0:0:0:0:
320,192,119389,1,0,0:0:0:0:
64,192,119389,1,0,0:0:0:0:
192,192,119389,1,0,0:0:0:0:
192,192,119764,1,0,0:0:0:0:
448,192,119764,1,0,0:0:0:0:
320,192,120045,1,0,0:0:0:0:
192,192,120326,1,0,0:0:0:0:
448,192,120326,1,0,0:0:0:0:
192,192,120701,1,0,0:0:0:0:
64,192,120701,1,0,0:0:0:0:
320,192,120701,1,0,0:0:0:0:
192,192,120889,1,0,0:0:0:0:
448,192,120889,1,0,0:0:0:0:
64,192,120889,1,0,0:0:0:0:
320,192,121264,1,0,0:0:0:0:
192,192,121264,1,0,0:0:0:0:
448,192,121264,1,0,0:0:0:0:
64,192,121264,1,0,0:0:0:0:
320,192,128014,5,0,0:0:0:0:
448,192,128014,128,0,128295:0:0:0:0:
320,192,128295,1,0,0:0:0:0:
64,192,128295,128,0,128576:0:0:0:0:
192,192,128576,128,0,128764:0:0:0:0:
320,192,128764,1,0,0:0:0:0:
448,192,128764,128,0,129045:0:0:0:0:
320,192,129045,1,0,0:0:0:0:
192,192,129045,128,0,129326:0:0:0:0:
320,192,129326,1,0,0:0:0:0:
192,192,129514,1,0,0:0:0:0:
64,192,129514,1,0,0:0:0:0:
448,192,129701,1,0,0:0:0:0:
192,192,129701,1,0,0:0:0:0:
64,192,129701,1,0,0:0:0:0:
192,192,129889,1,0,0:0:0:0:
64,192,129889,1,0,0:0:0:0:
320,192,129889,1,0,0:0:0:0:
320,192,130076,1,0,0:0:0:0:
448,192,130076,1,0,0:0:0:0:
448,192,130264,1,0,0:0:0:0:
64,192,130264,1,0,0:0:0:0:
320,192,130264,1,0,0:0:0:0:
320,192,130451,1,0,0:0:0:0:
192,192,130451,1,0,0:0:0:0:
448,192,130451,1,0,0:0:0:0:
192,192,130639,1,0,0:0:0:0:
64,192,130639,1,0,0:0:0:0:
320,192,130826,1,0,0:0:0:0:
448,192,130826,1,0,0:0:0:0:
320,192,131014,1,0,0:0:0:0:
192,192,131014,1,0,0:0:0:0:
448,192,131389,1,0,0:0:0:0:
192,192,131389,1,0,0:0:0:0:
448,192,131576,1,0,0:0:0:0:
64,192,131576,1,0,0:0:0:0:
320,192,131764,1,0,0:0:0:0:
448,192,131764,1,0,0:0:0:0:
64,192,131764,1,0,0:0:0:0:
320,192,131951,1,0,0:0:0:0:
448,192,131951,1,0,0:0:0:0:
192,192,131951,1,0,0:0:0:0:
192,192,132139,1,0,0:0:0:0:
64,192,132139,1,0,0:0:0:0:
448,192,132139,1,0,0:0:0:0:
64,192,132326,1,0,0:0:0:0:
192,192,132326,1,0,0:0:0:0:
320,192,132326,1,0,0:0:0:0:
320,192,132514,1,0,0:0:0:0:
448,192,132514,1,0,0:0:0:0:
64,192,132514,1,0,0:0:0:0:
192,192,132701,1,0,0:0:0:0:
320,192,132701,1,0,0:0:0:0:
448,192,132701,1,0,0:0:0:0:
320,192,132889,1,0,0:0:0:0:
448,192,132889,1,0,0:0:0:0:
64,192,132889,1,0,0:0:0:0:
192,192,133076,1,0,0:0:0:0:
320,192,133076,1,0,0:0:0:0:
448,192,133076,1,0,0:0:0:0:
320,192,134014,1,0,0:0:0:0:
192,192,134014,1,0,0:0:0:0:
320,192,134389,1,0,0:0:0:0:
64,192,134389,1,0,0:0:0:0:
448,192,134576,1,0,0:0:0:0:
192,192,134576,1,0,0:0:0:0:
320,192,134764,1,0,0:0:0:0:
64,192,134764,1,0,0:0:0:0:
448,192,134857,1,0,0:0:0:0:
192,192,134857,1,0,0:0:0:0:
320,192,135139,1,0,0:0:0:0:
192,192,135139,1,0,0:0:0:0:
320,192,135326,1,0,0:0:0:0:
192,192,135326,1,0,0:0:0:0:
64,192,135514,1,0,0:0:0:0:
320,192,135514,1,0,0:0:0:0:
192,192,135701,1,0,0:0:0:0:
448,192,135701,1,0,0:0:0:0:
320,192,135889,1,0,0:0:0:0:
192,192,135889,1,0,0:0:0:0:
64,192,136076,1,0,0:0:0:0:
448,192,136076,1,0,0:0:0:0:
448,192,136264,1,0,0:0:0:0:
192,192,136264,1,0,0:0:0:0:
320,192,136451,1,0,0:0:0:0:
192,192,136451,1,0,0:0:0:0:
448,192,136639,1,0,0:0:0:0:
192,192,136639,1,0,0:0:0:0:
320,192,136826,1,0,0:0:0:0:
64,192,136826,1,0,0:0:0:0:
192,192,137014,1,0,0:0:0:0:
320,192,137014,1,0,0:0:0:0:
320,192,137389,1,0,0:0:0:0:
448,192,137389,1,0,0:0:0:0:
192,192,137576,1,0,0:0:0:0:
64,192,137576,1,0,0:0:0:0:
320,192,137764,1,0,0:0:0:0:
192,192,137764,1,0,0:0:0:0:
320,192,137951,1,0,0:0:0:0:
448,192,137951,1,0,0:0:0:0:
320,192,138139,1,0,0:0:0:0:
192,192,138139,1,0,0:0:0:0:
64,192,138326,1,0,0:0:0:0:
320,192,138326,1,0,0:0:0:0:
192,192,138514,1,0,0:0:0:0:
448,192,138514,1,0,0:0:0:0:
64,192,138514,1,0,0:0:0:0:
320,192,138701,1,0,0:0:0:0:
192,192,138701,1,0,0:0:0:0:
64,192,138701,1,0,0:0:0:0:
192,192,138889,1,0,0:0:0:0:
448,192,138889,1,0,0:0:0:0:
64,192,138889,1,0,0:0:0:0:
320,192,139076,1,0,0:0:0:0:
192,192,139076,1,0,0:0:0:0:
64,192,139076,1,0,0:0:0:0:
192,192,139264,1,0,0:0:0:0:
448,192,139264,1,0,0:0:0:0:
64,192,139451,1,0,0:0:0:0:
192,192,139451,1,0,0:0:0:0:
320,192,139545,1,0,0:0:0:0:
448,192,139639,1,0,0:0:0:0:
192,192,139639,1,0,0:0:0:0:
192,192,139826,1,0,0:0:0:0:
320,192,139826,1,0,0:0:0:0:
64,192,140014,1,0,0:0:0:0:
320,192,140014,1,0,0:0:0:0:
320,192,140201,1,0,0:0:0:0:
192,192,140201,1,0,0:0:0:0:
192,192,140389,1,0,0:0:0:0:
448,192,140389,1,0,0:0:0:0:
448,192,140576,1,0,0:0:0:0:
64,192,140576,1,0,0:0:0:0:
192,192,140764,1,0,0:0:0:0:
320,192,140764,1,0,0:0:0:0:
64,192,140951,1,0,0:0:0:0:
320,192,140951,1,0,0:0:0:0:
448,192,140951,1,0,0:0:0:0:
192,192,141326,1,0,0:0:0:0:
448,192,141326,1,0,0:0:0:0:
64,192,141326,1,0,0:0:0:0:
192,192,141514,1,0,0:0:0:0:
448,192,141514,1,0,0:0:0:0:
320,192,141701,1,0,0:0:0:0:
64,192,141701,1,0,0:0:0:0:
192,192,141795,1,0,0:0:0:0:
448,192,141795,1,0,0:0:0:0:
320,192,141889,1,0,0:0:0:0:
64,192,141889,1,0,0:0:0:0:
320,192,142076,1,0,0:0:0:0:
192,192,142076,1,0,0:0:0:0:
64,192,142170,1,0,0:0:0:0:
448,192,142170,1,0,0:0:0:0:
320,192,142264,1,0,0:0:0:0:
192,192,142264,1,0,0:0:0:0:
448,192,143014,1,0,0:0:0:0:
192,192,143014,1,0,0:0:0:0:
192,192,143201,1,0,0:0:0:0:
320,192,143201,1,0,0:0:0:0:
320,192,143389,1,0,0:0:0:0:
64,192,143389,1,0,0:0:0:0:
64,192,143576,1,0,0:0:0:0:
448,192,143576,1,0,0:0:0:0:
320,192,143764,1,0,0:0:0:0:
192,192,143764,1,0,0:0:0:0:
448,192,143951,1,0,0:0:0:0:
192,192,143951,1,0,0:0:0:0:
64,192,143951,1,0,0:0:0:0:
192,192,144326,1,0,0:0:0:0:
448,192,144326,1,0,0:0:0:0:
64,192,144326,1,0,0:0:0:0:
320,192,144514,1,0,0:0:0:0:
448,192,144514,1,0,0:0:0:0:
192,192,144701,1,0,0:0:0:0:
448,192,144701,1,0,0:0:0:0:
320,192,144795,1,0,0:0:0:0:
64,192,144795,1,0,0:0:0:0:
192,192,144889,1,0,0:0:0:0:
448,192,144889,1,0,0:0:0:0:
192,192,145076,1,0,0:0:0:0:
320,192,145076,1,0,0:0:0:0:
448,192,145170,1,0,0:0:0:0:
64,192,145170,1,0,0:0:0:0:
192,192,145264,1,0,0:0:0:0:
320,192,145264,1,0,0:0:0:0:
320,192,146014,1,0,0:0:0:0:
192,192,146014,1,0,0:0:0:0:
192,192,146201,1,0,0:0:0:0:
448,192,146201,1,0,0:0:0:0:
320,192,146389,1,0,0:0:0:0:
64,192,146389,1,0,0:0:0:0:
192,192,146576,1,0,0:0:0:0:
448,192,146576,1,0,0:0:0:0:
320,192,146764,1,0,0:0:0:0:
192,192,146764,1,0,0:0:0:0:
448,192,146951,1,0,0:0:0:0:
64,192,146951,1,0,0:0:0:0:
320,192,146951,1,0,0:0:0:0:
192,192,147326,1,0,0:0:0:0:
448,192,147326,1,0,0:0:0:0:
64,192,147326,1,0,0:0:0:0:
320,192,147514,1,0,0:0:0:0:
64,192,147514,1,0,0:0:0:0:
64,192,147701,1,0,0:0:0:0:
448,192,147701,1,0,0:0:0:0:
320,192,147795,1,0,0:0:0:0:
192,192,147795,1,0,0:0:0:0:
192,192,147889,1,0,0:0:0:0:
320,192,147889,1,0,0:0:0:0:
192,192,148076,1,0,0:0:0:0:
320,192,148076,1,0,0:0:0:0:
192,192,148170,1,0,0:0:0:0:
320,192,148170,1,0,0:0:0:0:
64,192,148264,1,0,0:0:0:0:
448,192,148264,1,0,0:0:0:0:
192,192,148357,1,0,0:0:0:0:
320,192,148357,1,0,0:0:0:0:
192,192,148451,1,0,0:0:0:0:
320,192,148451,1,0,0:0:0:0:
192,192,148545,1,0,0:0:0:0:
64,192,148545,1,0,0:0:0:0:
320,192,148639,1,0,0:0:0:0:
448,192,148639,1,0,0:0:0:0:
192,192,148732,1,0,0:0:0:0:
448,192,148826,1,0,0:0:0:0:
64,192,148920,1,0,0:0:0:0:
320,192,149014,1,0,0:0:0:0:
448,192,149764,1,0,0:0:0:0:
192,192,149764,128,0,150514:0:0:0:0:
64,192,149764,1,0,0:0:0:0:
320,192,149764,128,0,150514:0:0:0:0:
64,192,150514,1,0,0:0:0:0:
448,192,150514,1,0,0:0:0:0:
192,192,150701,1,0,0:0:0:0:
64,192,150889,1,0,0:0:0:0:
320,192,150889,1,0,0:0:0:0:
448,192,150889,1,0,0:0:0:0:
192,192,151076,1,0,0:0:0:0:
192,192,151264,1,0,0:0:0:0:
448,192,151264,1,0,0:0:0:0:
64,192,151264,128,0,151639:0:0:0:0:
192,192,151545,1,0,0:0:0:0:
320,192,151639,1,0,0:0:0:0:
448,192,151639,1,0,0:0:0:0:
192,192,151826,1,0,0:0:0:0:
320,192,151826,1,0,0:0:0:0:
448,192,151826,128,0,152389:0:0:0:0:
64,192,152014,1,0,0:0:0:0:
320,192,152107,1,0,0:0:0:0:
192,192,152201,1,0,0:0:0:0:
320,192,152295,1,0,0:0:0:0:
192,192,152389,1,0,0:0:0:0:
64,192,152482,1,0,0:0:0:0:
192,192,152576,1,0,0:0:0:0:
320,192,152576,1,0,0:0:0:0:
64,192,152670,1,0,0:0:0:0:
320,192,152764,1,0,0:0:0:0:
448,192,152764,1,0,0:0:0:0:
192,192,152857,1,0,0:0:0:0:
64,192,152951,1,0,0:0:0:0:
448,192,152951,1,0,0:0:0:0:
192,192,153045,1,0,0:0:0:0:
64,192,153139,1,0,0:0:0:0:
448,192,153139,1,0,0:0:0:0:
320,192,153139,1,0,0:0:0:0:
192,192,153232,1,0,0:0:0:0:
64,192,153326,1,0,0:0:0:0:
448,192,153326,1,0,0:0:0:0:
320,192,153514,1,0,0:0:0:0:
64,192,153514,1,0,0:0:0:0:
320,192,153701,1,0,0:0:0:0:
192,192,153701,1,0,0:0:0:0:
320,192,153889,1,0,0:0:0:0:
64,192,153889,1,0,0:0:0:0:
192,192,154076,1,0,0:0:0:0:
448,192,154076,1,0,0:0:0:0:
320,192,154264,1,0,0:0:0:0:
64,192,154264,1,0,0:0:0:0:
320,192,154545,1,0,0:0:0:0:
192,192,154545,1,0,0:0:0:0:
320,192,154826,1,0,0:0:0:0:
192,192,154826,1,0,0:0:0:0:
320,192,155014,1,0,0:0:0:0:
448,192,155107,1,0,0:0:0:0:
320,192,155201,1,0,0:0:0:0:
448,192,155295,1,0,0:0:0:0:
192,192,155389,1,0,0:0:0:0:
64,192,155482,1,0,0:0:0:0:
192,192,155576,1,0,0:0:0:0:
64,192,155670,1,0,0:0:0:0:
192,192,155764,1,0,0:0:0:0:
320,192,155857,1,0,0:0:0:0:
192,192,155951,1,0,0:0:0:0:
320,192,156045,1,0,0:0:0:0:
320,192,156139,1,0,0:0:0:0:
64,192,156139,128,0,156514:0:0:0:0:
448,192,156139,128,0,156514:0:0:0:0:
192,192,156232,1,0,0:0:0:0:
320,192,156326,1,0,0:0:0:0:
192,192,156420,1,0,0:0:0:0:
320,192,156514,1,0,0:0:0:0:
320,192,156607,1,0,0:0:0:0:
192,192,156701,1,0,0:0:0:0:
64,192,156701,1,0,0:0:0:0:
448,192,156795,1,0,0:0:0:0:
320,192,156889,1,0,0:0:0:0:
64,192,156889,1,0,0:0:0:0:
320,192,156982,1,0,0:0:0:0:
192,192,157076,1,0,0:0:0:0:
64,192,157170,1,0,0:0:0:0:
192,192,157264,128,0,157545:0:0:0:0:
448,192,157264,128,0,157545:0:0:0:0:
320,192,157451,1,0,0:0:0:0:
64,192,157545,1,0,0:0:0:0:
64,192,157826,128,0,158201:0:0:0:0:
320,192,157826,128,0,158201:0:0:0:0:
448,192,157826,1,0,0:0:0:0:
448,192,158201,1,0,0:0:0:0:
448,192,158389,1,0,0:0:0:0:
64,192,158389,1,0,0:0:0:0:
320,192,158482,1,0,0:0:0:0:
192,192,158576,1,0,0:0:0:0:
64,192,158670,1,0,0:0:0:0:
192,192,158764,1,0,0:0:0:0:
448,192,158764,1,0,0:0:0:0:
320,192,158857,1,0,0:0:0:0:
192,192,158951,1,0,0:0:0:0:
64,192,159045,1,0,0:0:0:0:
320,192,159139,1,0,0:0:0:0:
448,192,159139,1,0,0:0:0:0:
192,192,159232,1,0,0:0:0:0:
320,192,159326,1,0,0:0:0:0:
64,192,159326,1,0,0:0:0:0:
448,192,159326,1,0,0:0:0:0:
192,192,159420,1,0,0:0:0:0:
320,192,159514,1,0,0:0:0:0:
448,192,159514,1,0,0:0:0:0:
64,192,159514,1,0,0:0:0:0:
320,192,159889,1,0,0:0:0:0:
64,192,159889,1,0,0:0:0:0:
448,192,159889,1,0,0:0:0:0:
192,192,160264,1,0,0:0:0:0:
64,192,160264,1,0,0:0:0:0:
448,192,160264,1,0,0:0:0:0:
320,192,160545,1,0,0:0:0:0:
64,192,160545,1,0,0:0:0:0:
448,192,160545,1,0,0:0:0:0:
320,192,160826,1,0,0:0:0:0:
64,192,160826,128,0,161389:0:0:0:0:
192,192,160826,1,0,0:0:0:0:
320,192,161201,1,0,0:0:0:0:
448,192,161201,1,0,0:0:0:0:
192,192,161389,1,0,0:0:0:0:
448,192,161389,1,0,0:0:0:0:
64,192,161764,1,0,0:0:0:0:
192,192,161764,1,0,0:0:0:0:
320,192,161764,1,0,0:0:0:0:
448,192,161764,1,0,0:0:0:0:
64,192,161951,1,0,0:0:0:0:
320,192,161951,1,0,0:0:0:0:
64,192,162045,1,0,0:0:0:0:
320,192,162045,1,0,0:0:0:0:
192,192,162139,128,0,162514:0:0:0:0:
448,192,162139,128,0,162514:0:0:0:0:
64,192,162514,128,0,162701:0:0:0:0:
320,192,162701,1,0,0:0:0:0:
448,192,162701,128,0,162889:0:0:0:0:
320,192,162889,1,0,0:0:0:0:
192,192,162889,128,0,163076:0:0:0:0:
320,192,163076,1,0,0:0:0:0:
64,192,163076,128,0,163264:0:0:0:0:
192,192,163264,1,0,0:0:0:0:
448,192,163264,128,0,163545:0:0:0:0:
192,192,163451,1,0,0:0:0:0:
64,192,163451,1,0,0:0:0:0:
320,192,163545,1,0,0:0:0:0:
320,192,163826,1,0,0:0:0:0:
192,192,163826,1,0,0:0:0:0:
64,192,164014,1,0,0:0:0:0:
192,192,164014,1,0,0:0:0:0:
320,192,164014,1,0,0:0:0:0:
448,192,164014,1,0,0:0:0:0:
448,192,164201,1,0,0:0:0:0:
64,192,164201,1,0,0:0:0:0:
192,192,164389,1,0,0:0:0:0:
320,192,164389,1,0,0:0:0:0:
64,192,164576,1,0,0:0:0:0:
448,192,164576,1,0,0:0:0:0:
192,192,164764,1,0,0:0:0:0:
320,192,164764,1,0,0:0:0:0:
192,192,164951,1,0,0:0:0:0:
448,192,164951,1,0,0:0:0:0:
192,192,165139,1,0,0:0:0:0:
64,192,165139,1,0,0:0:0:0:
192,192,165326,1,0,0:0:0:0:
320,192,165326,1,0,0:0:0:0:
320,192,165514,1,0,0:0:0:0:
448,192,165514,1,0,0:0:0:0:
320,192,165889,1,0,0:0:0:0:
64,192,165889,1,0,0:0:0:0:
192,192,166076,1,0,0:0:0:0:
448,192,166076,1,0,0:0:0:0:
320,192,166264,1,0,0:0:0:0:
448,192,166264,1,0,0:0:0:0:
192,192,166264,1,0,0:0:0:0:
320,192,166545,1,0,0:0:0:0:
192,192,166545,1,0,0:0:0:0:
64,192,166545,1,0,0:0:0:0:
320,192,166826,1,0,0:0:0:0:
192,192,166826,1,0,0:0:0:0:
448,192,166826,1,0,0:0:0:0:
64,192,167014,1,0,0:0:0:0:
192,192,167014,1,0,0:0:0:0:
192,192,167201,1,0,0:0:0:0:
320,192,167201,1,0,0:0:0:0:
64,192,167389,1,0,0:0:0:0:
192,192,167389,1,0,0:0:0:0:
192,192,167576,1,0,0:0:0:0:
320,192,167576,1,0,0:0:0:0:
320,192,167764,1,0,0:0:0:0:
448,192,167764,1,0,0:0:0:0:
448,192,167951,1,0,0:0:0:0:
320,192,167951,1,0,0:0:0:0:
320,192,168139,1,0,0:0:0:0:
64,192,168139,128,0,168514:0:0:0:0:
448,192,168326,1,0,0:0:0:0:
192,192,168514,1,0,0:0:0:0:
320,192,168514,1,0,0:0:0:0:
192,192,168701,1,0,0:0:0:0:
64,192,168701,1,0,0:0:0:0:
192,192,168889,1,0,0:0:0:0:
320,192,168889,1,0,0:0:0:0:
320,192,169076,1,0,0:0:0:0:
448,192,169076,1,0,0:0:0:0:
192,192,169264,1,0,0:0:0:0:
64,192,169264,1,0,0:0:0:0:
320,192,169451,1,0,0:0:0:0:
448,192,169451,1,0,0:0:0:0:
192,192,169545,1,0,0:0:0:0:
64,192,169545,1,0,0:0:0:0:
192,192,169826,1,0,0:0:0:0:
320,192,169826,1,0,0:0:0:0:
448,192,170014,1,0,0:0:0:0:
192,192,170014,1,0,0:0:0:0:
320,192,170201,1,0,0:0:0:0:
448,192,170389,1,0,0:0:0:0:
192,192,170389,1,0,0:0:0:0:
320,192,170576,1,0,0:0:0:0:
64,192,170576,1,0,0:0:0:0:
192,192,170764,1,0,0:0:0:0:
448,192,170764,1,0,0:0:0:0:
192,192,170951,1,0,0:0:0:0:
448,192,170951,1,0,0:0:0:0:
320,192,171139,1,0,0:0:0:0:
64,192,171139,1,0,0:0:0:0:
320,192,171326,1,0,0:0:0:0:
64,192,171326,1,0,0:0:0:0:
320,192,171514,1,0,0:0:0:0:
192,192,171514,1,0,0:0:0:0:
448,192,171514,1,0,0:0:0:0:
320,192,171889,1,0,0:0:0:0:
64,192,171889,1,0,0:0:0:0:
320,192,172264,1,0,0:0:0:0:
192,192,172264,1,0,0:0:0:0:
64,192,172264,1,0,0:0:0:0:
320,192,172545,1,0,0:0:0:0:
192,192,172545,1,0,0:0:0:0:
448,192,172545,1,0,0:0:0:0:
320,192,172826,1,0,0:0:0:0:
64,192,172826,1,0,0:0:0:0:
320,192,173201,1,0,0:0:0:0:
192,192,173201,1,0,0:0:0:0:
320,192,173389,1,0,0:0:0:0:
448,192,173389,1,0,0:0:0:0:
192,192,173576,1,0,0:0:0:0:
64,192,173576,1,0,0:0:0:0:
320,192,173764,1,0,0:0:0:0:
192,192,173764,1,0,0:0:0:0:
448,192,173764,1,0,0:0:0:0:
64,192,173857,1,0,0:0:0:0:
192,192,173951,1,0,0:0:0:0:
64,192,174045,1,0,0:0:0:0:
448,192,174139,1,0,0:0:0:0:
320,192,174232,1,0,0:0:0:0:
448,192,174326,1,0,0:0:0:0:
320,192,174420,1,0,0:0:0:0:
64,192,174514,128,0,174889:0:0:0:0:
192,192,174514,128,0,174889:0:0:0:0:
320,192,174514,1,0,0:0:0:0:
448,192,174514,1,0,0:0:0:0:
320,192,174889,1,0,0:0:0:0:
448,192,174889,1,0,0:0:0:0:
448,192,175264,128,0,175639:0:0:0:0:
320,192,175264,128,0,175639:0:0:0:0:
192,192,175264,1,0,0:0:0:0:
64,192,175264,1,0,0:0:0:0:
64,192,175639,1,0,0:0:0:0:
192,192,175639,1,0,0:0:0:0:
192,192,175826,1,0,0:0:0:0:
320,192,175826,1,0,0:0:0:0:
64,192,176014,1,0,0:0:0:0:
448,192,176014,1,0,0:0:0:0:
192,192,176014,1,0,0:0:0:0:
64,192,176201,1,0,0:0:0:0:
448,192,176201,1,0,0:0:0:0:
320,192,176201,1,0,0:0:0:0:
64,192,176389,1,0,0:0:0:0:
448,192,176389,1,0,0:0:0:0:
192,192,176389,1,0,0:0:0:0:
192,192,176764,1,0,0:0:0:0:
320,192,176764,1,0,0:0:0:0:
64,192,176764,1,0,0:0:0:0:
320,192,176951,1,0,0:0:0:0:
192,192,176951,1,0,0:0:0:0:
448,192,176951,1,0,0:0:0:0:
192,192,177139,1,0,0:0:0:0:
320,192,177139,1,0,0:0:0:0:
64,192,177139,1,0,0:0:0:0:
64,192,177514,1,0,0:0:0:0:
320,192,177514,1,0,0:0:0:0:
192,192,177514,128,0,177889:0:0:0:0:
448,192,177889,1,0,0:0:0:0:
320,192,177889,1,0,0:0:0:0:
192,192,178264,1,0,0:0:0:0:
448,192,178264,1,0,0:0:0:0:
320,192,178264,128,0,178639:0:0:0:0:
64,192,178639,1,0,0:0:0:0:
192,192,178639,1,0,0:0:0:0:
192,192,178826,1,0,0:0:0:0:
320,192,178826,1,0,0:0:0:0:
192,192,179014,1,0,0:0:0:0:
320,192,179014,1,0,0:0:0:0:
320,192,179295,1,0,0:0:0:0:
192,192,179295,1,0,0:0:0:0:
320,192,179576,1,0,0:0:0:0:
192,192,179576,1,0,0:0:0:0:
64,192,179764,1,0,0:0:0:0:
192,192,179764,1,0,0:0:0:0:
320,192,179764,1,0,0:0:0:0:
192,192,180139,1,0,0:0:0:0:
320,192,180139,1,0,0:0:0:0:
448,192,180139,1,0,0:0:0:0:
64,192,180514,1,0,0:0:0:0:
192,192,180514,1,0,0:0:0:0:
320,192,180514,128,0,180889:0:0:0:0:
192,192,180889,1,0,0:0:0:0:
448,192,180889,1,0,0:0:0:0:
320,192,181264,1,0,0:0:0:0:
448,192,181264,1,0,0:0:0:0:
192,192,181264,128,0,181639:0:0:0:0:
320,192,181639,1,0,0:0:0:0:
64,192,181639,1,0,0:0:0:0:
320,192,181826,1,0,0:0:0:0:
448,192,181826,1,0,0:0:0:0:
192,192,182014,1,0,0:0:0:0:
64,192,182014,1,0,0:0:0:0:
192,192,182201,1,0,0:0:0:0:
320,192,182201,1,0,0:0:0:0:
64,192,182201,1,0,0:0:0:0:
64,192,182389,1,0,0:0:0:0:
192,192,182389,1,0,0:0:0:0:
448,192,182764,1,0,0:0:0:0:
320,192,182764,1,0,0:0:0:0:
192,192,182951,1,0,0:0:0:0:
320,192,182951,1,0,0:0:0:0:
448,192,182951,1,0,0:0:0:0:
448,192,183139,1,0,0:0:0:0:
320,192,183139,1,0,0:0:0:0:
192,192,183326,1,0,0:0:0:0:
64,192,183326,1,0,0:0:0:0:
192,192,183514,1,0,0:0:0:0:
320,192,183514,1,0,0:0:0:0:
448,192,183889,1,0,0:0:0:0:
320,192,183889,1,0,0:0:0:0:
64,192,183889,1,0,0:0:0:0:
192,192,184264,1,0,0:0:0:0:
320,192,184264,1,0,0:0:0:0:
448,192,184264,1,0,0:0:0:0:
64,192,184545,1,0,0:0:0:0:
192,192,184545,1,0,0:0:0:0:
320,192,184545,1,0,0:0:0:0:
64,192,184826,128,0,185389:0:0:0:0:
448,192,184826,128,0,185389:0:0:0:0:
320,192,185201,1,0,0:0:0:0:
192,192,185201,1,0,0:0:0:0:
192,192,185389,1,0,0:0:0:0:
320,192,185389,1,0,0:0:0:0:
64,192,185576,1,0,0:0:0:0:
320,192,185576,1,0,0:0:0:0:
448,192,185576,1,0,0:0:0:0:
192,192,185764,1,0,0:0:0:0:
448,192,185764,1,0,0:0:0:0:
64,192,185764,1,0,0:0:0:0:
192,192,186514,1,0,0:0:0:0:
320,192,186514,1,0,0:0:0:0:
64,192,186514,1,0,0:0:0:0:
320,192,186889,1,0,0:0:0:0:
192,192,186889,1,0,0:0:0:0:
448,192,186889,1,0,0:0:0:0:
192,192,187264,1,0,0:0:0:0:
64,192,187264,1,0,0:0:0:0:
448,192,187264,1,0,0:0:0:0:
320,192,187545,1,0,0:0:0:0:
64,192,187545,1,0,0:0:0:0:
448,192,187545,1,0,0:0:0:0:
192,192,187826,1,0,0:0:0:0:
320,192,187826,1,0,0:0:0:0:
448,192,187826,1,0,0:0:0:0:
320,192,188201,1,0,0:0:0:0:
64,192,188201,1,0,0:0:0:0:
192,192,188389,1,0,0:0:0:0:
448,192,188389,1,0,0:0:0:0:
320,192,188576,1,0,0:0:0:0:
448,192,188576,1,0,0:0:0:0:
64,192,188576,1,0,0:0:0:0:
320,192,188764,1,0,0:0:0:0:
64,192,188764,1,0,0:0:0:0:
192,192,188764,1,0,0:0:0:0:
448,192,188764,1,0,0:0:0:0:
64,192,189514,1,0,0:0:0:0:
320,192,189514,1,0,0:0:0:0:
448,192,189514,1,0,0:0:0:0:
192,192,189607,1,0,0:0:0:0:
64,192,189701,1,0,0:0:0:0:
192,192,189795,1,0,0:0:0:0:
320,192,189889,1,0,0:0:0:0:
448,192,189889,1,0,0:0:0:0:
64,192,189889,1,0,0:0:0:0:
192,192,189982,1,0,0:0:0:0:
64,192,190076,1,0,0:0:0:0:
192,192,190170,1,0,0:0:0:0:
64,192,190264,1,0,0:0:0:0:
192,192,190264,1,0,0:0:0:0:
448,192,190264,1,0,0:0:0:0:
320,192,190357,1,0,0:0:0:0:
448,192,190451,1,0,0:0:0:0:
320,192,190545,1,0,0:0:0:0:
192,192,190545,1,0,0:0:0:0:
64,192,190545,1,0,0:0:0:0:
448,192,190639,1,0,0:0:0:0:
320,192,190732,1,0,0:0:0:0:
448,192,190826,1,0,0:0:0:0:
192,192,190826,1,0,0:0:0:0:
64,192,190826,1,0,0:0:0:0:
320,192,191201,1,0,0:0:0:0:
448,192,191201,1,0,0:0:0:0:
320,192,191295,1,0,0:0:0:0:
448,192,191295,1,0,0:0:0:0:
192,192,191389,1,0,0:0:0:0:
64,192,191389,1,0,0:0:0:0:
192,192,191576,1,0,0:0:0:0:
64,192,191576,1,0,0:0:0:0:
192,192,191670,1,0,0:0:0:0:
64,192,191670,1,0,0:0:0:0:
320,192,191764,1,0,0:0:0:0:
448,192,191764,1,0,0:0:0:0:
320,192,191857,1,0,0:0:0:0:
448,192,191857,1,0,0:0:0:0:
192,192,192045,1,0,0:0:0:0:
64,192,192045,1,0,0:0:0:0:
320,192,192232,1,0,0:0:0:0:
448,192,192232,1,0,0:0:0:0:
320,192,192326,1,0,0:0:0:0:
192,192,192326,1,0,0:0:0:0:
64,192,192514,1,0,0:0:0:0:
320,192,192607,1,0,0:0:0:0:
192,192,192701,1,0,0:0:0:0:
448,192,192795,1,0,0:0:0:0:
192,192,192889,1,0,0:0:0:0:
320,192,192982,1,0,0:0:0:0:
64,192,193076,1,0,0:0:0:0:
448,192,193170,1,0,0:0:0:0:
192,192,193264,1,0,0:0:0:0:
320,192,193264,1,0,0:0:0:0:
64,192,193357,1,0,0:0:0:0:
192,192,193451,1,0,0:0:0:0:
448,192,193545,1,0,0:0:0:0:
320,192,193545,1,0,0:0:0:0:
192,192,193639,1,0,0:0:0:0:
64,192,193732,1,0,0:0:0:0:
320,192,193826,1,0,0:0:0:0:
448,192,193826,1,0,0:0:0:0:
192,192,193826,1,0,0:0:0:0:
320,192,194201,1,0,0:0:0:0:
192,192,194201,1,0,0:0:0:0:
192,192,194295,1,0,0:0:0:0:
320,192,194295,1,0,0:0:0:0:
320,192,194389,1,0,0:0:0:0:
192,192,194389,1,0,0:0:0:0:
448,192,194576,1,0,0:0:0:0:
64,192,194576,1,0,0:0:0:0:
448,192,194670,1,0,0:0:0:0:
64,192,194670,1,0,0:0:0:0:
448,192,194764,1,0,0:0:0:0:
64,192,194764,1,0,0:0:0:0:
192,192,194857,1,0,0:0:0:0:
320,192,194857,1,0,0:0:0:0:
64,192,195045,1,0,0:0:0:0:
192,192,195045,1,0,0:0:0:0:
192,192,195232,1,0,0:0:0:0:
320,192,195232,1,0,0:0:0:0:
320,192,195326,1,0,0:0:0:0:
448,192,195326,1,0,0:0:0:0:
448,192,195514,1,0,0:0:0:0:
64,192,195514,1,0,0:0:0:0:
320,192,195607,1,0,0:0:0:0:
192,192,195701,1,0,0:0:0:0:
64,192,195795,1,0,0:0:0:0:
192,192,195889,1,0,0:0:0:0:
448,192,195889,1,0,0:0:0:0:
320,192,195982,1,0,0:0:0:0:
448,192,196076,1,0,0:0:0:0:
320,192,196170,1,0,0:0:0:0:
192,192,196264,1,0,0:0:0:0:
64,192,196264,1,0,0:0:0:0:
320,192,196357,1,0,0:0:0:0:
448,192,196451,1,0,0:0:0:0:
320,192,196545,1,0,0:0:0:0:
64,192,196545,1,0,0:0:0:0:
192,192,196639,1,0,0:0:0:0:
448,192,196639,1,0,0:0:0:0:
64,192,196732,1,0,0:0:0:0:
192,192,196826,1,0,0:0:0:0:
320,192,196920,1,0,0:0:0:0:
448,192,197014,1,0,0:0:0:0:
192,192,197014,1,0,0:0:0:0:
64,192,197014,1,0,0:0:0:0:
320,192,197201,1,0,0:0:0:0:
448,192,197201,1,0,0:0:0:0:
320,192,197295,1,0,0:0:0:0:
192,192,197295,1,0,0:0:0:0:
192,192,197389,1,0,0:0:0:0:
320,192,197389,1,0,0:0:0:0:
64,192,197576,1,0,0:0:0:0:
192,192,197576,1,0,0:0:0:0:
192,192,197670,1,0,0:0:0:0:
320,192,197670,1,0,0:0:0:0:
320,192,197764,1,0,0:0:0:0:
192,192,197764,1,0,0:0:0:0:
320,192,197857,1,0,0:0:0:0:
448,192,197857,1,0,0:0:0:0:
320,192,198045,1,0,0:0:0:0:
448,192,198045,1,0,0:0:0:0:
192,192,198232,1,0,0:0:0:0:
64,192,198232,1,0,0:0:0:0:
320,192,198326,1,0,0:0:0:0:
448,192,198326,1,0,0:0:0:0:
448,192,198514,1,0,0:0:0:0:
192,192,198514,1,0,0:0:0:0:
64,192,198514,1,0,0:0:0:0:
320,192,198607,1,0,0:0:0:0:
448,192,198701,1,0,0:0:0:0:
64,192,198701,1,0,0:0:0:0:
320,192,198795,1,0,0:0:0:0:
448,192,198889,1,0,0:0:0:0:
192,192,198889,1,0,0:0:0:0:
64,192,198889,1,0,0:0:0:0:
320,192,198982,1,0,0:0:0:0:
192,192,199076,5,0,0:0:0:0:
192,192,199170,1,0,0:0:0:0:
320,192,199264,1,0,0:0:0:0:
448,192,199264,1,0,0:0:0:0:
64,192,199264,1,0,0:0:0:0:
192,192,199357,1,0,0:0:0:0:
448,192,199451,1,0,0:0:0:0:
192,192,199545,1,0,0:0:0:0:
320,192,199639,1,0,0:0:0:0:
64,192,199639,1,0,0:0:0:0:
192,192,199732,1,0,0:0:0:0:
320,192,199826,1,0,0:0:0:0:
448,192,199826,1,0,0:0:0:0:
192,192,200201,5,0,0:0:0:0:
64,192,200201,1,0,0:0:0:0:
192,192,200295,1,0,0:0:0:0:
64,192,200295,1,0,0:0:0:0:
192,192,200389,1,0,0:0:0:0:
64,192,200389,1,0,0:0:0:0:
320,192,200576,1,0,0:0:0:0:
448,192,200576,1,0,0:0:0:0:
320,192,200670,1,0,0:0:0:0:
448,192,200670,1,0,0:0:0:0:
448,192,200764,1,0,0:0:0:0:
320,192,200764,1,0,0:0:0:0:
192,192,200857,1,0,0:0:0:0:
64,192,200857,1,0,0:0:0:0:
192,192,201045,5,0,0:0:0:0:
64,192,201045,1,0,0:0:0:0:
320,192,201232,1,0,0:0:0:0:
448,192,201232,1,0,0:0:0:0:
320,192,201326,1,0,0:0:0:0:
448,192,201326,1,0,0:0:0:0:
