osu file format v14

[General]
AudioFilename: audio.mp3
AudioLeadIn: 0
PreviewTime: 93905
Countdown: 0
SampleSet: Soft
StackLeniency: 0.7
Mode: 3
LetterboxInBreaks: 0
SpecialStyle: 0
WidescreenStoryboard: 0

[Editor]
DistanceSpacing: 0.4
BeatDivisor: 8
GridSize: 4
TimelineZoom: 1

[Metadata]
Title:Belusran Lephar
TitleUnicode:Belusran Lephar
Artist:Kunihiko Ryo
ArtistUnicode:梁邦彦
Creator:Dytrus
Version:NM
Source:Aion
Tags:soundtrack aion rabbit doubt dark piano quiet basic
BeatmapID:1181252
BeatmapSetID:558431

[Difficulty]
HPDrainRate:7
CircleSize:7
OverallDifficulty:7
ApproachRate:5
SliderMultiplier:1.4
SliderTickRate:1

[Events]
//Background and Video events
0,0,"Horror_halloween.jpg",0,0
//Break Periods
//Storyboard Layer 0 (Background)
//Storyboard Layer 1 (Fail)
//Storyboard Layer 2 (Pass)
//Storyboard Layer 3 (Foreground)
//Storyboard Sound Samples

[TimingPoints]
0,413.793103448276,3,2,0,20,1,0

[HitObjects]
329,192,0,5,0,0:0:0:0:
402,192,310,1,0,0:0:0:0:
475,192,620,1,0,0:0:0:0:
182,192,931,1,0,0:0:0:0:
109,192,1241,1,0,0:0:0:0:
182,192,1551,1,0,0:0:0:0:
329,192,1862,1,0,0:0:0:0:
475,192,2172,1,0,0:0:0:0:
402,192,2482,1,0,0:0:0:0:
109,192,2793,1,0,0:0:0:0:
182,192,3103,1,0,0:0:0:0:
109,192,3413,1,0,0:0:0:0:
329,192,3724,1,0,0:0:0:0:
402,192,4034,1,0,0:0:0:0:
475,192,4344,1,0,0:0:0:0:
329,192,4655,1,0,0:0:0:0:
402,192,4965,1,0,0:0:0:0:
329,192,5275,1,0,0:0:0:0:
329,192,5637,128,0,6103:0:0:0:0:
329,192,6310,1,0,0:0:0:0:
182,192,6620,1,0,0:0:0:0:
329,192,6931,1,0,0:0:0:0:
256,192,7241,1,0,0:0:0:0:
36,192,7551,1,0,0:0:0:0:
109,192,7862,1,0,0:0:0:0:
182,192,8172,1,0,0:0:0:0:
109,192,8482,1,0,0:0:0:0:
329,192,8793,1,0,0:0:0:0:
402,192,9103,1,0,0:0:0:0:
36,192,9413,1,0,0:0:0:0:
182,192,9724,1,0,0:0:0:0:
256,192,10034,1,0,0:0:0:0:
109,192,10344,1,0,0:0:0:0:
182,192,10655,1,0,0:0:0:0:
109,192,10965,1,0,0:0:0:0:
329,192,11275,1,0,0:0:0:0:
475,192,11586,1,0,0:0:0:0:
402,192,11896,1,0,0:0:0:0:
402,192,12206,128,0,12620:0:0:0:0:
256,192,12931,1,0,0:0:0:0:
329,192,13241,128,0,14379:0:0:0:0:
182,192,13241,128,0,14379:0:0:0:0:
402,192,15103,128,0,15517:0:0:0:0:
329,192,15103,128,0,15517:0:0:0:0:
109,192,15775,1,0,0:0:0:0:
182,192,16086,1,0,0:0:0:0:
36,192,16396,1,0,0:0:0:0:
109,192,16706,1,0,0:0:0:0:
256,192,17017,128,0,17431:0:0:0:0:
256,192,17637,1,0,0:0:0:0:
182,192,18000,1,0,0:0:0:0:
329,192,18310,1,0,0:0:0:0:
256,192,18620,1,0,0:0:0:0:
182,192,18931,128,0,19344:0:0:0:0:
109,192,19551,1,0,0:0:0:0:
182,192,19862,1,0,0:0:0:0:
402,192,20534,1,0,0:0:0:0:
329,192,20844,1,0,0:0:0:0:
109,192,21155,1,0,0:0:0:0:
182,192,21465,1,0,0:0:0:0:
182,192,21775,1,0,0:0:0:0:
256,192,22086,1,0,0:0:0:0:
109,192,22396,1,0,0:0:0:0:
402,192,22706,128,0,23017:0:0:0:0:
329,192,22706,128,0,23017:0:0:0:0:
256,192,23379,1,0,0:0:0:0:
329,192,23689,1,0,0:0:0:0:
109,192,24000,1,0,0:0:0:0:
109,192,24310,1,0,0:0:0:0:
329,192,24620,128,0,25034:0:0:0:0:
182,192,24620,1,0,0:0:0:0:
329,192,25241,1,0,0:0:0:0:
182,192,25551,1,0,0:0:0:0:
109,192,25862,1,0,0:0:0:0:
109,192,26172,1,0,0:0:0:0:
329,192,26482,128,0,26793:0:0:0:0:
109,192,27000,1,0,0:0:0:0:
182,192,27155,1,0,0:0:0:0:
109,192,27465,128,0,27775:0:0:0:0:
36,192,27775,1,0,0:0:0:0:
256,192,28086,1,0,0:0:0:0:
36,192,28396,128,0,29741:0:0:0:0:
256,192,28758,1,0,0:0:0:0:
329,192,29068,1,0,0:0:0:0:
256,192,29379,1,0,0:0:0:0:
182,192,30310,128,0,30827:0:0:0:0:
256,192,30310,128,0,30827:0:0:0:0:
329,192,30310,128,0,30827:0:0:0:0:
402,192,30931,1,0,0:0:0:0:
475,192,30931,1,0,0:0:0:0:
256,192,31241,1,0,0:0:0:0:
402,192,31241,1,0,0:0:0:0:
182,192,31551,1,0,0:0:0:0:
256,192,31862,1,0,0:0:0:0:
329,192,31862,1,0,0:0:0:0:
329,192,32172,128,0,32482:0:0:0:0:
109,192,32689,1,0,0:0:0:0:
182,192,32793,1,0,0:0:0:0:
109,192,33103,128,0,33827:0:0:0:0:
182,192,34086,128,0,34500:0:0:0:0:
329,192,34706,1,0,0:0:0:0:
402,192,35017,1,0,0:0:0:0:
329,192,35017,1,0,0:0:0:0:
329,192,35327,1,0,0:0:0:0:
256,192,35327,1,0,0:0:0:0:
329,192,35637,1,0,0:0:0:0:
109,192,35637,1,0,0:0:0:0:
256,192,36000,128,0,36517:0:0:0:0:
109,192,36000,128,0,36517:0:0:0:0:
402,192,36931,1,0,0:0:0:0:
475,192,36982,1,0,0:0:0:0:
36,192,37862,128,0,38275:0:0:0:0:
109,192,37862,128,0,38275:0:0:0:0:
182,192,38534,1,0,0:0:0:0:
109,192,38534,1,0,0:0:0:0:
182,192,38844,1,0,0:0:0:0:
256,192,39155,1,0,0:0:0:0:
329,192,39465,1,0,0:0:0:0:
329,192,39775,128,0,40086:0:0:0:0:
402,192,40293,1,0,0:0:0:0:
329,192,40396,1,0,0:0:0:0:
329,192,40706,128,0,41224:0:0:0:0:
329,192,41689,1,0,0:0:0:0:
109,192,41689,128,0,42310:0:0:0:0:
329,192,42000,1,0,0:0:0:0:
182,192,42310,1,0,0:0:0:0:
329,192,42620,1,0,0:0:0:0:
256,192,42931,1,0,0:0:0:0:
329,192,43241,1,0,0:0:0:0:
182,192,43396,1,0,0:0:0:0:
475,192,43551,1,0,0:0:0:0:
402,192,43551,1,0,0:0:0:0:
109,192,43551,1,0,0:0:0:0:
36,192,43551,1,0,0:0:0:0:
329,192,43913,1,0,0:0:0:0:
402,192,44068,1,0,0:0:0:0:
329,192,44327,1,0,0:0:0:0:
329,192,44482,1,0,0:0:0:0:
402,192,44620,1,0,0:0:0:0:
402,192,44827,1,0,0:0:0:0:
402,192,45155,1,0,0:0:0:0:
475,192,45448,1,0,0:0:0:0:
256,192,45775,128,0,46293:0:0:0:0:
256,192,46413,1,0,0:0:0:0:
402,192,46758,1,0,0:0:0:0:
329,192,47034,1,0,0:0:0:0:
402,192,47379,1,0,0:0:0:0:
329,192,47637,128,0,48051:0:0:0:0:
109,192,48310,1,0,0:0:0:0:
182,192,48620,1,0,0:0:0:0:
36,192,48931,1,0,0:0:0:0:
109,192,49241,1,0,0:0:0:0:
329,192,49551,128,0,49965:0:0:0:0:
402,192,49551,128,0,49965:0:0:0:0:
402,192,50172,1,0,0:0:0:0:
329,192,50482,1,0,0:0:0:0:
329,192,51155,1,0,0:0:0:0:
475,192,51465,128,0,52137:0:0:0:0:
182,192,51827,1,0,0:0:0:0:
256,192,52137,1,0,0:0:0:0:
109,192,52448,1,0,0:0:0:0:
402,192,52758,1,0,0:0:0:0:
329,192,53068,1,0,0:0:0:0:
402,192,53327,128,0,53844:0:0:0:0:
329,192,53327,128,0,53844:0:0:0:0:
182,192,54000,1,0,0:0:0:0:
329,192,54310,1,0,0:0:0:0:
182,192,54568,1,0,0:0:0:0:
109,192,54931,1,0,0:0:0:0:
475,192,55241,128,0,55655:0:0:0:0:
329,192,55913,1,0,0:0:0:0:
402,192,56206,1,0,0:0:0:0:
256,192,56534,1,0,0:0:0:0:
329,192,56844,1,0,0:0:0:0:
402,192,57103,128,0,57620:0:0:0:0:
329,192,57103,1,0,0:0:0:0:
329,192,57620,1,0,0:0:0:0:
329,192,57775,1,0,0:0:0:0:
329,192,58086,1,0,0:0:0:0:
256,192,58706,1,0,0:0:0:0:
182,192,59017,128,0,60000:0:0:0:0:
256,192,59379,1,0,0:0:0:0:
109,192,59689,1,0,0:0:0:0:
256,192,60000,1,0,0:0:0:0:
109,192,60931,1,0,0:0:0:0:
402,192,61241,1,0,0:0:0:0:
329,192,61551,1,0,0:0:0:0:
182,192,61862,1,0,0:0:0:0:
182,192,62224,1,0,0:0:0:0:
256,192,62534,1,0,0:0:0:0:
329,192,62896,1,0,0:0:0:0:
329,192,63206,1,0,0:0:0:0:
329,192,63517,1,0,0:0:0:0:
182,192,63827,1,0,0:0:0:0:
256,192,64137,1,0,0:0:0:0:
329,192,64448,1,0,0:0:0:0:
182,192,64758,1,0,0:0:0:0:
402,192,65068,1,0,0:0:0:0:
402,192,65379,1,0,0:0:0:0:
256,192,65689,1,0,0:0:0:0:
109,192,66000,1,0,0:0:0:0:
109,192,66310,1,0,0:0:0:0:
256,192,66620,1,0,0:0:0:0:
329,192,66931,1,0,0:0:0:0:
329,192,67241,1,0,0:0:0:0:
182,192,67551,1,0,0:0:0:0:
329,192,67862,1,0,0:0:0:0:
329,192,68172,1,0,0:0:0:0:
36,192,68482,1,0,0:0:0:0:
182,192,68793,1,0,0:0:0:0:
182,192,69103,1,0,0:0:0:0:
256,192,69103,1,0,0:0:0:0:
36,192,69465,1,0,0:0:0:0:
182,192,69775,1,0,0:0:0:0:
182,192,70086,1,0,0:0:0:0:
256,192,70086,1,0,0:0:0:0:
36,192,70396,1,0,0:0:0:0:
182,192,70706,1,0,0:0:0:0:
182,192,71017,1,0,0:0:0:0:
256,192,71017,1,0,0:0:0:0:
402,192,71327,1,0,0:0:0:0:
256,192,71327,1,0,0:0:0:0:
402,192,71637,1,0,0:0:0:0:
329,192,71948,1,0,0:0:0:0:
256,192,72258,1,0,0:0:0:0:
475,192,72258,1,0,0:0:0:0:
329,192,72620,1,0,0:0:0:0:
256,192,72982,1,0,0:0:0:0:
109,192,73241,128,0,74896:0:0:0:0:
256,192,73241,128,0,74896:0:0:0:0:
475,192,73551,1,0,0:0:0:0:
402,192,73862,1,0,0:0:0:0:
329,192,74172,1,0,0:0:0:0:
402,192,74482,1,0,0:0:0:0:
475,192,75103,1,0,0:0:0:0:
402,192,75206,1,0,0:0:0:0:
402,192,75310,1,0,0:0:0:0:
402,192,75413,1,0,0:0:0:0:
329,192,75568,1,0,0:0:0:0:
329,192,75672,1,0,0:0:0:0:
402,192,75775,1,0,0:0:0:0:
329,192,75879,1,0,0:0:0:0:
182,192,75982,1,0,0:0:0:0:
109,192,76086,1,0,0:0:0:0:
182,192,77017,128,0,78465:0:0:0:0:
36,192,77017,128,0,78465:0:0:0:0:
475,192,77534,1,0,0:0:0:0:
329,192,77689,1,0,0:0:0:0:
402,192,77844,1,0,0:0:0:0:
329,192,78000,1,0,0:0:0:0:
402,192,78155,1,0,0:0:0:0:
329,192,78310,1,0,0:0:0:0:
402,192,78465,1,0,0:0:0:0:
402,192,78620,1,0,0:0:0:0:
402,192,78775,1,0,0:0:0:0:
475,192,78931,1,0,0:0:0:0:
402,192,79241,1,0,0:0:0:0:
475,192,79551,1,0,0:0:0:0:
475,192,79724,1,0,0:0:0:0:
402,192,79862,1,0,0:0:0:0:
256,192,80172,1,0,0:0:0:0:
182,192,80482,128,0,81051:0:0:0:0:
182,192,81827,1,0,0:0:0:0:
109,192,81879,1,0,0:0:0:0:
36,192,81931,1,0,0:0:0:0:
256,192,82137,1,0,0:0:0:0:
329,192,82189,1,0,0:0:0:0:
402,192,82241,1,0,0:0:0:0:
475,192,82293,1,0,0:0:0:0:
182,192,83637,128,0,84258:0:0:0:0:
109,192,83637,128,0,84258:0:0:0:0:
402,192,84258,1,0,0:0:0:0:
402,192,84568,128,0,85241:0:0:0:0:
329,192,84568,128,0,85241:0:0:0:0:
109,192,84931,1,0,0:0:0:0:
109,192,85241,1,0,0:0:0:0:
182,192,85551,128,0,86017:0:0:0:0:
109,192,86017,1,0,0:0:0:0:
182,192,86172,1,0,0:0:0:0:
329,192,86482,128,0,87103:0:0:0:0:
402,192,87103,1,0,0:0:0:0:
109,192,87465,128,0,88086:0:0:0:0:
329,192,87465,128,0,88086:0:0:0:0:
182,192,87465,1,0,0:0:0:0:
256,192,87775,1,0,0:0:0:0:
256,192,88086,1,0,0:0:0:0:
329,192,88396,1,0,0:0:0:0:
329,192,88706,1,0,0:0:0:0:
182,192,89017,1,0,0:0:0:0:
109,192,89172,1,0,0:0:0:0:
36,192,89327,128,0,89637:0:0:0:0:
109,192,89327,128,0,89637:0:0:0:0:
182,192,89327,128,0,89637:0:0:0:0:
329,192,89637,1,0,0:0:0:0:
402,192,89793,1,0,0:0:0:0:
329,192,90000,1,0,0:0:0:0:
475,192,90103,1,0,0:0:0:0:
329,192,90258,1,0,0:0:0:0:
256,192,90465,1,0,0:0:0:0:
402,192,90620,1,0,0:0:0:0:
402,192,90775,1,0,0:0:0:0:
475,192,90931,1,0,0:0:0:0:
475,192,91086,1,0,0:0:0:0:
402,192,91241,1,0,0:0:0:0:
475,192,91396,1,0,0:0:0:0:
475,192,91551,1,0,0:0:0:0:
475,192,91862,1,0,0:0:0:0:
402,192,92172,1,0,0:0:0:0:
402,192,92482,1,0,0:0:0:0:
475,192,92793,1,0,0:0:0:0:
402,192,94034,128,0,94551:0:0:0:0:
329,192,94706,1,0,0:0:0:0:
402,192,95017,1,0,0:0:0:0:
109,192,95327,1,0,0:0:0:0:
182,192,95637,1,0,0:0:0:0:
402,192,95948,128,0,96362:0:0:0:0:
329,192,96568,1,0,0:0:0:0:
402,192,96931,1,0,0:0:0:0:
256,192,97241,1,0,0:0:0:0:
402,192,97551,1,0,0:0:0:0:
329,192,97862,128,0,98275:0:0:0:0:
402,192,98482,1,0,0:0:0:0:
329,192,98793,1,0,0:0:0:0:
329,192,99413,1,0,0:0:0:0:
402,192,99724,128,0,100396:0:0:0:0:
182,192,100086,1,0,0:0:0:0:
109,192,100396,1,0,0:0:0:0:
109,192,100706,1,0,0:0:0:0:
182,192,101017,1,0,0:0:0:0:
182,192,101327,1,0,0:0:0:0:
329,192,101637,128,0,102155:0:0:0:0:
182,192,101637,128,0,102155:0:0:0:0:
329,192,102284,1,0,0:0:0:0:
402,192,102620,1,0,0:0:0:0:
329,192,102905,1,0,0:0:0:0:
256,192,103241,1,0,0:0:0:0:
475,192,103551,128,0,103965:0:0:0:0:
329,192,104172,1,0,0:0:0:0:
402,192,104482,1,0,0:0:0:0:
256,192,104793,1,0,0:0:0:0:
329,192,105103,1,0,0:0:0:0:
402,192,105413,128,0,105879:0:0:0:0:
329,192,105879,1,0,0:0:0:0:
329,192,106034,1,0,0:0:0:0:
329,192,106344,1,0,0:0:0:0:
109,192,106706,1,0,0:0:0:0:
256,192,106706,1,0,0:0:0:0:
182,192,107017,1,0,0:0:0:0:
36,192,107017,1,0,0:0:0:0:
182,192,107327,128,0,108310:0:0:0:0:
36,192,107327,128,0,108310:0:0:0:0:
109,192,109241,1,0,0:0:0:0:
182,192,109551,1,0,0:0:0:0:
256,192,109862,1,0,0:0:0:0:
475,192,110172,1,0,0:0:0:0:
402,192,110793,1,0,0:0:0:0:
329,192,111103,1,0,0:0:0:0:
402,192,111413,1,0,0:0:0:0:
256,192,111775,1,0,0:0:0:0:
329,192,112086,1,0,0:0:0:0:
402,192,112448,1,0,0:0:0:0:
475,192,113017,5,0,0:0:0:0:
329,192,113948,5,0,0:0:0:0:
109,192,114103,1,0,0:0:0:0:
182,192,114206,1,0,0:0:0:0:
329,192,114310,1,0,0:0:0:0:
256,192,114413,128,0,115500:0:0:0:0:
36,192,116224,128,0,119172:0:0:0:0:
402,192,117362,1,0,0:0:0:0:
475,192,117517,1,0,0:0:0:0:
