osu file format v14

[General]
AudioFilename: audio.mp3
AudioLeadIn: 0
PreviewTime: -1
Countdown: 0
SampleSet: Soft
StackLeniency: 0.7
Mode: 0
LetterboxInBreaks: 1
WidescreenStoryboard: 0

[Editor]
DistanceSpacing: 0.5
BeatDivisor: 4
GridSize: 4
TimelineZoom: 2.1

[Metadata]
Title:Lilium
TitleUnicode:Lilium
Artist:Kumiko Noma
ArtistUnicode:Kumiko Noma
Creator:kristrace
Version:Lilium
Source:Elfen Lied
Tags:elfen lied,lilium,lucy,uhh what else do you want me to put? that's literally everything
BeatmapID:1533961
BeatmapSetID:726598

[Difficulty]
HPDrainRate:6
CircleSize:3.7
OverallDifficulty:4
ApproachRate:8.5
SliderMultiplier:1.7
SliderTickRate:1

[Events]
//Background and Video events
0,0,"1335197570637.jpg",0,0
//Break Periods
2,13194,14697
2,40246,44697
//Storyboard Layer 0 (Background)
//Storyboard Layer 1 (Fail)
//Storyboard Layer 2 (Pass)
//Storyboard Layer 3 (Foreground)
//Storyboard Sound Samples

[TimingPoints]
3887,535.714285714286,4,2,0,40,1,0
6565,-100,4,2,0,30,0,0
8172,-166.666666666667,4,2,0,40,0,0
11387,-200,4,2,0,20,0,0
17279,-166.666666666667,4,2,0,40,0,0
18351,-166.666666666667,4,2,0,20,0,0
24244,-200,4,2,0,40,0,0
27458,-200,4,2,0,10,0,0
30137,-166.666666666667,4,2,0,30,0,0
31744,-166.666666666667,4,2,0,10,0,0
34958,-100,4,2,0,30,0,0
36029,-166.666666666667,4,2,0,20,0,0
38708,-200,4,2,0,10,0,0
45672,-100,4,2,0,30,0,0
46744,-100,4,2,0,40,0,0
49422,-100,4,2,0,60,0,0
49958,-100,4,2,0,65,0,0
50494,-100,4,2,0,70,0,0
51029,-100,4,3,0,73,0,0
89756,535.714285714286,4,2,0,50,1,0

[Colours]
Combo1 : 230,104,192
Combo2 : 128,0,64
Combo3 : 128,64,64
Combo4 : 175,235,165
Combo5 : 128,128,128

[HitObjects]
76,144,3886,6,0,B|124:108|176:152|176:152|268:152,1,170,2|0,3:0|0:0,0:0:0:0:
276,152,4958,2,0,B|340:152|340:152|356:88|412:84,2,170,0|0|2,0:0|0:0|0:0,0:0:0:0:
164,244,6565,2,0,P|212:264|248:256,1,85
436,164,7101,2,0,P|376:116|312:196,1,170
208,336,8172,6,8,P|264:348|240:240,1,203.999993774414,4|0,0:0|0:0,3:0:0:0:
72,340,9779,2,0,P|40:296|40:264,1,76.4999976654053
96,312,10315,2,0,P|76:272|76:232,1,76.4999976654053,2|0,0:0|0:0,0:0:0:0:
164,160,10851,1,2,0:0:0:0:
328,324,11387,2,0,P|380:312|292:268,1,255,4|0,0:0|0:0,0:0:0:0:
188,148,15672,6,0,P|252:100|312:168,1,170
224,264,17279,2,0,P|188:288|160:288,1,50.9999984436036
192,152,17815,1,2,0:0:0:0:
340,196,18351,6,0,P|412:184|360:96,1,203.999993774414
256,236,19958,1,0,0:0:0:0:
164,144,20494,1,2,0:0:0:0:
76,216,21029,2,0,P|4:204|56:116,1,203.999993774414
224,120,22637,5,0,0:0:0:0:
300,212,23172,2,0,P|344:160|328:136,1,101.999996887207,2|0,0:0|0:0,0:0:0:0:
108,272,24244,2,0,B|144:316|220:236|220:236|288:312|324:264,1,255,6|0,0:0|0:0,0:0:0:0:
216,208,26387,1,6,0:0:0:0:
160,124,27458,6,0,L|260:124,1,85
116,264,28529,2,0,P|196:304|252:256,1,170,2|0,0:0|0:0,0:0:0:0:
304,144,30137,2,0,P|280:116|244:112,1,50.9999984436036
172,192,30672,1,2,0:0:0:0:
252,264,31208,1,0,0:0:0:0:
172,312,31744,6,0,P|232:336|332:304,1,152.999995330811
376,176,32815,2,0,B|292:156|256:88|256:88|224:160|128:180,1,305.999990661621,2|0,0:0|0:0,0:0:0:0:
192,324,34958,6,0,P|244:336|320:316,1,127.5
208,288,35494,2,0,P|264:284|336:248,1,127.5,2|0,0:0|0:0,0:0:0:0:
376,176,36029,2,0,B|292:156|256:88|256:88|224:160|128:180,1,305.999990661621
88,244,38172,1,2,0:0:0:0:
224,340,38708,2,0,L|320:340,1,85
360,228,39779,2,0,L|308:220,1,42.5,2|0,0:0|0:0,0:0:0:0:
192,200,45672,6,0,P|168:160|200:124,1,85
376,168,46208,2,0,P|400:208|376:244,1,85,2|0,0:0|0:0,0:0:0:0:
248,276,46744,2,0,P|196:300|168:284,1,85
128,164,47279,6,0,P|116:116|140:84,1,85,2|0,0:0|0:0,0:0:0:0:
352,144,47815,2,0,L|452:144,1,85,4|0,0:0|0:0,0:0:0:0:
360,328,48351,2,0,L|272:332,1,85,2|0,0:0|0:0,0:0:0:0:
296,176,48887,1,6,0:0:0:0:
192,176,49422,6,0,L|96:180,1,85,2|0,0:0|0:0,0:0:0:0:
360,176,49958,2,2,L|448:180,1,85,4|0,0:0|0:0,0:0:0:0:
144,72,50494,2,0,P|72:68|36:88,1,85,6|0,0:0|0:0,0:0:0:0:
176,296,51029,6,0,P|240:324|296:312,1,127.5
396,224,51565,2,0,P|332:208|300:216,1,85
92,288,52101,2,0,P|168:244|180:204,1,127.5
304,156,52637,2,0,P|264:120|216:116,1,85
40,60,53172,6,0,P|52:140|88:176,1,127.5
196,140,53708,2,0,P|220:176|208:216,1,85
80,320,54244,2,0,P|132:344|208:332,1,127.5
336,288,54779,2,0,P|384:300|456:280,1,85
376,108,55315,5,0,0:0:0:0:
348,76,55448,1,0,0:0:0:0:
310,57,55582,1,0,0:0:0:0:
268,55,55716,1,0,0:0:0:0:
228,69,55850,1,0,0:0:0:0:
198,98,55984,1,0,0:0:0:0:
181,137,56118,1,0,0:0:0:0:
180,179,56252,1,0,0:0:0:0:
192,224,56387,6,0,P|236:256|312:248,1,127.5
480,168,56922,2,0,P|432:132|396:128,1,85
256,192,57458,12,0,59601,0:0:0:0:
