osu file format v14

[General]
AudioFilename: audio.mp3
AudioLeadIn: 0
PreviewTime: 64062
Countdown: 1
SampleSet: Normal
StackLeniency: 0.7
Mode: 0
LetterboxInBreaks: 0
WidescreenStoryboard: 0

[Editor]
Bookmarks: 20128
DistanceSpacing: 1
BeatDivisor: 4
GridSize: 16
TimelineZoom: 2.3

[Metadata]
Title:Guess Who Is Back
TitleUnicode:Guess Who Is Back
Artist:Kumi Koda
ArtistUnicode:Kumi Koda
Creator:imm0rt47
Version:the(SO)r(T)ofm(A)pwhe(R)ethe(K)iaiparti(S)fullofjumps
Source:
Tags:
BeatmapID:1905794
BeatmapSetID:912269

[Difficulty]
HPDrainRate:6
CircleSize:4.6
OverallDifficulty:6
ApproachRate:9.8
SliderMultiplier:1.4
SliderTickRate:1

[Events]
//Background and Video events
0,0,"BlackClover.png",0,0
//Break Periods
//Storyboard Layer 0 (Background)
//Storyboard Layer 1 (Fail)
//Storyboard Layer 2 (Pass)
//Storyboard Layer 3 (Foreground)
//Storyboard Sound Samples

[TimingPoints]
1112,327.868852459016,4,1,0,100,1,0
1112,-133.333333333333,4,1,0,30,0,0
11603,-66.6666666666667,4,1,0,30,0,0
14226,-400,4,1,0,30,0,0
14882,-200,4,1,0,30,0,0
15538,-133.333333333333,4,1,0,30,0,0
16193,-100,4,1,0,30,0,0
21767,-50,4,1,0,30,0,0
22095,-66.6666666666667,4,1,0,30,0,0
29964,-80,4,1,0,30,0,0
31275,-66.6666666666667,4,1,0,30,0,0
36521,-52.6315789473684,4,1,0,30,0,0
37177,-100,4,1,0,30,0,0
37833,-66.6666666666667,4,1,0,30,0,0
42423,-50,4,1,0,30,0,0
43079,-66.6666666666667,4,1,0,30,0,0
48325,-200,4,1,0,30,0,0
48980,-133.333333333333,4,1,0,30,0,0
49636,-100,4,1,0,30,0,0
50292,-80,4,1,0,30,0,0
50948,-66.6666666666667,4,1,0,30,0,0
51931,-50,4,1,0,30,0,0
52259,-200,4,1,0,30,0,0
53243,-50,4,1,0,30,0,0
53571,-40,4,1,0,30,0,1
64062,-66.6666666666667,4,1,0,30,0,1
74554,-66.6666666666667,4,1,0,30,0,0
85046,-100,4,1,0,30,0,0

[Colours]
Combo1 : 255,145,21
Combo2 : 0,143,213
Combo3 : 185,241,14
Combo4 : 254,216,86

[HitObjects]
74,263,1112,6,0,P|101:259|126:258,1,52.5000020027161
204,340,1439,1,0,0:0:0:0:
204,340,1603,2,0,P|259:342|325:332,1,105.000004005432
512,233,2095,2,0,L|436:227,1,52.5000020027161
461,51,2423,6,0,L|385:57,1,52.5000020027161
265,122,2751,2,0,L|340:130,1,52.5000020027161
277,243,3079,5,0,0:0:0:0:
398,134,3243,1,0,0:0:0:0:
189,103,3407,2,0,L|196:174,1,52.5000020027161
49,82,3734,6,0,L|56:11,1,52.5000020027161
106,187,4062,1,0,0:0:0:0:
106,187,4226,2,0,P|161:189|227:179,1,105.000004005432
82,292,4718,2,0,P|51:287|11:287,1,52.5000020027161
177,347,5046,6,0,L|188:293,1,52.5000020027161
286,284,5374,2,0,L|267:224,1,52.5000020027161
406,193,5702,5,0,0:0:0:0:
385,308,5866,1,0,0:0:0:0:
323,162,6030,2,0,L|336:111,1,52.5000020027161
205,199,6357,6,0,P|169:199|134:194,1,52.5000020027161
64,34,6685,1,0,0:0:0:0:
64,34,6849,2,0,P|63:90|75:161,1,105.000004005432
44,304,7341,1,0,0:0:0:0:
153,196,7505,1,0,0:0:0:0:
201,347,7669,6,0,L|215:281,1,52.5000020027161
297,153,7997,2,0,L|307:204,1,52.5000020027161
359,347,8325,5,0,0:0:0:0:
227,219,8489,1,0,0:0:0:0:
429,261,8652,2,0,L|492:255,1,52.5000020027161
244,307,8980,6,0,L|181:301,1,52.5000020027161
260,109,9308,1,0,0:0:0:0:
260,109,9472,2,0,P|265:164|280:222,1,105.000004005432
223,381,9964,1,0,0:0:0:0:
373,282,10128,1,0,0:0:0:0:
211,180,10292,5,0,0:0:0:0:
282,277,10456,1,0,0:0:0:0:
237,95,10620,1,0,0:0:0:0:
192,303,10784,1,0,0:0:0:0:
334,183,10948,5,0,0:0:0:0:
101,124,11111,1,0,0:0:0:0:
282,277,11275,1,0,0:0:0:0:
298,25,11439,1,0,0:0:0:0:
249,327,11603,6,0,B|232:308|217:299|217:299|210:242|210:242|193:217|193:217|189:135|189:135|148:123|148:123|129:105|129:105|99:106|99:106|90:140|97:171|97:171|116:173|128:191|128:191|105:183|81:185|81:185|69:99|107:72|107:72|143:93|143:93|204:95|204:95|255:89|255:89|305:95|305:95|366:93|366:93|402:72|402:72|440:99|428:185|428:185|407:183|384:191|384:191|397:175|414:171|414:171|422:140|410:106|410:106|381:105|381:105|361:123|361:123|322:134|322:134|319:216|319:216|301:242|301:242|294:299|294:299|280:309|260:331,1,1470.00005607605
398,291,14226,6,0,L|396:315,3,17.5
319,274,14882,2,0,L|315:310,3,35
240,256,15538,2,0,L|234:309,3,52.5000020027161
160,238,16193,6,0,L|152:308,1,70
114,127,16521,2,0,L|105:57,1,70
208,162,16849,6,0,P|258:160|332:181,1,105
311,171,17177,2,0,L|363:93,1,70
346,277,17505,2,0,L|294:355,1,70
166,263,17833,5,0,0:0:0:0:
84,341,17997,1,0,0:0:0:0:
34,237,18161,2,0,P|38:178|49:131,1,105
90,154,18489,2,0,P|136:120|183:103,1,105
182,103,18816,6,0,L|193:184,1,70
288,269,19144,2,0,L|299:188,1,70
469,56,19472,6,0,P|452:102|450:185,1,105
446,157,19800,2,0,L|374:142,1,70
201,236,20128,2,0,L|273:221,1,70
376,336,20456,1,0,0:0:0:0:
356,233,20620,1,0,0:0:0:0:
272,338,20784,5,0,0:0:0:0:
351,90,20948,1,0,0:0:0:0:
367,91,21439,5,0,0:0:0:0:
183,324,21603,1,0,0:0:0:0:
256,163,21767,2,0,P|284:192|243:167,1,140
158,242,22095,6,0,L|36:242,1,105.000004005432
0,144,22423,1,0,0:0:0:0:
366,340,22751,5,0,0:0:0:0:
366,340,22915,2,0,B|453:340|453:340|416:303,1,105.000004005432
273,124,23243,5,0,0:0:0:0:
152,293,23407,1,0,0:0:0:0:
327,280,23571,1,0,0:0:0:0:
115,148,23734,5,0,0:0:0:0:
69,233,23898,2,0,L|174:208,1,105.000004005432
415,259,24226,1,0,0:0:0:0:
429,304,24390,2,0,L|324:279,1,105.000004005432
217,79,24718,6,0,L|340:79,1,105.000004005432
462,149,25046,1,0,0:0:0:0:
135,310,25374,5,0,0:0:0:0:
135,310,25538,2,0,B|48:310|48:310|85:273,1,105.000004005432
317,231,25866,5,0,0:0:0:0:
389,92,26030,1,0,0:0:0:0:
210,116,26193,1,0,0:0:0:0:
405,187,26357,1,0,0:0:0:0:
312,31,26521,1,0,0:0:0:0:
239,261,26685,1,0,0:0:0:0:
389,92,26849,5,0,0:0:0:0:
185,196,27013,1,0,0:0:0:0:
450,335,27177,1,0,0:0:0:0:
295,46,27341,6,0,L|295:152,1,105.000004005432
295,297,27669,1,0,0:0:0:0:
53,146,27997,5,0,0:0:0:0:
53,146,28161,2,0,B|138:162|138:162|95:191,1,105.000004005432
257,353,28489,1,0,0:0:0:0:
295,151,28652,1,0,0:0:0:0:
201,291,28816,1,0,0:0:0:0:
366,312,28980,5,0,0:0:0:0:
156,167,29144,2,0,L|50:146,1,105.000004005432
286,312,29472,1,0,0:0:0:0:
360,234,29636,2,0,L|466:213,1,105.000004005432
173,14,29964,6,0,L|199:109,1,87.5
334,67,30292,2,0,L|308:162,1,87.5
123,180,30620,2,0,L|208:228,1,87.5
389,227,30948,2,0,L|303:275,1,87.5
297,374,31275,6,0,L|314:262,1,105.000004005432
208,275,31603,2,0,L|191:180,1,52.5000020027161
180,104,31767,5,0,0:0:0:0:
180,104,31849,1,0,0:0:0:0:
180,104,31931,1,0,0:0:0:0:
319,130,32095,1,0,0:0:0:0:
127,256,32259,1,0,0:0:0:0:
366,335,32423,1,0,0:0:0:0:
264,225,32587,6,0,L|264:288,3,52.5000020027161
264,141,32915,1,0,0:0:0:0:
237,142,32996,1,0,0:0:0:0:
214,153,33079,2,0,P|182:190|177:215,1,52.5000020027161
164,97,33243,2,0,L|164:34,6,52.5000020027161
208,191,33898,5,0,0:0:0:0:
191,204,33980,1,0,0:0:0:0:
171,208,34062,1,0,0:0:0:0:
150,206,34144,1,0,0:0:0:0:
129,202,34226,2,0,P|89:203|62:213,1,52.5000020027161
13,325,34390,5,0,0:0:0:0:
36,313,34471,1,0,0:0:0:0:
62,311,34553,1,0,0:0:0:0:
88,316,34635,1,0,0:0:0:0:
113,323,34718,2,0,P|140:336|188:331,1,52.5000020027161
309,352,34882,5,0,0:0:0:0:
281,332,34963,1,0,0:0:0:0:
270,301,35046,2,0,P|264:246|278:213,1,52.5000020027161
332,111,35210,6,0,P|338:166|324:199,1,52.5000020027161
430,298,35374,2,0,P|424:243|438:210,1,52.5000020027161
495,104,35538,1,0,0:0:0:0:
463,123,35619,1,0,0:0:0:0:
427,128,35702,6,0,P|393:120|344:116,1,52.5000020027161
268,193,35866,2,0,P|302:201|351:205,1,52.5000020027161
467,105,36029,2,0,P|433:97|384:93,1,52.5000020027161
229,217,36193,2,0,P|263:225|312:229,1,52.5000020027161
506,81,36357,2,0,P|472:73|423:69,1,52.5000020027161
190,241,36521,6,0,P|310:250|176:178,1,398.999989345551
334,257,37177,6,0,L|391:267,2,46.6666666666667
255,193,37505,2,0,L|198:203,2,46.6666666666667
359,93,37833,6,0,P|418:105|481:138,1,105.000004005432
512,204,38161,1,0,0:0:0:0:
500,228,38489,2,0,P|441:240|378:273,1,105.000004005432
311,343,38816,5,0,0:0:0:0:
311,343,38980,2,0,P|252:331|189:298,1,105.000004005432
18,262,39308,1,0,0:0:0:0:
18,262,39472,2,0,P|77:250|140:217,1,105.000004005432
192,90,39800,6,0,P|257:124|284:162,1,105.000004005432
374,109,40128,2,0,P|377:182|357:224,1,105.000004005432
212,327,40456,6,0,P|205:275|219:225,1,105.000004005432
374,109,40784,1,0,0:0:0:0:
390,150,41111,2,0,P|339:135|288:142,1,105.000004005432
158,223,41439,5,0,0:0:0:0:
158,223,41603,2,0,P|107:210|65:178,1,105.000004005432
258,304,41931,1,0,0:0:0:0:
258,304,42095,1,0,0:0:0:0:
357,128,42259,1,0,0:0:0:0:
254,55,42423,6,0,P|269:106|257:205,1,140
348,349,42751,2,0,P|333:298|345:199,1,140
157,314,43079,6,0,P|106:328|53:321,1,105.000004005432
118,138,43407,2,0,L|196:221,1,105.000004005432
98,171,43734,6,0,P|139:202|190:215,1,105.000004005432
443,68,44062,5,0,0:0:0:0:
333,50,44226,2,0,P|301:91|288:142,1,105.000004005432
291,326,44554,1,0,0:0:0:0:
301,306,44718,2,0,P|280:257|243:221,1,105.000004005432
98,167,45046,5,0,0:0:0:0:
210,307,45210,1,0,0:0:0:0:
203,88,45374,1,0,0:0:0:0:
123,308,45538,1,0,0:0:0:0:
301,51,45702,6,0,P|307:102|293:153,1,105.000004005432
133,275,46030,2,0,L|34:227,1,105.000004005432
39,230,46357,6,0,P|90:223|141:237,1,105.000004005432
323,363,46685,5,0,0:0:0:0:
423,291,46849,2,0,P|436:240|430:188,1,105.000004005432
352,29,47177,1,0,0:0:0:0:
320,220,47341,1,0,0:0:0:0:
431,84,47505,1,0,0:0:0:0:
305,230,47669,5,0,0:0:0:0:
352,29,47833,1,0,0:0:0:0:
349,300,47997,1,0,0:0:0:0:
269,56,48161,1,0,0:0:0:0:
206,291,48325,6,0,L|234:188,1,105
264,129,48980,2,0,L|222:280,1,157.500006008148
158,311,49636,6,0,L|269:122,1,210
328,72,50292,2,0,L|193:297,1,262.5
203,212,50948,5,0,0:0:0:0:
309,172,51111,1,0,0:0:0:0:
216,259,51275,5,0,0:0:0:0:
293,130,51439,1,0,0:0:0:0:
285,297,51603,6,0,L|261:242,1,52.5000020027161
227,87,51767,2,0,L|251:142,1,52.5000020027161
401,276,51931,6,0,L|315:241,1,70
111,108,52095,2,0,L|197:143,1,70
257,244,52259,6,0,L|256:187,1,52.5
294,105,52587,5,0,0:0:0:0:
284,107,52915,1,0,0:0:0:0:
274,111,53243,2,0,P|198:153|294:172,1,210
273,197,53571,2,0,B|319:279|319:279|303:357,1,175
108,95,53898,5,0,0:0:0:0:
52,225,54062,1,0,0:0:0:0:
204,197,54226,2,0,B|285:245|285:245|310:320,1,175
1,179,54554,5,0,0:0:0:0:
31,330,54718,1,0,0:0:0:0:
141,224,54882,6,0,B|235:225|235:225|295:277,1,175
274,157,55210,2,0,B|423:289,1,175
335,24,55538,2,0,B|333:106|333:106|402:168,1,175
474,332,55866,2,0,B|432:311|409:272|409:272|356:259|307:272|307:272|326:217|298:155|240:142,1,350
236,334,56357,5,0,0:0:0:0:
173,94,56521,1,0,0:0:0:0:
168,287,56685,1,0,0:0:0:0:
247,144,56849,2,0,B|286:224|286:224|286:314,1,175
82,97,57177,5,0,0:0:0:0:
190,277,57341,1,0,0:0:0:0:
173,94,57505,2,0,B|246:143|246:143|285:222,1,175
14,105,57833,5,0,0:0:0:0:
197,206,57997,1,0,0:0:0:0:
141,36,58161,5,0,0:0:0:0:
297,247,58325,1,0,0:0:0:0:
279,8,58489,5,0,0:0:0:0:
393,283,58652,1,0,0:0:0:0:
502,61,58816,2,0,P|409:81|323:130,1,175
320,302,59144,5,0,0:0:0:0:
475,223,59308,1,0,0:0:0:0:
263,68,59472,2,0,P|233:158|233:257,1,175
320,302,59800,5,0,0:0:0:0:
358,143,59964,1,0,0:0:0:0:
156,213,60128,38,0,P|81:206|125:157,1,175
255,153,60456,2,0,P|295:210|222:208,1,175
155,100,60784,2,0,P|185:36|218:101,1,175
169,306,61111,2,0,B|168:309|137:341|137:341|189:334|237:341|237:341|205:308|189:268|189:268|189:154,1,350
47,76,61603,5,0,0:0:0:0:
189,226,61767,1,0,0:0:0:0:
31,200,61931,1,0,0:0:0:0:
31,200,62013,1,0,0:0:0:0:
31,200,62095,2,0,B|73:201|97:172|97:172|127:183|127:183|153:154|188:152,1,175
110,258,62423,5,0,0:0:0:0:
144,39,62587,1,0,0:0:0:0:
144,39,62669,1,0,0:0:0:0:
144,39,62751,1,0,0:0:0:0:
214,136,62915,1,0,0:0:0:0:
286,39,63079,5,0,0:0:0:0:
222,159,63243,1,0,0:0:0:0:
160,39,63407,5,0,0:0:0:0:
230,182,63571,1,0,0:0:0:0:
302,39,63734,5,0,0:0:0:0:
238,205,63898,1,0,0:0:0:0:
139,76,64062,5,0,0:0:0:0:
275,268,64226,1,0,0:0:0:0:
283,104,64390,5,0,0:0:0:0:
199,305,64554,1,0,0:0:0:0:
353,132,64718,5,0,0:0:0:0:
435,314,64882,1,0,0:0:0:0:
463,103,65046,5,0,0:0:0:0:
348,278,65210,1,0,0:0:0:0:
265,56,65374,5,0,0:0:0:0:
422,216,65538,1,0,0:0:0:0:
168,84,65702,5,0,0:0:0:0:
391,135,65866,1,0,0:0:0:0:
172,211,66030,5,0,0:0:0:0:
319,50,66193,1,0,0:0:0:0:
283,241,66357,5,0,0:0:0:0:
190,47,66521,1,0,0:0:0:0:
193,285,66685,5,0,0:0:0:0:
278,87,66849,1,0,0:0:0:0:
283,361,67013,5,0,0:0:0:0:
198,163,67177,1,0,0:0:0:0:
88,277,67341,5,0,0:0:0:0:
283,167,67505,1,0,0:0:0:0:
85,91,67669,5,0,0:0:0:0:
235,243,67833,1,0,0:0:0:0:
235,243,67915,1,0,0:0:0:0:
235,243,67997,5,0,0:0:0:0:
102,283,68161,1,0,0:0:0:0:
231,262,68325,5,0,0:0:0:0:
94,181,68489,1,0,0:0:0:0:
227,284,68652,5,0,0:0:0:0:
173,83,68816,1,0,0:0:0:0:
221,308,68980,5,0,0:0:0:0:
340,62,69144,1,0,0:0:0:0:
317,325,69308,5,0,0:0:0:0:
256,32,69472,1,0,0:0:0:0:
171,372,69636,5,0,0:0:0:0:
304,113,69800,1,0,0:0:0:0:
50,324,69964,5,0,0:0:0:0:
321,224,70128,1,0,0:0:0:0:
84,89,70292,5,0,0:0:0:0:
171,372,70456,1,0,0:0:0:0:
391,143,70620,5,0,0:0:0:0:
124,309,70784,1,0,0:0:0:0:
446,267,70948,5,0,0:0:0:0:
150,129,71111,1,0,0:0:0:0:
397,346,71275,5,0,0:0:0:0:
314,57,71439,1,0,0:0:0:0:
199,381,71603,5,0,0:0:0:0:
442,209,71767,1,0,0:0:0:0:
100,222,71931,5,0,0:0:0:0:
411,313,72095,1,0,0:0:0:0:
50,353,72259,5,0,0:0:0:0:
371,240,72423,1,0,0:0:0:0:
7,228,72587,5,0,0:0:0:0:
329,310,72751,1,0,0:0:0:0:
238,64,72915,5,0,0:0:0:0:
93,349,73079,1,0,0:0:0:0:
93,349,73161,1,0,0:0:0:0:
93,349,73243,5,0,0:0:0:0:
170,182,73407,1,0,0:0:0:0:
237,310,73571,5,0,0:0:0:0:
133,108,73734,1,0,0:0:0:0:
235,334,73898,5,0,0:0:0:0:
311,81,74061,1,0,0:0:0:0:
234,353,74226,5,0,0:0:0:0:
172,35,74390,1,0,0:0:0:0:
368,337,74554,2,0,P|376:270|391:230,1,105.000004005432
492,164,74882,1,0,0:0:0:0:
492,164,75210,5,0,0:0:0:0:
510,48,75374,1,0,0:0:0:0:
395,46,75538,1,0,0:0:0:0:
412,163,75702,1,0,0:0:0:0:
304,202,75866,2,0,P|203:184|165:192,1,105.000004005432
34,125,76193,5,0,0:0:0:0:
34,125,76357,2,0,P|16:24|25:-10,1,105.000004005432
135,267,76685,1,0,0:0:0:0:
135,267,76849,2,0,P|153:368|144:402,1,105.000004005432
16,226,77177,6,0,P|16:173|33:124,1,105.000004005432
123,57,77505,1,0,0:0:0:0:
123,57,77833,5,0,0:0:0:0:
225,125,77997,1,0,0:0:0:0:
216,247,78161,1,0,0:0:0:0:
105,301,78325,1,0,0:0:0:0:
388,253,78489,2,0,P|440:252|489:235,1,105.000004005432
327,60,78816,5,0,0:0:0:0:
280,139,78980,2,0,P|280:191|297:240,1,105.000004005432
407,384,79308,1,0,0:0:0:0:
451,311,79472,2,0,P|451:259|434:210,1,105.000004005432
270,340,79800,6,0,P|220:357|168:357,1,105.000004005432
71,305,80128,1,0,0:0:0:0:
71,305,80456,5,0,0:0:0:0:
227,250,80620,1,0,0:0:0:0:
106,160,80784,1,0,0:0:0:0:
169,318,80948,1,0,0:0:0:0:
195,166,81111,2,0,P|218:118|255:81,1,105.000004005432
341,269,81439,5,0,0:0:0:0:
341,269,81603,2,0,P|311:225|298:174,1,105.000004005432
503,195,81931,1,0,0:0:0:0:
503,195,82095,2,0,P|450:198|400:185,1,105.000004005432
237,0,82423,2,0,P|223:50|227:102,1,105.000004005432
291,193,82751,1,0,0:0:0:0:
201,242,82915,5,0,0:0:0:0:
201,242,82997,1,0,0:0:0:0:
201,242,83079,1,0,0:0:0:0:
227,102,83243,1,0,0:0:0:0:
286,285,83407,1,0,0:0:0:0:
142,158,83571,1,0,0:0:0:0:
380,222,83734,5,0,0:0:0:0:
165,315,83898,1,0,0:0:0:0:
311,111,84062,1,0,0:0:0:0:
367,354,84226,1,0,0:0:0:0:
45,149,84390,6,0,P|110:133|176:177,1,105.000004005432
144,145,84636,2,0,P|145:225|187:262,1,105.000004005432
237,290,84882,2,0,P|236:210|226:199,1,52.5000020027161
160,335,85046,6,0,P|89:343|-3:340,1,140
246,209,85538,1,0,0:0:0:0:
246,209,85702,2,0,P|312:203|399:204,1,140
157,242,86193,5,0,0:0:0:0:
157,242,86357,2,0,P|146:203|145:157,1,70
181,62,86685,1,0,0:0:0:0:
284,220,86849,5,0,0:0:0:0:
284,220,86931,1,0,0:0:0:0:
284,220,87013,1,0,0:0:0:0:
365,35,87177,1,0,0:0:0:0:
78,131,87341,1,0,0:0:0:0:
375,294,87505,1,0,0:0:0:0:
