osu file format v14

[General]
AudioFilename: audio.mp3
AudioLeadIn: 0
PreviewTime: 46451
Countdown: 0
SampleSet: Soft
StackLeniency: 0.7
Mode: 2
LetterboxInBreaks: 0
WidescreenStoryboard: 0

[Editor]
DistanceSpacing: 0.5
BeatDivisor: 4
GridSize: 8
TimelineZoom: 1.5

[Metadata]
Title:Hallucination
TitleUnicode:ハルシネヰション
Artist:Kumakuma
ArtistUnicode:くまくまっ
Creator:RoseusJaeger
Version:Platter
Source:古書店街の橋姫
Tags:Koshotengai no Hashihime of Old Book Town yaoi bl boys love ADELTA vn visual novel 灰色logic 六歌 Paranoid Grapes
BeatmapID:1032921
BeatmapSetID:476944

[Difficulty]
HPDrainRate:5
CircleSize:3.5
OverallDifficulty:8
ApproachRate:8
SliderMultiplier:1.85
SliderTickRate:1

[Events]
//Background and Video events
0,0,"kobg.jpg",0,0
Video,0,"op.avi"
//Break Periods
//Storyboard Layer 0 (Background)
//Storyboard Layer 1 (Fail)
//Storyboard Layer 2 (Pass)
//Storyboard Layer 3 (Foreground)
//Storyboard Sound Samples

[TimingPoints]
726,365.853658536585,3,2,1,40,1,0
46823,-100,3,2,1,50,0,1
66573,365.853658536585,4,2,1,55,1,0
66573,-100,3,2,1,55,0,0
90354,-100,3,2,1,5,0,0

[Colours]
Combo1 : 85,251,234
Combo2 : 255,6,255
Combo3 : 163,70,255
Combo4 : 48,92,224

[HitObjects]
320,200,726,5,0,0:0:0:0:
148,208,1091,2,0,P|76:152|100:64,1,185,0|0,0:0|0:0,0:0:0:0:
372,200,1823,2,0,P|464:168|500:80,2,185,0|0|0,0:0|0:0|0:0,0:0:0:0:
108,192,2921,5,0,0:0:0:0:
268,200,3286,1,0,0:0:0:0:
428,200,3652,1,0,0:0:0:0:
132,224,4018,2,0,P|84:168|12:80,2,185,0|0|0,0:0|0:0|0:0,0:0:0:0:
428,288,5116,2,0,P|492:184|296:60,1,370
228,200,6030,1,0,0:0:0:0:
52,200,6213,5,0,0:0:0:0:
204,200,6579,1,0,0:0:0:0:
52,200,6945,1,0,0:0:0:0:
280,204,7311,2,0,P|372:148|388:48,1,185,0|0,0:0|0:0,0:0:0:0:
288,88,7860,1,0,0:0:0:0:
192,96,8043,1,0,0:0:0:0:
476,200,8408,5,8,0:0:0:0:
316,192,8774,1,0,0:0:0:0:
476,200,9140,1,0,0:0:0:0:
44,152,9506,2,0,B|20:248|20:248|76:336,1,185,4|0,0:0|0:0,0:0:0:0:
364,280,10238,2,0,L|456:280,1,92.5,0|0,0:0|0:0,0:0:0:0:
276,208,10604,6,0,P|164:156|156:76,1,185,8|0,0:0|0:0,0:0:0:0:
336,208,11335,1,0,0:0:0:0:
44,216,11701,2,0,P|40:144|156:80,1,185,0|0,0:0|0:0,0:0:0:0:
324,208,12433,1,0,0:0:0:0:
124,200,12677,1,0,0:0:0:0:
84,176,12799,1,8,0:0:0:0:
252,208,13165,5,0,0:0:0:0:
64,192,13530,1,0,0:0:0:0:
356,240,13896,2,0,P|444:196|396:120,1,185
204,224,14506,2,0,P|148:184|140:120,1,123.333333333333
452,200,14994,1,8,0:0:0:0:
276,196,15360,5,0,0:0:0:0:
436,192,15725,1,0,0:0:0:0:
156,192,16091,2,0,P|100:132|164:40,1,185,0|0,0:0|0:0,0:0:0:0:
324,192,16823,1,0,0:0:0:0:
36,192,17189,2,0,P|88:256|260:168,1,277.5,0|0,0:0|0:0,0:0:0:0:
148,176,17921,1,0,0:0:0:0:
444,200,18286,6,0,P|484:104|396:40,1,185,4|0,0:0|0:0,0:0:0:0:
256,204,19018,1,0,0:0:0:0:
420,208,19384,1,0,0:0:0:0:
256,204,19750,1,0,0:0:0:0:
92,200,20116,1,0,0:0:0:0:
388,200,20482,5,0,0:0:0:0:
196,208,20847,2,0,P|272:180|380:128,1,185,0|0,0:0|0:0,0:0:0:0:
148,196,21579,2,0,P|88:164|172:88,1,185,0|0,0:0|0:0,0:0:0:0:
340,200,22311,6,0,L|388:112,1,92.5,0|0,0:0|0:0,0:0:0:0:
212,200,22677,2,0,B|140:144|140:144|216:160|268:144,1,185,0|0,0:0|0:0,0:0:0:0:
412,208,23408,1,0,0:0:0:0:
252,208,23774,1,0,0:0:0:0:
412,208,24140,1,0,0:0:0:0:
124,200,24506,1,0,0:0:0:0:
412,192,24872,6,0,P|340:280|92:224,1,370,0|0,0:0|0:0,0:0:0:0:
412,192,25969,1,0,0:0:0:0:
252,192,26335,1,0,0:0:0:0:
404,192,26701,6,0,L|452:104,1,92.5,0|0,0:0|0:0,0:0:0:0:
188,192,27067,1,4,0:0:0:0:
356,192,27433,1,0,0:0:0:0:
188,192,27799,1,0,0:0:0:0:
476,256,28165,2,0,P|492:184|388:120,1,185,0|0,0:0|0:0,0:0:0:0:
252,192,28896,1,0,0:0:0:0:
60,208,29262,6,0,L|252:200,1,185,0|0,0:0|0:0,0:0:0:0:
44,188,29994,2,0,P|28:144|44:96,1,92.5,0|0,0:0|0:0,0:0:0:0:
164,196,30360,2,0,B|292:184|292:184|204:184,1,185,0|0,0:0|0:0,0:0:0:0:
68,192,31091,1,0,0:0:0:0:
340,196,31457,6,0,B|436:192|436:192|332:192,1,185,0|0,0:0|0:0,0:0:0:0:
196,200,32189,2,0,P|172:128|260:80,1,185,0|0,0:0|0:0,0:0:0:0:
432,196,32921,1,0,0:0:0:0:
192,208,33286,1,0,0:0:0:0:
476,208,33652,6,0,B|456:156|412:148|376:180|376:180|312:132|180:200|180:200|220:160,1,370,0|0,0:0|0:0,0:0:0:0:
340,88,34750,1,0,0:0:0:0:
204,136,35024,2,0,L|236:96,1,46.25
444,176,35390,2,0,L|476:120,1,46.25
20,80,35847,6,0,P|140:312|228:320,1,370,4|0,0:0|0:0,0:0:0:0:
380,224,36945,1,0,0:0:0:0:
220,224,37311,1,0,0:0:0:0:
380,224,37677,1,0,0:0:0:0:
60,192,38043,6,0,B|20:336|20:336|100:304|252:256,1,370
396,208,39140,2,0,P|204:160|28:208,1,370
476,288,40238,6,8,P|492:128|316:56,1,370,8|0,0:0|0:0,0:0:0:0:
20,248,41335,2,0,B|20:64|20:64|184:200,1,370,4|0,0:0|0:0,0:0:0:0:
444,232,42433,6,0,L|500:136,1,92.5,4|0,0:0|0:0,0:0:0:0:
436,232,42799,2,0,L|220:232,1,185,0|0,0:0|0:0,0:0:0:0:
404,208,43530,1,0,0:0:0:0:
244,208,43896,1,0,0:0:0:0:
84,160,44262,2,0,L|196:160,1,92.5,0|0,0:0|0:0,0:0:0:0:
292,200,44628,6,0,P|308:136|212:112,1,185,0|0,0:0|0:0,0:0:0:0:
140,192,45177,1,0,0:0:0:0:
52,192,45360,1,0,0:0:0:0:
348,208,45725,2,0,P|380:256|468:168,1,185,4|0,0:0|0:0,0:0:0:0:
180,200,46457,1,4,0:0:0:0:
124,184,46640,1,0,0:0:0:0:
368,200,46823,6,0,P|436:168|324:40,1,277.5,4|0,0:0|0:0,0:0:0:0:
260,200,47555,1,0,0:0:0:0:
36,240,47921,2,0,P|20:192|172:72,1,277.5,8|0,0:0|0:0,0:0:0:0:
364,200,48652,2,4,L|380:88,1,92.5,0|0,0:0|0:0,0:0:0:0:
108,200,49018,5,0,0:0:0:0:
268,208,49384,1,0,0:0:0:0:
116,200,49750,2,4,L|92:104,1,92.5,0|0,0:0|0:0,0:0:0:0:
372,216,50116,1,8,0:0:0:0:
140,204,50847,6,0,L|124:104,1,92.5,0|0,0:0|0:0,0:0:0:0:
376,256,51213,2,0,P|456:216|480:120,1,185
292,192,51945,1,0,0:0:0:0:
12,200,52311,2,0,P|32:256|148:320,1,185,0|0,0:0|0:0,0:0:0:0:
332,232,53043,1,0,0:0:0:0:
388,176,53225,1,0,0:0:0:0:
236,208,53408,6,0,B|180:200|180:200|244:196|316:192,1,185,0|0,0:0|0:0,0:0:0:0:
500,200,54140,2,0,P|440:160|420:136,1,92.5,0|0,0:0|0:0,0:0:0:0:
172,208,54506,2,0,P|124:152|188:56,1,185,8|0,0:0|0:0,0:0:0:0:
348,208,55238,1,0,0:0:0:0:
388,152,55421,1,0,0:0:0:0:
128,208,55604,6,0,P|44:128|156:48,1,277.5,4|0,0:0|0:0,0:0:0:0:
236,184,56335,1,0,0:0:0:0:
476,192,56701,2,0,L|284:192,1,185,8|0,0:0|0:0,0:0:0:0:
84,192,57433,1,0,0:0:0:0:
324,204,57799,6,8,B|404:144|404:144|316:200,1,185,0|0,0:0|0:0,0:0:0:0:
156,208,58530,2,0,P|164:184|228:128,1,92.5,0|0,0:0|0:0,0:0:0:0:
468,200,58896,2,8,P|460:112|364:96,1,185,8|0,0:0|0:0,0:0:0:0:
156,240,59628,5,0,0:0:0:0:
92,224,59811,1,0,0:0:0:0:
268,232,59994,2,0,P|324:200|284:96,1,185
140,208,60725,1,0,0:0:0:0:
428,200,61091,6,0,P|356:272|268:288,1,185,0|0,0:0|0:0,0:0:0:0:
60,204,61823,1,0,0:0:0:0:
356,240,62189,2,0,B|420:184|444:88|444:88|368:112|240:120|188:56|188:56|100:128,1,555,0|8,0:0|0:0,0:0:0:0:
284,208,63652,1,0,0:0:0:0:
96,200,64018,1,0,0:0:0:0:
380,320,64384,6,0,P|428:264|260:88,1,370
172,152,65299,1,0,0:0:0:0:
420,232,65482,5,4,0:0:0:0:
484,200,65665,1,0,0:0:0:0:
420,232,65847,1,0,0:0:0:0:
236,216,66030,1,0,0:0:0:0:
164,216,66213,1,4,0:0:0:0:
92,216,66396,1,0,0:0:0:0:
364,240,66573,6,0,P|412:184|340:128,1,185,4|0,0:0|0:0,0:0:0:0:
244,200,67121,2,0,L|44:200,1,185,0|0,0:0|0:0,0:0:0:0:
156,200,67670,2,0,L|44:200,1,92.5,0|0,0:0|0:0,0:0:0:0:
236,200,68036,6,0,L|268:96,1,92.5,0|0,0:0|0:0,0:0:0:0:
100,208,68402,2,0,L|32:128,1,92.5,0|0,0:0|0:0,0:0:0:0:
140,208,68768,2,0,P|244:212|284:144,1,185,0|0,0:0|0:0,0:0:0:0:
188,200,69317,1,0,0:0:0:0:
28,204,69500,5,0,0:0:0:0:
92,212,69683,1,0,0:0:0:0:
156,220,69866,1,0,0:0:0:0:
92,212,70049,1,0,0:0:0:0:
380,200,70415,5,0,0:0:0:0:
444,192,70598,1,0,0:0:0:0:
499,182,70780,1,0,0:0:0:0:
348,200,70963,6,0,L|284:112,1,92.5,0|0,0:0|0:0,0:0:0:0:
380,200,71329,1,0,0:0:0:0:
460,200,71512,1,0,0:0:0:0:
308,200,71695,2,0,L|116:200,1,185,0|0,0:0|0:0,0:0:0:0:
212,112,72244,1,0,0:0:0:0:
380,200,72427,5,4,0:0:0:0:
420,168,72518,1,0,0:0:0:0:
428,112,72610,1,0,0:0:0:0:
412,64,72701,1,0,0:0:0:0:
364,40,72793,1,0,0:0:0:0:
172,224,72976,5,0,0:0:0:0:
268,216,73159,1,0,0:0:0:0:
316,184,73250,1,0,0:0:0:0:
332,128,73341,1,0,0:0:0:0:
316,72,73433,1,0,0:0:0:0:
268,40,73524,1,0,0:0:0:0:
104,212,73707,6,0,P|44:192|20:160,1,92.5,0|0,0:0|0:0,0:0:0:0:
132,200,74073,1,0,0:0:0:0:
228,200,74256,1,0,0:0:0:0:
132,200,74439,1,0,0:0:0:0:
380,196,74805,2,0,L|476:192,2,92.5,0|0|0,0:0|0:0|0:0,0:0:0:0:
216,208,75354,5,0,0:0:0:0:
120,204,75537,1,0,0:0:0:0:
216,208,75719,1,0,0:0:0:0:
120,204,75902,1,0,0:0:0:0:
336,200,76268,6,0,L|428:184,1,92.5,0|0,0:0|0:0,0:0:0:0:
276,208,76634,1,0,0:0:0:0:
180,192,76817,1,0,0:0:0:0:
116,192,77000,1,0,0:0:0:0:
372,184,77183,5,8,0:0:0:0:
420,188,77274,1,0,0:0:0:0:
448,188,77366,1,0,0:0:0:0:
304,192,77549,1,0,0:0:0:0:
256,192,77640,1,0,0:0:0:0:
224,188,77732,1,0,0:0:0:0:
384,192,77915,1,0,0:0:0:0:
432,192,78006,1,0,0:0:0:0:
464,188,78098,1,0,0:0:0:0:
204,208,78280,6,0,P|124:180|116:80,1,185,0|0,0:0|0:0,0:0:0:0:
216,196,78829,1,0,0:0:0:0:
116,192,79012,1,0,0:0:0:0:
216,196,79195,1,0,0:0:0:0:
364,208,79378,2,0,L|412:120,1,92.5,0|0,0:0|0:0,0:0:0:0:
152,196,79744,6,0,L|60:192,2,92.5,0|0|0,0:0|0:0|0:0,0:0:0:0:
300,200,80293,1,0,0:0:0:0:
156,200,80567,1,0,0:0:0:0:
116,192,80659,1,0,0:0:0:0:
100,176,80750,1,0,0:0:0:0:
100,176,80841,1,0,0:0:0:0:
116,192,80933,1,0,0:0:0:0:
156,200,81024,1,0,0:0:0:0:
317,197,81207,6,0,B|421:183|421:183|316:200,1,185,0|0,0:0|0:0,0:0:0:0:
100,216,81938,1,0,0:0:0:0:
12,152,82213,1,0,0:0:0:0:
100,80,82488,1,0,0:0:0:0:
288,204,82671,6,0,P|352:196|388:72,1,185,0|0,0:0|0:0,0:0:0:0:
300,200,83219,1,0,0:0:0:0:
204,200,83402,1,0,0:0:0:0:
300,200,83585,1,0,0:0:0:0:
396,200,83768,2,0,P|420:160|420:96,1,92.5,0|0,0:0|0:0,0:0:0:0:
180,208,84133,5,8,0:0:0:0:
140,184,84225,1,0,0:0:0:0:
116,144,84316,1,0,0:0:0:0:
108,88,84408,1,0,0:0:0:0:
124,32,84499,1,0,0:0:0:0:
160,32,84591,1,0,0:0:0:0:
192,40,84682,1,0,0:0:0:0:
340,200,84866,6,0,P|416:188|452:168,2,92.5,0|0|0,0:0|0:0|0:0,0:0:0:0:
188,200,85415,1,0,0:0:0:0:
284,200,85598,2,0,P|336:144|356:96,1,92.5,0|0,0:0|0:0,0:0:0:0:
244,200,85963,1,0,0:0:0:0:
76,200,86146,1,0,0:0:0:0:
76,200,86512,5,0,0:0:0:0:
172,200,86695,1,0,0:0:0:0:
76,200,86878,1,0,0:0:0:0:
236,208,87061,1,0,0:0:0:0:
332,216,87244,1,0,0:0:0:0:
428,224,87427,1,0,0:0:0:0:
268,208,87610,1,0,0:0:0:0:
428,224,87976,2,0,L|340:168,2,92.5,0|0|0,0:0|0:0|0:0,0:0:0:0:
268,192,88524,5,4,0:0:0:0:
220,196,88616,1,0,0:0:0:0:
268,192,88707,1,0,0:0:0:0:
412,200,88890,1,4,0:0:0:0:
460,200,88982,1,0,0:0:0:0:
412,200,89073,1,0,0:0:0:0:
268,192,89256,5,8,0:0:0:0:
228,172,89348,1,0,0:0:0:0:
220,116,89439,1,0,0:0:0:0:
228,172,89530,1,0,0:0:0:0:
264,204,89622,1,8,0:0:0:0:
316,212,89713,1,0,0:0:0:0:
364,204,89805,1,0,0:0:0:0:
108,184,89988,5,4,0:0:0:0:
256,192,90354,12,0,95841,0:0:0:0:
