osu file format v14

[General]
AudioFilename: Kumakumatsu Harushinewishon.mp3
AudioLeadIn: 1600
PreviewTime: 46337
Countdown: 0
SampleSet: Soft
StackLeniency: 0.2
Mode: 0
LetterboxInBreaks: 0
WidescreenStoryboard: 0

[Editor]
DistanceSpacing: 1.7
BeatDivisor: 4
GridSize: 32
TimelineZoom: 2.7

[Metadata]
Title:Hallucination
TitleUnicode:ハルシネヰション
Artist:Kumakuma
ArtistUnicode:くまくまっ
Creator:Kyouren
Version:Easy
Source:古書店街の橋姫
Tags:Koshotengai no Hashihime of the Old Book Town yaoi bl boys boy love shounen ai adelta くろさわ凜子 kurosawa rinko vn visual novel mystery murder psychedelic 灰色logic 灰色 logic 六歌 Rokka ナオ Nao Studio KPP opening theme song ost original soundtrack pv promotional short version ver. traditional taisho taishou era japan japanese folk jpop j-pop pop video game male vocalist vocals vocal kittyadventure gokugohan12468 -_ascended_- ascended -ascended- kaedeharakazuha kaedehara kazuha addy2607 hazu hazu- mononymous arronchu1207 chu homosexual gay lgbt lgbtqia+ pride ボーイズ ラブ ビーエル やおい 少年愛 shōnen-ai shounen-ai
BeatmapID:3648879
BeatmapSetID:1781795

[Difficulty]
HPDrainRate:2
CircleSize:3
OverallDifficulty:2.5
ApproachRate:3
SliderMultiplier:0.84
SliderTickRate:1

[Events]
//Background and Video events
Video,-1900,"VD.mp4"
0,0,"EasyBG.jpg",0,0
//Break Periods
//Storyboard Layer 0 (Background)
//Storyboard Layer 1 (Fail)
//Storyboard Layer 2 (Pass)
//Storyboard Layer 3 (Foreground)
//Storyboard Layer 4 (Overlay)
//Storyboard Sound Samples

[TimingPoints]
728,365.853658536585,3,2,1,50,1,0
728,-100,3,2,1,50,0,0
8410,-100,3,2,1,50,0,0
9142,-100,3,2,2,50,0,0
9508,-100,3,2,1,50,0,0
17191,-100,3,2,1,50,0,0
17923,-100,3,2,1,50,0,0
18288,-100,3,2,1,50,0,0
18380,-100,3,2,1,60,0,0
35484,-100,3,2,1,60,0,0
35849,-100,3,2,1,60,0,0
38045,-100,3,2,1,60,0,0
39142,-100,3,2,1,60,0,0
40240,-100,3,2,1,60,0,0
41337,-100,3,2,1,60,0,0
42435,-100,3,2,1,60,0,0
43532,-100,3,2,1,60,0,0
44630,-100,3,2,1,60,0,0
45727,-100,3,2,1,60,0,0
46459,-100,3,2,1,60,0,0
46817,365.853658536585,3,2,1,70,1,1
46817,-100,3,2,1,70,0,1
47915,-100,3,2,1,70,0,1
48646,-100,3,2,1,70,0,1
49012,-100,3,2,1,70,0,1
50110,-100,3,2,1,70,0,1
50841,-100,3,2,1,70,0,1
52305,-100,3,2,1,70,0,1
53402,-100,3,2,1,70,0,1
54500,-100,3,2,1,70,0,1
55232,-100,3,2,1,70,0,1
55598,-100,3,2,1,70,0,1
56695,-100,3,2,1,70,0,1
57305,-100,3,2,1,70,0,1
57793,-100,3,2,1,70,0,1
58890,-100,3,2,1,70,0,1
59622,-100,3,2,1,70,0,1
61085,-100,3,2,1,70,0,1
62183,-100,3,2,1,70,0,1
66390,-100,3,2,1,70,0,1
66573,365.853658536585,4,2,3,60,1,0
66573,-100,4,2,3,60,0,0
84133,-100,4,2,3,60,0,0
85597,-100,4,2,3,60,0,0
90079,-100,4,2,1,5,0,0

[Colours]
Combo1 : 100,60,183
Combo2 : 49,82,136
Combo3 : 22,138,171
Combo4 : 64,52,84

[HitObjects]
25,75,728,6,0,B|90:21|90:21|165:55,1,168,2|2,0:0|0:0,0:0:0:0:
258,59,1825,2,0,L|247:226,1,168,2|2,0:0|0:0,0:0:0:0:
303,300,2923,2,0,P|384:302|440:243,1,168,2|2,0:0|0:0,0:0:0:0:
509,182,4020,2,0,L|498:14,1,168,2|2,0:0|0:0,0:0:0:0:
408,35,5118,5,2,0:0:0:0:
223,24,5849,1,2,0:0:0:0:
145,74,6215,2,0,L|150:157,1,84,2|2,0:0|0:0,0:0:0:0:
82,221,6947,1,2,0:0:0:0:
120,304,7313,6,0,B|213:298|196:343|282:335,1,168,2|2,0:0|0:0,0:0:0:0:
373,350,8410,2,0,P|414:351|448:328,1,84,8|0,0:0|1:0,0:0:0:0:
470,238,9142,1,4,0:0:0:0:
404,172,9508,6,0,P|320:179|240:204,1,168,4|2,0:0|1:2,0:0:0:0:
160,156,10606,2,0,P|149:115|154:74,1,84,8|2,0:0|0:0,0:0:0:0:
230,21,11337,1,2,1:2:0:0:
318,47,11703,2,0,P|400:35|480:58,1,168,2|0,1:2|1:0,0:0:0:0:
504,148,12801,1,8,0:0:0:0:
464,328,13532,1,2,1:2:0:0:
373,348,13898,6,0,P|298:313|214:313,1,168,2|0,1:2|1:0,0:0:0:0:
149,246,14996,2,0,P|143:204|145:162,1,84,8|2,0:0|0:3,0:0:0:0:
207,94,15727,1,2,1:2:0:0:
155,16,16093,2,0,P|113:22|71:22,1,84,2|2,1:3|1:2,0:0:0:0:
3,85,16825,1,2,1:2:0:0:
50,164,17191,1,8,0:0:0:0:
1,342,17923,1,2,1:2:0:0:
91,359,18288,6,0,P|132:364|172:353,1,84,6|2,1:2|0:0,0:0:0:0:
220,273,19020,1,2,0:0:0:0:
311,261,19386,2,0,P|311:219|324:179,2,84,2|2|2,0:0|0:0|0:0,0:0:0:0:
361,338,20484,2,0,P|402:330|444:331,1,84,2|2,0:0|0:0,0:0:0:0:
503,259,21215,1,2,0:0:0:0:
501,166,21581,1,2,0:0:0:0:
385,21,22313,1,2,1:2:0:0:
301,60,22679,6,0,P|262:42|221:43,1,84,2|2,1:2|0:0,0:0:0:0:
154,106,23410,1,2,0:0:0:0:
65,88,23776,2,0,L|56:4,2,84,2|2|2,0:0|0:0|0:0,0:0:0:0:
33,175,24874,2,0,B|-2:250|-2:250|29:328,1,168,2|2,0:0|0:0,0:0:0:0:
120,311,25971,2,0,B|214:302|192:357|280:346,1,168,2|10,0:0|0:0,0:0:0:0:
348,283,27069,6,0,P|353:241|350:199,1,84,6|2,1:2|0:0,0:0:0:0:
429,149,27801,1,2,0:0:0:0:
428,56,28167,2,0,P|470:49|510:36,2,84,2|2|2,0:0|0:0|0:0,0:0:0:0:
342,20,29264,2,0,L|258:27,1,84,2|2,0:0|0:0,0:0:0:0:
191,91,29996,1,2,0:0:0:0:
102,65,30362,1,2,0:0:0:0:
2,220,31093,1,2,1:2:0:0:
49,299,31459,6,0,P|121:340|204:343,1,168,10|2,0:0|0:0,0:0:0:0:
280,291,32557,2,0,P|291:251|294:209,1,84,2|2,0:0|0:0,0:0:0:0:
266,120,33288,1,2,0:0:0:0:
330,50,33654,2,0,P|413:54|485:95,1,168,2|2,1:2|0:0,0:0:0:0:
499,186,34752,1,2,1:2:0:0:
397,340,35484,1,8,0:0:0:0:
310,307,35849,6,0,L|143:321,1,168,6|0,1:2|1:0,0:0:0:0:
68,265,36947,2,0,B|76:180|0:209|10:117,1,168,0|2,1:0|0:0,0:0:0:0:
64,41,38045,2,0,P|141:29|178:99,1,168,2|2,1:2|1:2,0:0:0:0:
258,144,39142,2,0,B|350:134|321:210|407:202,1,168,10|2,0:0|0:0,0:0:0:0:
490,163,40240,6,0,P|499:122|498:80,1,84,14|0,3:2|1:0,0:0:0:0:
434,13,40971,1,2,1:2:0:0:
344,36,41337,2,0,P|303:27|261:29,1,84,6|0,1:2|1:0,0:0:0:0:
184,81,42069,1,2,1:2:0:0:
92,93,42435,6,0,P|79:132|85:173,1,84,6|0,1:2|1:0,0:0:0:0:
138,249,43167,1,0,1:0:0:0:
226,221,43532,2,0,P|308:204|390:220,1,168,8|10,0:0|0:0,0:0:0:0:
481,208,44630,2,0,L|484:292,1,84,2|2,1:2|1:2,0:0:0:0:
415,354,45362,1,2,1:2:0:0:
325,333,45727,1,6,1:2:0:0:
143,369,46459,1,2,1:2:0:0:
68,314,46817,6,0,P|60:230|46:147,1,168,6|2,1:2|1:2,0:0:0:0:
94,67,47915,2,0,P|174:62|218:129,1,168,10|0,0:0|1:0,0:0:0:0:
281,196,49012,2,0,P|322:199|364:205,1,84,2|2,1:2|0:0,0:0:0:0:
450,169,49744,1,2,1:2:0:0:
464,77,50110,2,0,P|380:66|297:58,1,168,10|2,0:0|1:2,0:0:0:0:
211,22,51207,6,0,P|159:85|165:167,1,168,2|2,1:2|1:2,0:0:0:0:
91,223,52305,2,0,P|104:262|110:304,1,84,10|2,0:0|1:2,0:0:0:0:
179,360,53037,1,2,1:2:0:0:
264,324,53402,2,0,P|305:330|347:332,1,84,2|2,1:2|0:0,0:0:0:0:
433,366,54134,1,2,1:2:0:0:
488,292,54500,1,10,0:0:0:0:
498,107,55232,1,2,1:2:0:0:
419,58,55598,6,0,P|337:57|289:122,1,168,6|2,1:2|1:2,0:0:0:0:
198,108,56695,2,0,P|206:191|208:275,1,168,10|2,0:0|1:2,0:0:0:0:
144,342,57793,2,0,P|102:334|60:331,1,84,2|2,1:2|0:0,0:0:0:0:
32,243,58524,1,2,1:2:0:0:
84,166,58890,2,0,P|167:172|250:187,1,168,10|2,0:0|1:2,0:0:0:0:
331,143,59988,6,0,B|347:106|347:106|335:64,2,84,2|2|2,1:2|0:0|1:2,0:0:0:0:
395,209,61085,2,0,P|436:205|476:217,1,84,10|2,0:0|0:0,0:0:0:0:
500,307,61817,1,2,1:2:0:0:
423,358,62183,2,0,P|339:347|255:350,1,168,2|0,1:2|1:0,0:0:0:0:
163,355,63280,2,0,P|173:271|170:187,1,168,8|2,0:0|1:2,0:0:0:0:
102,124,64378,2,0,P|61:135|19:138,2,84,2|2|2,1:2|1:2|1:2,0:0:0:0:
146,42,65476,1,6,1:2:0:0:
235,62,65841,2,0,P|276:64|317:76,1,84,2|6,0:0|1:2,0:0:0:0:
397,30,66573,6,0,P|451:55|462:115,1,126,6|2,1:2|0:0,0:0:0:0:
362,213,67670,1,10,0:0:0:0:
446,251,68036,2,0,P|439:292|435:334,1,84,2|8,1:2|0:0,0:0:0:0:
348,365,68768,2,0,P|306:358|264:354,1,84,2|8,0:0|0:0,0:0:0:0:
172,365,69499,2,0,P|177:302|173:239,1,126,2|2,1:2|0:0,0:0:0:0:
251,124,70597,1,10,0:0:0:0:
190,54,70963,2,0,P|128:50|75:83,1,126,2|2,1:2|1:2,0:0:0:0:
8,205,72060,1,14,0:0:0:0:
19,296,72426,6,0,P|93:329|175:317,1,168,6|2,1:2|0:0,0:0:0:0:
257,361,73524,1,10,0:0:0:0:
319,292,73890,2,0,L|332:166,1,126,2|0,1:2|1:0,0:0:0:0:
454,101,74987,1,10,0:0:0:0:
402,24,75353,2,0,B|309:32|337:71|245:78,1,168,2|2,1:2|0:0,0:0:0:0:
165,33,76451,1,10,0:0:0:0:
88,84,76816,2,0,P|91:125|96:167,1,84,0|8,1:2|0:0,0:0:0:0:
21,222,77548,1,4,1:2:0:0:
30,313,77914,1,12,0:0:0:0:
117,341,78280,6,0,P|178:345|227:308,1,126,12|2,1:2|0:0,0:0:0:0:
275,177,79377,1,10,0:0:0:0:
334,105,79743,2,0,P|394:94|446:127,1,126,2|2,1:2|1:2,0:0:0:0:
501,254,80841,1,10,0:0:0:0:
430,313,81207,2,0,P|369:366|290:349,1,168,2|2,1:2|0:0,0:0:0:0:
199,367,82304,1,8,0:0:0:0:
121,316,82670,2,0,P|124:274|131:232,1,84,2|8,1:2|0:0,0:0:0:0:
64,167,83402,2,0,P|67:125|74:83,1,84,2|12,0:0|0:0,0:0:0:0:
144,23,84133,6,0,P|222:-5|299:25,1,168,6|2,1:2|0:0,0:0:0:0:
390,18,85231,1,10,0:0:0:0:
435,98,85597,2,0,P|400:150|391:211,1,126,0|2,1:0|1:2,0:0:0:0:
328,335,86694,1,8,0:0:0:0:
245,293,87060,2,0,B|176:290|194:325|125:323,1,126,0|2,1:0|0:0,0:0:0:0:
43,210,88158,1,10,0:0:0:0:
35,117,88524,5,6,1:2:0:0:
115,71,88890,1,10,0:0:0:0:
197,111,89255,2,0,P|199:152|202:194,1,84,0|10,1:2|0:0,0:0:0:0:
292,213,89987,5,14,0:0:0:0:
256,192,90170,12,0,95841,0:0:0:0:
