osu file format v14

[General]
AudioFilename: audio.mp3
AudioLeadIn: 0
PreviewTime: 51024
Countdown: 0
SampleSet: Soft
StackLeniency: 0.7
Mode: 0
LetterboxInBreaks: 0
WidescreenStoryboard: 1

[Editor]
DistanceSpacing: 0.5
BeatDivisor: 4
GridSize: 4
TimelineZoom: 2.5

[Metadata]
Title:End of the World
TitleUnicode:End of the World
Artist:Kumaki Anri
ArtistUnicode:熊木杏里
Creator:miradzin
Version:thzz's Extra
Source:Rewrite
Tags:thzz opening 2 second op TV アニメ size リライト
BeatmapID:1127023
BeatmapSetID:498492

[Difficulty]
HPDrainRate:6
CircleSize:4
OverallDifficulty:8.3
ApproachRate:9.1
SliderMultiplier:1.5
SliderTickRate:1

[Events]
//Background and Video events
0,0,"thzz_bg.jpg",0,0
//Break Periods
//Storyboard Layer 0 (Background)
//Storyboard Layer 1 (Fail)
//Storyboard Layer 2 (Pass)
//Storyboard Layer 3 (Foreground)
//Storyboard Layer 4 (Overlay)
//Storyboard Sound Samples

[TimingPoints]
1702,333.333333333333,4,2,2,70,1,0
7035,-90.9090909090909,4,2,2,70,0,0
12368,-111.111111111111,4,2,2,70,0,0
15035,-100,4,2,2,60,0,0
25701,-90.9090909090909,4,2,2,70,0,0
36368,-125,4,2,2,70,0,0
44368,-83.3333333333333,4,2,2,80,0,0
47035,-76.9230769230769,4,2,2,80,0,0
51035,-125,4,2,2,50,0,0
51701,-71.4285714285714,4,2,2,80,0,0
52368,-76.9230769230769,4,2,2,80,0,1
73701,-100,4,2,2,80,0,0
83035,-111.111111111111,4,2,2,80,0,0
84368,-111.111111111111,4,2,2,60,0,0
88368,-111.111111111111,4,2,2,50,0,0
88701,-111.111111111111,4,2,2,40,0,0
89035,-111.111111111111,4,2,2,30,0,0
89368,-111.111111111111,4,2,2,20,0,0
89701,-111.111111111111,4,2,2,10,0,0

[Colours]
Combo1 : 97,148,233
Combo2 : 128,128,192
Combo3 : 202,97,237

[HitObjects]
433,211,1702,6,0,P|367:245|293:251,1,150,4|0,0:0|0:0,0:0:0:0:
221,197,2202,2,0,P|185:184|148:182,1,75,4|0,0:1|0:0,0:0:0:0:
81,243,2535,1,2,0:0:0:0:
296,143,2702,2,0,P|306:185|310:223,1,75,8|0,0:0|0:0,0:0:0:0:
261,346,3035,5,8,0:3:0:0:
87,150,3202,1,0,0:0:0:0:
44,250,3368,1,0,0:0:0:0:
172,220,3535,2,0,P|114:265|43:249,1,150,4|0,0:3|0:0,0:0:0:0:
211,139,4035,1,6,0:3:0:0:
248,284,4202,1,6,0:3:0:0:
432,254,4368,6,0,P|472:237|513:232,2,75,6|0|0,0:0|0:0|0:0,0:0:0:0:
248,284,4868,2,0,P|283:220|354:207,1,150,8|2,0:3|0:0,0:0:0:0:
461,94,5368,1,8,0:0:0:0:
337,118,5535,1,0,0:0:0:0:
335,303,5702,5,6,0:0:0:0:
240,208,5868,2,0,P|239:245|248:281,1,75
366,134,6202,2,0,L|354:208,1,75,8|0,0:0|0:0,0:0:0:0:
292,74,6535,1,8,0:0:0:0:
240,208,6702,1,8,0:0:0:0:
107,130,6868,1,0,0:0:0:0:
118,353,7035,6,0,P|142:274|158:193,2,165.000005035401,4|2|2,0:0|0:0|0:0,0:0:0:0:
61,273,7868,1,0,0:0:0:0:
233,241,8035,2,0,P|274:235|322:234,1,82.5000025177003,8|0,0:0|0:0,0:0:0:0:
479,299,8368,6,0,P|438:296|400:280,1,82.5000025177003,2|0,0:0|0:0,0:0:0:0:
314,233,8702,1,2,0:0:0:0:
503,133,8868,2,0,L|512:214,1,82.5000025177003,8|2,0:0|0:0,0:0:0:0:
339,137,9202,1,4,0:1:0:0:
235,251,9368,2,0,P|276:249|314:233,1,82.5000025177003,8|0,0:0|0:0,0:0:0:0:
66,228,9702,5,4,0:0:0:0:
213,155,9868,1,0,0:0:0:0:
186,309,10035,1,2,0:0:0:0:
116,140,10202,2,0,P|124:100|155:74,1,82.5000025177003,4|2,0:1|0:0,0:0:0:0:
348,115,10535,2,0,P|289:170|211:155,1,165.000005035401,4|4,0:1|0:1,0:0:0:0:
155,74,11035,5,2,0:0:0:0:
361,33,11202,2,0,L|348:114,1,82.5000025177003,4|2,0:1|0:0,0:0:0:0:
226,319,11535,2,0,P|203:284|197:244,1,82.5000025177003,8|2,0:0|0:0,0:0:0:0:
213,155,11868,1,8,0:0:0:0:
413,171,12035,2,0,P|378:193|338:199,1,82.5000025177003,8|2,0:0|0:0,0:0:0:0:
124,187,12368,5,6,0:0:0:0:
101,279,12535,2,0,L|167:270,1,67.4999979400635
326,333,12868,2,0,P|330:266|337:199,1,134.999995880127,4|2,0:1|0:0,0:0:0:0:
440,252,13368,1,8,0:0:0:0:
262,150,13702,6,0,B|288:106|342:97|393:125|393:125|352:161,1,202.499993820191,4|8,0:0|0:3,0:0:0:0:
234,227,14368,2,0,L|245:293,1,67.4999979400635,0|4,0:0|0:3,0:0:0:0:
418,214,14702,1,8,0:0:0:0:
94,170,15035,6,0,P|92:132|100:96,2,75,4|0|0,0:0|0:0|0:0,0:0:0:0:
313,157,15535,2,0,P|249:121|179:140,1,150,4|4,0:1|0:1,0:0:0:0:
65,243,16035,2,0,P|102:247|137:236,1,75,0|2,0:0|0:0,0:0:0:0:
300,122,16368,6,0,P|308:194|324:276,1,150,6|6,0:1|0:1,0:0:0:0:
168,321,16868,2,0,P|198:299|233:286,1,75,4|0,0:1|0:0,0:0:0:0:
465,198,17202,2,0,P|431:181|394:173,1,75,4|0,0:1|0:0,0:0:0:0:
212,191,17535,1,4,0:1:0:0:
300,122,17701,6,0,P|240:78|167:85,1,150,6|0,0:1|0:0,0:0:0:0:
75,104,18368,2,0,P|112:105|150:111,1,75,4|0,0:1|0:0,0:0:0:0:
397,145,18702,2,0,P|359:146|322:151,1,75,4|2,0:1|0:0,0:0:0:0:
99,205,19035,5,6,0:1:0:0:
81,236,19368,2,0,P|79:274|86:311,2,75,6|0|0,0:1|0:0|0:0,0:0:0:0:
300,244,19868,2,0,B|265:251|241:283|241:283|165:269,1,150,6|0,0:1|0:0,0:0:0:0:
312,334,20368,6,0,P|353:343|385:343,2,75,6|4|4,0:1|0:1|0:1,0:0:0:0:
215,198,20868,2,0,P|282:166|356:175,1,150,4|4,0:1|0:1,0:0:0:0:
426,231,21368,1,0,0:0:0:0:
277,319,21535,1,2,0:0:0:0:
134,159,21702,6,0,P|122:194|125:232,1,75,6|0,0:1|0:0,0:0:0:0:
210,110,22035,1,6,0:1:0:0:
390,168,22202,2,0,P|328:206|260:184,2,150,4|4|0,0:1|0:1|0:0,0:0:0:0:
318,113,23035,6,0,P|310:76|309:37,1,75,6|0,0:1|0:0,0:0:0:0:
445,101,23368,2,0,P|439:175|437:250,2,150,4|4|4,0:1|0:1|0:1,0:0:0:0:
341,143,24202,1,2,0:0:0:0:
111,111,24368,6,0,P|172:71|245:82,1,150,6|0,0:1|0:0,0:0:0:0:
396,219,24868,2,0,P|360:231|323:236,1,75,4|4,0:1|0:1,0:0:0:0:
341,143,25202,1,2,0:0:0:0:
130,147,25368,2,0,P|135:203|137:260,1,112.5,8|0,0:0|0:0,0:0:0:0:
144,280,25702,6,0,P|95:290|59:299,1,82.5000025177003,4|0,0:0|0:0,0:0:0:0:
316,353,26035,2,0,P|329:314|331:273,1,82.5000025177003,2|0,0:0|0:0,0:0:0:0:
273,116,26368,2,0,P|259:154|258:196,1,82.5000025177003,2|0,0:0|0:0,0:0:0:0:
464,168,26702,1,2,0:0:0:0:
381,77,26868,1,0,0:0:0:0:
251,285,27035,6,0,P|292:286|330:272,1,82.5000025177003,2|0,0:0|0:0,0:0:0:0:
273,116,27368,2,0,P|234:102|193:103,1,82.5000025177003,2|0,0:0|0:0,0:0:0:0:
135,206,27702,2,0,L|218:199,1,82.5000025177003,2|0,0:0|0:0,0:0:0:0:
405,109,28035,1,8,0:0:0:0:
358,195,28202,5,0,0:0:0:0:
358,195,28285,1,0,0:0:0:0:
358,195,28368,2,0,P|366:238|366:284,1,82.5000025177003,2|0,0:0|0:0,0:0:0:0:
135,206,28702,1,2,0:0:0:0:
193,103,28868,1,0,0:0:0:0:
165,300,29035,2,0,P|86:301|40:236,1,165.000005035401,2|2,0:0|0:0,0:0:0:0:
68,141,29535,1,0,0:0:0:0:
231,226,29702,5,2,0:0:0:0:
323,79,29868,1,8,0:0:0:0:
361,168,30035,2,0,P|399:186|439:191,1,82.5000025177003,2|0,0:0|0:0,0:0:0:0:
193,103,30368,1,8,0:0:0:0:
174,140,30702,1,8,0:0:0:0:
421,106,30868,1,8,0:0:0:0:
208,239,31035,6,0,B|155:251|155:251|107:226|107:226|51:236,1,165.000005035401,4|2,0:0|0:0,0:0:0:0:
273,164,31535,2,0,P|295:198|306:237,1,82.5000025177003,4|2,0:1|0:0,0:0:0:0:
256,323,31868,1,0,0:0:0:0:
405,233,32035,1,2,0:0:0:0:
231,357,32202,1,0,0:0:0:0:
306,237,32368,6,0,P|308:195|311:154,1,82.5000025177003,2|0,0:0|0:0,0:0:0:0:
106,125,32702,2,0,P|109:166|111:207,1,82.5000025177003,2|0,0:0|0:0,0:0:0:0:
197,156,33035,1,2,0:0:0:0:
55,284,33202,1,0,0:0:0:0:
153,295,33368,1,2,0:0:0:0:
306,237,33535,5,6,0:1:0:0:
308,227,33618,1,0,0:0:0:0:
310,216,33702,2,0,P|311:175|307:134,1,82.5000025177003,4|0,0:0|0:0,0:0:0:0:
246,55,34035,1,2,0:0:0:0:
32,192,34202,2,0,P|69:207|110:206,1,82.5000025177003,4|2,0:1|0:0,0:0:0:0:
207,180,34535,1,0,0:0:0:0:
85,123,34702,1,2,0:0:0:0:
136,288,34868,1,0,0:0:0:0:
242,202,35035,6,0,L|330:193,1,82.5000025177003,6|0,0:1|0:0,0:0:0:0:
463,282,35368,2,0,L|381:274,1,82.5000025177003,6|0,0:1|0:0,0:0:0:0:
242,202,35702,1,6,0:1:0:0:
346,296,35868,1,8,0:0:0:0:
359,63,36035,1,8,0:0:0:0:
338,86,36368,6,0,P|279:96|220:102,1,120,4|0,0:0|0:0,0:0:0:0:
136,68,36868,2,0,P|131:98|133:128,1,60,4|0,0:1|0:0,0:0:0:0:
51,164,37202,2,0,P|91:206|149:216,1,120,4|4,0:1|0:1,0:0:0:0:
316,167,37702,5,6,0:0:0:0:
176,284,37868,2,0,B|213:272|223:235|223:235|279:241|332:257,1,180,4|4,0:1|0:1,0:0:0:0:
412,292,38535,2,0,L|475:277,1,60,4|0,0:1|0:0,0:0:0:0:
277,73,39035,6,0,P|290:129|340:158,1,120,4|4,0:0|0:1,0:0:0:0:
429,81,39535,2,0,L|369:73,1,60,8|0,0:3|0:0,0:0:0:0:
50,188,40035,1,4,0:3:0:0:
204,171,40368,6,0,P|145:234|60:215,1,180,4|0,0:0|0:0,0:0:0:0:
189,82,41035,2,0,P|218:81|248:87,1,60,4|0,0:0|0:0,0:0:0:0:
400,153,41368,2,0,P|371:152|341:158,1,60,4|2,0:1|0:0,0:0:0:0:
161,238,41702,6,0,P|220:239|279:251,1,120,6|0,0:0|0:0,0:0:0:0:
357,295,42202,2,0,L|375:227,1,60,4|0,0:1|0:0,0:0:0:0:
261,132,42535,2,0,P|269:192|279:251,1,120,4|4,0:1|0:1,0:0:0:0:
351,325,43035,5,6,0:0:0:0:
152,327,43202,2,0,P|76:288|77:203,1,180,4|4,0:1|0:1,0:0:0:0:
135,133,43868,1,0,0:0:0:0:
224,146,44035,1,4,0:1:0:0:
241,171,44368,5,6,0:0:0:0:
404,113,44535,1,8,0:0:0:0:
404,113,44618,1,8,0:0:0:0:
404,113,44702,1,8,0:0:0:0:
190,63,44868,5,6,0:1:0:0:
156,265,45035,2,0,L|146:331,1,44.999998626709,8|8,0:0|0:0,0:0:0:0:
45,268,45202,1,8,0:0:0:0:
354,296,45368,5,6,0:0:0:0:
224,146,45535,1,8,0:0:0:0:
224,146,45618,1,8,0:0:0:0:
224,146,45702,1,8,0:0:0:0:
459,189,45868,5,6,0:1:0:0:
243,300,46035,2,0,L|253:343,1,44.999998626709,8|8,0:0|0:0,0:0:0:0:
354,296,46202,1,8,0:0:0:0:
295,66,46368,5,6,0:0:0:0:
66,156,46535,1,8,0:0:0:0:
82,170,46618,1,8,0:0:0:0:
100,182,46702,2,0,P|164:180|186:120,1,134.999995880127,8|0,0:0|0:0,0:0:0:0:
163,42,47035,5,6,0:0:0:0:
399,140,47202,1,8,0:0:0:0:
399,140,47285,1,8,0:0:0:0:
399,140,47368,1,8,0:0:0:0:
256,344,47535,5,6,0:1:0:0:
290,154,47702,2,0,L|298:106,1,48.7499977684022,8|8,0:0|0:0,0:0:0:0:
186,120,47868,1,8,0:0:0:0:
458,225,48035,5,6,0:0:0:0:
141,270,48202,1,8,0:0:0:0:
141,270,48285,1,8,0:0:0:0:
141,270,48368,1,8,0:0:0:0:
217,45,48535,5,6,0:1:0:0:
324,302,48702,2,0,L|330:350,1,48.7499977684022,8|8,0:0|0:0,0:0:0:0:
435,308,48868,1,8,0:0:0:0:
72,230,49035,6,0,P|107:199|155:192,1,97.4999955368044,6|8,0:0|0:0,0:0:0:0:
232,211,49285,1,8,0:0:0:0:
254,221,49368,1,8,0:0:0:0:
170,345,49535,1,4,0:3:0:0:
207,70,49702,5,6,0:0:0:0:
420,181,49868,1,8,0:0:0:0:
444,177,49952,1,8,0:0:0:0:
466,167,50035,1,8,0:0:0:0:
258,302,50202,5,6,0:3:0:0:
185,51,50368,2,0,P|166:98|174:149,1,97.4999955368044,4|8,0:0|0:0,0:0:0:0:
218,207,50618,1,8,0:0:0:0:
238,220,50702,1,8,0:0:0:0:
357,90,50868,1,4,0:1:0:0:
167,282,51035,6,0,P|71:266|74:170,1,210
127,111,51702,6,0,L|122:57,1,52.4999983978272,4|0,0:1|0:0,0:0:0:0:
249,249,51868,2,0,L|244:301,1,52.4999983978272,2|0,0:0|0:0,0:0:0:0:
283,89,52035,6,0,L|334:99,1,52.4999983978272,8|0,0:0|0:0,0:0:0:0:
91,252,52202,2,0,L|39:262,1,52.4999983978272
352,285,52368,6,0,P|400:288|441:262,1,97.4999955368044,6|0,0:0|0:0,0:0:0:0:
364,139,52702,1,8,0:0:0:0:
128,218,52868,2,0,P|183:143|274:159,1,194.999991073609,4|2,0:1|0:0,0:0:0:0:
352,285,53368,1,8,0:0:0:0:
307,58,53535,1,0,0:0:0:0:
217,231,53702,5,6,0:1:0:0:
410,123,53868,1,0,0:0:0:0:
132,134,54035,1,8,0:0:0:0:
228,329,54202,1,4,0:1:0:0:
440,262,54368,2,0,L|338:274,1,97.4999955368044,2|2,0:0|0:0,0:0:0:0:
36,123,54702,2,0,L|138:135,1,97.4999955368044,8|0,0:0|0:0,0:0:0:0:
381,112,55035,6,0,P|290:88|224:153,1,194.999991073609,6|8,0:1|0:0,0:0:0:0:
418,193,55535,1,0,0:0:0:0:
207,44,55702,1,6,0:1:0:0:
274,297,55868,1,2,0:0:0:0:
130,176,56035,2,0,P|175:159|223:153,1,97.4999955368044,8|0,0:0|0:0,0:0:0:0:
446,282,56368,6,0,B|402:269|402:269|376:307|323:318|323:318|273:296,1,194.999991073609,6|12,0:1|0:1,0:0:0:0:
267,98,56868,1,0,0:0:0:0:
48,176,57035,2,0,P|95:188|143:189,1,97.4999955368044,6|2,0:1|0:0,0:0:0:0:
462,133,57368,2,0,P|414:145|366:146,1,97.4999955368044,12|0,0:1|0:0,0:0:0:0:
186,34,57702,6,0,P|127:80|146:192,1,194.999991073609,6|8,0:0|0:0,0:0:0:0:
341,67,58202,1,4,0:1:0:0:
174,268,58368,1,2,0:0:0:0:
208,124,58535,1,2,0:0:0:0:
409,245,58702,2,0,P|412:293|398:339,1,97.4999955368044,8|0,0:0|0:0,0:0:0:0:
131,203,59035,6,0,B|183:177|230:209|230:209|264:237|316:223,1,194.999991073609,6|12,0:1|0:1,0:0:0:0:
101,117,59535,1,0,0:0:0:0:
222,343,59702,1,6,0:1:0:0:
287,145,59868,1,2,0:0:0:0:
287,145,59952,1,0,0:0:0:0:
287,145,60035,2,0,P|274:88|249:57,1,97.4999955368044,12|0,0:1|0:0,0:0:0:0:
37,220,60368,6,0,P|82:203|130:202,1,97.4999955368044,6|0,0:1|0:0,0:0:0:0:
354,283,60702,2,0,P|427:226|410:135,1,194.999991073609,8|6,0:0|0:1,0:0:0:0:
155,100,61202,1,2,0:0:0:0:
232,306,61368,1,12,0:1:0:0:
331,189,61535,1,0,0:0:0:0:
67,158,61702,6,0,P|58:205|69:252,1,97.4999955368044,6|0,0:1|0:0,0:0:0:0:
298,97,62035,2,0,P|307:49|296:2,1,97.4999955368044,8|0,0:0|0:0,0:0:0:0:
323,227,62368,1,6,0:1:0:0:
155,100,62535,1,2,0:0:0:0:
428,94,62702,1,8,0:0:0:0:
232,306,62868,1,2,0:0:0:0:
228,51,63035,5,6,0:0:0:0:
140,204,63202,1,0,0:0:0:0:
331,189,63368,1,8,0:0:0:0:
49,165,63535,2,0,P|55:259|138:301,1,194.999991073609,4|2,0:1|0:0,0:0:0:0:
449,140,64035,2,0,P|399:131|354:148,1,97.4999955368044,8|4,0:0|0:1,0:0:0:0:
239,293,64368,5,6,0:1:0:0:
218,43,64535,2,0,L|230:139,1,97.4999955368044,4|8,0:1|0:0,0:0:0:0:
116,104,64868,1,4,0:1:0:0:
331,189,65035,1,2,0:0:0:0:
137,301,65202,1,6,0:1:0:0:
418,308,65368,2,0,P|418:259|407:211,1,97.4999955368044,8|4,0:0|0:1,0:0:0:0:
83,189,65702,6,0,B|154:211|194:147|194:147|228:137|256:153,1,194.999991073609,6|8,0:1|0:0,0:0:0:0:
354,85,66202,1,0,0:0:0:0:
70,276,66368,1,6,0:1:0:0:
116,104,66535,1,2,0:0:0:0:
406,211,66702,2,0,P|365:236|318:246,1,97.4999955368044,8|0,0:0|0:0,0:0:0:0:
223,40,67035,6,0,P|312:67|333:158,1,194.999991073609,6|12,0:1|0:1,0:0:0:0:
70,87,67535,1,0,0:0:0:0:
182,298,67702,1,6,0:1:0:0:
238,137,67868,1,0,0:0:0:0:
238,137,67952,1,0,0:0:0:0:
238,137,68035,1,12,0:1:0:0:
353,292,68202,1,2,0:0:0:0:
98,297,68368,6,0,P|145:218|237:231,1,194.999991073609,6|8,0:0|0:0,0:0:0:0:
371,97,68868,1,0,0:0:0:0:
75,127,69035,1,6,0:1:0:0:
292,299,69202,1,2,0:0:0:0:
249,40,69368,2,0,P|241:88|238:136,1,97.4999955368044,8|0,0:0|0:0,0:0:0:0:
394,266,69702,6,0,P|440:251|488:245,1,97.4999955368044,6|0,0:1|0:0,0:0:0:0:
118,179,70035,2,0,P|71:164|23:158,1,97.4999955368044,12|0,0:1|0:0,0:0:0:0:
165,333,70368,1,6,0:1:0:0:
353,292,70535,1,2,0:0:0:0:
237,136,70702,2,0,P|245:185|248:233,1,97.4999955368044,12|0,0:1|0:0,0:0:0:0:
487,78,71035,6,0,B|394:48|394:48|340:49|310:91,1,194.999991073609,6|8,0:1|0:0,0:0:0:0:
394,266,71535,1,0,0:0:0:0:
101,203,71702,1,6,0:1:0:0:
306,139,71868,1,2,0:0:0:0:
176,369,72035,2,0,P|169:320|170:272,1,97.4999955368044,8|0,0:0|0:0,0:0:0:0:
174,76,72368,5,6,0:1:0:0:
384,168,72535,2,0,P|351:204|306:220,1,97.4999955368044,0|8,0:0|0:0,0:0:0:0:
299,34,72868,1,4,0:1:0:0:
234,299,73035,1,2,0:0:0:0:
67,168,73202,1,12,0:0:0:0:
453,224,73368,2,0,P|461:177|467:128,1,97.4999955368044,12|0,0:0|0:0,0:0:0:0:
100,202,73702,6,0,B|157:219|157:219|243:189,1,150,6|0,0:0|0:0,0:0:0:0:
282,84,74202,1,8,0:0:0:0:
362,172,74368,2,0,P|355:245|300:294,1,150
341,141,74868,1,2,0:0:0:0:
87,19,75035,6,0,P|71:92|66:167,1,150,8|0,0:0|0:0,0:0:0:0:
193,345,75535,2,0,P|264:353|299:292,1,150,8|0,0:3|0:0,0:0:0:0:
153,134,76035,1,4,0:3:0:0:
362,172,76202,1,0,0:0:0:0:
223,269,76368,6,0,P|149:255|75:259,1,150,6|0,0:0|0:0,0:0:0:0:
338,147,76868,2,0,L|334:73,1,75,8|0,0:0|0:0,0:0:0:0:
248,297,77202,2,0,L|244:372,1,75,2|0,0:0|0:0,0:0:0:0:
61,275,77535,1,2,0:0:0:0:
155,63,77702,6,0,P|229:52|304:50,1,150,8|0,0:0|0:0,0:0:0:0:
441,179,78202,1,8,0:3:0:0:
223,269,78368,1,0,0:0:0:0:
334,73,78535,1,8,0:3:0:0:
344,275,78702,2,0,P|343:312|341:349,1,75,4|4,0:3|0:3,0:0:0:0:
70,220,79035,6,0,B|149:234|149:234|163:206|202:190,1,150,6|0,0:0|0:0,0:0:0:0:
409,239,79535,2,0,P|377:260|343:275,1,75,8|0,0:0|0:0,0:0:0:0:
178,116,79868,1,2,0:0:0:0:
223,269,80035,1,0,0:0:0:0:
301,111,80202,1,2,0:0:0:0:
119,202,80368,6,0,P|151:266|222:268,1,150,8|0,0:0|0:0,0:0:0:0:
301,111,80868,1,8,0:3:0:0:
301,111,80952,1,8,0:3:0:0:
301,111,81035,1,8,0:3:0:0:
167,80,81202,1,8,0:3:0:0:
222,267,81368,2,0,P|259:263|295:256,1,75,4|2,0:3|0:0,0:0:0:0:
415,145,81702,6,0,P|408:219|407:294,1,150,6|0,0:0|0:0,0:0:0:0:
190,354,82202,2,0,P|152:353|117:341,1,75,4|0,0:1|0:0,0:0:0:0:
171,242,82535,2,0,P|238:214|296:257,1,150,4|4,0:1|0:3,0:0:0:0:
300,275,82952,1,4,0:3:0:0:
301,293,83035,6,0,P|367:283|443:282,1,134.999995880127,6|0,0:0|0:0,0:0:0:0:
192,191,83702,2,0,P|126:181|50:180,1,134.999995880127,6|0,0:0|0:0,0:0:0:0:
338,52,84368,5,4,0:1:0:0:
392,111,84535,2,0,L|386:178,1,67.4999979400635
332,237,84868,2,0,P|337:305|347:371,2,134.999995880127,4|0|4,0:1|0:0|0:1,0:0:0:0:
261,119,85702,5,0,0:0:0:0:
190,158,85868,2,0,L|122:165,1,67.4999979400635,4|0,0:1|0:0,0:0:0:0:
256,203,86202,1,4,0:1:0:0:
180,290,86368,1,0,0:0:0:0:
256,315,86535,2,0,P|321:305|358:250,1,134.999995880127,4|4,0:1|0:1,0:0:0:0:
351,116,87035,6,0,P|350:183|357:250,1,134.999995880127,0|4,0:0|0:1,0:0:0:0:
268,114,87702,1,0,0:0:0:0:
438,247,88035,1,4,0:1:0:0:
226,284,88368,1,4,0:1:0:0:
256,192,88452,12,0,89702,0:0:0:0:
