osu file format v14

[General]
AudioFilename: audio.mp3
AudioLeadIn: 0
PreviewTime: 51024
Countdown: 0
SampleSet: Soft
StackLeniency: 0.3
Mode: 0
LetterboxInBreaks: 0
WidescreenStoryboard: 0

[Editor]
DistanceSpacing: 1
BeatDivisor: 4
GridSize: 16
TimelineZoom: 2.4

[Metadata]
Title:End of the World
TitleUnicode:End of the World
Artist:Kumaki Anri
ArtistUnicode:熊木杏里
Creator:miradzin
Version:Normal
Source:Rewrite
Tags:thzz opening 2 second op TV アニメ size リライト
BeatmapID:1061271
BeatmapSetID:498492

[Difficulty]
HPDrainRate:4
CircleSize:3.5
OverallDifficulty:5
ApproachRate:5
SliderMultiplier:1.15
SliderTickRate:1

[Events]
//Background and Video events
Video,0,"End of the world.avi"
0,0,"717844.jpg",0,0
//Break Periods
//Storyboard Layer 0 (Background)
//Storyboard Layer 1 (Fail)
//Storyboard Layer 2 (Pass)
//Storyboard Layer 3 (Foreground)
//Storyboard Sound Samples

[TimingPoints]
1702,333.333333333333,4,2,1,70,1,0
15035,-100,4,2,1,50,0,0
25701,-100,4,2,2,70,0,0
36368,-100,4,2,1,70,0,0
44369,-100,4,1,1,70,0,0
52368,-100,4,2,2,75,0,1
73701,-100,4,2,1,60,0,0
79036,-100,4,2,1,50,0,0
85036,-100,4,2,1,40,0,0
86036,-100,4,2,1,30,0,0
87036,-100,4,2,1,20,0,0

[Colours]
Combo1 : 97,148,233
Combo2 : 128,128,192
Combo3 : 202,97,237

[HitObjects]
252,80,1701,6,0,P|304:116|312:184,1,115,4|0,0:0|0:0,0:0:0:0:
304,220,2201,2,0,L|172:211,1,115,2|2,0:0|0:0,0:0:0:0:
131,211,2701,1,8,0:0:0:0:
52,295,3035,2,0,P|95:336|163:351,1,115,8|0,0:3|0:0,0:0:0:0:
204,357,3535,2,0,B|279:364|279:364|329:339,1,115,8|0,0:3|0:0,0:0:0:0:
357,307,4035,1,8,0:0:0:0:
416,208,4368,6,0,L|280:212,1,115,8|0,0:0|0:0,0:0:0:0:
244,200,4868,2,0,P|242:142|271:82,1,115,8|0,0:3|0:0,0:0:0:0:
305,50,5368,1,8,0:0:0:0:
190,54,5701,2,0,L|63:41,1,115,4|0,0:0|0:0,0:0:0:0:
21,61,6201,2,0,P|11:117|33:179,1,115,8|8,0:0|0:0,0:0:0:0:
68,212,6701,2,0,P|120:208|148:200,1,57.5,8|8,0:0|0:0,0:0:0:0:
167,167,7035,6,0,B|199:146|199:146|297:128,1,115,12|0,0:0|0:0,0:0:0:0:
362,205,7701,2,8,L|374:68,1,115,0|8,0:0|0:0,0:0:0:0:
266,44,8368,2,0,P|201:40|136:58,1,115,4|8,0:0|0:0,0:0:0:0:
104,82,8868,2,0,L|106:204,1,115,8|0,0:0|0:0,0:0:0:0:
106,254,9368,1,8,0:0:0:0:
216,286,9701,6,0,P|276:306|344:294,1,115,4|8,0:0|0:0,0:0:0:0:
383,294,10201,2,0,L|372:159,1,115,8|0,0:0|0:0,0:0:0:0:
364,122,10701,1,8,0:0:0:0:
251,148,11035,2,0,L|261:74,2,57.5,4|0|8,0:0|0:0|0:0,0:0:0:0:
233,202,11535,2,0,P|199:188|101:193,1,115,8|8,0:0|0:0,0:0:0:0:
67,205,12035,1,8,0:0:0:0:
116,308,12368,6,0,L|250:317,1,115,8|8,0:0|0:0,0:0:0:0:
286,328,12868,2,0,P|328:291|336:172,1,172.5,0|8,0:0|0:0,0:0:0:0:
249,109,13701,2,0,L|120:123,1,115,4|0,0:0|0:0,0:0:0:0:
45,194,14368,2,0,L|36:311,1,115,8|8,0:3|0:0,0:0:0:0:
138,255,15035,6,0,B|165:227|165:227|259:214,1,115,6|2,0:0|0:0,0:0:0:0:
290,244,15535,2,0,P|339:251|415:227,1,115,2|2,0:0|0:0,0:0:0:0:
374,123,16201,1,0,0:0:0:0:
331,83,16368,2,0,P|281:53|210:62,1,115,2|2,0:0|0:0,0:0:0:0:
194,103,16868,2,0,L|58:93,1,115,2|2,0:0|0:0,0:0:0:0:
26,197,17535,1,0,0:0:0:0:
71,231,17701,6,0,L|207:221,1,115,4|2,0:3|0:0,0:0:0:0:
300,222,18368,2,0,P|361:197|390:133,1,115,2|0,0:0|0:0,0:0:0:0:
404,43,19035,2,0,L|277:32,1,115,4|8,0:3|0:3,0:0:0:0:
251,76,19535,2,0,L|124:87,1,115,8|0,0:3|0:0,0:0:0:0:
81,67,20035,1,2,0:0:0:0:
26,168,20368,6,0,B|44:300,1,115,8|2,0:0|0:0,0:0:0:0:
69,332,20868,2,0,P|121:332|203:307,1,115,0|2,0:0|0:0,0:0:0:0:
292,286,21535,1,0,0:0:0:0:
346,269,21701,2,0,P|362:201|370:152,1,115,2|2,0:0|0:0,0:0:0:0:
366,98,22201,2,0,P|298:82|249:74,1,115,2|2,0:0|0:0,0:0:0:0:
138,78,22868,1,0,0:0:0:0:
93,113,23035,6,0,L|115:236,1,115,2|2,0:0|0:0,0:0:0:0:
228,226,23701,2,0,P|274:208|351:221,1,115,2|2,0:0|0:0,0:0:0:0:
449,184,24368,2,0,B|459:222|459:222|437:319,1,115,8|0,0:0|0:0,0:0:0:0:
339,348,25035,2,0,B|258:351|258:351|210:314,1,115,2|8,0:0|0:0,0:0:0:0:
148,250,25701,6,0,P|146:192|165:138,1,115,2|8,0:0|0:0,0:0:0:0:
268,86,26368,2,0,L|399:91,1,115,2|8,0:0|0:0,0:0:0:0:
454,180,27035,2,0,L|321:186,1,115,2|8,0:0|0:0,0:0:0:0:
224,191,27701,2,0,P|259:247|241:309,1,115,2|8,0:0|0:0,0:0:0:0:
157,359,28368,6,0,P|95:335|63:298,1,115,2|8,0:0|0:0,0:0:0:0:
57,184,29035,2,0,L|153:109,1,115,2|10,0:0|0:0,0:0:0:0:
262,116,29701,2,0,P|326:125|386:96,1,115,2|8,0:0|0:0,0:0:0:0:
464,175,30368,2,0,B|461:254,1,57.5,8|0,0:0|0:0,0:0:0:0:
454,289,30701,2,0,P|407:289|382:281,1,57.5,8|8,0:0|0:0,0:0:0:0:
342,306,31035,6,0,P|301:285|246:216,1,115,4|2,0:0|0:0,0:0:0:0:
243,120,31701,2,0,L|270:55,2,57.5,2|0|2,0:0|0:0|0:0,0:0:0:0:
153,192,32368,1,2,0:0:0:0:
82,100,32701,2,0,L|109:35,2,57.5,2|0|2,0:0|0:0|0:0,0:0:0:0:
35,205,33368,1,2,0:0:0:0:
110,291,33701,6,0,P|183:304|248:288,1,115,4|2,0:0|0:0,0:0:0:0:
293,206,34368,2,0,L|285:130,2,57.5,2|0|2,0:0|0:0|0:0,0:0:0:0:
398,252,35035,2,0,L|414:129,1,115,2|2,0:0|0:0,0:0:0:0:
332,56,35701,2,0,P|278:45|208:53,1,115,2|8,0:0|0:0,0:0:0:0:
114,99,36368,6,0,L|106:231,1,115,4|0,0:0|0:0,0:0:0:0:
135,325,37035,2,0,P|193:331|262:305,1,115,2|0,0:0|0:0,0:0:0:0:
341,250,37701,2,0,L|218:218,1,115,4|0,0:0|0:0,0:0:0:0:
193,111,38368,2,0,P|250:75|319:85,1,115,2|2,0:0|0:0,0:0:0:0:
400,28,39035,6,0,L|401:157,1,115,4|2,0:0|0:0,0:0:0:0:
381,197,39535,2,8,P|317:205|257:201,1,115,8|0,0:3|0:3,0:0:0:0:
210,190,40035,1,8,0:3:0:0:
119,119,40368,1,4,0:0:0:0:
207,331,41035,1,4,0:0:0:0:
207,331,41201,2,0,L|277:317,1,57.5,2|2,0:0|0:0,0:0:0:0:
376,297,41701,6,0,P|375:240|367:172,1,115,4|2,0:0|0:0,0:0:0:0:
349,128,42201,2,0,L|208:109,1,115,0|2,0:0|0:0,0:0:0:0:
100,221,43035,2,0,P|90:184|123:91,1,115,4|2,0:0|0:0,0:0:0:0:
209,164,43701,2,0,L|236:110,2,57.5,2|0|2,0:0|0:0|0:0,0:0:0:0:
218,278,44368,6,0,L|341:273,1,115,4|0,0:0|0:0,0:0:0:0:
389,262,44868,2,0,P|383:192|407:137,1,115,8|0,0:0|0:0,0:0:0:0:
430,103,45368,2,0,L|299:90,1,115,8|0,0:0|0:0,0:0:0:0:
263,116,45868,2,0,L|122:134,1,115,8|0,0:0|0:0,0:0:0:0:
99,101,46368,2,0,P|88:161|93:235,1,115,8|0,0:0|0:0,0:0:0:0:
173,293,47035,6,0,L|308:284,1,115,8|0,0:0|0:0,0:0:0:0:
341,263,47535,2,0,P|333:189|357:137,1,115,8|0,0:0|0:0,0:0:0:0:
387,111,48035,2,0,P|312:84|257:89,1,115,8|0,0:0|0:0,0:0:0:0:
232,120,48535,2,0,B|192:124|192:124|102:93,1,115,8|0,0:0|0:0,0:0:0:0:
66,80,49035,2,0,L|71:219,1,115,8|0,0:0|0:0,0:0:0:0:
141,285,49701,6,8,P|228:229|287:315,2,230,8|0|4,0:0|0:0|0:0,0:0:0:0:
239,44,52368,6,0,P|218:104|246:172,1,115,4|8,0:0|0:0,0:0:0:0:
274,189,52868,2,0,L|412:180,1,115,0|2,0:0|0:0,0:0:0:0:
484,117,53535,1,2,0:0:0:0:
434,88,53701,2,0,P|388:73|317:81,1,115,2|8,0:0|0:0,0:0:0:0:
270,103,54201,1,0,0:0:0:0:
226,65,54368,2,0,L|94:45,1,115,2|8,0:0|0:0,0:0:0:0:
55,147,55035,6,0,P|104:169|174:166,1,115,4|8,0:0|0:0,0:0:0:0:
220,157,55535,1,0,0:0:0:0:
269,186,55701,2,0,L|237:317,1,115,2|8,0:0|0:0,0:0:0:0:
354,276,56368,2,0,P|372:224|450:206,2,115,2|10|2,0:0|0:0|0:0,0:0:0:0:
461,316,57368,1,8,0:0:0:0:
505,210,57701,6,0,L|474:82,1,115,4|8,0:0|0:0,0:0:0:0:
420,97,58201,1,0,0:0:0:0:
373,63,58368,2,0,P|305:68|234:50,1,115,2|8,0:0|0:0,0:0:0:0:
146,34,59035,2,0,B|84:52|86:134,2,115,2|10|2,0:0|0:0|0:0,0:0:0:0:
199,135,60035,1,8,0:0:0:0:
281,214,60368,6,0,L|413:202,1,115,4|8,0:0|0:0,0:0:0:0:
452,195,60868,1,0,0:0:0:0:
465,138,61035,2,0,P|424:106|350:89,1,115,2|8,0:0|0:0,0:0:0:0:
252,115,61701,2,0,L|128:93,1,115,2|8,0:0|0:0,0:0:0:0:
31,53,62368,2,0,L|37:190,1,115,2|8,0:0|0:0,0:0:0:0:
91,268,63035,6,0,P|153:247|223:260,1,115,4|8,0:0|0:0,0:0:0:0:
234,299,63535,2,0,L|367:297,1,115,2|2,0:0|0:0,0:0:0:0:
439,226,64201,1,8,0:0:0:0:
460,172,64368,2,0,P|419:121|358:89,1,115,2|8,0:0|0:0,0:0:0:0:
319,99,64868,1,0,0:0:0:0:
265,77,65035,2,0,L|130:84,1,115,2|8,0:0|0:0,0:0:0:0:
87,179,65701,6,0,P|145:194|215:180,1,115,4|8,0:0|0:0,0:0:0:0:
255,196,66201,1,0,0:0:0:0:
301,229,66368,2,0,P|316:287|302:357,1,115,2|8,0:0|0:0,0:0:0:0:
409,285,67035,2,0,P|429:237|499:226,2,115,2|10|2,0:0|0:0|0:0,0:0:0:0:
373,175,68035,1,8,0:0:0:0:
283,102,68368,6,0,L|150:93,1,115,4|8,0:0|0:0,0:0:0:0:
111,105,68868,1,0,0:0:0:0:
75,150,69035,2,0,P|72:205|87:278,1,115,2|8,0:0|0:0,0:0:0:0:
192,230,69701,2,0,P|219:196|295:200,2,115,2|10|2,0:0|0:0|0:0,0:0:0:0:
274,310,70701,1,8,0:0:0:0:
379,264,71035,6,0,P|395:197|374:129,1,115,2|8,0:0|0:0,0:0:0:0:
358,102,71535,1,0,0:0:0:0:
303,83,71701,2,0,L|171:76,1,115,2|8,0:0|0:0,0:0:0:0:
83,125,72368,2,0,P|81:186|100:257,1,115,2|8,0:0|0:0,0:0:0:0:
133,279,72868,1,2,0:0:0:0:
189,269,73035,2,0,L|205:199,2,57.5,2|0|8,0:0|0:0|0:0,0:0:0:0:
275,344,73701,6,0,P|319:293|337:233,1,115,4|8,0:0|0:0,0:0:0:0:
403,155,74368,2,0,L|279:140,1,115,0|8,0:0|0:0,0:0:0:0:
231,149,74868,1,0,0:0:0:0:
194,104,75035,2,0,B|135:63|135:63|91:47,2,115,8|0|8,0:0|0:0|0:3,0:0:0:0:
166,215,76034,1,8,0:0:0:0:
248,295,76368,6,0,P|332:203|432:227,1,230,4|0,0:0|0:0,0:0:0:0:
473,116,77368,1,8,0:0:0:0:
358,117,77701,2,0,L|217:97,1,115,8|0,0:0|0:0,0:0:0:0:
137,56,78368,2,0,P|133:128|161:180,1,115,10|0,0:0|0:0,0:0:0:0:
224,253,79035,6,0,P|303:162|404:182,1,230,4|8,0:0|0:0,0:0:0:0:
451,283,80035,1,2,0:0:0:0:
354,346,80368,2,0,P|295:349|227:336,1,115,8|0,0:0|0:0,0:0:0:0:
148,270,81035,2,0,L|134:189,2,57.5,8|0|8,0:3|0:0|0:3,0:0:0:0:
166,383,81701,5,4,0:0:0:0:
256,192,83035,5,4,0:0:0:0:
256,192,83701,1,4,0:0:0:0:
256,192,84368,12,0,88368,0:0:0:0:
