osu file format v14

[General]
AudioFilename: audio.mp3
AudioLeadIn: 0
PreviewTime: 51024
Countdown: 0
SampleSet: Soft
StackLeniency: 0
Mode: 0
LetterboxInBreaks: 0
WidescreenStoryboard: 1

[Editor]
Bookmarks: 10701
DistanceSpacing: 0.7
BeatDivisor: 4
GridSize: 16
TimelineZoom: 3

[Metadata]
Title:End of the World
TitleUnicode:End of the World
Artist:Kumaki Anri
ArtistUnicode:熊木杏里
Creator:miradzin
Version:Insane
Source:Rewrite
Tags:thzz opening 2 second op TV アニメ size リライト
BeatmapID:3784189
BeatmapSetID:498492

[Difficulty]
HPDrainRate:5
CircleSize:3.8
OverallDifficulty:6
ApproachRate:9
SliderMultiplier:1.6
SliderTickRate:1

[Events]
//Background and Video events
0,0,"End of the world.jpg",0,0
//Break Periods
//Storyboard Layer 0 (Background)
//Storyboard Layer 1 (Fail)
//Storyboard Layer 2 (Pass)
//Storyboard Layer 3 (Foreground)
//Storyboard Layer 4 (Overlay)
//Storyboard Sound Samples

[TimingPoints]
1702,333.333333333333,4,2,1,65,1,0
7035,-100,4,2,2,70,0,0
14201,-100,4,2,1,60,0,0
15035,-111.111111111111,4,2,1,65,0,0
25701,-100,4,2,2,65,0,0
31035,-100,4,2,2,65,0,0
36368,-166.666666666667,4,2,1,65,0,0
44368,-83.3333333333333,4,1,1,45,0,0
51035,-83.3333333333333,4,2,2,50,0,0
52368,-80,4,2,2,70,0,1
73368,-100,4,2,1,70,0,0
73535,-100,4,2,1,70,0,0
73618,-100,4,2,1,70,0,0
73701,-100,4,2,1,70,0,0
74035,-100,4,2,2,70,0,0
79035,-100,4,2,2,70,0,0
83035,-133.333333333333,4,2,2,70,0,0
84368,-166.666666666667,4,2,1,60,0,0
88368,-105.263157894737,4,2,1,60,0,0
88701,-105.263157894737,4,2,1,40,0,0
89035,-105.263157894737,4,2,1,30,0,0
89368,-105.263157894737,4,2,1,20,0,0
89701,-105.263157894737,4,2,1,5,0,0

[Colours]
Combo1 : 97,148,233
Combo2 : 128,128,192
Combo3 : 202,97,237

[HitObjects]
104,272,1701,6,0,L|266:252,1,160,4|0,0:0|0:0,0:0:0:0:
416,168,2201,2,0,P|360:146|322:142,1,80
208,184,2535,1,8,3:0:0:0:
354,51,2701,2,0,P|296:61|261:94,1,80,8|0,0:0|0:0,0:0:0:0:
224,312,3035,6,0,P|276:340|383:282,1,160,4|0,0:3|0:0,0:0:0:0:
200,216,3535,2,0,L|181:387,1,160,4|0,0:3|0:0,0:0:0:0:
431,271,4035,1,8,0:3:0:0:
294,244,4201,1,8,0:3:0:0:
480,336,4368,6,0,L|459:143,1,160,4|0,0:0|0:0,0:0:0:0:
256,96,4868,2,0,P|278:136|322:170,1,80,8|0,0:3|0:0,0:0:0:0:
448,80,5201,1,8,0:3:0:0:
271,14,5368,2,0,P|215:23|184:52,1,80,8|0,0:0|0:0,0:0:0:0:
64,240,5701,6,0,B|112:232|112:232|168:248|168:248|248:232,1,160,4|0,0:0|0:0,0:0:0:0:
392,184,6201,2,0,P|355:158|316:148,1,80,8|0,0:0|0:0,0:0:0:0:
192,320,6535,1,8,0:0:0:0:
320,248,6701,1,8,0:0:0:0:
208,160,6868,1,8,0:3:0:0:
288,288,7035,6,0,L|469:263,2,160,4|2|2,0:0|0:0|0:0,0:0:0:0:
144,224,7868,1,0,0:0:0:0:
264,168,8035,2,0,L|353:165,1,80,8|0,0:0|0:0,0:0:0:0:
174,335,8368,6,0,P|166:291|180:250,1,80,2|0,0:0|0:0,0:0:0:0:
256,80,8701,1,2,0:0:0:0:
381,246,8868,2,0,P|337:254|296:240,1,80,8|2,0:0|0:0,0:0:0:0:
352,48,9201,1,2,0:0:0:0:
272,224,9368,2,0,L|277:313,1,80,8|0,0:0|0:0,0:0:0:0:
464,128,9701,6,0,P|398:93|316:126,1,160,4|2,0:0|0:0,0:0:0:0:
380,267,10201,2,0,P|393:213|385:179,1,80,12|2,0:1|0:0,0:0:0:0:
172,195,10535,2,0,B|189:263|251:264|251:264|278:210,1,160,4|0,0:1|0:1,0:0:0:0:
160,48,11035,5,0,0:0:0:0:
80,192,11201,1,0,0:0:0:0:
224,112,11368,1,2,0:0:0:0:
0,72,11535,2,0,P|53:52|80:50,1,80,8|0,0:0|0:0,0:0:0:0:
184,248,11868,1,8,0:0:0:0:
160,24,12035,1,8,0:0:0:0:
96,176,12201,1,2,0:0:0:0:
376,72,12368,6,0,P|336:30|245:52,1,160,4|0,0:0|0:0,0:0:0:0:
168,272,12868,2,0,P|236:248|345:244,1,160,0|2,0:0|0:0,0:0:0:0:
96,176,13368,2,0,L|86:290,1,80,8|0,0:0|0:0,0:0:0:0:
240,336,13701,6,0,B|320:304|304:368|416:328,1,160,4|0,0:0|0:0,0:0:0:0:
352,168,14201,2,0,L|359:263,1,80,8|0,0:0|0:0,0:0:0:0:
480,328,14535,1,4,0:3:0:0:
464,112,14701,1,8,0:0:0:0:
208,232,15035,6,0,P|240:240|280:216,2,71.9999978027344
224,88,15535,2,0,L|239:173,1,71.9999978027344
128,112,15868,2,0,L|112:197,1,71.9999978027344
48,80,16201,1,8,0:3:0:0:
8,256,16368,6,0,P|46:264|86:245,1,71.9999978027344,4|0,0:3|0:0,0:0:0:0:
236,158,16701,1,4,0:3:0:0:
160,328,16868,2,0,L|168:240,1,71.9999978027344
264,144,17201,2,0,L|256:232,1,71.9999978027344
240,352,17535,1,0,0:0:0:0:
440,256,17701,6,0,P|468:216|386:200,2,143.999995605469
320,48,18701,2,0,P|352:47|396:58,1,71.9999978027344,0|8,0:0|0:3,0:0:0:0:
216,144,19035,2,0,L|225:53,1,71.9999978027344,4|0,0:3|0:0,0:0:0:0:
296,216,19368,6,0,P|264:189|153:223,1,143.999995605469,4|0,0:3|0:0,0:0:0:0:
40,328,19868,2,0,L|200:318,1,143.999995605469,4|0,0:3|0:0,0:0:0:0:
392,224,20368,6,0,P|415:258|412:295,2,71.9999978027344,8|0|0,0:0|0:0|0:0,0:0:0:0:
304,352,20868,2,0,L|383:365,1,71.9999978027344,2|0,0:0|0:0,0:0:0:0:
304,240,21201,2,0,L|225:253,1,71.9999978027344,2|0,0:0|0:0,0:0:0:0:
136,360,21535,1,4,0:3:0:0:
152,176,21701,6,0,P|103:168|64:188,1,71.9999978027344,8|0,0:0|0:0,0:0:0:0:
216,336,22035,1,4,0:3:0:0:
237,130,22201,2,0,P|209:97|159:80,1,71.9999978027344,2|0,0:0|0:0,0:0:0:0:
16,264,22535,2,0,P|59:267|106:244,1,71.9999978027344,2|0,0:0|0:0,0:0:0:0:
176,192,22868,1,0,0:0:0:0:
32,40,23035,6,0,L|47:201,2,143.999995605469,8|0|0,0:0|0:0|0:0,0:0:0:0:
264,208,24035,2,0,L|183:195,1,71.9999978027344,0|4,0:0|0:3,0:0:0:0:
440,128,24368,6,0,P|397:98|295:106,1,143.999995605469,4|2,0:0|0:0,0:0:0:0:
248,304,24868,2,0,L|329:291,1,71.9999978027344,0|4,0:0|0:3,0:0:0:0:
232,120,25201,1,4,0:3:0:0:
152,288,25368,2,0,L|233:301,1,71.9999978027344,8|0,0:0|0:3,0:0:0:0:
480,192,25701,6,0,P|430:210|400:241,1,80,2|0,0:0|0:0,0:0:0:0:
312,360,26035,2,0,P|262:342|232:311,1,80,2|0,0:0|0:0,0:0:0:0:
232,120,26368,2,0,P|282:138|312:169,1,80,2|0,0:0|0:0,0:0:0:0:
76,229,26701,2,0,P|94:179|125:149,1,80,2|0,0:0|0:0,0:0:0:0:
320,240,27035,6,0,L|219:240,1,80,2|0,0:0|0:0,0:0:0:0:
31,159,27368,2,0,L|132:159,1,80,2|0,0:0|0:0,0:0:0:0:
277,80,27701,6,0,P|298:124|299:173,1,80,4|0,0:3|0:0,0:0:0:0:
176,320,28035,2,0,P|155:276|154:227,1,80,8|0,0:0|0:0,0:0:0:0:
400,304,28368,6,0,P|329:332|263:279,2,160,4|2|2,0:0|0:0|0:0,0:0:0:0:
512,176,29201,2,0,P|466:168|426:168,1,80,0|2,0:0|0:0,0:0:0:0:
288,192,29535,1,0,0:0:0:0:
384,352,29701,5,4,0:0:0:0:
416,208,29868,2,0,L|421:114,1,80,8|2,0:0|0:0,0:0:0:0:
420,128,30368,1,8,0:0:0:0:
420,128,30701,1,8,0:0:0:0:
464,32,30868,1,8,0:0:0:0:
432,224,31035,6,0,B|336:248|360:192|240:232,1,160,4|2,0:0|0:0,0:0:0:0:
224,344,31535,2,0,P|283:330|312:287,1,80,4|2,0:1|0:0,0:0:0:0:
224,144,31868,1,0,0:0:0:0:
176,248,32035,1,2,0:0:0:0:
344,144,32201,1,0,0:0:0:0:
224,48,32368,6,0,P|180:55|151:88,1,80,2|0,0:0|0:0,0:0:0:0:
256,256,32701,2,0,P|300:249|329:216,1,80,2|0,0:0|0:1,0:0:0:0:
104,168,33035,2,0,L|90:259,1,80,2|0,0:0|0:0,0:0:0:0:
224,144,33368,1,2,0:0:0:0:
64,80,33535,1,4,0:1:0:0:
64,80,33618,1,0,0:0:0:0:
64,80,33701,6,0,L|6:151,1,80,6|0,0:0|0:0,0:0:0:0:
176,48,34035,1,0,0:0:0:0:
32,224,34201,2,0,P|66:233|118:214,1,80,4|2,0:1|0:0,0:0:0:0:
224,144,34535,1,0,0:0:0:0:
184,288,34701,1,2,0:0:0:0:
136,128,34868,1,0,0:0:0:0:
296,208,35035,6,0,P|320:156|315:113,1,80,6|0,0:1|0:0,0:0:0:0:
108,221,35368,2,0,P|141:267|180:284,1,80,6|0,0:1|0:0,0:0:0:0:
392,240,35701,1,6,0:1:0:0:
224,144,35868,1,8,0:0:0:0:
296,368,36035,1,8,0:0:0:0:
296,368,36368,6,0,B|301:320|301:320|291:258,1,95.9999970703126,4|0,0:0|0:0,0:0:0:0:
160,336,36868,2,0,L|228:330,1,47.9999985351563,2|0,0:0|0:0,0:0:0:0:
224,160,37201,2,0,P|208:203|214:256,1,95.9999970703126,2|0,0:0|0:3,0:0:0:0:
256,144,37701,6,0,L|148:127,1,95.9999970703126,4|0,0:0|0:0,0:0:0:0:
56,184,38201,1,0,0:0:0:0:
64,48,38368,2,0,L|80:113,1,47.9999985351563,2|0,0:0|0:0,0:0:0:0:
176,8,38701,2,0,L|160:73,1,47.9999985351563,2|0,0:0|0:0,0:0:0:0:
144,144,39035,6,0,L|249:135,1,95.9999970703126,4|0,0:0|0:0,0:0:0:0:
432,192,39535,2,0,P|411:223|340:234,1,95.9999970703126,4|0,0:3|0:0,0:0:0:0:
384,64,40035,2,0,P|417:70|435:85,1,47.9999985351563,4|0,0:3|0:3,0:3:0:0:
264,256,40368,6,0,L|251:152,1,95.9999970703126,4|0,0:0|0:0,0:0:0:0:
480,176,41035,2,0,L|493:280,1,95.9999970703126,4|0,0:0|0:0,0:0:0:0:
400,344,41535,1,0,0:3:0:0:
400,344,41618,1,0,0:3:0:0:
400,344,41701,6,0,P|359:321|309:340,1,95.9999970703126,4|0,0:0|0:0,0:0:0:0:
208,360,42201,2,0,P|180:355|154:338,1,47.9999985351563,2|0,0:0|0:0,0:0:0:0:
232,168,42535,2,0,L|248:270,1,95.9999970703126,2|0,0:0|0:0,0:0:0:0:
48,96,43035,6,0,B|120:80|104:128|208:88,1,143.999995605469,4|0,0:0|0:0,0:0:0:0:
280,40,43701,1,2,0:0:0:0:
208,176,43868,1,2,0:0:0:0:
208,176,43951,1,0,0:0:0:0:
208,176,44035,2,0,L|221:228,1,47.9999985351563,2|0,0:0|0:0,0:0:0:0:
456,104,44368,6,0,P|409:83|352:83,1,95.9999970703126,4|8,0:0|0:0,0:0:0:0:
346,96,44618,1,8,0:0:0:0:
329,113,44701,1,8,0:0:0:0:
440,272,44868,5,4,0:0:0:0:
320,208,45035,2,0,L|301:260,2,47.9999985351563,8|8|8,0:0|0:0|0:0,0:0:0:0:
360,360,45368,5,4,0:0:0:0:
208,248,45535,1,8,0:0:0:0:
216,272,45618,1,8,0:0:0:0:
224,296,45701,1,8,0:0:0:0:
96,184,45868,6,0,P|142:147|197:138,1,95.9999970703126,4|8,0:0|0:0,0:0:0:0:
200,144,46118,1,8,0:0:0:0:
224,152,46201,1,8,0:0:0:0:
120,336,46368,5,4,0:0:0:0:
304,216,46535,1,8,0:0:0:0:
312,192,46618,1,8,0:0:0:0:
320,165,46701,2,0,P|311:109|241:56,1,143.999995605469,8|0,0:0|2:0,0:0:0:0:
192,104,47035,6,0,P|147:110|88:98,1,95.9999970703126,4|8,0:0|0:0,0:0:0:0:
80,88,47285,1,8,0:0:0:0:
64,72,47368,1,8,0:0:0:0:
320,40,47535,5,4,0:0:0:0:
216,192,47701,2,0,L|229:241,2,47.9999985351563,8|8|8,0:0|0:0|0:0,0:0:0:0:
144,16,48035,5,4,0:0:0:0:
56,168,48201,1,8,0:0:0:0:
80,176,48285,1,8,0:0:0:0:
104,176,48368,1,8,0:0:0:0:
248,8,48535,6,0,P|225:56|226:115,1,95.9999970703126,4|8,0:0|0:0,0:0:0:0:
240,112,48785,1,8,0:0:0:0:
264,120,48868,1,8,0:0:0:0:
432,48,49035,5,0,0:0:0:0:
344,216,49201,1,8,0:0:0:0:
320,216,49284,1,8,0:0:0:0:
296,200,49368,1,8,0:0:0:0:
496,160,49535,1,4,0:3:0:0:
199,236,49701,6,0,P|208:170|268:118,1,143.999995605469,4|8,0:0|0:0,0:0:0:0:
336,104,50035,2,0,P|373:99|420:60,1,95.9999970703126,8|4,0:0|0:3,0:0:0:0:
152,24,50368,6,0,P|154:77|139:135,1,95.9999970703126,4|8,0:0|0:0,0:0:0:0:
136,144,50618,1,8,0:0:0:0:
120,160,50701,1,8,0:0:0:0:
56,80,50868,1,4,0:3:0:0:
208,328,51035,6,0,B|272:304|304:208|304:208|240:224|184:216|184:216|235:175|224:96,1,383.99998828125,6|0,0:0|0:0,0:0:0:0:
176,48,51868,1,2,0:0:0:0:
344,128,52035,2,0,P|384:172|397:217,1,95.9999970703126,8|0,0:0|0:0,0:0:0:0:
88,176,52368,6,0,P|147:177|188:206,1,100,4|0,0:0|0:0,0:0:0:0:
266,295,52701,1,8,0:0:0:0:
440,160,52868,2,0,P|387:143|260:198,1,200,6|2,0:1|0:0,0:0:0:0:
416,352,53368,1,8,0:0:0:0:
496,256,53535,1,0,0:0:0:0:
266,295,53701,6,0,B|319:338|319:338|336:256|431:251,1,200,4|8,0:0|0:0,0:0:0:0:
320,112,54201,1,0,0:0:0:0:
200,224,54368,2,0,P|144:240|88:228,1,100,2|2,0:0|0:0,0:0:0:0:
216,32,54701,2,0,L|212:134,1,100,8|0,0:0|0:0,0:0:0:0:
16,56,55035,6,0,P|75:54|123:83,1,100,4|0,0:0|0:0,0:0:0:0:
160,312,55368,2,0,P|101:283|97:229,1,100,8|0,0:0|0:0,0:0:0:0:
307,160,55701,2,0,L|209:131,1,100,2|2,0:0|0:0,0:0:0:0:
352,320,56035,2,0,P|411:291|415:237,1,100,8|0,0:0|0:0,0:0:0:0:
336,40,56368,6,0,L|343:147,1,100,4|0,0:0|0:0,0:0:0:0:
256,336,56701,2,0,L|263:229,1,100,8|0,0:0|0:0,0:0:0:0:
224,48,57035,1,2,0:0:0:0:
160,240,57201,1,2,0:0:0:0:
48,64,57368,2,0,P|101:70|151:113,1,100,8|0,0:0|0:0,0:0:0:0:
252,263,57701,6,0,P|291:280|363:237,1,100,4|0,0:0|0:0,0:0:0:0:
488,120,58035,2,0,L|388:109,1,100,8|0,0:0|0:0,0:0:0:0:
168,160,58368,2,0,L|268:149,1,100,2|2,0:0|0:0,0:0:0:0:
352,368,58701,2,0,P|371:310|370:242,1,100,8|0,0:0|0:0,0:0:0:0:
128,320,59035,6,0,B|160:336|160:336|256:336,1,100,4|0,0:0|0:0,0:0:0:0:
432,208,59368,2,0,B|400:192|400:192|304:192,1,100,8|0,0:0|0:0,0:0:0:0:
224,336,59701,1,2,0:0:0:0:
176,192,59868,1,2,0:0:0:0:
352,336,60035,2,0,L|455:326,1,100,8|0,0:0|0:0,0:0:0:0:
360,72,60368,6,0,P|332:125|328:174,1,100,4|0,0:0|0:0,0:0:0:0:
480,336,60701,2,0,L|475:223,1,100,8|0,0:0|0:0,0:0:0:0:
248,240,61035,2,0,P|301:268|350:272,1,100,2|2,0:0|0:0,0:0:0:0:
240,48,61368,2,0,L|235:161,1,100,8|0,0:0|0:0,0:0:0:0:
472,40,61701,6,0,P|412:36|359:69,1,100,4|0,0:0|0:0,0:0:0:0:
224,256,62035,2,0,P|164:260|111:227,1,100,8|0,0:0|0:0,0:0:0:0:
320,120,62368,2,0,L|353:230,1,100,4|2,0:0|0:0,0:0:0:0:
152,80,62701,1,10,0:0:0:0:
307,24,62868,1,2,0:0:0:0:
184,316,63035,6,0,P|139:285|128:240,1,100,4|0,0:0|0:0,0:0:0:0:
248,144,63368,1,8,0:0:0:0:
424,248,63535,2,0,P|376:320|256:336,1,200,6|2,0:1|0:0,0:0:0:0:
336,64,64035,1,8,0:0:0:0:
488,160,64201,1,2,0:0:0:0:
240,224,64368,6,0,B|240:182|292:151|292:151|228:116|242:43,1,200,4|8,0:0|0:0,0:0:0:0:
112,144,64868,1,0,0:0:0:0:
336,240,65035,2,0,P|393:236|446:219,1,100,2|2,0:0|0:0,0:0:0:0:
320,32,65368,2,0,L|331:141,1,100,8|0,0:0|0:0,0:0:0:0:
208,320,65701,6,0,P|145:288|129:260,1,100,4|0,0:0|0:0,0:0:0:0:
216,40,66035,2,0,P|228:88|234:151,1,100,8|0,0:0|0:0,0:0:0:0:
24,56,66368,2,0,P|63:34|143:36,1,100,2|2,0:0|0:0,0:0:0:0:
344,128,66701,2,0,P|305:150|225:148,1,100,8|0,0:0|0:0,0:0:0:0:
16,144,67035,6,0,L|149:167,1,100,4|0,0:0|0:0,0:0:0:0:
336,240,67368,2,0,L|203:263,1,100,8|0,0:0|0:0,0:0:0:0:
112,304,67701,1,2,0:0:0:0:
288,352,67868,1,2,0:0:0:0:
240,128,68035,2,0,P|223:185|221:233,1,100,8|0,0:0|0:0,0:0:0:0:
472,112,68368,6,0,P|417:95|362:109,1,100,4|0,0:0|0:0,0:0:0:0:
442,347,68701,2,0,P|464:301|482:223,1,100,8|0,0:0|0:0,0:0:0:0:
272,224,69035,2,0,P|327:241|382:227,1,100,2|2,0:0|0:0,0:0:0:0:
256,48,69368,2,0,P|214:76|159:135,1,100,8|0,0:0|0:0,0:0:0:0:
332,303,69701,6,0,L|253:199,1,100,4|0,0:0|0:0,0:0:0:0:
72,176,70035,2,0,L|151:280,1,100,8|0,0:0|0:0,0:0:0:0:
360,136,70368,1,2,0:0:0:0:
224,288,70535,1,2,0:0:0:0:
272,48,70701,2,0,P|272:104|270:159,1,100,8|0,0:0|0:0,0:0:0:0:
96,344,71035,6,0,P|150:320|287:359,1,200,4|8,0:0|0:0,0:0:0:0:
392,232,71535,1,0,0:0:0:0:
224,288,71701,1,2,0:0:0:0:
392,352,71868,1,2,0:0:0:0:
463,166,72035,2,0,P|417:137|355:142,1,100,8|0,0:0|0:0,0:0:0:0:
112,184,72368,6,0,L|222:191,1,100,4|0,0:0|0:0,0:0:0:0:
416,256,72701,2,0,L|306:263,1,100,8|0,0:0|0:0,0:0:0:0:
144,272,73035,1,2,0:0:0:0:
240,96,73201,1,8,0:0:0:0:
232,360,73368,1,8,0:0:0:0:
232,360,73701,6,0,B|184:344|184:344|136:360|136:360|72:336,1,160,4|0,0:0|0:0,0:0:0:0:
56,248,74201,1,8,0:0:0:0:
144,272,74368,2,0,P|197:252|319:269,1,160
432,288,74868,1,2,0:0:0:0:
344,344,75035,6,0,L|347:176,1,160,8|0,0:0|0:0,0:0:0:0:
416,104,75535,2,0,P|383:139|271:137,1,160,8|0,0:3|0:0,0:0:0:0:
200,16,76035,2,0,L|190:106,1,80,8|0,0:0|0:0,0:0:0:0:
32,248,76368,6,0,B|128:224|96:280|203:237,1,160,4|0,0:0|0:0,0:0:0:0:
277,140,76868,2,0,P|290:184|309:220,1,80,8|0,0:0|0:0,0:0:0:0:
296,56,77201,2,0,P|243:57|219:72,1,80,8|0,0:3|0:0,0:0:0:0:
200,168,77535,1,2,0:0:0:0:
356,149,77701,6,0,L|273:139,1,80,8|0,0:0|0:0,0:0:0:0:
376,272,78035,1,2,0:0:0:0:
447,203,78201,1,8,0:3:0:0:
376,56,78368,2,0,P|371:106|374:148,1,80,0|2,0:0|0:0,0:0:0:0:
488,40,78701,1,4,0:3:0:0:
376,56,78868,1,2,0:0:0:0:
305,212,79035,6,0,P|384:238|456:193,1,160,4|0,0:0|0:0,0:0:0:0:
280,112,79535,2,0,P|233:104|186:122,1,80,8|0,0:0|0:0,0:0:0:0:
264,320,79868,1,2,0:0:0:0:
305,212,80035,1,0,0:0:0:0:
184,232,80201,1,2,0:0:0:0:
378,297,80368,6,0,P|408:256|398:152,1,160,8|0,0:0|0:0,0:0:0:0:
264,320,80868,2,0,P|251:363|253:387,2,40,2|2|8,0:0|0:0|0:3,0:0:0:0:
349,378,81201,1,8,0:3:0:0:
240,180,81368,2,0,P|289:189|307:231,1,80,4|0,0:3|0:0,0:0:0:0:
136,304,81701,6,0,L|149:112,1,160,4|4,0:0|0:1,0:0:0:0:
24,216,82201,2,0,P|66:235|116:229,1,80,4|0,0:1|0:0,0:0:0:0:
296,120,82535,2,0,P|254:101|204:107,1,80,4|0,0:1|0:0,0:0:0:0:
304,280,82868,1,0,0:0:0:0:
320,288,82951,1,0,0:0:0:0:
336,288,83035,6,0,P|386:288|461:273,1,120.000004577637,4|0,0:0|0:0,0:0:0:0:
120,336,83701,6,0,P|70:336|-5:321,1,120.000004577637,4|0,0:0|0:0,0:0:0:0:
168,116,84368,5,2,0:0:0:0:
190,42,84535,1,2,0:0:0:0:
239,166,84701,5,2,0:0:0:0:
261,92,84868,1,2,0:0:0:0:
146,190,85201,1,2,0:0:0:0:
314,274,85535,5,2,0:0:0:0:
394,274,85702,1,0,0:0:0:0:
245,240,85868,5,2,0:0:0:0:
314,200,86035,1,0,0:0:0:0:
175,278,86201,5,2,0:0:0:0:
244,318,86368,1,2,0:0:0:0:
313,358,86535,1,2,0:0:0:0:
218,75,86868,5,2,0:0:0:0:
285,105,87035,2,0,B|255:157|203:146,1,95.9999970703126,2|0,0:0|0:0,0:0:0:0:
207,147,87701,6,0,B|259:175|251:219,1,71.9999978027344,0|0,0:0|0:0,0:0:0:0:
251,200,88035,2,0,P|219:228|195:232,1,47.9999985351563,2|0,0:0|0:0,0:0:0:0:
214,229,88285,1,2,0:0:0:0:
214,229,88368,6,0,B|235:189|248:170|268:150|295:161|344:78|247:-1|183:85|183:85|90:29|33:147|107:197|127:177|154:188|172:201|194:229|167:300,1,607.999983764649,2|0,0:0|0:0,0:0:0:0:
