osu file format v14

[General]
AudioFilename: audio.mp3
AudioLeadIn: 0
PreviewTime: 51024
Countdown: 0
SampleSet: Soft
StackLeniency: 0.3
Mode: 0
LetterboxInBreaks: 0
WidescreenStoryboard: 0

[Editor]
DistanceSpacing: 1
BeatDivisor: 4
GridSize: 4
TimelineZoom: 2.9

[Metadata]
Title:End of the World
TitleUnicode:End of the World
Artist:Kumaki Anri
ArtistUnicode:熊木杏里
Creator:miradzin
Version:Easy
Source:Rewrite
Tags:thzz opening 2 second op TV アニメ size リライト
BeatmapID:1064826
BeatmapSetID:498492

[Difficulty]
HPDrainRate:2
CircleSize:2.8
OverallDifficulty:2
ApproachRate:3
SliderMultiplier:0.85
SliderTickRate:1

[Events]
//Background and Video events
Video,0,"End of the world.avi"
0,0,"712758.jpg",0,0
//Break Periods
//Storyboard Layer 0 (Background)
//Storyboard Layer 1 (Fail)
//Storyboard Layer 2 (Pass)
//Storyboard Layer 3 (Foreground)
//Storyboard Sound Samples

[TimingPoints]
1702,333.333333333333,4,2,1,70,1,0
15035,-100,4,2,1,70,0,0
44368,-100,4,1,1,60,0,0
52368,-100,4,2,1,75,0,1
73701,-100,4,2,1,60,0,0
79035,-100,4,2,1,50,0,0
87035,-100,4,2,1,40,0,0
88368,-100,4,2,1,20,0,0

[Colours]
Combo1 : 97,148,233
Combo2 : 128,128,192
Combo3 : 202,97,237

[HitObjects]
304,64,1701,6,0,P|392:80|460:144,1,170,4|0,0:0|0:0,0:0:0:0:
452,216,2701,1,8,0:0:0:0:
380,260,3035,2,0,L|388:360,2,85,8|0|0,0:3|0:0|0:0,0:0:0:0:
344,184,4035,1,4,0:3:0:0:
272,232,4368,6,0,L|90:206,1,170,8|2,0:0|0:0,0:0:0:0:
52,140,5368,1,8,0:0:0:0:
108,76,5701,2,0,B|211:48|211:48|286:76,1,170,4|8,0:0|0:3,0:0:0:0:
336,124,6701,1,8,0:0:0:0:
324,208,7035,6,0,P|276:248|156:244,1,170,4|0,0:0|0:0,0:0:0:0:
108,196,8035,1,8,0:0:0:0:
32,232,8368,2,0,L|24:328,2,85,4|8|0,0:0|0:0|0:0,0:0:0:0:
36,148,9368,1,8,0:0:0:0:
96,88,9701,6,0,P|144:48|264:52,1,170,4|0,0:0|0:0,0:0:0:0:
304,108,10701,1,8,0:0:0:0:
388,96,11035,2,0,L|400:0,2,85,4|8|0,0:0|0:0|0:0,0:0:0:0:
376,180,12035,1,8,0:0:0:0:
308,228,12368,6,0,P|241:191|181:209,2,127.5,4|2|8,0:0|0:0|0:0,0:0:0:0:
348,304,13701,1,4,0:0:0:0:
184,352,14368,1,2,0:0:0:0:
48,248,15035,6,0,P|100:264|148:256,1,85,4|0,0:0|0:0,0:0:0:0:
180,196,15701,2,0,P|188:140|216:104,1,85,0|0,0:3|0:3,0:0:0:0:
284,92,16368,2,0,P|328:92|384:100,2,85,2|2|0,0:0|0:0|0:0,0:0:0:0:
272,176,17368,1,0,0:0:0:0:
320,248,17701,6,0,P|368:265|412:260,1,85,4|0,0:3|0:0,0:0:0:0:
468,212,18368,2,0,P|460:168|424:132,1,85,2|2,0:0|0:0,0:0:0:0:
352,116,19035,2,0,L|380:24,2,85,2|2|0,0:0|0:0|0:0,0:0:0:0:
324,196,20035,1,2,0:0:0:0:
260,140,20368,6,0,P|157:108|102:155,1,170,8|2,0:0|0:0,0:0:0:0:
92,224,21368,1,2,0:0:0:0:
144,288,21701,2,0,L|322:269,1,170,8|2,0:0|0:0,0:0:0:0:
436,152,23035,6,0,P|464:116|484:76,2,85,2|0|2,0:0|0:0|0:0,0:0:0:0:
360,112,24035,1,4,0:3:0:0:
280,144,24368,2,0,B|172:104|172:104|104:120,1,170,8|2,0:0|0:0,0:0:0:0:
52,172,25368,1,8,2:0:0:0:
68,256,25701,6,0,P|136:312|224:304,1,170,2|2,0:0|0:0,0:0:0:0:
356,216,27035,2,0,P|372:158|357:118,2,85,2|2|2,0:0|0:0|0:0,0:0:0:0:
284,168,28035,1,8,0:0:0:0:
208,204,28368,6,0,B|96:168|96:168|64:104,1,170,6|2,0:0|0:0,0:0:0:0:
228,56,29701,2,0,P|272:62|317:59,1,85,8|2,0:0|0:0,0:0:0:0:
396,48,30368,2,0,P|393:92|378:134,1,85,8|8,0:0|0:0,0:0:0:0:
324,192,31035,6,0,P|246:228|165:186,1,170,4|2,0:0|0:0,0:0:0:0:
152,112,32035,1,0,0:0:0:0:
68,124,32368,2,0,B|60:24,2,85,2|2|0,0:0|0:0|0:0,0:0:0:0:
80,208,33368,1,0,0:0:0:0:
148,260,33701,6,0,B|240:228|236:284|328:240,1,170,2|2,0:0|0:0,0:0:0:0:
388,200,34701,1,0,0:0:0:0:
368,116,35035,2,0,B|224:104|224:104|188:120,1,170,2|2,0:0|0:0,0:0:0:0:
144,180,36035,1,0,0:0:0:0:
64,156,36368,6,0,B|28:100|56:36|56:36|104:76,1,170,4|0,0:0|0:0,0:0:0:0:
236,156,37701,2,0,B|320:124|320:176|420:152,1,170,4|0,0:0|0:0,0:0:0:0:
296,288,39035,2,0,P|241:303|125:260,1,170,4|8,0:0|0:3,0:0:0:0:
76,212,40035,1,4,0:3:0:0:
120,140,40368,6,0,L|300:117,1,170,4|4,0:0|0:0,0:0:0:0:
432,212,41701,2,0,P|376:292|300:312,1,170,4|0,0:0|0:0,0:0:0:0:
168,220,43035,2,0,P|224:140|300:120,1,170,4|0,0:0|0:0,0:0:0:0:
120,96,44368,6,0,P|76:108|28:88,2,85,8|0|0,0:0|0:0|0:0,0:0:0:0:
180,36,45368,2,0,P|226:24|272:47,2,85,8|0|0,0:0|0:0|0:0,0:0:0:0:
216,112,46368,2,0,L|212:204,1,85,8|8,0:0|0:0,0:0:0:0:
272,256,47035,6,0,P|381:240|433:192,1,170,8|0,0:0|0:0,0:0:0:0:
496,160,48035,2,0,L|308:156,1,170,8|0,0:0|0:0,0:0:0:0:
244,172,49035,2,0,P|280:100|248:8,1,170,8|0,0:0|0:0,0:0:0:0:
172,24,50035,6,0,P|120:44|92:80,2,85,0|0|8,0:0|0:0|0:0,0:0:0:0:
172,108,51035,1,0,0:0:0:0:
336,304,52368,6,0,L|432:308,2,85,4|8|0,0:0|0:0|0:0,0:0:0:0:
264,260,53368,1,8,0:0:0:0:
220,188,53701,2,0,P|229:139|256:104,1,85,0|8,0:0|0:0,0:0:0:0:
328,84,54368,6,0,P|401:86|456:124,2,127.5,8|8|8,0:0|0:0|0:0,0:0:0:0:
312,168,55701,2,0,P|328:216|356:260,1,85,0|8,0:0|0:0,0:0:0:0:
424,280,56368,2,0,L|496:208,2,85,0|8|0,0:0|0:0|0:0,0:0:0:0:
360,336,57368,1,8,0:0:0:0:
276,328,57701,6,0,P|236:312|192:276,1,85,4|8,0:0|0:0,0:0:0:0:
204,200,58368,2,0,P|152:192|104:204,1,85,0|8,0:0|0:0,0:0:0:0:
40,172,59035,2,0,L|56:80,2,85,0|8|0,0:0|0:0|0:0,0:0:0:0:
28,256,60035,1,8,0:0:0:0:
48,340,60368,6,0,P|131:350|187:284,1,170,4|0,0:0|0:0,0:0:0:0:
196,208,61368,1,8,0:0:0:0:
128,156,61701,2,0,L|144:56,2,85,0|8|0,0:0|0:0|0:0,0:0:0:0:
120,240,62701,1,8,0:0:0:0:
185,292,63035,6,0,L|285:272,1,85,4|8,0:0|0:0,0:0:0:0:
344,240,63701,2,0,P|320:184|288:164,1,85,0|8,0:0|0:0,0:0:0:0:
228,124,64368,2,0,P|280:84|352:96,2,127.5,4|8|8,0:0|0:0|0:0,0:0:0:0:
148,152,65701,6,0,L|48:148,1,85,4|8,0:0|0:0,0:0:0:0:
28,224,66368,2,0,P|24:273|35:323,1,85,0|8,0:0|0:0,0:0:0:0:
116,300,67035,2,0,L|132:392,2,85,8|8|8,0:0|0:0|0:0,0:0:0:0:
108,216,68035,1,8,0:0:0:0:
164,152,68368,6,0,P|210:132|260:144,1,85,4|8,0:0|0:0,0:0:0:0:
296,204,69035,2,0,P|340:222|389:211,1,85,0|8,0:0|0:0,0:0:0:0:
440,164,69701,2,0,L|428:72,2,85,0|8|0,0:0|0:0|0:0,0:0:0:0:
456,248,70701,1,8,0:0:0:0:
396,308,71035,6,0,P|316:336|244:280,1,170,0|8,0:0|0:0,0:0:0:0:
232,208,72035,1,8,0:0:0:0:
164,160,72368,2,0,P|100:156|64:140,2,85,0|8|0,0:0|0:0|0:0,0:0:0:0:
224,100,73368,1,8,0:0:0:0:
300,136,73701,6,0,P|366:155|453:86,1,170,4|2,0:0|0:0,0:0:0:0:
432,20,74701,1,8,0:0:0:0:
356,60,75035,2,0,L|260:40,2,85,2|2|0,0:0|0:0|0:0,0:0:0:0:
432,20,76035,1,8,0:0:0:0:
446,103,76368,6,0,B|402:222|402:222|358:254,1,170,4|0,0:0|0:0,0:0:0:0:
302,191,77368,1,8,0:0:0:0:
231,238,77701,2,0,P|135:238|147:178,2,170,10|10|4,0:0|0:0|0:0,0:0:0:0:
256,192,79201,12,4,81701,0:0:0:0:
364,270,83035,6,0,B|385:95,1,170,4|4,0:0|0:0,0:0:0:0:
256,192,84368,12,0,88368,0:0:0:0:
