osu file format v14

[General]
AudioFilename: audio.mp3
AudioLeadIn: 0
PreviewTime: 52391
Countdown: 0
SampleSet: None
StackLeniency: 0.5
Mode: 0
LetterboxInBreaks: 0
WidescreenStoryboard: 0

[Editor]
Bookmarks: 89725
DistanceSpacing: 1.5
BeatDivisor: 4
GridSize: 32
TimelineZoom: 1.3

[Metadata]
Title:End of the World (TV Size)
TitleUnicode:End of the World (TV Size)
Artist:Kumaki Anri
ArtistUnicode:Kumaki Anri
Creator:Cami
Version:
Source:Rewrite
Tags:anime key opening short version visual novel リライト
BeatmapID:1769884
BeatmapSetID:846234

[Difficulty]
HPDrainRate:5.4
CircleSize:4.2
OverallDifficulty:7
ApproachRate:9
SliderMultiplier:1.55
SliderTickRate:1

[Events]
//Background and Video events
0,0,"1081-lmao-xDDDD-lol-such-a-good-jk-not-fixing-though-____.jpg",0,0
//Break Periods
//Storyboard Layer 0 (Background)
//Storyboard Layer 1 (Fail)
//Storyboard Layer 2 (Pass)
//Storyboard Layer 3 (Foreground)
//Storyboard Sound Samples

[TimingPoints]
1725,333.333333333333,4,2,1,58,1,0
15058,-142.857142857143,4,2,1,58,0,0
16641,-142.857142857143,4,2,1,5,0,0
16724,-142.857142857143,4,2,1,58,0,0
19308,-142.857142857143,4,2,1,5,0,0
19391,-142.857142857143,4,2,1,58,0,0
21974,-142.857142857143,4,2,1,5,0,0
22058,-142.857142857143,4,2,1,58,0,0
24641,-142.857142857143,4,2,1,5,0,0
24724,-142.857142857143,4,2,1,58,0,0
25724,-121.212121212121,4,2,1,58,0,0
36391,-150.00000015,4,2,1,58,0,0
51891,-100,4,2,1,58,0,0

[Colours]
Combo1 : 255,45,45
Combo2 : 159,159,159
Combo3 : 0,227,227

[HitObjects]
34,318,1724,6,0,B|86:317|121:275|121:275|196:264|250:313|250:313|318:375|414:328,1,387.5,4|0,1:2|1:0,0:0:0:0:
501,236,2724,1,8,0:0:0:0:
501,236,3058,6,0,B|511:150|511:150|503:79|423:13,1,232.5,8|4,1:3|0:3,0:0:0:0:
443,31,4058,1,8,0:3:0:0:
443,31,4224,1,4,0:3:0:0:
313,155,4391,6,0,B|235:202|173:135|173:135|198:92|256:87,1,232.5,4|8,1:2|0:3,0:0:0:0:
233,90,5224,1,0,1:0:0:0:
260,266,5391,1,8,0:0:0:0:
260,266,5724,6,0,B|257:306|220:353|220:353|191:322|149:325|149:325|113:329|70:306,1,232.5,4|8,0:0|1:3,0:0:0:0:
93,316,6391,1,4,0:3:0:0:
170,194,6558,1,8,0:3:0:0:
25,194,6724,1,8,0:3:0:0:
98,238,6891,1,4,0:1:0:0:
276,147,7058,6,0,P|317:146|368:161,1,77.5,4|0,1:2|0:0,0:0:0:0:
390,239,7391,2,0,P|349:240|298:225,1,77.5,0|0,1:2|0:0,0:0:0:0:
276,147,7724,2,0,P|275:106|290:55,1,77.5,2|0,1:2|0:0,0:0:0:0:
371,37,8058,1,2,1:2:0:0:
371,37,8224,1,2,0:0:0:0:
219,2,8391,6,0,P|178:1|127:16,1,77.5,2|0,1:2|0:0,0:0:0:0:
116,98,8724,1,0,1:2:0:0:
223,227,8891,2,0,P|252:203|272:165,2,77.5,10|0|0,0:0|1:0|0:0,0:0:0:0:
62,260,9391,1,8,1:2:0:0:
61,260,9724,6,0,P|81:226|112:204,1,77.5,4|0,1:2|0:0,0:0:0:0:
80,351,10058,2,0,P|41:351|6:334,1,77.5,0|0,1:0|0:0,0:0:0:0:
149,289,10391,2,0,P|168:322|171:360,1,77.5,0|0,1:0|0:0,0:0:0:0:
84,355,10724,1,2,1:2:0:0:
84,355,10891,1,2,0:0:0:0:
214,223,11058,6,0,P|222:178|215:135,1,77.5,2|0,1:2|0:0,0:0:0:0:
141,94,11391,1,0,1:0:0:0:
319,177,11558,2,0,P|358:170|396:144,1,77.5,10|0,0:0|1:0,0:0:0:0:
512,0,11891,1,8,0:0:0:0:
499,203,12058,1,8,0:0:0:0:
477,120,12224,1,0,1:0:0:0:
300,56,12391,5,4,1:2:0:0:
300,56,13224,1,0,1:0:0:0:
272,278,13391,1,8,0:0:0:0:
272,278,13724,6,0,P|254:229|194:330,1,271.25,4|8,1:2|0:3,0:0:0:0:
204,331,14391,1,2,0:1:0:0:
295,348,14558,1,4,0:3:0:0:
329,165,14724,1,8,0:0:0:0:
329,165,15058,5,6,1:2:0:0:
329,165,16224,1,2,1:2:0:0:
440,229,16391,2,2,L|430:315,1,81.3749975166321,2|0,1:2|0:0,0:1:0:0:
416,329,16724,1,0,1:0:0:0:
416,329,17724,5,2,1:2:0:0:
416,329,18891,1,2,1:2:0:0:
315,313,19058,2,2,P|273:323|231:324,1,81.3749975166321,2|0,1:2|0:0,0:1:0:0:
198,309,19391,2,2,B|177:307|155:312|155:312|136:329|136:329|114:336|86:332,1,108.499996688843,2|0,1:2|0:0,0:1:0:0:
6,232,19891,1,2,1:2:0:0:
29,213,20058,2,0,L|21:141,1,54.2499983444214,2|0,0:3|0:0,0:0:0:0:
15,312,20391,5,6,1:2:0:0:
15,312,21558,1,2,1:2:0:0:
103,355,21724,2,2,L|186:351,1,81.3749975166321,2|0,1:2|0:0,0:1:0:0:
202,363,22058,1,2,1:2:0:0:
202,363,23058,5,2,1:2:0:0:
202,363,24224,1,2,1:2:0:0:
269,291,24391,2,2,P|305:283|352:289,1,81.3749975166321,2|0,1:2|0:0,0:1:0:0:
374,302,24724,2,0,B|406:315|428:303|428:303|452:291|486:304,1,108.499996688843,2|2,0:3|0:0,0:0:0:0:
455,377,25224,1,0,1:0:0:0:
382,223,25391,1,8,0:0:0:0:
382,223,25724,6,0,P|350:192|311:182,1,63.9375006097555,6|0,1:2|0:0,0:0:0:0:
253,282,26058,2,0,P|284:275|310:258,1,63.9375006097555,2|0,1:2|0:0,0:0:0:0:
265,140,26391,2,0,P|254:170|256:201,1,63.9375006097555,2|0,1:2|0:0,0:0:0:0:
378,306,26724,1,2,1:0:0:0:
377,305,27058,6,0,P|385:335|386:367,1,63.9375006097555,2|0,1:2|0:0,0:0:0:0:
382,223,27391,2,0,P|412:233|438:250,1,63.9375006097555,2|0,1:2|0:0,0:0:0:0:
316,172,27724,2,0,P|341:153|371:141,1,63.9375006097555,2|0,1:2|0:0,0:0:0:0:
506,197,28058,1,10,1:2:0:0:
506,197,28391,6,0,P|503:162|488:126,1,63.9375006097555,2|0,1:1|0:0,0:0:0:0:
368,157,28724,2,0,P|397:171|429:177,1,63.9375006097555,2|0,1:2|0:0,0:0:0:0:
472,59,29058,2,0,P|443:79|419:110,1,63.9375006097555,2|0,1:2|0:0,0:0:0:0:
452,255,29391,1,2,1:1:0:0:
452,255,29724,5,2,1:2:0:0:
314,342,29891,1,8,0:0:0:0:
351,274,30058,2,0,P|337:232|315:209,1,63.9375006097555,2|0,1:2|0:0,0:0:0:0:
212,270,30391,2,0,P|243:278|275:276,1,63.9375006097555,2|0,1:2|0:0,0:0:0:0:
403,189,30724,1,10,0:0:0:0:
243,196,30891,1,10,0:0:0:0:
177,24,31058,6,0,P|140:18|94:29,1,63.9375006097555,6|0,1:2|0:0,0:0:0:0:
111,147,31391,2,0,P|134:117|148:72,1,63.9375006097555,2|0,1:2|0:0,0:0:0:0:
37,29,31725,2,0,P|50:64|82:98,1,63.9375006097555,2|0,1:2|0:0,0:0:0:0:
228,89,32058,1,2,1:2:0:0:
227,88,32391,6,0,P|255:103|275:129,1,63.9375006097555,2|0,1:2|0:0,0:0:0:0:
349,108,32724,2,0,P|352:139|343:169,1,63.9375006097555,2|0,1:2|0:0,0:0:0:0:
402,218,33058,2,0,P|378:239|348:248,1,63.9375006097555,2|0,1:2|0:0,0:0:0:0:
277,218,33391,1,2,1:2:0:0:
277,218,33724,6,0,P|272:253|281:290,1,63.9375006097555,2|0,1:2|0:0,0:0:0:0:
402,279,34058,2,0,P|377:259|348:248,1,63.9375006097555,2|2,1:2|0:3,0:0:0:0:
286,357,34391,2,0,P|315:345|340:325,1,63.9375006097555,2|0,1:2|0:0,0:0:0:0:
352,252,34724,1,2,1:2:0:0:
352,252,35058,6,0,P|340:219|341:186,1,63.9375006097555,2|0,1:2|0:0,0:0:0:0:
269,161,35391,2,0,P|286:134|312:116,1,63.9375006097555,2|0,1:2|0:0,0:0:0:0:
295,40,35724,1,2,1:2:0:0:
450,117,35891,1,8,0:0:0:0:
219,64,36058,1,8,0:0:0:0:
219,64,36391,5,6,1:2:0:0:
128,229,37724,1,6,1:2:0:0:
293,320,39058,1,6,1:2:0:0:
293,320,39558,1,8,0:3:0:0:
293,320,40058,1,4,0:3:0:0:
297,242,40224,1,4,0:3:0:0:
384,155,40391,1,6,1:2:0:0:
384,155,41058,1,6,1:2:0:0:
262,141,41391,1,4,0:3:0:0:
240,66,41558,1,8,0:3:0:0:
139,127,41724,5,6,1:2:0:0:
191,308,43057,1,6,1:2:0:0:
372,256,44391,5,6,1:2:0:0:
268,233,44558,1,10,0:0:0:0:
268,220,44641,1,10,0:0:0:0:
269,207,44724,1,10,0:0:0:0:
372,256,44891,5,6,1:2:0:0:
455,158,45058,1,10,0:0:0:0:
453,138,45141,1,10,0:0:0:0:
452,119,45224,1,10,0:0:0:0:
372,256,45391,5,6,1:2:0:0:
316,134,45558,1,10,0:0:0:0:
319,104,45641,1,10,0:0:0:0:
320,75,45724,1,10,0:0:0:0:
269,207,45891,5,14,1:2:0:0:
145,106,46058,1,10,0:0:0:0:
140,60,46141,1,10,0:0:0:0:
139,17,46224,1,10,0:0:0:0:
320,75,46391,5,6,1:2:0:0:
276,276,46558,1,10,0:0:0:0:
269,207,46641,1,10,0:0:0:0:
267,142,46724,1,10,0:0:0:0:
128,229,46891,1,4,0:3:0:0:
128,229,47058,5,6,1:2:0:0:
276,276,47224,1,10,0:0:0:0:
263,276,47307,1,10,0:0:0:0:
250,275,47390,1,10,0:0:0:0:
128,229,47558,5,6,1:2:0:0:
267,142,47724,1,10,0:0:0:0:
247,142,47807,1,10,0:0:0:0:
228,143,47890,1,10,0:0:0:0:
128,229,48058,5,6,1:2:0:0:
293,320,48224,1,2,0:0:0:0:
293,320,48391,1,2,0:2:0:0:
228,143,48558,5,6,1:2:0:0:
128,229,48725,1,10,0:0:0:0:
158,229,48808,1,10,0:0:0:0:
187,230,48891,1,10,0:0:0:0:
228,143,49058,5,6,1:2:0:0:
24,54,49224,1,10,0:0:0:0:
69,54,49307,1,10,0:0:0:0:
112,52,49390,1,10,0:0:0:0:
228,143,49558,1,0,1:0:0:0:
384,155,49725,5,6,1:2:0:0:
299,69,49891,1,10,0:0:0:0:
299,82,49974,1,10,0:0:0:0:
300,95,50057,1,10,0:0:0:0:
384,155,50224,1,0,1:0:0:0:
384,155,50391,5,6,1:2:0:0:
485,57,50558,1,10,0:0:0:0:
485,76,50641,1,10,0:0:0:0:
483,96,50724,1,10,0:0:0:0:
384,155,50891,1,2,0:0:0:0:
408,73,51058,5,2,0:2:0:0:
408,73,51724,2,0,P|411:53|411:38,1,25.8333333333333
284,89,51891,2,0,P|285:121|293:152,1,38.75,0|0,1:0|0:0,0:0:0:0:
423,297,52058,1,8,0:0:0:0:
429,258,52141,1,0,0:0:0:0:
424,220,52224,1,0,0:0:0:0:
409,185,52308,1,0,0:0:0:0:
384,155,52391,5,6,1:2:0:0:
